  0
SECTION
  2
HEADER
  9
$ACADVER
  1
AC1018
  9
$ACADMAINTVER
 70
     0
  9
$DWGCODEPAGE
  3
ANSI_1252
  9
$INSBASE
 10
0.0
 20
0.0
 30
0.0
  9
$EXTMIN
 10
-73.50395936436576
 20
-90.88403746253897
 30
0.0
  9
$EXTMAX
 10
53.9924266734014
 20
94.89370014974793
 30
0.0
  9
$LIMMIN
 10
0.0
 20
0.0
  9
$LIMMAX
 10
12.0
 20
9.0
  9
$ORTHOMODE
 70
     0
  9
$REGENMODE
 70
     1
  9
$FILLMODE
 70
     1
  9
$QTEXTMODE
 70
     0
  9
$MIRRTEXT
 70
     1
  9
$LTSCALE
 40
1.0
  9
$ATTMODE
 70
     1
  9
$TEXTSIZE
 40
0.2
  9
$TRACEWID
 40
0.05
  9
$TEXTSTYLE
  7
Standard
  9
$CLAYER
  8
0
  9
$CELTYPE
  6
ByLayer
  9
$CECOLOR
 62
   256
  9
$CELTSCALE
 40
1.0
  9
$DISPSILH
 70
     0
  9
$DIMSCALE
 40
1.0
  9
$DIMASZ
 40
0.18
  9
$DIMEXO
 40
0.0625
  9
$DIMDLI
 40
0.38
  9
$DIMRND
 40
0.0
  9
$DIMDLE
 40
0.0
  9
$DIMEXE
 40
0.18
  9
$DIMTP
 40
0.0
  9
$DIMTM
 40
0.0
  9
$DIMTXT
 40
0.18
  9
$DIMCEN
 40
0.09
  9
$DIMTSZ
 40
0.0
  9
$DIMTOL
 70
     0
  9
$DIMLIM
 70
     0
  9
$DIMTIH
 70
     1
  9
$DIMTOH
 70
     1
  9
$DIMSE1
 70
     0
  9
$DIMSE2
 70
     0
  9
$DIMTAD
 70
     0
  9
$DIMZIN
 70
     0
  9
$DIMBLK
  1

  9
$DIMASO
 70
     1
  9
$DIMSHO
 70
     1
  9
$DIMPOST
  1

  9
$DIMAPOST
  1

  9
$DIMALT
 70
     0
  9
$DIMALTD
 70
     2
  9
$DIMALTF
 40
25.4
  9
$DIMLFAC
 40
1.0
  9
$DIMTOFL
 70
     0
  9
$DIMTVP
 40
0.0
  9
$DIMTIX
 70
     0
  9
$DIMSOXD
 70
     0
  9
$DIMSAH
 70
     0
  9
$DIMBLK1
  1

  9
$DIMBLK2
  1

  9
$DIMSTYLE
  2
Standard
  9
$DIMCLRD
 70
     0
  9
$DIMCLRE
 70
     0
  9
$DIMCLRT
 70
     0
  9
$DIMTFAC
 40
1.0
  9
$DIMGAP
 40
0.09
  9
$DIMJUST
 70
     0
  9
$DIMSD1
 70
     0
  9
$DIMSD2
 70
     0
  9
$DIMTOLJ
 70
     1
  9
$DIMTZIN
 70
     0
  9
$DIMALTZ
 70
     0
  9
$DIMALTTZ
 70
     0
  9
$DIMUPT
 70
     0
  9
$DIMDEC
 70
     4
  9
$DIMTDEC
 70
     4
  9
$DIMALTU
 70
     2
  9
$DIMALTTD
 70
     2
  9
$DIMTXSTY
  7
Standard
  9
$DIMAUNIT
 70
     0
  9
$DIMADEC
 70
     0
  9
$DIMALTRND
 40
0.0
  9
$DIMAZIN
 70
     0
  9
$DIMDSEP
 70
    46
  9
$DIMATFIT
 70
     3
  9
$DIMFRAC
 70
     0
  9
$DIMLDRBLK
  1

  9
$DIMLUNIT
 70
     2
  9
$DIMLWD
 70
    -2
  9
$DIMLWE
 70
    -2
  9
$DIMTMOVE
 70
     0
  9
$LUNITS
 70
     2
  9
$LUPREC
 70
     4
  9
$SKETCHINC
 40
0.1
  9
$FILLETRAD
 40
0.5
  9
$AUNITS
 70
     0
  9
$AUPREC
 70
     0
  9
$MENU
  1
.
  9
$ELEVATION
 40
0.0
  9
$PELEVATION
 40
0.0
  9
$THICKNESS
 40
0.0
  9
$LIMCHECK
 70
     0
  9
$CHAMFERA
 40
0.5
  9
$CHAMFERB
 40
0.5
  9
$CHAMFERC
 40
1.0
  9
$CHAMFERD
 40
0.0
  9
$SKPOLY
 70
     0
  9
$TDCREATE
 40
2454496.363918495
  9
$TDUCREATE
 40
2454496.322251829
  9
$TDUPDATE
 40
2454496.363918507
  9
$TDUUPDATE
 40
2454496.32225184
  9
$TDINDWG
 40
0.0000000116
  9
$TDUSRTIMER
 40
0.0000000116
  9
$USRTIMER
 70
     1
  9
$ANGBASE
 50
0.0
  9
$ANGDIR
 70
     0
  9
$PDMODE
 70
     0
  9
$PDSIZE
 40
0.0
  9
$PLINEWID
 40
0.0
  9
$SPLFRAME
 70
     0
  9
$SPLINETYPE
 70
     6
  9
$SPLINESEGS
 70
     8
  9
$HANDSEED
  5
C9
  9
$SURFTAB1
 70
     6
  9
$SURFTAB2
 70
     6
  9
$SURFTYPE
 70
     6
  9
$SURFU
 70
     6
  9
$SURFV
 70
     6
  9
$UCSBASE
  2

  9
$UCSNAME
  2

  9
$UCSORG
 10
0.0
 20
0.0
 30
0.0
  9
$UCSXDIR
 10
1.0
 20
0.0
 30
0.0
  9
$UCSYDIR
 10
0.0
 20
1.0
 30
0.0
  9
$UCSORTHOREF
  2

  9
$UCSORTHOVIEW
 70
     0
  9
$UCSORGTOP
 10
0.0
 20
0.0
 30
0.0
  9
$UCSORGBOTTOM
 10
0.0
 20
0.0
 30
0.0
  9
$UCSORGLEFT
 10
0.0
 20
0.0
 30
0.0
  9
$UCSORGRIGHT
 10
0.0
 20
0.0
 30
0.0
  9
$UCSORGFRONT
 10
0.0
 20
0.0
 30
0.0
  9
$UCSORGBACK
 10
0.0
 20
0.0
 30
0.0
  9
$PUCSBASE
  2

  9
$PUCSNAME
  2

  9
$PUCSORG
 10
0.0
 20
0.0
 30
0.0
  9
$PUCSXDIR
 10
1.0
 20
0.0
 30
0.0
  9
$PUCSYDIR
 10
0.0
 20
1.0
 30
0.0
  9
$PUCSORTHOREF
  2

  9
$PUCSORTHOVIEW
 70
     0
  9
$PUCSORGTOP
 10
0.0
 20
0.0
 30
0.0
  9
$PUCSORGBOTTOM
 10
0.0
 20
0.0
 30
0.0
  9
$PUCSORGLEFT
 10
0.0
 20
0.0
 30
0.0
  9
$PUCSORGRIGHT
 10
0.0
 20
0.0
 30
0.0
  9
$PUCSORGFRONT
 10
0.0
 20
0.0
 30
0.0
  9
$PUCSORGBACK
 10
0.0
 20
0.0
 30
0.0
  9
$USERI1
 70
     0
  9
$USERI2
 70
     0
  9
$USERI3
 70
     0
  9
$USERI4
 70
     0
  9
$USERI5
 70
     0
  9
$USERR1
 40
14.5
  9
$USERR2
 40
0.0
  9
$USERR3
 40
0.0
  9
$USERR4
 40
0.0
  9
$USERR5
 40
0.0
  9
$WORLDVIEW
 70
     1
  9
$SHADEDGE
 70
     3
  9
$SHADEDIF
 70
    70
  9
$TILEMODE
 70
     1
  9
$MAXACTVP
 70
    64
  9
$PINSBASE
 10
0.0
 20
0.0
 30
0.0
  9
$PLIMCHECK
 70
     0
  9
$PEXTMIN
 10
1.00000000000000E+20
 20
1.00000000000000E+20
 30
1.00000000000000E+20
  9
$PEXTMAX
 10
-1.00000000000000E+20
 20
-1.00000000000000E+20
 30
-1.00000000000000E+20
  9
$PLIMMIN
 10
0.0
 20
0.0
  9
$PLIMMAX
 10
12.0
 20
9.0
  9
$UNITMODE
 70
     0
  9
$VISRETAIN
 70
     1
  9
$PLINEGEN
 70
     0
  9
$PSLTSCALE
 70
     1
  9
$TREEDEPTH
 70
  3020
  9
$CMLSTYLE
  2
Standard
  9
$CMLJUST
 70
     0
  9
$CMLSCALE
 40
1.0
  9
$PROXYGRAPHICS
 70
     1
  9
$MEASUREMENT
 70
     1
  9
$CELWEIGHT
370
    -1
  9
$ENDCAPS
280
     0
  9
$JOINSTYLE
280
     0
  9
$LWDISPLAY
290
     0
  9
$INSUNITS
 70
     1
  9
$HYPERLINKBASE
  1

  9
$STYLESHEET
  1

  9
$XEDIT
290
     1
  9
$CEPSNTYPE
380
     0
  9
$PSTYLEMODE
290
     1
  9
$FINGERPRINTGUID
  2
{200353B2-81CD-47CC-9606-B4FE4BE10C80}
  9
$VERSIONGUID
  2
{FAEB1C32-E019-11D5-929B-00C0DF256EC4}
  9
$EXTNAMES
290
     1
  9
$PSVPSCALE
 40
0.0
  9
$OLESTARTUP
290
     0
  9
$SORTENTS
280
   127
  9
$INDEXCTL
280
     0
  9
$HIDETEXT
280
     1
  9
$XCLIPFRAME
290
     0
  9
$HALOGAP
280
     0
  9
$OBSCOLOR
 70
   257
  9
$OBSLTYPE
280
     0
  9
$INTERSECTIONDISPLAY
280
     0
  9
$INTERSECTIONCOLOR
 70
   257
  9
$DIMASSOC
280
     2
  9
$PROJECTNAME
  1

  0
ENDSEC
  0
SECTION
  2
CLASSES
  0
CLASS
  1
ACDBDICTIONARYWDFLT
  2
AcDbDictionaryWithDefault
  3
ObjectDBX Classes
 90
        0
 91
        3
280
     0
281
     0
  0
CLASS
  1

  2
exOdDbCircle
  3

 90
        0
 91
        3
280
     0
281
     1
  0
ENDSEC
  0
SECTION
  2
TABLES
  0
TABLE
  2
VPORT
  5
8
330
0
100
AcDbSymbolTable
 70
     1
  0
VPORT
  5
29
330
8
100
AcDbSymbolTableRecord
100
AcDbViewportTableRecord
  2
*Active
 70
     0
 10
0.0
 20
0.0
 11
1.0
 21
1.0
 12
-9.75576634548218
 22
2.00483134360448
 13
0.0
 23
0.0
 14
0.5
 24
0.5
 15
0.5
 25
0.5
 16
0.0
 26
0.0
 36
1.0
 17
0.0
 27
0.0
 37
0.0
 40
204.3555113735156
 41
1.60267857142857
 42
50.0
 43
0.0
 44
0.0
 50
0.0
 51
0.0
 71
     0
 72
   100
 73
     1
 74
     3
 75
     0
 76
     0
 77
     0
 78
     0
281
     0
 65
     1
110
0.0
120
0.0
130
0.0
111
1.0
121
0.0
131
0.0
112
0.0
122
1.0
132
0.0
 79
     0
146
0.0
  0
ENDTAB
  0
TABLE
  2
LTYPE
  5
5
330
0
100
AcDbSymbolTable
 70
     8
  0
LTYPE
  5
14
330
5
100
AcDbSymbolTableRecord
100
AcDbLinetypeTableRecord
  2
ByBlock
 70
     0
  3

 72
    65
 73
     0
 40
0.0
  0
LTYPE
  5
15
330
5
100
AcDbSymbolTableRecord
100
AcDbLinetypeTableRecord
  2
ByLayer
 70
     0
  3

 72
    65
 73
     0
 40
0.0
  0
LTYPE
  5
16
330
5
100
AcDbSymbolTableRecord
100
AcDbLinetypeTableRecord
  2
Continuous
 70
     0
  3
Solid line
 72
    65
 73
     0
 40
0.0
  0
LTYPE
  5
2A
330
5
100
AcDbSymbolTableRecord
100
AcDbLinetypeTableRecord
  2
DASHED
 70
     0
  3
Dashed
 72
    65
 73
     2
 40
15.0
 49
7.0
 74
     0
 49
-8.0
 74
     0
  0
LTYPE
  5
2B
330
5
100
AcDbSymbolTableRecord
100
AcDbLinetypeTableRecord
  2
DOTTED
 70
     0
  3
Dotted
 72
    65
 73
     2
 40
1.0
 49
0.0
 74
     0
 49
-1.0
 74
     0
  0
LTYPE
  5
2C
330
5
100
AcDbSymbolTableRecord
100
AcDbLinetypeTableRecord
  2
DOT_CENTER
 70
     0
  3
Dot_Center
 72
    65
 73
     4
 40
14.0
 49
12.0
 74
     0
 49
-1.0
 74
     0
 49
0.0
 74
     0
 49
-1.0
 74
     0
  0
LTYPE
  5
2D
330
5
100
AcDbSymbolTableRecord
100
AcDbLinetypeTableRecord
  2
LONG_DASHED
 70
     0
  3
Long_Dashed
 72
    65
 73
     2
 40
15.0
 49
10.0
 74
     0
 49
-5.0
 74
     0
  0
LTYPE
  5
2E
330
5
100
AcDbSymbolTableRecord
100
AcDbLinetypeTableRecord
  2
DASH_CENTER
 70
     0
  3
Dash_Center
 72
    65
 73
     4
 40
14.0
 49
11.0
 74
     0
 49
-1.0
 74
     0
 49
1.0
 74
     0
 49
-1.0
 74
     0
  0
LTYPE
  5
2F
330
5
100
AcDbSymbolTableRecord
100
AcDbLinetypeTableRecord
  2
PHANTOM
 70
     0
  3
Phantom
 72
    65
 73
     6
 40
13.0
 49
10.0
 74
     0
 49
-1.0
 74
     0
 49
0.0
 74
     0
 49
-1.0
 74
     0
 49
0.0
 74
     0
 49
-1.0
 74
     0
  0
LTYPE
  5
30
330
5
100
AcDbSymbolTableRecord
100
AcDbLinetypeTableRecord
  2
CENTER_DASH_DASH
 70
     0
  3
Center_Dash_Dash
 72
    65
 73
     6
 40
14.0
 49
9.0
 74
     0
 49
-1.0
 74
     0
 49
1.0
 74
     0
 49
-1.0
 74
     0
 49
1.0
 74
     0
 49
-1.0
 74
     0
  0
ENDTAB
  0
TABLE
  2
LAYER
  5
2
330
0
100
AcDbSymbolTable
 70
     2
  0
LAYER
  5
10
330
2
100
AcDbSymbolTableRecord
100
AcDbLayerTableRecord
  2
0
 70
     0
 62
     7
  6
Continuous
370
    -3
390
F
  0
LAYER
  5
31
330
2
100
AcDbSymbolTableRecord
100
AcDbLayerTableRecord
  2
1
 70
     0
 62
     7
  6
Continuous
370
    -3
390
F
  0
ENDTAB
  0
TABLE
  2
STYLE
  5
3
330
0
100
AcDbSymbolTable
 70
     2
  0
STYLE
  5
11
330
3
100
AcDbSymbolTableRecord
100
AcDbTextStyleTableRecord
  2
Standard
 70
     0
 40
0.0
 41
1.0
 50
0.0
 71
     0
 42
0.2
  3
txt
  4

  0
STYLE
  5
8E
330
3
100
AcDbSymbolTableRecord
100
AcDbTextStyleTableRecord
  2
CONVERTER_11
 70
     0
 40
0.0
 41
0.9
 50
0.0
 71
     0
 42
0.2
  3
txt.shx
  4

  0
ENDTAB
  0
TABLE
  2
VIEW
  5
6
330
0
100
AcDbSymbolTable
 70
     0
  0
ENDTAB
  0
TABLE
  2
UCS
  5
7
330
0
100
AcDbSymbolTable
 70
     0
  0
ENDTAB
  0
TABLE
  2
APPID
  5
9
330
0
100
AcDbSymbolTable
 70
     1
  0
APPID
  5
12
330
9
100
AcDbSymbolTableRecord
100
AcDbRegAppTableRecord
  2
ACAD
 70
     0
  0
ENDTAB
  0
TABLE
  2
DIMSTYLE
  5
A
330
0
100
AcDbSymbolTable
 70
     6
100
AcDbDimStyleTable
  0
DIMSTYLE
105
27
330
A
100
AcDbSymbolTableRecord
100
AcDbDimStyleTableRecord
  2
Standard
 70
     0
340
11
  0
DIMSTYLE
105
9B
102
{ACAD_REACTORS
330
9C
102
}
330
A
100
AcDbSymbolTableRecord
100
AcDbDimStyleTableRecord
  2
ME10_DIM_10
 70
     0
 41
3.5
 42
0.0
 44
2.0
 73
     0
 74
     0
 77
     1
 78
     8
140
3.5
147
2.0
172
     1
173
     1
176
     2
177
     2
178
     2
271
     2
340
8E
  0
DIMSTYLE
105
A6
102
{ACAD_REACTORS
330
A7
102
}
330
A
100
AcDbSymbolTableRecord
100
AcDbDimStyleTableRecord
  2
ME10_DIM_11
 70
     0
  3
ø<>
 41
3.5
 42
0.0
 44
2.0
 73
     0
 74
     0
 77
     1
 78
     8
140
3.5
147
2.0
172
     1
173
     1
176
     2
177
     2
178
     2
271
     2
340
8E
  0
DIMSTYLE
105
B1
102
{ACAD_REACTORS
330
B2
102
}
330
A
100
AcDbSymbolTableRecord
100
AcDbDimStyleTableRecord
  2
ME10_DIM_12
 70
     0
 41
3.5
 42
0.0
 44
2.0
 73
     0
 74
     0
 77
     1
 78
     8
140
3.5
147
2.0
172
     1
173
     1
176
     2
177
     2
178
     2
271
     2
340
8E
  0
DIMSTYLE
105
BC
102
{ACAD_REACTORS
330
BD
102
}
330
A
100
AcDbSymbolTableRecord
100
AcDbDimStyleTableRecord
  2
ME10_DIM_13
 70
     0
 41
3.5
 42
0.0
 44
2.0
 73
     0
 74
     0
 77
     1
 78
     8
140
3.5
147
2.0
172
     1
173
     1
176
     2
177
     2
178
     2
271
     2
340
8E
  0
DIMSTYLE
105
C7
102
{ACAD_REACTORS
330
C8
102
}
330
A
100
AcDbSymbolTableRecord
100
AcDbDimStyleTableRecord
  2
ME10_DIM_14
 70
     0
 41
3.5
 42
0.0
 44
2.0
 73
     0
 74
     0
 77
     1
 78
     8
140
3.5
147
2.0
172
     1
173
     1
176
     2
177
     2
178
     2
271
     2
340
8E
  0
ENDTAB
  0
TABLE
  2
BLOCK_RECORD
  5
1
330
0
100
AcDbSymbolTable
 70
     6
  0
BLOCK_RECORD
  5
1F
330
1
100
AcDbSymbolTableRecord
100
AcDbBlockTableRecord
  2
*Model_Space
340
22
  0
BLOCK_RECORD
  5
1B
330
1
100
AcDbSymbolTableRecord
100
AcDbBlockTableRecord
  2
*Paper_Space
340
1E
  0
BLOCK_RECORD
  5
23
330
1
100
AcDbSymbolTableRecord
100
AcDbBlockTableRecord
  2
*Paper_Space0
340
26
  0
BLOCK_RECORD
  5
92
330
1
100
AcDbSymbolTableRecord
100
AcDbBlockTableRecord
  2
*D1
340
0
  0
BLOCK_RECORD
  5
9D
330
1
100
AcDbSymbolTableRecord
100
AcDbBlockTableRecord
  2
*D2
340
0
  0
BLOCK_RECORD
  5
A8
330
1
100
AcDbSymbolTableRecord
100
AcDbBlockTableRecord
  2
*D3
340
0
  0
BLOCK_RECORD
  5
B3
330
1
100
AcDbSymbolTableRecord
100
AcDbBlockTableRecord
  2
*D4
340
0
  0
BLOCK_RECORD
  5
BE
330
1
100
AcDbSymbolTableRecord
100
AcDbBlockTableRecord
  2
*D5
340
0
  0
ENDTAB
  0
ENDSEC
  0
SECTION
  2
BLOCKS
  0
BLOCK
  5
20
330
1F
100
AcDbEntity
  8
0
100
AcDbBlockBegin
  2
*Model_Space
 70
     0
 71
     0
 10
0.0
 20
0.0
 30
0.0
  3
*Model_Space
  1

  0
ENDBLK
  5
21
330
1F
100
AcDbEntity
  8
0
100
AcDbBlockEnd
  0
BLOCK
  5
1C
330
1B
100
AcDbEntity
 67
     1
  8
0
100
AcDbBlockBegin
  2
*Paper_Space
 70
     0
 71
     0
 10
0.0
 20
0.0
 30
0.0
  3
*Paper_Space
  1

  0
ENDBLK
  5
1D
330
1B
100
AcDbEntity
 67
     1
  8
0
100
AcDbBlockEnd
  0
BLOCK
  5
24
330
23
100
AcDbEntity
  8
0
100
AcDbBlockBegin
  2
*Paper_Space0
 70
     0
 71
     0
 10
0.0
 20
0.0
 30
0.0
  3
*Paper_Space0
  1

  0
ENDBLK
  5
25
330
23
100
AcDbEntity
  8
0
100
AcDbBlockEnd
  0
BLOCK
  5
99
330
92
100
AcDbEntity
  8
0
100
AcDbBlockBegin
  2
*D1
 70
     1
 71
     0
 10
0.0
 20
0.0
 30
0.0
  3
*D1
  1

  0
LINE
  5
93
330
92
100
AcDbEntity
  8
1
  6
Continuous
 62
     2
100
AcDbLine
 10
-68.00395936436576
 20
-79.99999999999994
 30
0.0
 11
-68.00395936436576
 21
80.00000000000017
 31
0.0
  0
LINE
  5
94
330
92
100
AcDbEntity
  8
1
  6
Continuous
 62
     2
100
AcDbLine
 10
-33.99999999999987
 20
80.00000000000017
 30
0.0
 11
-70.00395936436576
 21
80.00000000000017
 31
0.0
  0
LINE
  5
95
330
92
100
AcDbEntity
  8
1
  6
Continuous
 62
     2
100
AcDbLine
 10
-33.99999999999987
 20
-79.99999999999994
 30
0.0
 11
-70.00395936436576
 21
-79.99999999999994
 31
0.0
  0
SOLID
  5
96
330
92
100
AcDbEntity
  8
1
 62
     2
100
AcDbTrace
 10
-67.54317562280987
 20
76.50000000000017
 30
0.0
 11
-68.46474310592164
 21
76.50000000000017
 31
0.0
 12
-68.00395936436576
 22
80.00000000000017
 32
0.0
 13
-68.00395936436576
 23
80.00000000000017
 33
0.0
  0
SOLID
  5
97
330
92
100
AcDbEntity
  8
1
 62
     2
100
AcDbTrace
 10
-68.46474310592164
 20
-76.49999999999994
 30
0.0
 11
-67.54317562280987
 21
-76.49999999999994
 31
0.0
 12
-68.00395936436576
 22
-79.99999999999994
 32
0.0
 13
-68.00395936436576
 23
-79.99999999999994
 33
0.0
  0
MTEXT
  5
98
330
92
100
AcDbEntity
  8
1
 62
     2
100
AcDbMText
 10
-70.00395936436576
 20
-2.22939814814787
 30
0.0
 40
3.5
 41
0.0
 71
     7
 72
     1
  1
160
  7
CONVERTER_11
 11
0.0
 21
1.0
 31
0.0
 73
     1
 44
0.60024009603842
  0
ENDBLK
  5
9A
330
92
100
AcDbEntity
  8
0
100
AcDbBlockEnd
  0
BLOCK
  5
A4
330
9D
100
AcDbEntity
  8
0
100
AcDbBlockBegin
  2
*D2
 70
     1
 71
     0
 10
0.0
 20
0.0
 30
0.0
  3
*D2
  1

  0
LINE
  5
9E
330
9D
100
AcDbEntity
  8
1
  6
Continuous
 62
     2
100
AcDbLine
 10
-10.99999999999989
 20
89.39370014974793
 30
0.0
 11
11.0
 21
89.39370014974793
 31
0.0
  0
LINE
  5
9F
330
9D
100
AcDbEntity
  8
1
  6
Continuous
 62
     2
100
AcDbLine
 10
-10.99999999999989
 20
80.00000000000011
 30
0.0
 11
-10.99999999999989
 21
91.39370014974793
 31
0.0
  0
LINE
  5
A0
330
9D
100
AcDbEntity
  8
1
  6
Continuous
 62
     2
100
AcDbLine
 10
11.0
 20
80.00000000000011
 30
0.0
 11
11.0
 21
91.39370014974793
 31
0.0
  0
SOLID
  5
A1
330
9D
100
AcDbEntity
  8
1
 62
     2
100
AcDbTrace
 10
-7.49999999999989
 20
89.85448389130381
 30
0.0
 11
-7.49999999999989
 21
88.93291640819204
 31
0.0
 12
-10.99999999999989
 22
89.39370014974793
 32
0.0
 13
-10.99999999999989
 23
89.39370014974793
 33
0.0
  0
SOLID
  5
A2
330
9D
100
AcDbEntity
  8
1
 62
     2
100
AcDbTrace
 10
7.5
 20
88.93291640819204
 30
0.0
 11
7.5
 21
89.85448389130381
 31
0.0
 12
11.0
 22
89.39370014974793
 32
0.0
 13
11.0
 23
89.39370014974793
 33
0.0
  0
MTEXT
  5
A3
330
9D
100
AcDbEntity
  8
1
 62
     2
100
AcDbMText
 10
-5.59048070058718
 20
91.3936931926716
 30
0.0
 40
3.5
 41
0.0
 71
     7
 72
     1
  1
\C2;ø\C2;22.5
  7
CONVERTER_11
 11
0.9999999999970621
 21
2.424068405545307E-6
 31
0.0
 73
     1
 44
0.60024009603842
  0
ENDBLK
  5
A5
330
9D
100
AcDbEntity
  8
0
100
AcDbBlockEnd
  0
BLOCK
  5
AF
330
A8
100
AcDbEntity
  8
0
100
AcDbBlockBegin
  2
*D3
 70
     1
 71
     0
 10
0.0
 20
0.0
 30
0.0
  3
*D3
  1

  0
LINE
  5
A9
330
A8
100
AcDbEntity
  8
1
  6
Continuous
 62
     2
100
AcDbLine
 10
-56.41020936436602
 20
0.0
 30
0.0
 11
-56.41020936436602
 21
80.00000000000011
 31
0.0
  0
LINE
  5
AA
330
A8
100
AcDbEntity
  8
1
  6
Continuous
 62
     2
100
AcDbLine
 10
-33.99999999999988
 20
80.00000000000011
 30
0.0
 11
-58.41020936436602
 21
80.00000000000011
 31
0.0
  0
LINE
  5
AB
330
A8
100
AcDbEntity
  8
1
  6
Continuous
 62
     2
100
AcDbLine
 10
-48.59303221204801
 20
0.0
 30
0.0
 11
-58.41020936436602
 21
0.0
 31
0.0
  0
SOLID
  5
AC
330
A8
100
AcDbEntity
  8
1
 62
     2
100
AcDbTrace
 10
-56.8709931059219
 20
3.5
 30
0.0
 11
-55.94942562281013
 21
3.5
 31
0.0
 12
-56.41020936436602
 22
0.0
 32
0.0
 13
-56.41020936436602
 23
0.0
 33
0.0
  0
SOLID
  5
AD
330
A8
100
AcDbEntity
  8
1
 62
     2
100
AcDbTrace
 10
-55.94942562281013
 20
76.50000000000011
 30
0.0
 11
-56.8709931059219
 21
76.50000000000011
 31
0.0
 12
-56.41020936436602
 22
80.00000000000011
 32
0.0
 13
-56.41020936436602
 23
80.00000000000011
 33
0.0
  0
MTEXT
  5
AE
330
A8
100
AcDbEntity
  8
1
 62
     2
100
AcDbMText
 10
-58.41020936436602
 20
32.50810185185213
 30
0.0
 40
3.5
 41
0.0
 71
     7
 72
     1
  1
80
  7
CONVERTER_11
 11
0.0
 21
1.0
 31
0.0
 73
     1
 44
0.60024009603842
  0
ENDBLK
  5
B0
330
A8
100
AcDbEntity
  8
0
100
AcDbBlockEnd
  0
BLOCK
  5
BA
330
B3
100
AcDbEntity
  8
0
100
AcDbBlockBegin
  2
*D4
 70
     1
 71
     0
 10
0.0
 20
0.0
 30
0.0
  3
*D4
  1

  0
LINE
  5
B4
330
B3
100
AcDbEntity
  8
1
  6
Continuous
 62
     2
100
AcDbLine
 10
12.99999999999989
 20
-88.88403746253897
 30
0.0
 11
46.00000000000013
 21
-88.88403746253897
 31
0.0
  0
LINE
  5
B5
330
B3
100
AcDbEntity
  8
1
  6
Continuous
 62
     2
100
AcDbLine
 10
46.00000000000013
 20
-68.0
 30
0.0
 11
46.00000000000013
 21
-90.88403746253897
 31
0.0
  0
LINE
  5
B6
330
B3
100
AcDbEntity
  8
1
  6
Continuous
 62
     2
100
AcDbLine
 10
12.99999999999989
 20
-42.59999999999997
 30
0.0
 11
12.99999999999989
 21
-90.88403746253897
 31
0.0
  0
SOLID
  5
B7
330
B3
100
AcDbEntity
  8
1
 62
     2
100
AcDbTrace
 10
42.50000000000013
 20
-89.34482120409486
 30
0.0
 11
42.50000000000013
 21
-88.42325372098308
 31
0.0
 12
46.00000000000013
 22
-88.88403746253897
 32
0.0
 13
46.00000000000013
 23
-88.88403746253897
 33
0.0
  0
SOLID
  5
B8
330
B3
100
AcDbEntity
  8
1
 62
     2
100
AcDbTrace
 10
16.49999999999989
 20
-88.42325372098308
 30
0.0
 11
16.49999999999989
 21
-89.34482120409486
 31
0.0
 12
12.99999999999989
 22
-88.88403746253897
 32
0.0
 13
12.99999999999989
 23
-88.88403746253897
 33
0.0
  0
MTEXT
  5
B9
330
B3
100
AcDbEntity
  8
1
 62
     2
100
AcDbMText
 10
26.67313658809583
 20
-86.88403746253897
 30
0.0
 40
3.5
 41
0.0
 71
     7
 72
     1
  1
33
  7
CONVERTER_11
 11
0.9999999999970621
 21
2.424068405545307E-6
 31
0.0
 73
     1
 44
0.60024009603842
  0
ENDBLK
  5
BB
330
B3
100
AcDbEntity
  8
0
100
AcDbBlockEnd
  0
BLOCK
  5
C5
330
BE
100
AcDbEntity
  8
0
100
AcDbBlockBegin
  2
*D5
 70
     1
 71
     0
 10
0.0
 20
0.0
 30
0.0
  3
*D5
  1

  0
LINE
  5
BF
330
BE
100
AcDbEntity
  8
1
  6
Continuous
 62
     2
100
AcDbLine
 10
-45.99999999999988
 20
-88.88403746253897
 30
0.0
 11
-13.00000000000013
 21
-88.88403746253897
 31
0.0
  0
LINE
  5
C0
330
BE
100
AcDbEntity
  8
1
  6
Continuous
 62
     2
100
AcDbLine
 10
-13.00000000000013
 20
-80.0
 30
0.0
 11
-13.00000000000013
 21
-90.88403746253897
 31
0.0
  0
LINE
  5
C1
330
BE
100
AcDbEntity
  8
1
  6
Continuous
 62
     2
100
AcDbLine
 10
-45.99999999999988
 20
-68.0
 30
0.0
 11
-45.99999999999988
 21
-90.88403746253897
 31
0.0
  0
SOLID
  5
C2
330
BE
100
AcDbEntity
  8
1
 62
     2
100
AcDbTrace
 10
-16.50000000000013
 20
-89.34482120409486
 30
0.0
 11
-16.50000000000013
 21
-88.42325372098308
 31
0.0
 12
-13.00000000000013
 22
-88.88403746253897
 32
0.0
 13
-13.00000000000013
 23
-88.88403746253897
 33
0.0
  0
SOLID
  5
C3
330
BE
100
AcDbEntity
  8
1
 62
     2
100
AcDbTrace
 10
-42.49999999999988
 20
-88.42325372098308
 30
0.0
 11
-42.49999999999988
 21
-89.34482120409486
 31
0.0
 12
-45.99999999999988
 22
-88.88403746253897
 32
0.0
 13
-45.99999999999988
 23
-88.88403746253897
 33
0.0
  0
MTEXT
  5
C4
330
BE
100
AcDbEntity
  8
1
 62
     2
100
AcDbMText
 10
-32.12500000000001
 20
-86.88403746253897
 30
0.0
 40
3.5
 41
0.0
 71
     7
 72
     1
  1
33
  7
CONVERTER_11
 11
0.9999999999970621
 21
2.424068405545307E-6
 31
0.0
 73
     1
 44
0.60024009603842
  0
ENDBLK
  5
C6
330
BE
100
AcDbEntity
  8
0
100
AcDbBlockEnd
  0
ENDSEC
  0
SECTION
  2
ENTITIES
  0
LINE
  5
32
330
1F
100
AcDbEntity
  8
1
  6
Continuous
 62
     7
100
AcDbLine
 10
12.99999999999989
 20
42.60000000000008
 30
0.0
 11
11.0
 21
42.60000000000008
 31
0.0
  0
LINE
  5
33
330
1F
100
AcDbEntity
  8
1
  6
Continuous
 62
     7
100
AcDbLine
 10
-11.0
 20
42.60000000000008
 30
0.0
 11
-10.99999999999989
 21
80.00000000000011
 31
0.0
  0
LINE
  5
34
330
1F
100
AcDbEntity
  8
1
  6
Continuous
 62
     7
100
AcDbLine
 10
11.0
 20
80.00000000000011
 30
0.0
 11
-10.99999999999989
 21
80.00000000000011
 31
0.0
  0
LINE
  5
35
330
1F
100
AcDbEntity
  8
1
  6
Continuous
 62
     7
100
AcDbLine
 10
11.0
 20
80.00000000000011
 30
0.0
 11
11.0
 21
42.60000000000008
 31
0.0
  0
LINE
  5
36
330
1F
100
AcDbEntity
  8
1
  6
Continuous
 62
     7
100
AcDbLine
 10
11.0
 20
80.00000000000011
 30
0.0
 11
34.00000000000011
 21
80.0
 31
0.0
  0
LINE
  5
37
330
1F
100
AcDbEntity
  8
1
  6
Continuous
 62
     7
100
AcDbLine
 10
-10.0
 20
42.60000000000008
 30
0.0
 11
-11.0
 21
42.60000000000008
 31
0.0
  0
LINE
  5
38
330
1F
100
AcDbEntity
  8
1
  6
DOT_CENTER
 62
     2
100
AcDbLine
 10
16.12499999999989
 20
34.00000000000011
 30
0.0
 11
31.87499999999987
 21
34.00000000000011
 31
0.0
  0
LINE
  5
39
330
1F
100
AcDbEntity
  8
1
  6
DOT_CENTER
 62
     2
100
AcDbLine
 10
23.99999999999987
 20
26.125
 30
0.0
 11
24.00000000000011
 21
41.875
 31
0.0
  0
LINE
  5
3A
330
1F
100
AcDbEntity
  8
1
  6
DOT_CENTER
 62
     2
100
AcDbLine
 10
34.00000000000011
 20
60.125
 30
0.0
 11
33.99999999999987
 21
75.87500000000011
 31
0.0
  0
LINE
  5
3B
330
1F
100
AcDbEntity
  8
1
  6
DOT_CENTER
 62
     2
100
AcDbLine
 10
37.99999999999987
 20
0.0
 30
0.0
 11
38.00000000000011
 21
7.875
 31
0.0
  0
LINE
  5
3C
330
1F
100
AcDbEntity
  8
1
  6
Continuous
 62
     7
100
AcDbLine
 10
11.0
 20
-42.59999999999997
 30
0.0
 11
12.99999999999989
 21
-42.59999999999997
 31
0.0
  0
LINE
  5
3D
330
1F
100
AcDbEntity
  8
1
  6
Continuous
 62
     7
100
AcDbLine
 10
-11.0
 20
-80.0
 30
0.0
 11
-11.0
 21
-42.59999999999997
 31
0.0
  0
LINE
  5
3E
330
1F
100
AcDbEntity
  8
1
  6
Continuous
 62
     7
100
AcDbLine
 10
11.0
 20
-80.0
 30
0.0
 11
-11.0
 21
-80.0
 31
0.0
  0
LINE
  5
3F
330
1F
100
AcDbEntity
  8
1
  6
Continuous
 62
     7
100
AcDbLine
 10
46.00000000000013
 20
-68.0
 30
0.0
 11
46.00000000000013
 21
68.0
 31
0.0
  0
LINE
  5
40
330
1F
100
AcDbEntity
  8
1
  6
Continuous
 62
     7
100
AcDbLine
 10
12.99999999999989
 20
-42.59999999999997
 30
0.0
 11
12.99999999999989
 21
42.60000000000008
 31
0.0
  0
LINE
  5
41
330
1F
100
AcDbEntity
  8
1
  6
Continuous
 62
     7
100
AcDbLine
 10
11.0
 20
-42.59999999999997
 30
0.0
 11
11.0
 21
-80.0
 31
0.0
  0
LINE
  5
42
330
1F
100
AcDbEntity
  8
1
  6
Continuous
 62
     7
100
AcDbLine
 10
34.00000000000011
 20
-80.0
 30
0.0
 11
11.0
 21
-80.0
 31
0.0
  0
LINE
  5
43
330
1F
100
AcDbEntity
  8
1
  6
Continuous
 62
     7
100
AcDbLine
 10
10.0
 20
-42.59999999999997
 30
0.0
 11
11.0
 21
-42.59999999999997
 31
0.0
  0
LINE
  5
44
330
1F
100
AcDbEntity
  8
1
  6
DOT_CENTER
 62
     2
100
AcDbLine
 10
0.0
 20
-42.59999999999997
 30
0.0
 11
0.0
 21
-83.81666666666712
 31
0.0
  0
LINE
  5
45
330
1F
100
AcDbEntity
  8
1
  6
DOT_CENTER
 62
     2
100
AcDbLine
 10
31.87499999999987
 20
-34.0
 30
0.0
 11
16.125
 21
-34.0
 31
0.0
  0
LINE
  5
46
330
1F
100
AcDbEntity
  8
1
  6
DOT_CENTER
 62
     2
100
AcDbLine
 10
24.00000000000011
 20
-41.875
 30
0.0
 11
24.00000000000011
 21
-26.125
 31
0.0
  0
LINE
  5
47
330
1F
100
AcDbEntity
  8
1
  6
DOT_CENTER
 62
     2
100
AcDbLine
 10
34.00000000000011
 20
-75.875
 30
0.0
 11
33.99999999999987
 21
-60.125
 31
0.0
  0
LINE
  5
48
330
1F
100
AcDbEntity
  8
1
  6
DOT_CENTER
 62
     2
100
AcDbLine
 10
38.00000000000011
 20
-7.875
 30
0.0
 11
37.99999999999987
 21
0.0
 31
0.0
  0
LINE
  5
49
330
1F
100
AcDbEntity
  8
1
  6
DOT_CENTER
 62
     2
100
AcDbLine
 10
41.87499999999987
 20
68.00000000000011
 30
0.0
 11
39.25000000000013
 21
68.0
 31
0.0
  0
LINE
  5
4A
330
1F
100
AcDbEntity
  8
1
  6
DOT_CENTER
 62
     2
100
AcDbLine
 10
26.12499999999987
 20
-68.0
 30
0.0
 11
36.99999999999987
 21
-68.0
 31
0.0
  0
LINE
  5
4B
330
1F
100
AcDbEntity
  8
1
  6
DOT_CENTER
 62
     2
100
AcDbLine
 10
36.99999999999987
 20
68.00000000000011
 30
0.0
 11
26.12499999999987
 21
68.00000000000011
 31
0.0
  0
LINE
  5
4C
330
1F
100
AcDbEntity
  8
1
  6
DOT_CENTER
 62
     2
100
AcDbLine
 10
39.25000000000013
 20
68.0
 30
0.0
 11
36.99999999999987
 21
68.00000000000011
 31
0.0
  0
LINE
  5
4D
330
1F
100
AcDbEntity
  8
1
  6
DOT_CENTER
 62
     2
100
AcDbLine
 10
36.99999999999987
 20
-68.0
 30
0.0
 11
39.24999999999987
 21
-68.0
 31
0.0
  0
LINE
  5
4E
330
1F
100
AcDbEntity
  8
1
  6
DOT_CENTER
 62
     2
100
AcDbLine
 10
39.24999999999987
 20
-68.0
 30
0.0
 11
41.87499999999987
 21
-68.0
 31
0.0
  0
LINE
  5
4F
330
1F
100
AcDbEntity
  8
1
  6
DOT_CENTER
 62
     2
100
AcDbLine
 10
0.0
 20
42.60000000000008
 30
0.0
 11
0.0
 21
83.81666666666706
 31
0.0
  0
LINE
  5
50
330
1F
100
AcDbEntity
  8
1
  6
Continuous
 62
     7
100
AcDbLine
 10
11.0
 20
42.60000000000008
 30
0.0
 11
10.0
 21
42.60000000000008
 31
0.0
  0
LINE
  5
51
330
1F
100
AcDbEntity
  8
1
  6
Continuous
 62
     7
100
AcDbLine
 10
-11.0
 20
-42.59999999999997
 30
0.0
 11
-10.0
 21
-42.59999999999997
 31
0.0
  0
LINE
  5
52
330
1F
100
AcDbEntity
  8
1
  6
Continuous
 62
     7
100
AcDbLine
 10
-10.0
 20
42.60000000000008
 30
0.0
 11
10.0
 21
42.60000000000008
 31
0.0
  0
LINE
  5
53
330
1F
100
AcDbEntity
  8
1
  6
Continuous
 62
     7
100
AcDbLine
 10
10.0
 20
-42.59999999999997
 30
0.0
 11
-10.0
 21
-42.59999999999997
 31
0.0
  0
LINE
  5
54
330
1F
100
AcDbEntity
  8
1
  6
Continuous
 62
     7
100
AcDbLine
 10
10.0
 20
-42.59999999999997
 30
0.0
 11
10.0
 21
-42.0
 31
0.0
  0
LINE
  5
55
330
1F
100
AcDbEntity
  8
1
  6
Continuous
 62
     7
100
AcDbLine
 10
-10.0
 20
-42.0
 30
0.0
 11
-10.0
 21
-42.59999999999997
 31
0.0
  0
LINE
  5
56
330
1F
100
AcDbEntity
  8
1
  6
Continuous
 62
     7
100
AcDbLine
 10
10.0
 20
42.60000000000008
 30
0.0
 11
10.0
 21
42.0
 31
0.0
  0
LINE
  5
57
330
1F
100
AcDbEntity
  8
1
  6
Continuous
 62
     7
100
AcDbLine
 10
-10.0
 20
42.0
 30
0.0
 11
-10.0
 21
42.60000000000008
 31
0.0
  0
LINE
  5
58
330
1F
100
AcDbEntity
  8
1
  6
Continuous
 62
     7
100
AcDbLine
 10
10.0
 20
42.0
 30
0.0
 11
-10.0
 21
42.0
 31
0.0
  0
LINE
  5
59
330
1F
100
AcDbEntity
  8
1
  6
Continuous
 62
     7
100
AcDbLine
 10
10.0
 20
-42.0
 30
0.0
 11
-10.0
 21
-42.0
 31
0.0
  0
LINE
  5
5A
330
1F
100
AcDbEntity
  8
1
  6
Continuous
 62
     7
100
AcDbLine
 10
-11.0
 20
42.0
 30
0.0
 11
-10.0
 21
42.0
 31
0.0
  0
LINE
  5
5B
330
1F
100
AcDbEntity
  8
1
  6
Continuous
 62
     7
100
AcDbLine
 10
-10.0
 20
-42.0
 30
0.0
 11
-11.0
 21
-42.0
 31
0.0
  0
LINE
  5
5C
330
1F
100
AcDbEntity
  8
1
  6
Continuous
 62
     7
100
AcDbLine
 10
11.0
 20
42.0
 30
0.0
 11
11.0
 21
-42.0
 31
0.0
  0
LINE
  5
5D
330
1F
100
AcDbEntity
  8
1
  6
Continuous
 62
     7
100
AcDbLine
 10
10.0
 20
42.0
 30
0.0
 11
11.0
 21
42.0
 31
0.0
  0
LINE
  5
5E
330
1F
100
AcDbEntity
  8
1
  6
Continuous
 62
     7
100
AcDbLine
 10
-13.00000000000013
 20
41.99999999999989
 30
0.0
 11
-11.0
 21
42.0
 31
0.0
  0
LINE
  5
5F
330
1F
100
AcDbEntity
  8
1
  6
Continuous
 62
     7
100
AcDbLine
 10
-13.00000000000013
 20
80.0
 30
0.0
 11
-13.00000000000013
 21
41.99999999999989
 31
0.0
  0
LINE
  5
60
330
1F
100
AcDbEntity
  8
1
  6
Continuous
 62
     7
100
AcDbLine
 10
-11.0
 20
-42.0
 30
0.0
 11
-13.00000000000013
 21
-42.0
 31
0.0
  0
LINE
  5
61
330
1F
100
AcDbEntity
  8
1
  6
Continuous
 62
     7
100
AcDbLine
 10
-13.00000000000013
 20
-80.0
 30
0.0
 11
-13.00000000000013
 21
-42.0
 31
0.0
  0
LINE
  5
62
330
1F
100
AcDbEntity
  8
1
  6
Continuous
 62
     7
100
AcDbLine
 10
-11.0
 20
42.0
 30
0.0
 11
-11.0
 21
-42.0
 31
0.0
  0
LINE
  5
63
330
1F
100
AcDbEntity
  8
1
  6
Continuous
 62
     7
100
AcDbLine
 10
-13.00000000000013
 20
80.0
 30
0.0
 11
-33.99999999999988
 21
80.00000000000011
 31
0.0
  0
LINE
  5
64
330
1F
100
AcDbEntity
  8
1
  6
Continuous
 62
     7
100
AcDbLine
 10
-45.99999999999988
 20
-68.0
 30
0.0
 11
-45.99999999999988
 21
68.00000000000011
 31
0.0
  0
LINE
  5
65
330
1F
100
AcDbEntity
  8
1
  6
Continuous
 62
     7
100
AcDbLine
 10
-13.00000000000013
 20
-80.0
 30
0.0
 11
-33.99999999999988
 21
-80.0
 31
0.0
  0
LINE
  5
66
330
1F
100
AcDbEntity
  8
1
  6
DOT_CENTER
 62
     2
100
AcDbLine
 10
-31.87499999999988
 20
34.00000000000011
 30
0.0
 11
-16.12499999999989
 21
34.00000000000011
 31
0.0
  0
LINE
  5
67
330
1F
100
AcDbEntity
  8
1
  6
DOT_CENTER
 62
     2
100
AcDbLine
 10
-23.99999999999988
 20
41.87500000000011
 30
0.0
 11
-23.99999999999988
 21
26.125
 31
0.0
  0
LINE
  5
68
330
1F
100
AcDbEntity
  8
1
  6
DOT_CENTER
 62
     2
100
AcDbLine
 10
-31.87499999999988
 20
-34.0
 30
0.0
 11
-16.12499999999989
 21
-34.0
 31
0.0
  0
LINE
  5
69
330
1F
100
AcDbEntity
  8
1
  6
DOT_CENTER
 62
     2
100
AcDbLine
 10
-23.99999999999988
 20
-26.125
 30
0.0
 11
-23.99999999999988
 21
-41.875
 31
0.0
  0
LINE
  5
6A
330
1F
100
AcDbEntity
  8
1
  6
DOT_CENTER
 62
     2
100
AcDbLine
 10
-41.87499999999988
 20
-68.0
 30
0.0
 11
-26.12499999999988
 21
-68.0
 31
0.0
  0
LINE
  5
6B
330
1F
100
AcDbEntity
  8
1
  6
DOT_CENTER
 62
     2
100
AcDbLine
 10
-33.99999999999988
 20
-60.125
 30
0.0
 11
-33.99999999999988
 21
-75.875
 31
0.0
  0
LINE
  5
6C
330
1F
100
AcDbEntity
  8
1
  6
DOT_CENTER
 62
     2
100
AcDbLine
 10
-41.87499999999988
 20
68.00000000000011
 30
0.0
 11
-26.12499999999988
 21
68.00000000000011
 31
0.0
  0
LINE
  5
6D
330
1F
100
AcDbEntity
  8
1
  6
DOT_CENTER
 62
     2
100
AcDbLine
 10
-33.99999999999988
 20
75.87500000000011
 30
0.0
 11
-33.99999999999988
 21
60.12500000000011
 31
0.0
  0
LINE
  5
6E
330
1F
100
AcDbEntity
  8
1
  6
DOT_CENTER
 62
     2
100
AcDbLine
 10
0.0
 20
42.60000000000008
 30
0.0
 11
0.0
 21
-42.0
 31
0.0
  0
LINE
  5
6F
330
1F
100
AcDbEntity
  8
1
  6
DOT_CENTER
 62
     2
100
AcDbLine
 10
0.0
 20
-42.0
 30
0.0
 11
0.0
 21
-42.59999999999997
 31
0.0
  0
LINE
  5
70
330
1F
100
AcDbEntity
  8
1
  6
Continuous
 62
     7
100
AcDbLine
 10
10.0
 20
-42.0
 30
0.0
 11
11.0
 21
-42.0
 31
0.0
  0
LINE
  5
71
330
1F
100
AcDbEntity
  8
1
  6
DOT_CENTER
 62
     2
100
AcDbLine
 10
-30.49999999999988
 20
0.0
 30
0.0
 11
-45.49999999999989
 21
0.0
 31
0.0
  0
LINE
  5
72
330
1F
100
AcDbEntity
  8
1
  6
DOT_CENTER
 62
     2
100
AcDbLine
 10
-37.99999999999988
 20
-7.5
 30
0.0
 11
-37.99999999999988
 21
7.5
 31
0.0
  0
LINE
  5
73
330
1F
100
AcDbEntity
  8
1
  6
CENTER_DASH_DASH
 62
     7
100
AcDbLine
 10
53.9924266734014
 20
0.0
 30
0.0
 11
-48.59303221204801
 21
0.0
 31
0.0
  0
CIRCLE
  5
74
330
1F
100
AcDbEntity
  8
1
  6
Continuous
 62
     7
100
AcDbCircle
 10
23.99999999999987
 20
34.00000000000011
 30
0.0
 40
5.25
  0
CIRCLE
  5
75
330
1F
100
AcDbEntity
  8
1
  6
Continuous
 62
     7
100
AcDbCircle
 10
23.99999999999987
 20
34.00000000000011
 30
0.0
 40
3.0
  0
CIRCLE
  5
76
330
1F
100
AcDbEntity
  8
1
  6
Continuous
 62
     7
100
AcDbCircle
 10
23.99999999999987
 20
-34.0
 30
0.0
 40
5.250000000000242
  0
CIRCLE
  5
77
330
1F
100
AcDbEntity
  8
1
  6
Continuous
 62
     7
100
AcDbCircle
 10
23.99999999999987
 20
-34.0
 30
0.0
 40
3.000000000000242
  0
CIRCLE
  5
78
330
1F
100
AcDbEntity
  8
1
  6
Continuous
 62
     7
100
AcDbCircle
 10
37.99999999999987
 20
0.0
 30
0.0
 40
5.25
  0
CIRCLE
  5
79
330
1F
100
AcDbEntity
  8
1
  6
Continuous
 62
     7
100
AcDbCircle
 10
37.99999999999987
 20
0.0
 30
0.0
 40
3.0
  0
CIRCLE
  5
7A
330
1F
100
AcDbEntity
  8
1
  6
Continuous
 62
     7
100
AcDbCircle
 10
34.00000000000011
 20
68.0
 30
0.0
 40
2.999999999999766
  0
CIRCLE
  5
7B
330
1F
100
AcDbEntity
  8
1
  6
Continuous
 62
     7
100
AcDbCircle
 10
34.00000000000011
 20
68.0
 30
0.0
 40
5.250000000000021
  0
CIRCLE
  5
7C
330
1F
100
AcDbEntity
  8
1
  6
Continuous
 62
     7
100
AcDbCircle
 10
34.00000000000011
 20
-68.0
 30
0.0
 40
2.999999999999766
  0
CIRCLE
  5
7D
330
1F
100
AcDbEntity
  8
1
  6
Continuous
 62
     7
100
AcDbCircle
 10
34.00000000000011
 20
-68.0
 30
0.0
 40
5.249999999999766
  0
CIRCLE
  5
7E
330
1F
100
AcDbEntity
  8
1
  6
Continuous
 62
     7
100
AcDbCircle
 10
-37.99999999999988
 20
0.0
 30
0.0
 40
5.25
  0
CIRCLE
  5
7F
330
1F
100
AcDbEntity
  8
1
  6
Continuous
 62
     7
100
AcDbCircle
 10
-37.99999999999988
 20
0.0
 30
0.0
 40
3.0
  0
CIRCLE
  5
80
330
1F
100
AcDbEntity
  8
1
  6
Continuous
 62
     7
100
AcDbCircle
 10
-23.99999999999988
 20
34.00000000000011
 30
0.0
 40
5.25
  0
CIRCLE
  5
81
330
1F
100
AcDbEntity
  8
1
  6
Continuous
 62
     7
100
AcDbCircle
 10
-23.99999999999988
 20
34.00000000000011
 30
0.0
 40
3.0
  0
CIRCLE
  5
82
330
1F
100
AcDbEntity
  8
1
  6
Continuous
 62
     7
100
AcDbCircle
 10
-23.99999999999988
 20
-34.0
 30
0.0
 40
5.25
  0
CIRCLE
  5
83
330
1F
100
AcDbEntity
  8
1
  6
Continuous
 62
     7
100
AcDbCircle
 10
-23.99999999999988
 20
-34.0
 30
0.0
 40
3.0
  0
CIRCLE
  5
84
330
1F
100
AcDbEntity
  8
1
  6
Continuous
 62
     7
100
AcDbCircle
 10
-33.99999999999988
 20
-68.0
 30
0.0
 40
5.25
  0
CIRCLE
  5
85
330
1F
100
AcDbEntity
  8
1
  6
Continuous
 62
     7
100
AcDbCircle
 10
-33.99999999999988
 20
-68.0
 30
0.0
 40
3.0
  0
CIRCLE
  5
86
330
1F
100
AcDbEntity
  8
1
  6
Continuous
 62
     7
100
AcDbCircle
 10
-33.99999999999988
 20
68.00000000000011
 30
0.0
 40
5.25
  0
CIRCLE
  5
87
330
1F
100
AcDbEntity
  8
1
  6
Continuous
 62
     7
100
AcDbCircle
 10
-33.99999999999988
 20
68.00000000000011
 30
0.0
 40
3.0
  0
CIRCLE
  5
88
330
1F
100
AcDbEntity
  8
1
  6
DASHED
 62
     2
100
AcDbCircle
 10
37.99999999999987
 20
0.0
 30
0.0
 40
6.000000000000004
  0
CIRCLE
  5
89
330
1F
100
AcDbEntity
  8
1
  6
DASHED
 62
     2
100
AcDbCircle
 10
-37.99999999999988
 20
0.0
 30
0.0
 40
6.000000000000284
  0
ARC
  5
8A
330
1F
100
AcDbEntity
  8
1
  6
Continuous
 62
     7
100
AcDbCircle
 10
34.00000000000011
 20
68.0
 30
0.0
 40
12.00000000000002
100
AcDbArc
 50
0.0
 51
90.0
  0
ARC
  5
8B
330
1F
100
AcDbEntity
  8
1
  6
Continuous
 62
     7
100
AcDbCircle
 10
34.00000000000011
 20
-68.0
 30
0.0
 40
12.0
100
AcDbArc
 50
-90.0
 51
0.0
  0
ARC
  5
8C
330
1F
100
AcDbEntity
  8
1
  6
Continuous
 62
     7
100
AcDbCircle
 10
-33.99999999999988
 20
68.00000000000011
 30
0.0
 40
12.0
100
AcDbArc
 50
90.0
 51
180.0
  0
ARC
  5
8D
330
1F
100
AcDbEntity
  8
1
  6
Continuous
 62
     7
100
AcDbCircle
 10
-33.99999999999988
 20
-68.0
 30
0.0
 40
12.0
100
AcDbArc
 50
180.0
 51
-90.0
  0
MTEXT
  5
8F
330
1F
100
AcDbEntity
  8
1
 62
     2
100
AcDbMText
 10
29.32441677302631
 20
8.75544138198911
 30
0.0
 40
2.5
 41
0.0
 71
     5
 72
     1
  1
TZ
  7
CONVERTER_11
 73
     1
 44
1.32052821128451
  0
MTEXT
  5
90
330
1F
100
AcDbEntity
  8
1
 62
     2
100
AcDbMText
 10
-28.32441677302632
 20
7.7554413819891
 30
0.0
 40
2.5
 41
0.0
 71
     5
 72
     1
  1
TZ
  7
CONVERTER_11
 73
     1
 44
1.32052821128451
  0
MTEXT
  5
91
330
1F
100
AcDbEntity
  8
1
 62
     2
100
AcDbMText
 10
-6.5263616329804
 20
4.34121477339988
 30
0.0
 40
2.5
 41
0.0
 71
     5
 72
     1
  1
BBL
  7
CONVERTER_11
 73
     1
 44
1.32052821128451
  0
DIMENSION
  5
9C
330
1F
100
AcDbEntity
  8
1
100
AcDbDimension
  2
*D1
 10
-68.00395936436576
 20
80.00000000000017
 30
0.0
 11
-71.75395936436576
 21
1.44560185185213
 31
0.0
 70
    32
  1
<>
 71
     5
 42
-1.0
 53
90.0
  3
ME10_DIM_10
100
AcDbAlignedDimension
 13
-33.99999999999988
 23
-80.0
 33
0.0
 14
-33.99999999999988
 24
80.00000000000011
 34
0.0
 50
90.0
100
AcDbRotatedDimension
  0
DIMENSION
  5
A7
330
1F
100
AcDbEntity
  8
1
100
AcDbDimension
  2
*D2
 10
-10.99999999999989
 20
89.39370014974793
 30
0.0
 11
-0.05173070059561
 21
93.14370014974793
 31
0.0
 70
    32
  1
ø22.5
 71
     5
 42
-1.0
 53
0.00013888888889
  3
ME10_DIM_11
100
AcDbAlignedDimension
 13
11.0
 23
80.00000000000011
 33
0.0
 14
-10.99999999999989
 24
80.00000000000011
 34
0.0
100
AcDbRotatedDimension
  0
DIMENSION
  5
B2
330
1F
100
AcDbEntity
  8
1
100
AcDbDimension
  2
*D3
 10
-56.41020936436602
 20
0.0
 30
0.0
 11
-60.16020936436602
 21
35.13310185185213
 31
0.0
 70
    32
  1
<>
 71
     5
 42
-1.0
 53
90.0
  3
ME10_DIM_12
100
AcDbAlignedDimension
 13
-33.99999999999988
 23
80.00000000000011
 33
0.0
 14
-48.59303221204801
 24
0.0
 34
0.0
 50
90.0
100
AcDbRotatedDimension
  0
DIMENSION
  5
BD
330
1F
100
AcDbEntity
  8
1
100
AcDbDimension
  2
*D4
 10
46.00000000000013
 20
-88.88403746253897
 30
0.0
 11
29.29813658809583
 21
-85.13403746253897
 31
0.0
 70
    32
  1
<>
 71
     5
 42
-1.0
 53
0.00013888888889
  3
ME10_DIM_13
100
AcDbAlignedDimension
 13
12.99999999999989
 23
-42.59999999999997
 33
0.0
 14
46.00000000000013
 24
-68.0
 34
0.0
100
AcDbRotatedDimension
  0
DIMENSION
  5
C8
330
1F
100
AcDbEntity
  8
1
100
AcDbDimension
  2
*D5
 10
-13.00000000000013
 20
-88.88403746253897
 30
0.0
 11
-29.50000000000001
 21
-85.13403746253897
 31
0.0
 70
    32
  1
<>
 71
     5
 42
-1.0
 53
0.00013888888889
  3
ME10_DIM_14
100
AcDbAlignedDimension
 13
-45.99999999999988
 23
-68.0
 33
0.0
 14
-13.00000000000013
 24
-80.0
 34
0.0
100
AcDbRotatedDimension
  0
ENDSEC
  0
SECTION
  2
OBJECTS
  0
DICTIONARY
  5
C
330
0
100
AcDbDictionary
281
     1
  3
ACAD_GROUP
350
D
  3
ACAD_LAYOUT
350
1A
  3
ACAD_MLINESTYLE
350
17
  3
ACAD_PLOTSETTINGS
350
19
  3
ACAD_PLOTSTYLENAME
350
E
  0
DICTIONARY
  5
D
102
{ACAD_REACTORS
330
C
102
}
330
C
100
AcDbDictionary
281
     1
  0
DICTIONARY
  5
1A
102
{ACAD_REACTORS
330
C
102
}
330
C
100
AcDbDictionary
281
     1
  3
Layout1
350
1E
  3
Layout2
350
26
  3
Model
350
22
  0
DICTIONARY
  5
17
102
{ACAD_REACTORS
330
C
102
}
330
C
100
AcDbDictionary
281
     1
  3
Standard
350
18
  0
DICTIONARY
  5
19
102
{ACAD_REACTORS
330
C
102
}
330
C
100
AcDbDictionary
281
     1
  0
ACDBDICTIONARYWDFLT
  5
E
102
{ACAD_REACTORS
330
C
102
}
330
C
100
AcDbDictionary
281
     1
  3
Normal
350
F
100
AcDbDictionaryWithDefault
340
F
  0
LAYOUT
  5
1E
102
{ACAD_REACTORS
330
1A
102
}
330
1A
100
AcDbPlotSettings
  1

  2

  4

  6

 40
0.0
 41
0.0
 42
0.0
 43
0.0
 44
0.0
 45
0.0
 46
0.0
 47
0.0
 48
0.0
 49
0.0
140
0.0
141
0.0
142
1.0
143
1.0
 70
   688
 72
     0
 73
     0
 74
     5
  7

 75
    16
 76
     0
 77
     2
 78
   300
147
1.0
148
0.0
149
0.0
100
AcDbLayout
  1
Layout1
 70
     1
 71
     1
 10
0.0
 20
0.0
 11
0.0
 21
0.0
 12
0.0
 22
0.0
 32
0.0
 14
0.0
 24
0.0
 34
0.0
 15
0.0
 25
0.0
 35
0.0
146
0.0
 13
0.0
 23
0.0
 33
0.0
 16
1.0
 26
0.0
 36
0.0
 17
0.0
 27
1.0
 37
0.0
 76
     0
330
1B
  0
LAYOUT
  5
26
102
{ACAD_REACTORS
330
1A
102
}
330
1A
100
AcDbPlotSettings
  1

  2

  4

  6

 40
0.0
 41
0.0
 42
0.0
 43
0.0
 44
0.0
 45
0.0
 46
0.0
 47
0.0
 48
0.0
 49
0.0
140
0.0
141
0.0
142
1.0
143
1.0
 70
   688
 72
     0
 73
     0
 74
     5
  7

 75
    16
 76
     0
 77
     2
 78
   300
147
1.0
148
0.0
149
0.0
100
AcDbLayout
  1
Layout2
 70
     1
 71
     2
 10
0.0
 20
0.0
 11
0.0
 21
0.0
 12
0.0
 22
0.0
 32
0.0
 14
0.0
 24
0.0
 34
0.0
 15
0.0
 25
0.0
 35
0.0
146
0.0
 13
0.0
 23
0.0
 33
0.0
 16
1.0
 26
0.0
 36
0.0
 17
0.0
 27
1.0
 37
0.0
 76
     0
330
23
  0
LAYOUT
  5
22
102
{ACAD_REACTORS
330
1A
102
}
330
1A
100
AcDbPlotSettings
  1

  2

  4

  6

 40
0.0
 41
0.0
 42
0.0
 43
0.0
 44
0.0
 45
0.0
 46
0.0
 47
0.0
 48
0.0
 49
0.0
140
0.0
141
0.0
142
1.0
143
1.0
 70
  1712
 72
     0
 73
     0
 74
     0
  7

 75
     0
 76
     0
 77
     2
 78
   300
147
1.0
148
0.0
149
0.0
100
AcDbLayout
  1
Model
 70
     1
 71
     0
 10
0.0
 20
0.0
 11
0.0
 21
0.0
 12
0.0
 22
0.0
 32
0.0
 14
-73.50395936436576
 24
-90.88403746253897
 34
0.0
 15
53.9924266734014
 25
94.89370014974793
 35
0.0
146
0.0
 13
0.0
 23
0.0
 33
0.0
 16
1.0
 26
0.0
 36
0.0
 17
0.0
 27
1.0
 37
0.0
 76
     0
330
1F
  0
MLINESTYLE
  5
18
102
{ACAD_REACTORS
330
17
102
}
330
17
100
AcDbMlineStyle
  2
Standard
 70
     0
  3

 62
   256
 51
90.0
 52
90.0
 71
     2
 49
0.5
 62
   256
  6
BYLAYER
 49
-0.5
 62
   256
  6
BYLAYER
  0
ACDBPLACEHOLDER
  5
F
102
{ACAD_REACTORS
330
E
102
}
330
E
  0
ENDSEC
  0
EOF
