999
DXF file: d:\tmp\workingDir\0000063230\vx_7501_3d_v01_01.dxf
999
Pro/ENGINEER 2016380 by Parametric Technology Corporation
  0
SECTION
  2
HEADER
  9
$ACADVER
  1
AC1014
  9
$DWGCODEPAGE
  3
ANSI_1252
  9
$EXTMAX
 10
59.944
 20
200.0
 30
0.0
  9
$EXTMIN
 10
0.0
 20
0.0
 30
0.0
  9
$LIMMIN
 10
0.0
 20
0.0
  9
$LIMMAX
 10
59.944
 20
200.0
  9
$VIEWCTR
 10
29.972
 20
100.0
  9
$VIEWSIZE
 40
200.0
  9
$CLAYER
  8
0
  9
$LTSCALE
 40
13.037037037
  9
$CELTYPE
  6
BYLAYER
  9
$DIMSCALE
 40
1.0
  9
$DIMASZ
 40
3.5
  9
$DIMEXO
 40
0.0
  9
$DIMDLI
 40
9.0074074074
  9
$DIMEXE
 40
2.0
  9
$DIMCEN
 40
2.1333333333
  9
$DIMLFAC
 40
1.0
  9
$DIMBLK
  1
_ARROW_FILLED
  9
$DIMALT
 70
0
  9
$DIMALTF
 40
25.4
  9
$DIMTXT
 40
3.5
  9
$DIMTOL
 70
1
  9
$DIMLIM
 70
0
  9
$DIMTFAC
 40
1.0
  9
$DIMTP
 40
0.01
  9
$DIMTM
 40
0.01
  9
$DIMGAP
 40
0.625
  9
$AUNITS
 70
0
  9
$PDMODE
 70
0
  9
$PDSIZE
 40
0.04
  9
$HANDSEED
  5
329
  9
$TILEMODE
 70
1
  9
$MEASUREMENT
 70
1
  0
ENDSEC
  0
SECTION
  2
CLASSES
  0
ENDSEC
  0
SECTION
  2
TABLES
  0
TABLE
  2
VPORT
  5
8
100
AcDbSymbolTable
 70
2
  0
VPORT
  5
1F4
100
AcDbSymbolTableRecord
100
AcDbViewportTableRecord
  2
*ACTIVE
 70
0
 10
0.0
 20
0.0
 11
1.0
 21
1.0
 12
29.972
 22
100.0
 13
0.0
 23
0.0
 14
1.0
 24
1.0
 15
0.0
 25
0.0
 16
0.0
 26
0.0
 36
1.0
 17
0.0
 27
0.0
 37
0.0
 40
200.0
 41
0.29972
 42
50.0
 43
0.0
 44
0.0
 50
0.0
 51
0.0
 71
0
 72
100
 73
1
 74
1
 75
0
 76
0
 77
0
 78
0
  0
ENDTAB
  0
TABLE
  2
LTYPE
  5
5
100
AcDbSymbolTable
 70
6
  0
LTYPE
  5
14
100
AcDbSymbolTableRecord
100
AcDbLinetypeTableRecord
  2
BYBLOCK
 70
0
  3

 72
65
 73
0
 40
0.0
  0
LTYPE
  5
15
100
AcDbSymbolTableRecord
100
AcDbLinetypeTableRecord
  2
BYLAYER
 70
0
  3

 72
65
 73
0
 40
0.0
  0
LTYPE
  5
16
100
AcDbSymbolTableRecord
100
AcDbLinetypeTableRecord
  2
CONTINUOUS
 70
64
  3
Solid line
 72
65
 73
0
 40
0.0
  0
LTYPE
  5
1F5
100
AcDbSymbolTableRecord
100
AcDbLinetypeTableRecord
  2
CENTER
 70
64
  3
____ _ ____ _ ____ _ ____ _ ____ _ ____ _ ____
 72
65
 73
4
 40
0.6
 49
0.375
 74
0
 49
-0.075
 74
0
 49
0.075
 74
0
 49
-0.075
 74
0
  0
LTYPE
  5
1F6
100
AcDbSymbolTableRecord
100
AcDbLinetypeTableRecord
  2
HIDDEN
 70
64
  3
- - - - - - - - - - - - - - - - - - - -
 72
65
 73
2
 40
0.2
 49
0.1
 74
0
 49
-0.1
 74
0
  0
LTYPE
  5
1F7
100
AcDbSymbolTableRecord
100
AcDbLinetypeTableRecord
  2
PHANTOM
 70
64
  3
_____ _ _ _____ _ _ _____ _ _ _____
 72
65
 73
6
 40
0.8
 49
0.45
 74
0
 49
-0.05
 74
0
 49
0.1
 74
0
 49
-0.05
 74
0
 49
0.1
 74
0
 49
-0.05
 74
0
  0
LTYPE
  5
1F8
100
AcDbSymbolTableRecord
100
AcDbLinetypeTableRecord
  2
DOT
 70
64
  3
. . . . . . . . . . . . . . . . . . . .
 72
65
 73
2
 40
0.2
 49
0.1
 74
0
 49
-0.1
 74
0
  0
LTYPE
  5
1F9
100
AcDbSymbolTableRecord
100
AcDbLinetypeTableRecord
  2
DASHED
 70
64
  3
- - - - - - - - - - - - - - - - - - - -
 72
65
 73
2
 40
0.2
 49
0.1
 74
0
 49
-0.1
 74
0
  0
ENDTAB
  0
TABLE
  2
LAYER
  5
2
100
AcDbSymbolTable
 70
36
  0
LAYER
  5
10
100
AcDbSymbolTableRecord
100
AcDbLayerTableRecord
  2
0
 70
0
 62
7
  6
CONTINUOUS
  0
LAYER
  5
1FA
100
AcDbSymbolTableRecord
100
AcDbLayerTableRecord
  2
DEFAULT_1
 70
0
 62
7
  6
CENTER
  0
LAYER
  5
1FB
100
AcDbSymbolTableRecord
100
AcDbLayerTableRecord
  2
DEFAULT_2
 70
0
 62
8
  6
HIDDEN
  0
LAYER
  5
1FC
100
AcDbSymbolTableRecord
100
AcDbLayerTableRecord
  2
DEFAULT_3
 70
0
 62
7
  6
PHANTOM
  0
LAYER
  5
1FD
100
AcDbSymbolTableRecord
100
AcDbLayerTableRecord
  2
A_ACHSEN
 70
0
 62
7
  6
CONTINUOUS
  0
LAYER
  5
1FE
100
AcDbSymbolTableRecord
100
AcDbLayerTableRecord
  2
A_BASISEBENEN
 70
0
 62
7
  6
CONTINUOUS
  0
LAYER
  5
1FF
100
AcDbSymbolTableRecord
100
AcDbLayerTableRecord
  2
A_BEMASSUNGEN
 70
0
 62
7
  6
CONTINUOUS
  0
LAYER
  5
200
100
AcDbSymbolTableRecord
100
AcDbLayerTableRecord
  2
A_BOHRUNGEN
 70
0
 62
7
  6
CONTINUOUS
  0
LAYER
  5
201
100
AcDbSymbolTableRecord
100
AcDbLayerTableRecord
  2
A_EBENEN
 70
0
 62
7
  6
CONTINUOUS
  0
LAYER
  5
202
100
AcDbSymbolTableRecord
100
AcDbLayerTableRecord
  2
A_FASEN
 70
0
 62
7
  6
CONTINUOUS
  0
LAYER
  5
203
100
AcDbSymbolTableRecord
100
AcDbLayerTableRecord
  2
A_FLAECHEN
 70
0
 62
7
  6
CONTINUOUS
  0
LAYER
  5
204
100
AcDbSymbolTableRecord
100
AcDbLayerTableRecord
  2
A_FL_VERBAENDE
 70
0
 62
7
  6
CONTINUOUS
  0
LAYER
  5
205
100
AcDbSymbolTableRecord
100
AcDbLayerTableRecord
  2
A_KURVEN
 70
0
 62
7
  6
CONTINUOUS
  0
LAYER
  5
206
100
AcDbSymbolTableRecord
100
AcDbLayerTableRecord
  2
A_NOTIZEN_SYMB
 70
0
 62
7
  6
CONTINUOUS
  0
LAYER
  5
207
100
AcDbSymbolTableRecord
100
AcDbLayerTableRecord
  2
A_PUNKTE
 70
0
 62
7
  6
CONTINUOUS
  0
LAYER
  5
208
100
AcDbSymbolTableRecord
100
AcDbLayerTableRecord
  2
A_RUNDUNGEN
 70
0
 62
7
  6
CONTINUOUS
  0
LAYER
  5
209
100
AcDbSymbolTableRecord
100
AcDbLayerTableRecord
  2
A_TABELLEN
 70
0
 62
7
  6
CONTINUOUS
  0
LAYER
  5
20A
100
AcDbSymbolTableRecord
100
AcDbLayerTableRecord
  2
BASISEBENEN
 70
0
 62
7
  6
CONTINUOUS
  0
LAYER
  5
20B
100
AcDbSymbolTableRecord
100
AcDbLayerTableRecord
  2
XSEC_DATUMS
 70
0
 62
7
  6
CONTINUOUS
  0
ENDTAB
  0
TABLE
  2
STYLE
  5
3
100
AcDbSymbolTable
 70
1
  0
STYLE
  5
11
100
AcDbSymbolTableRecord
100
AcDbTextStyleTableRecord
  2
STANDARD
 70
0
 40
0.0
 41
1.0
 50
0.0
 71
0
 42
0.2
  3
txt
  4

  0
STYLE
  5
20C
100
AcDbSymbolTableRecord
100
AcDbTextStyleTableRecord
  2
TEXTSTYLE_1
 70
0
 40
0.0
 41
0.8
 50
0.0
 71
0
 42
0.2
  3
gdt
  4

  0
STYLE
  5
20D
100
AcDbSymbolTableRecord
100
AcDbTextStyleTableRecord
  2
TEXTSTYLE_2
 70
0
 40
0.0
 41
1.0
 50
0.0
 71
0
 42
0.2
  3
txt
  4

  0
ENDTAB
  0
TABLE
  2
VIEW
  5
6
100
AcDbSymbolTable
 70
0
  0
ENDTAB
  0
TABLE
  2
UCS
  5
7
100
AcDbSymbolTable
 70
0
  0
ENDTAB
  0
TABLE
  2
APPID
  5
9
100
AcDbSymbolTable
 70
1
  0
APPID
  5
20E
100
AcDbSymbolTableRecord
100
AcDbRegAppTableRecord
  2
ACAD
 70
0
  0
ENDTAB
  0
TABLE
  2
BLOCK_RECORD
  5
1
100
AcDbSymbolTable
 70
0
  0
BLOCK_RECORD
  5
1F
100
AcDbSymbolTableRecord
100
AcDbBlockTableRecord
  2
*MODEL_SPACE
  0
BLOCK_RECORD
  5
1B
100
AcDbSymbolTableRecord
100
AcDbBlockTableRecord
  2
*PAPER_SPACE
  0
BLOCK_RECORD
  5
20F
100
AcDbSymbolTableRecord
100
AcDbBlockTableRecord
  2
_ARROW_FILLED
  0
BLOCK_RECORD
  5
210
100
AcDbSymbolTableRecord
100
AcDbBlockTableRecord
  2
*D0
  0
BLOCK_RECORD
  5
211
100
AcDbSymbolTableRecord
100
AcDbBlockTableRecord
  2
*D1
  0
BLOCK_RECORD
  5
212
100
AcDbSymbolTableRecord
100
AcDbBlockTableRecord
  2
*D2
  0
ENDTAB
  0
TABLE
  2
DIMSTYLE
  5
A
100
AcDbSymbolTable
 70
1
  0
DIMSTYLE
105
213
100
AcDbSymbolTableRecord
100
AcDbDimStyleTableRecord
  2
STANDARD
 70
0
  3

  4

  5
_ARROW_FILLED
  6
_ARROW_FILLED
  7
_ARROW_FILLED
 40
1.0
 41
3.5
 42
0.0
 43
0.38
 44
2.0
 45
0.0
 46
0.0
 47
0.01
 48
0.01
140
3.5
141
0.09
142
0.0
143
25.4
144
1.0
145
0.0
146
1.0
147
0.625
 71
1.0
 72
0.0
 73
0
 74
0
 75
0
 76
0
 77
1
 78
8
170
0
171
1
172
0
173
0
174
0
175
0
176
0
177
0
178
5
270
2
271
2
272
2
273
2
274
2
275
0
280
0
281
0
282
0
283
1
284
8
285
0
286
0
287
3
288
0
340
11
  0
DIMSTYLE
105
214
100
AcDbSymbolTableRecord
100
AcDbDimStyleTableRecord
  2
DIMSTYLE_1
 70
0
  3

  4

  5
_ARROW_FILLED
  6
_ARROW_FILLED
  7
_ARROW_FILLED
 40
1.0
 41
3.5
 42
0.0
 43
0.38
 44
2.0
 45
0.0
 46
0.0
 47
0.2
 48
0.2
140
3.5
141
0.09
142
0.0
143
25.4
144
1.0
145
0.0
146
1.0
147
0.875
 71
0.0
 72
0.0
 73
0
 74
0
 75
0
 76
0
 77
1
 78
8
170
0
171
1
172
0
173
0
174
0
175
0
176
0
177
0
178
5
270
2
271
4
272
-1
273
2
274
2
275
0
280
0
281
0
282
0
283
1
284
8
285
0
286
0
287
3
288
0
340
20D
  0
DIMSTYLE
105
215
100
AcDbSymbolTableRecord
100
AcDbDimStyleTableRecord
  2
DIMSTYLE_2
 70
0
  3

  4

  5
_ARROW_FILLED
  6
_ARROW_FILLED
  7
_ARROW_FILLED
 40
1.0
 41
3.5
 42
0.0
 43
0.38
 44
2.0
 45
0.0
 46
0.0
 47
0.5
 48
0.5
140
3.5
141
0.09
142
0.0
143
25.4
144
1.0
145
0.0
146
1.0
147
0.875
 71
0.0
 72
0.0
 73
0
 74
0
 75
0
 76
0
 77
1
 78
8
170
0
171
1
172
0
173
0
174
0
175
0
176
0
177
0
178
5
270
2
271
4
272
-1
273
2
274
2
275
0
280
0
281
0
282
0
283
1
284
8
285
0
286
0
287
3
288
0
340
20D
  0
ENDTAB
  0
ENDSEC
  0
SECTION
  2
BLOCKS
  0
BLOCK
  5
20
100
AcDbEntity
  8
0
100
AcDbBlockBegin
  2
*MODEL_SPACE
 70
0
 10
0.0
 20
0.0
 30
0.0
  3
*MODEL_SPACE
  1

  0
ENDBLK
  5
21
100
AcDbEntity
  8
0
100
AcDbBlockEnd
  0
BLOCK
  5
1C
100
AcDbEntity
  8
0
100
AcDbBlockBegin
  2
*PAPER_SPACE
 70
0
 10
0.0
 20
0.0
 30
0.0
  3
*PAPER_SPACE
  1

  0
ENDBLK
  5
1D
100
AcDbEntity
  8
0
100
AcDbBlockEnd
  0
BLOCK
  5
216
100
AcDbEntity
  8
0
100
AcDbBlockBegin
  2
_ARROW_FILLED
 70
64
 10
0.0
 20
0.0
  3
_ARROW_FILLED
  1

  0
SOLID
  5
217
100
AcDbEntity
  8
0
  6
BYBLOCK
 62
0
100
AcDbTrace
 10
0.0
 20
0.0
 11
-1.0
 21
0.0940374286
 12
-1.0
 22
-0.0940374286
 13
-1.0
 23
-0.0940374286
  0
ENDBLK
  5
218
100
AcDbEntity
  8
0
  6
BYBLOCK
 62
0
100
AcDbBlockEnd
  0
BLOCK
  5
219
100
AcDbEntity
  8
A_BEMASSUNGEN
100
AcDbBlockBegin
 62
2
  6
CONTINUOUS
  2
*D0
 70
65
 10
0.0
 20
0.0
  3
*D0
  1

  0
MTEXT
  5
21A
100
AcDbEntity
  8
A_BEMASSUNGEN
100
AcDbMText
 62
5
  6
CONTINUOUS
  7
TEXTSTYLE_2
 71
2
 72
1
 10
40.6432151284
 20
8.7791017324
 30
0.0
 11
1.0
 21
0.0
 31
0.0
  1
24
 40
3.5
 41
8.25
  0
LINE
  5
21B
100
AcDbEntity
  8
A_BEMASSUNGEN
100
AcDbLine
 62
2
  6
CONTINUOUS
 10
52.6432151284
 20
29.7888724748
 11
52.6432151284
 21
2.4041017324
  0
LINE
  5
21C
100
AcDbEntity
  8
A_BEMASSUNGEN
100
AcDbLine
 62
2
  6
CONTINUOUS
 10
28.6432151284
 20
33.0142201391
 11
28.6432151284
 21
17.9812443439
  0
LINE
  5
21D
100
AcDbEntity
  8
A_BEMASSUNGEN
100
AcDbLine
 62
2
  6
CONTINUOUS
 10
28.6432151284
 20
13.5330995475
 11
28.6432151284
 21
2.4041017324
  0
LINE
  5
21E
100
AcDbEntity
  8
A_BEMASSUNGEN
100
AcDbLine
 62
2
  6
CONTINUOUS
 10
52.6432151284
 20
4.4041017324
 11
40.6432151284
 21
4.4041017324
  0
LINE
  5
21F
100
AcDbEntity
  8
A_BEMASSUNGEN
100
AcDbLine
 62
2
  6
CONTINUOUS
 10
28.6432151284
 20
4.4041017324
 11
40.6432151284
 21
4.4041017324
  0
INSERT
  5
220
100
AcDbEntity
  8
A_BEMASSUNGEN
100
AcDbBlockReference
 62
2
  6
CONTINUOUS
  2
_ARROW_FILLED
 10
52.6432151284
 20
4.4041017324
 41
3.5
 42
3.5
 43
3.5
  0
INSERT
  5
221
100
AcDbEntity
  8
A_BEMASSUNGEN
100
AcDbBlockReference
 62
2
  6
CONTINUOUS
  2
_ARROW_FILLED
 10
28.6432151284
 20
4.4041017324
 41
3.5
 42
3.5
 43
3.5
 50
180.0
  0
ENDBLK
  5
222
100
AcDbEntity
  8
0
  6
BYBLOCK
 62
0
100
AcDbBlockEnd
  0
BLOCK
  5
223
100
AcDbEntity
  8
A_BEMASSUNGEN
100
AcDbBlockBegin
 62
2
  6
CONTINUOUS
  2
*D1
 70
65
 10
0.0
 20
0.0
  3
*D1
  1

  0
MTEXT
  5
224
100
AcDbEntity
  8
A_BEMASSUNGEN
100
AcDbMText
 62
5
  6
CONTINUOUS
  7
TEXTSTYLE_2
 71
2
 72
1
 10
4.0166135747
 20
105.3165419762
 30
0.0
 11
0.0
 21
1.0
 31
0.0
  1
180
 40
3.5
 41
11.25
  0
LINE
  5
225
100
AcDbEntity
  8
A_BEMASSUNGEN
100
AcDbLine
 62
2
  6
CONTINUOUS
 10
40.6432151284
 20
195.3165419762
 11
6.3916135747
 21
195.3165419762
  0
LINE
  5
226
100
AcDbEntity
  8
A_BEMASSUNGEN
100
AcDbLine
 62
2
  6
CONTINUOUS
 10
40.6432151284
 20
15.3165419762
 11
6.3916135747
 21
15.3165419762
  0
LINE
  5
227
100
AcDbEntity
  8
A_BEMASSUNGEN
100
AcDbLine
 62
2
  6
CONTINUOUS
 10
8.3916135747
 20
195.3165419762
 11
8.3916135747
 21
105.3165419762
  0
LINE
  5
228
100
AcDbEntity
  8
A_BEMASSUNGEN
100
AcDbLine
 62
2
  6
CONTINUOUS
 10
8.3916135747
 20
15.3165419762
 11
8.3916135747
 21
105.3165419762
  0
INSERT
  5
229
100
AcDbEntity
  8
A_BEMASSUNGEN
100
AcDbBlockReference
 62
2
  6
CONTINUOUS
  2
_ARROW_FILLED
 10
8.3916135747
 20
195.3165419762
 41
3.5
 42
3.5
 43
3.5
 50
90.0
  0
INSERT
  5
22A
100
AcDbEntity
  8
A_BEMASSUNGEN
100
AcDbBlockReference
 62
2
  6
CONTINUOUS
  2
_ARROW_FILLED
 10
8.3916135747
 20
15.3165419762
 41
3.5
 42
3.5
 43
3.5
 50
270.0
  0
ENDBLK
  5
22B
100
AcDbEntity
  8
0
  6
BYBLOCK
 62
0
100
AcDbBlockEnd
  0
BLOCK
  5
22C
100
AcDbEntity
  8
A_BEMASSUNGEN
100
AcDbBlockBegin
 62
2
  6
CONTINUOUS
  2
*D2
 70
65
 10
0.0
 20
0.0
  3
*D2
  1

  0
MTEXT
  5
22D
100
AcDbEntity
  8
A_BEMASSUNGEN
100
AcDbMText
 62
5
  6
CONTINUOUS
  7
TEXTSTYLE_2
 71
2
 72
1
 10
15.6815909502
 20
105.3165419762
 30
0.0
 11
0.0
 21
1.0
 31
0.0
  1
156
 40
3.5
 41
10.875
  0
LINE
  5
22E
100
AcDbEntity
  8
A_BEMASSUNGEN
100
AcDbLine
 62
2
  6
CONTINUOUS
 10
33.6432151284
 20
183.3165419762
 11
18.0565909502
 21
183.3165419762
  0
LINE
  5
22F
100
AcDbEntity
  8
A_BEMASSUNGEN
100
AcDbLine
 62
2
  6
CONTINUOUS
 10
33.8932151284
 20
27.3165419762
 11
18.0565909502
 21
27.3165419762
  0
LINE
  5
230
100
AcDbEntity
  8
A_BEMASSUNGEN
100
AcDbLine
 62
2
  6
CONTINUOUS
 10
20.0565909502
 20
183.3165419762
 11
20.0565909502
 21
105.3165419762
  0
LINE
  5
231
100
AcDbEntity
  8
A_BEMASSUNGEN
100
AcDbLine
 62
2
  6
CONTINUOUS
 10
20.0565909502
 20
27.3165419762
 11
20.0565909502
 21
105.3165419762
  0
INSERT
  5
232
100
AcDbEntity
  8
A_BEMASSUNGEN
100
AcDbBlockReference
 62
2
  6
CONTINUOUS
  2
_ARROW_FILLED
 10
20.0565909502
 20
183.3165419762
 41
3.5
 42
3.5
 43
3.5
 50
90.0
  0
INSERT
  5
233
100
AcDbEntity
  8
A_BEMASSUNGEN
100
AcDbBlockReference
 62
2
  6
CONTINUOUS
  2
_ARROW_FILLED
 10
20.0565909502
 20
27.3165419762
 41
3.5
 42
3.5
 43
3.5
 50
270.0
  0
ENDBLK
  5
234
100
AcDbEntity
  8
0
  6
BYBLOCK
 62
0
100
AcDbBlockEnd
  0
ENDSEC
  0
SECTION
  2
ENTITIES
  0
DIMENSION
  5
235
100
AcDbEntity
  8
A_BEMASSUNGEN
100
AcDbDimension
 62
2
  6
CONTINUOUS
  2
*D0
 10
28.6432151284
 20
4.4041017324
 11
40.1432094907
 21
4.4041017324
 70
160
  3
DIMSTYLE_1
100
AcDbAlignedDimension
 13
52.6432151284
 23
29.7888724748
 14
28.6432151284
 24
33.0142201391
 50
180.0
100
AcDbRotatedDimension
  0
DIMENSION
  5
236
100
AcDbEntity
  8
A_BEMASSUNGEN
100
AcDbDimension
 62
2
  6
CONTINUOUS
  2
*D1
 10
8.3916135747
 20
15.3165419762
 11
8.3916135747
 21
104.8165392233
 70
160
  3
DIMSTYLE_2
100
AcDbAlignedDimension
 13
40.6432151284
 23
195.3165419762
 14
40.6432151284
 24
15.3165419762
 50
270.0
100
AcDbRotatedDimension
  0
DIMENSION
  5
237
100
AcDbEntity
  8
A_BEMASSUNGEN
100
AcDbDimension
 62
2
  6
CONTINUOUS
  2
*D2
 10
20.0565909502
 20
27.3165419762
 11
20.0565909502
 21
104.8165430399
 70
160
  3
DIMSTYLE_2
100
AcDbAlignedDimension
 13
33.6432151284
 23
183.3165419762
 14
33.8932151284
 24
27.3165419762
 50
270.0
100
AcDbRotatedDimension
  0
LINE
  5
238
100
AcDbEntity
  8
A_ACHSEN
100
AcDbLine
 62
7
  6
CENTER
 10
40.6432151284
 20
27.3165419762
 11
33.8932151284
 21
27.3165419762
  0
LINE
  5
239
100
AcDbEntity
  8
A_ACHSEN
100
AcDbLine
 62
7
  6
CENTER
 10
40.6432151284
 20
27.3165419762
 11
47.3932151284
 21
27.3165419762
  0
LINE
  5
23A
100
AcDbEntity
  8
0
100
AcDbLine
 62
7
  6
CONTINUOUS
 10
39.1998394555
 20
46.8165419762
 11
42.0865908014
 21
46.8165419762
  0
LINE
  5
23B
100
AcDbEntity
  8
A_ACHSEN
100
AcDbLine
 62
7
  6
CENTER
 10
40.6432151284
 20
49.3165419762
 11
29.6432151284
 21
49.3165419762
  0
LINE
  5
23C
100
AcDbEntity
  8
A_ACHSEN
100
AcDbLine
 62
7
  6
CENTER
 10
40.6432151284
 20
49.3165419762
 11
51.6432151284
 21
49.3165419762
  0
LINE
  5
23D
100
AcDbEntity
  8
0
100
AcDbLine
 62
7
  6
CONTINUOUS
 10
42.0865908014
 20
51.8165419762
 11
39.1998394555
 21
51.8165419762
  0
LINE
  5
23E
100
AcDbEntity
  8
A_RUNDUNGEN
100
AcDbLine
 62
7
  6
CONTINUOUS
 10
52.6432151284
 20
171.0787836554
 11
52.30475018
 21
170.7403187069
  0
LINE
  5
23F
100
AcDbEntity
  8
A_RUNDUNGEN
100
AcDbLine
 62
7
  6
CONTINUOUS
 10
51.8234570346
 20
168.1756922282
 11
50.6674328942
 21
167.0196680878
  0
LINE
  5
240
100
AcDbEntity
  8
0
100
AcDbLine
 62
7
  6
CONTINUOUS
 10
28.8432151284
 20
149.5196902924
 11
29.6432151284
 21
150.319592654
  0
LINE
  5
241
100
AcDbEntity
  8
0
100
AcDbLine
 62
7
  6
CONTINUOUS
 10
28.8432151284
 20
61.1133936601
 11
29.6432151284
 21
60.3134912984
  0
LINE
  5
242
100
AcDbEntity
  8
A_RUNDUNGEN
100
AcDbLine
 62
7
  6
CONTINUOUS
 10
52.6432151284
 20
39.5543002971
 11
52.3044175763
 21
39.8930978492
  0
LINE
  5
243
100
AcDbEntity
  8
A_RUNDUNGEN
100
AcDbLine
 62
7
  6
CONTINUOUS
 10
50.6674332112
 20
43.6134155477
 11
51.8234570346
 21
42.4573917242
  0
LINE
  5
244
100
AcDbEntity
  8
0
100
AcDbLine
 62
7
  6
CONTINUOUS
 10
39.1998394555
 20
163.8165419762
 11
37.7564637825
 21
161.3165419762
  0
LINE
  5
245
100
AcDbEntity
  8
0
100
AcDbLine
 62
7
  6
CONTINUOUS
 10
29.6432151284
 20
70.3165419762
 11
51.6432151284
 21
70.3165419762
  0
LINE
  5
246
100
AcDbEntity
  8
0
100
AcDbLine
 62
7
  6
CONTINUOUS
 10
36.1998394555
 20
74.8165419762
 11
39.0865908014
 21
74.8165419762
  0
LINE
  5
247
100
AcDbEntity
  8
0
100
AcDbLine
 62
7
  6
CONTINUOUS
 10
37.7564637825
 20
49.3165419762
 11
39.1998394555
 21
46.8165419762
  0
LINE
  5
248
100
AcDbEntity
  8
0
100
AcDbLine
 62
7
  6
CONTINUOUS
 10
42.0865908014
 20
158.8165419762
 11
43.5299664744
 21
161.3165419762
  0
LINE
  5
249
100
AcDbEntity
  8
A_ACHSEN
100
AcDbLine
 62
7
  6
CENTER
 10
37.6432151284
 20
77.3165419762
 11
29.6432151284
 21
77.3165419762
  0
LINE
  5
24A
100
AcDbEntity
  8
A_ACHSEN
100
AcDbLine
 62
7
  6
CENTER
 10
37.6432151284
 20
77.3165419762
 11
45.6432151284
 21
77.3165419762
  0
LINE
  5
24B
100
AcDbEntity
  8
0
100
AcDbLine
 62
7
  6
CONTINUOUS
 10
39.0865908014
 20
79.8165419762
 11
36.1998394555
 21
79.8165419762
  0
LINE
  5
24C
100
AcDbEntity
  8
0
100
AcDbLine
 62
7
  6
CONTINUOUS
 10
43.5299664744
 20
49.3165419762
 11
42.0865908014
 21
51.8165419762
  0
LINE
  5
24D
100
AcDbEntity
  8
0
100
AcDbLine
 62
7
  6
CONTINUOUS
 10
36.1998394555
 20
135.8165419762
 11
34.7564637825
 21
133.3165419762
  0
LINE
  5
24E
100
AcDbEntity
  8
0
100
AcDbLine
 62
7
  6
CONTINUOUS
 10
34.7564637825
 20
77.3165419762
 11
36.1998394555
 21
74.8165419762
  0
LINE
  5
24F
100
AcDbEntity
  8
A_RUNDUNGEN
100
AcDbLine
 62
7
  6
CONTINUOUS
 10
28.6432151284
 20
27.3165419762
 11
28.6432151284
 21
40.2744822395
  0
LINE
  5
250
100
AcDbEntity
  8
0
100
AcDbLine
 62
7
  6
CONTINUOUS
 10
28.6432151284
 20
46.8165419762
 11
28.6432151284
 21
54.1407187041
  0
LINE
  5
251
100
AcDbEntity
  8
0
100
AcDbLine
 62
7
  6
CONTINUOUS
 10
28.6432151284
 20
62.4923652483
 11
28.6432151284
 21
148.1407187041
  0
LINE
  5
252
100
AcDbEntity
  8
0
100
AcDbLine
 62
7
  6
CONTINUOUS
 10
28.6432151284
 20
156.4923652483
 11
28.6432151284
 21
163.8165419762
  0
LINE
  5
253
100
AcDbEntity
  8
A_RUNDUNGEN
100
AcDbLine
 62
7
  6
CONTINUOUS
 10
28.6432151284
 20
171.0787836554
 11
28.6432151284
 21
183.3165419762
  0
LINE
  5
254
100
AcDbEntity
  8
0
100
AcDbLine
 62
7
  6
CONTINUOUS
 10
28.8432151284
 20
69.5748608292
 11
28.8432151284
 21
61.1133936601
  0
LINE
  5
255
100
AcDbEntity
  8
0
100
AcDbLine
 62
7
  6
CONTINUOUS
 10
28.8432151284
 20
141.0582231233
 11
28.8432151284
 21
149.5196902924
  0
LINE
  5
256
100
AcDbEntity
  8
0
100
AcDbLine
 62
7
  6
CONTINUOUS
 10
39.0865908014
 20
130.8165419762
 11
40.5299664744
 21
133.3165419762
  0
LINE
  5
257
100
AcDbEntity
  8
0
100
AcDbLine
 62
7
  6
CONTINUOUS
 10
52.4432151284
 20
141.1207154953
 11
51.6389434497
 21
140.3165419762
  0
LINE
  5
258
100
AcDbEntity
  8
0
100
AcDbLine
 62
7
  6
CONTINUOUS
 10
52.4432151284
 20
141.0582307503
 11
51.6432151284
 21
140.2583283887
  0
LINE
  5
259
100
AcDbEntity
  8
0
100
AcDbLine
 62
7
  6
CONTINUOUS
 10
42.715716509
 20
122.0608526399
 11
42.3626943666
 21
121.8823725169
  0
LINE
  5
25A
100
AcDbEntity
  8
0
100
AcDbLine
 62
7
  6
CONTINUOUS
 10
37.6130435243
 20
119.9150027215
 11
37.2372146683
 21
119.791582876
  0
LINE
  5
25B
100
AcDbEntity
  8
0
100
AcDbLine
 62
7
  6
CONTINUOUS
 10
43.6733867326
 20
118.7180812309
 11
44.0492155886
 21
118.8415010765
  0
LINE
  5
25C
100
AcDbEntity
  8
A_ACHSEN
100
AcDbLine
 62
7
  6
CENTER
 10
40.6432151284
 20
91.3165419762
 11
32.1432151284
 21
91.3165419762
  0
LINE
  5
25D
100
AcDbEntity
  8
A_ACHSEN
100
AcDbLine
 62
7
  6
CENTER
 10
40.6432151284
 20
91.3165419762
 11
49.1432151284
 21
91.3165419762
  0
LINE
  5
25E
100
AcDbEntity
  8
0
100
AcDbLine
 62
7
  6
CONTINUOUS
 10
37.2372146683
 20
90.8415010765
 11
37.6130435243
 21
90.7180812309
  0
LINE
  5
25F
100
AcDbEntity
  8
0
100
AcDbLine
 62
7
  6
CONTINUOUS
 10
44.0492155886
 20
91.791582876
 11
43.6733867326
 21
91.9150027215
  0
LINE
  5
260
100
AcDbEntity
  8
0
100
AcDbLine
 62
7
  6
CONTINUOUS
 10
42.3626943666
 20
88.7507114355
 11
42.715716509
 21
88.5722313126
  0
LINE
  5
261
100
AcDbEntity
  8
0
100
AcDbLine
 62
7
  6
CONTINUOUS
 10
52.4432151284
 20
69.5123684572
 11
51.6389434497
 21
70.3165419762
  0
LINE
  5
262
100
AcDbEntity
  8
0
100
AcDbLine
 62
7
  6
CONTINUOUS
 10
51.6432151284
 20
70.3747631908
 11
52.4432151284
 21
69.5748608292
  0
LINE
  5
263
100
AcDbEntity
  8
0
100
AcDbLine
 62
7
  6
CONTINUOUS
 10
40.5299664744
 20
77.3165419762
 11
39.0865908014
 21
79.8165419762
  0
LINE
  5
264
100
AcDbEntity
  8
A_RUNDUNGEN
100
AcDbLine
 62
7
  6
CONTINUOUS
 10
29.6432151284
 20
49.3165419762
 11
29.6432151284
 21
60.3134912984
  0
LINE
  5
265
100
AcDbEntity
  8
0
100
AcDbLine
 62
7
  6
CONTINUOUS
 10
29.6432151284
 20
70.3165419762
 11
29.6432151284
 21
140.3165419762
  0
LINE
  5
266
100
AcDbEntity
  8
A_RUNDUNGEN
100
AcDbLine
 62
7
  6
CONTINUOUS
 10
29.6432151284
 20
150.319592654
 11
29.6432151284
 21
161.3165419762
  0
LINE
  5
267
100
AcDbEntity
  8
A_RUNDUNGEN
100
AcDbLine
 62
7
  6
CONTINUOUS
 10
30.2770704783
 20
169.2156016658
 11
30.2770589201
 21
167.426204072
  0
LINE
  5
268
100
AcDbEntity
  8
0
100
AcDbLine
 62
7
  6
CONTINUOUS
 10
40.1681742287
 20
122.7225424364
 11
40.0447543831
 21
122.3467135804
  0
LINE
  5
269
100
AcDbEntity
  8
0
100
AcDbLine
 62
7
  6
CONTINUOUS
 10
38.0773845877
 20
117.5970627381
 11
37.8989044648
 21
117.2440405957
  0
LINE
  5
26A
100
AcDbEntity
  8
0
100
AcDbLine
 62
7
  6
CONTINUOUS
 10
38.5707137479
 20
116.5722313126
 11
38.9237358903
 21
116.7507114355
  0
LINE
  5
26B
100
AcDbEntity
  8
0
100
AcDbLine
 62
7
  6
CONTINUOUS
 10
38.9237358903
 20
93.8823725169
 11
38.5707137479
 21
94.0608526399
  0
LINE
  5
26C
100
AcDbEntity
  8
0
100
AcDbLine
 62
7
  6
CONTINUOUS
 10
37.8989044648
 20
93.3890433568
 11
38.0773845877
 21
93.0360212144
  0
LINE
  5
26D
100
AcDbEntity
  8
0
100
AcDbLine
 62
7
  6
CONTINUOUS
 10
40.0447543831
 20
88.2863703721
 11
40.1681742287
 21
87.910541516
  0
LINE
  5
26E
100
AcDbEntity
  8
A_ACHSEN
100
AcDbLine
 62
7
  6
CENTER
 10
37.6432151284
 20
133.3165419762
 11
37.6432151284
 21
125.3165419762
  0
LINE
  5
26F
100
AcDbEntity
  8
A_ACHSEN
100
AcDbLine
 62
7
  6
CENTER
 10
37.6432151284
 20
105.3165419762
 11
37.6432151284
 21
97.3165419762
  0
LINE
  5
270
100
AcDbEntity
  8
A_ACHSEN
100
AcDbLine
 62
7
  6
CENTER
 10
37.6432151284
 20
77.3165419762
 11
37.6432151284
 21
69.3165419762
  0
LINE
  5
271
100
AcDbEntity
  8
A_ACHSEN
100
AcDbLine
 62
7
  6
CENTER
 10
37.6432151284
 20
77.3165419762
 11
37.6432151284
 21
85.3165419762
  0
LINE
  5
272
100
AcDbEntity
  8
A_ACHSEN
100
AcDbLine
 62
7
  6
CENTER
 10
37.6432151284
 20
105.3165419762
 11
37.6432151284
 21
113.3165419762
  0
LINE
  5
273
100
AcDbEntity
  8
A_ACHSEN
100
AcDbLine
 62
7
  6
CENTER
 10
37.6432151284
 20
133.3165419762
 11
37.6432151284
 21
141.3165419762
  0
LINE
  5
274
100
AcDbEntity
  8
A_ACHSEN
100
AcDbLine
 62
7
  6
CENTER
 10
40.6432151284
 20
183.3165419762
 11
40.6432151284
 21
176.3165419762
  0
LINE
  5
275
100
AcDbEntity
  8
A_ACHSEN
100
AcDbLine
 62
7
  6
CENTER
 10
40.6432151284
 20
161.3165419762
 11
40.6432151284
 21
150.3165419762
  0
LINE
  5
276
100
AcDbEntity
  8
A_ACHSEN
100
AcDbLine
 62
7
  6
CENTER
 10
40.6432151284
 20
119.3165419762
 11
40.6432151284
 21
110.8165419762
  0
LINE
  5
277
100
AcDbEntity
  8
A_ACHSEN
100
AcDbLine
 62
7
  6
CENTER
 10
40.6432151284
 20
91.3165419762
 11
40.6432151284
 21
82.8165419762
  0
LINE
  5
278
100
AcDbEntity
  8
A_ACHSEN
100
AcDbLine
 62
7
  6
CENTER
 10
40.6432151284
 20
49.3165419762
 11
40.6432151284
 21
38.3165419762
  0
LINE
  5
279
100
AcDbEntity
  8
A_ACHSEN
100
AcDbLine
 62
7
  6
CENTER
 10
40.6432151284
 20
27.3165419762
 11
40.6432151284
 21
20.5665419762
  0
LINE
  5
27A
100
AcDbEntity
  8
A_ACHSEN
100
AcDbLine
 62
7
  6
CENTER
 10
40.6432151284
 20
27.3165419762
 11
40.6432151284
 21
34.0665419762
  0
LINE
  5
27B
100
AcDbEntity
  8
A_ACHSEN
100
AcDbLine
 62
7
  6
CENTER
 10
40.6432151284
 20
49.3165419762
 11
40.6432151284
 21
60.3165419762
  0
LINE
  5
27C
100
AcDbEntity
  8
A_ACHSEN
100
AcDbLine
 62
7
  6
CENTER
 10
40.6432151284
 20
91.3165419762
 11
40.6432151284
 21
99.8165419762
  0
LINE
  5
27D
100
AcDbEntity
  8
A_ACHSEN
100
AcDbLine
 62
7
  6
CENTER
 10
40.6432151284
 20
119.3165419762
 11
40.6432151284
 21
127.8165419762
  0
LINE
  5
27E
100
AcDbEntity
  8
A_ACHSEN
100
AcDbLine
 62
7
  6
CENTER
 10
40.6432151284
 20
161.3165419762
 11
40.6432151284
 21
172.3165419762
  0
LINE
  5
27F
100
AcDbEntity
  8
A_ACHSEN
100
AcDbLine
 62
7
  6
CENTER
 10
40.6432151284
 20
183.3165419762
 11
40.6432151284
 21
190.3165419762
  0
LINE
  5
280
100
AcDbEntity
  8
0
100
AcDbLine
 62
7
  6
CONTINUOUS
 10
41.1182560282
 20
115.910541516
 11
41.2416758738
 21
116.2863703721
  0
LINE
  5
281
100
AcDbEntity
  8
0
100
AcDbLine
 62
7
  6
CONTINUOUS
 10
43.2090456692
 20
121.0360212144
 11
43.3875257921
 21
121.3890433568
  0
LINE
  5
282
100
AcDbEntity
  8
0
100
AcDbLine
 62
7
  6
CONTINUOUS
 10
36.1998394555
 20
107.8165419762
 11
34.7564637825
 21
105.3165419762
  0
LINE
  5
283
100
AcDbEntity
  8
0
100
AcDbLine
 62
7
  6
CONTINUOUS
 10
39.0865908014
 20
102.8165419762
 11
40.5299664744
 21
105.3165419762
  0
LINE
  5
284
100
AcDbEntity
  8
0
100
AcDbLine
 62
7
  6
CONTINUOUS
 10
36.1998394555
 20
102.8165419762
 11
39.0865908014
 21
102.8165419762
  0
LINE
  5
285
100
AcDbEntity
  8
A_ACHSEN
100
AcDbLine
 62
7
  6
CENTER
 10
37.6432151284
 20
105.3165419762
 11
29.6432151284
 21
105.3165419762
  0
LINE
  5
286
100
AcDbEntity
  8
A_ACHSEN
100
AcDbLine
 62
7
  6
CENTER
 10
37.6432151284
 20
105.3165419762
 11
45.6432151284
 21
105.3165419762
  0
LINE
  5
287
100
AcDbEntity
  8
0
100
AcDbLine
 62
7
  6
CONTINUOUS
 10
34.7564637825
 20
105.3165419762
 11
36.1998394555
 21
102.8165419762
  0
LINE
  5
288
100
AcDbEntity
  8
0
100
AcDbLine
 62
7
  6
CONTINUOUS
 10
40.5299664744
 20
105.3165419762
 11
39.0865908014
 21
107.8165419762
  0
LINE
  5
289
100
AcDbEntity
  8
0
100
AcDbLine
 62
7
  6
CONTINUOUS
 10
43.3875257921
 20
89.2440405957
 11
43.2090456692
 21
89.5970627381
  0
LINE
  5
28A
100
AcDbEntity
  8
0
100
AcDbLine
 62
7
  6
CONTINUOUS
 10
41.2416758738
 20
94.3467135804
 11
41.1182560282
 21
94.7225424364
  0
LINE
  5
28B
100
AcDbEntity
  8
0
100
AcDbLine
 62
7
  6
CONTINUOUS
 10
40.1681742287
 20
94.7225424364
 11
40.0447543831
 21
94.3467135804
  0
LINE
  5
28C
100
AcDbEntity
  8
0
100
AcDbLine
 62
7
  6
CONTINUOUS
 10
41.1182560282
 20
87.910541516
 11
41.2416758738
 21
88.2863703721
  0
LINE
  5
28D
100
AcDbEntity
  8
0
100
AcDbLine
 62
7
  6
CONTINUOUS
 10
38.0773845877
 20
89.5970627381
 11
37.8989044648
 21
89.2440405957
  0
LINE
  5
28E
100
AcDbEntity
  8
0
100
AcDbLine
 62
7
  6
CONTINUOUS
 10
39.0865908014
 20
107.8165419762
 11
36.1998394555
 21
107.8165419762
  0
LINE
  5
28F
100
AcDbEntity
  8
0
100
AcDbLine
 62
7
  6
CONTINUOUS
 10
37.8989044648
 20
121.3890433568
 11
38.0773845877
 21
121.0360212144
  0
LINE
  5
290
100
AcDbEntity
  8
0
100
AcDbLine
 62
7
  6
CONTINUOUS
 10
40.0447543831
 20
116.2863703721
 11
40.1681742287
 21
115.910541516
  0
LINE
  5
291
100
AcDbEntity
  8
0
100
AcDbLine
 62
7
  6
CONTINUOUS
 10
41.2416758738
 20
122.3467135804
 11
41.1182560282
 21
122.7225424364
  0
LINE
  5
292
100
AcDbEntity
  8
A_RUNDUNGEN
100
AcDbLine
 62
7
  6
CONTINUOUS
 10
51.0093713368
 20
167.426204072
 11
51.0093713368
 21
169.2156311142
  0
LINE
  5
293
100
AcDbEntity
  8
A_RUNDUNGEN
100
AcDbLine
 62
7
  6
CONTINUOUS
 10
51.0093596082
 20
41.4174827206
 11
51.0093713368
 21
43.2068798804
  0
LINE
  5
294
100
AcDbEntity
  8
A_RUNDUNGEN
100
AcDbLine
 62
7
  6
CONTINUOUS
 10
51.6432151284
 20
49.3165419762
 11
51.6432151284
 21
60.3134912984
  0
LINE
  5
295
100
AcDbEntity
  8
0
100
AcDbLine
 62
7
  6
CONTINUOUS
 10
51.6432151284
 20
70.312269776
 11
51.6432151284
 21
140.3208141764
  0
LINE
  5
296
100
AcDbEntity
  8
A_RUNDUNGEN
100
AcDbLine
 62
7
  6
CONTINUOUS
 10
51.6432151284
 20
150.319592654
 11
51.6432151284
 21
161.3165419762
  0
LINE
  5
297
100
AcDbEntity
  8
0
100
AcDbLine
 62
7
  6
CONTINUOUS
 10
52.4432151284
 20
149.5196902924
 11
52.4432151284
 21
141.0582231233
  0
LINE
  5
298
100
AcDbEntity
  8
0
100
AcDbLine
 62
7
  6
CONTINUOUS
 10
52.4432151284
 20
61.1133936601
 11
52.4432151284
 21
69.5748608292
  0
LINE
  5
299
100
AcDbEntity
  8
0
100
AcDbLine
 62
7
  6
CONTINUOUS
 10
52.6432151284
 20
163.8165419762
 11
52.6432151284
 21
156.4923652483
  0
LINE
  5
29A
100
AcDbEntity
  8
0
100
AcDbLine
 62
7
  6
CONTINUOUS
 10
52.6432151284
 20
148.1407187041
 11
52.6432151284
 21
62.4923652483
  0
LINE
  5
29B
100
AcDbEntity
  8
0
100
AcDbLine
 62
7
  6
CONTINUOUS
 10
52.6432151284
 20
54.1407187041
 11
52.6432151284
 21
46.8165419762
  0
LINE
  5
29C
100
AcDbEntity
  8
A_RUNDUNGEN
100
AcDbLine
 62
7
  6
CONTINUOUS
 10
52.6432151284
 20
39.5543002971
 11
52.6432151284
 21
27.3165419762
  0
LINE
  5
29D
100
AcDbEntity
  8
A_RUNDUNGEN
100
AcDbLine
 62
7
  6
CONTINUOUS
 10
52.6432151284
 20
171.0787836554
 11
52.6432151284
 21
183.3165419762
  0
LINE
  5
29E
100
AcDbEntity
  8
0
100
AcDbLine
 62
7
  6
CONTINUOUS
 10
43.2090456692
 20
93.0360212144
 11
43.3875257921
 21
93.3890433568
  0
LINE
  5
29F
100
AcDbEntity
  8
0
100
AcDbLine
 62
7
  6
CONTINUOUS
 10
36.1998394555
 20
79.8165419762
 11
34.7564637825
 21
77.3165419762
  0
LINE
  5
2A0
100
AcDbEntity
  8
0
100
AcDbLine
 62
7
  6
CONTINUOUS
 10
42.715716509
 20
94.0608526399
 11
42.3626943666
 21
93.8823725169
  0
LINE
  5
2A1
100
AcDbEntity
  8
0
100
AcDbLine
 62
7
  6
CONTINUOUS
 10
37.6130435243
 20
91.9150027215
 11
37.2372146683
 21
91.791582876
  0
LINE
  5
2A2
100
AcDbEntity
  8
0
100
AcDbLine
 62
7
  6
CONTINUOUS
 10
37.2372146683
 20
118.8415010765
 11
37.6130435243
 21
118.7180812309
  0
LINE
  5
2A3
100
AcDbEntity
  8
0
100
AcDbLine
 62
7
  6
CONTINUOUS
 10
42.3626943666
 20
116.7507114355
 11
42.715716509
 21
116.5722313126
  0
LINE
  5
2A4
100
AcDbEntity
  8
0
100
AcDbLine
 62
7
  6
CONTINUOUS
 10
34.7564637825
 20
133.3165419762
 11
36.1998394555
 21
130.8165419762
  0
LINE
  5
2A5
100
AcDbEntity
  8
0
100
AcDbLine
 62
7
  6
CONTINUOUS
 10
43.3875257921
 20
117.2440405957
 11
43.2090456692
 21
117.5970627381
  0
LINE
  5
2A6
100
AcDbEntity
  8
0
100
AcDbLine
 62
7
  6
CONTINUOUS
 10
39.0865908014
 20
74.8165419762
 11
40.5299664744
 21
77.3165419762
  0
LINE
  5
2A7
100
AcDbEntity
  8
0
100
AcDbLine
 62
7
  6
CONTINUOUS
 10
28.8432151284
 20
69.5748608292
 11
29.6432151284
 21
70.3747631908
  0
LINE
  5
2A8
100
AcDbEntity
  8
0
100
AcDbLine
 62
7
  6
CONTINUOUS
 10
29.6474868072
 20
70.3165419762
 11
28.8432151284
 21
69.5123684572
  0
LINE
  5
2A9
100
AcDbEntity
  8
0
100
AcDbLine
 62
7
  6
CONTINUOUS
 10
38.5707137479
 20
88.5722313126
 11
38.9237358903
 21
88.7507114355
  0
LINE
  5
2AA
100
AcDbEntity
  8
0
100
AcDbLine
 62
7
  6
CONTINUOUS
 10
43.6733867326
 20
90.7180812309
 11
44.0492155886
 21
90.8415010765
  0
LINE
  5
2AB
100
AcDbEntity
  8
A_ACHSEN
100
AcDbLine
 62
7
  6
CENTER
 10
40.6432151284
 20
119.3165419762
 11
32.1432151284
 21
119.3165419762
  0
LINE
  5
2AC
100
AcDbEntity
  8
A_ACHSEN
100
AcDbLine
 62
7
  6
CENTER
 10
40.6432151284
 20
119.3165419762
 11
49.1432151284
 21
119.3165419762
  0
LINE
  5
2AD
100
AcDbEntity
  8
0
100
AcDbLine
 62
7
  6
CONTINUOUS
 10
44.0492155886
 20
119.791582876
 11
43.6733867326
 21
119.9150027215
  0
LINE
  5
2AE
100
AcDbEntity
  8
0
100
AcDbLine
 62
7
  6
CONTINUOUS
 10
38.9237358903
 20
121.8823725169
 11
38.5707137479
 21
122.0608526399
  0
LINE
  5
2AF
100
AcDbEntity
  8
0
100
AcDbLine
 62
7
  6
CONTINUOUS
 10
29.6432151284
 20
140.2583283887
 11
28.8432151284
 21
141.0582307503
  0
LINE
  5
2B0
100
AcDbEntity
  8
0
100
AcDbLine
 62
7
  6
CONTINUOUS
 10
29.6474868072
 20
140.3165419762
 11
28.8432151284
 21
141.1207154953
  0
LINE
  5
2B1
100
AcDbEntity
  8
0
100
AcDbLine
 62
7
  6
CONTINUOUS
 10
40.5299664744
 20
133.3165419762
 11
39.0865908014
 21
135.8165419762
  0
LINE
  5
2B2
100
AcDbEntity
  8
0
100
AcDbLine
 62
7
  6
CONTINUOUS
 10
39.1998394555
 20
51.8165419762
 11
37.7564637825
 21
49.3165419762
  0
LINE
  5
2B3
100
AcDbEntity
  8
0
100
AcDbLine
 62
7
  6
CONTINUOUS
 10
42.0865908014
 20
46.8165419762
 11
43.5299664744
 21
49.3165419762
  0
LINE
  5
2B4
100
AcDbEntity
  8
0
100
AcDbLine
 62
7
  6
CONTINUOUS
 10
36.1998394555
 20
130.8165419762
 11
39.0865908014
 21
130.8165419762
  0
LINE
  5
2B5
100
AcDbEntity
  8
A_ACHSEN
100
AcDbLine
 62
7
  6
CENTER
 10
37.6432151284
 20
133.3165419762
 11
29.6432151284
 21
133.3165419762
  0
LINE
  5
2B6
100
AcDbEntity
  8
A_ACHSEN
100
AcDbLine
 62
7
  6
CENTER
 10
37.6432151284
 20
133.3165419762
 11
45.6432151284
 21
133.3165419762
  0
LINE
  5
2B7
100
AcDbEntity
  8
0
100
AcDbLine
 62
7
  6
CONTINUOUS
 10
39.0865908014
 20
135.8165419762
 11
36.1998394555
 21
135.8165419762
  0
LINE
  5
2B8
100
AcDbEntity
  8
0
100
AcDbLine
 62
7
  6
CONTINUOUS
 10
37.7564637825
 20
161.3165419762
 11
39.1998394555
 21
158.8165419762
  0
LINE
  5
2B9
100
AcDbEntity
  8
0
100
AcDbLine
 62
7
  6
CONTINUOUS
 10
43.5299664744
 20
161.3165419762
 11
42.0865908014
 21
163.8165419762
  0
LINE
  5
2BA
100
AcDbEntity
  8
A_RUNDUNGEN
100
AcDbLine
 62
7
  6
CONTINUOUS
 10
29.4629732223
 20
42.4573917242
 11
30.6193266816
 21
43.6137451836
  0
LINE
  5
2BB
100
AcDbEntity
  8
0
100
AcDbLine
 62
7
  6
CONTINUOUS
 10
29.6432151284
 20
140.3165419762
 11
51.6432151284
 21
140.3165419762
  0
LINE
  5
2BC
100
AcDbEntity
  8
A_RUNDUNGEN
100
AcDbLine
 62
7
  6
CONTINUOUS
 10
30.6189958952
 20
167.0196695553
 11
29.4629732223
 21
168.1756922282
  0
LINE
  5
2BD
100
AcDbEntity
  8
0
100
AcDbLine
 62
7
  6
CONTINUOUS
 10
51.6432151284
 20
60.3134912984
 11
52.4432151284
 21
61.1133936601
  0
LINE
  5
2BE
100
AcDbEntity
  8
A_RUNDUNGEN
100
AcDbLine
 62
7
  6
CONTINUOUS
 10
28.9827160664
 20
170.7392827174
 11
28.6432151284
 21
171.0787836554
  0
LINE
  5
2BF
100
AcDbEntity
  8
0
100
AcDbLine
 62
7
  6
CONTINUOUS
 10
51.6432151284
 20
150.319592654
 11
52.4432151284
 21
149.5196902924
  0
LINE
  5
2C0
100
AcDbEntity
  8
A_RUNDUNGEN
100
AcDbLine
 62
7
  6
CONTINUOUS
 10
28.6432151284
 20
40.2744822395
 11
28.8062399366
 21
40.3788032861
  0
LINE
  5
2C1
100
AcDbEntity
  8
0
100
AcDbLine
 62
7
  6
CONTINUOUS
 10
39.1998394555
 20
158.8165419762
 11
42.0865908014
 21
158.8165419762
  0
LINE
  5
2C2
100
AcDbEntity
  8
A_ACHSEN
100
AcDbLine
 62
7
  6
CENTER
 10
40.6432151284
 20
161.3165419762
 11
29.6432151284
 21
161.3165419762
  0
LINE
  5
2C3
100
AcDbEntity
  8
A_ACHSEN
100
AcDbLine
 62
7
  6
CENTER
 10
40.6432151284
 20
161.3165419762
 11
51.6432151284
 21
161.3165419762
  0
LINE
  5
2C4
100
AcDbEntity
  8
0
100
AcDbLine
 62
7
  6
CONTINUOUS
 10
42.0865908014
 20
163.8165419762
 11
39.1998394555
 21
163.8165419762
  0
LINE
  5
2C5
100
AcDbEntity
  8
A_ACHSEN
100
AcDbLine
 62
7
  6
CENTER
 10
40.6432151284
 20
183.3165419762
 11
33.6432151284
 21
183.3165419762
  0
LINE
  5
2C6
100
AcDbEntity
  8
A_ACHSEN
100
AcDbLine
 62
7
  6
CENTER
 10
40.6432151284
 20
183.3165419762
 11
47.6432151284
 21
183.3165419762
  0
ARC
  5
2C7
100
AcDbEntity
  8
A_RUNDUNGEN
100
AcDbCircle
 62
7
  6
CONTINUOUS
 10
-703.6116839327
 20
2.3217073056
 40
756.5005785669
100
AcDbArc
 50
2.8798466963
 51
3.0412210761
  0
ARC
  5
2C8
100
AcDbEntity
  8
A_RUNDUNGEN
100
AcDbCircle
 62
7
  6
CONTINUOUS
 10
-234.5292379287
 20
49.6685600381
 40
264.8835479323
100
AcDbArc
 50
358.2333192808
 51
358.6027247016
  0
ARC
  5
2C9
100
AcDbEntity
  8
A_RUNDUNGEN
100
AcDbCircle
 62
7
  6
CONTINUOUS
 10
-69.6310879486
 20
54.8442945006
 40
99.8652508119
100
AcDbArc
 50
351.8563807466
 51
352.8749010285
  0
ARC
  5
2CA
100
AcDbEntity
  8
A_RUNDUNGEN
100
AcDbCircle
 62
7
  6
CONTINUOUS
 10
18.7445997199
 20
54.9052702098
 40
17.8209688025
100
AcDbArc
 50
303.7415539806
 51
304.1168111807
  0
ARC
  5
2CB
100
AcDbEntity
  8
A_RUNDUNGEN
100
AcDbCircle
 62
7
  6
CONTINUOUS
 10
19.4906522841
 20
53.8048293984
 40
16.491471077
100
AcDbArc
 50
304.1152949499
 51
304.8194061264
  0
ARC
  5
2CC
100
AcDbEntity
  8
A_RUNDUNGEN
100
AcDbCircle
 62
7
  6
CONTINUOUS
 10
23.1662101292
 20
48.6871804799
 40
10.1901255602
100
AcDbArc
 50
307.0286610277
 51
307.2416137505
  0
CIRCLE
  5
2CD
100
AcDbEntity
  8
A_RUNDUNGEN
100
AcDbCircle
 62
7
  6
CONTINUOUS
 10
37.6432151284
 20
77.3165419762
 40
5.0
  0
ARC
  5
2CE
100
AcDbEntity
  8
0
100
AcDbCircle
 62
7
  6
CONTINUOUS
 10
25.8932151284
 20
58.3165419762
 40
5.0
100
AcDbArc
 50
303.3670129692
 51
318.7479962683
  0
ARC
  5
2CF
100
AcDbEntity
  8
0
100
AcDbCircle
 62
7
  6
CONTINUOUS
 10
25.8932151284
 20
58.3165419762
 40
5.0
100
AcDbArc
 50
53.5711908949
 51
56.6329870308
  0
CIRCLE
  5
2D0
100
AcDbEntity
  8
0
100
AcDbCircle
 62
7
  6
CONTINUOUS
 10
37.6432151284
 20
77.3165419762
 40
2.8867513459
  0
CIRCLE
  5
2D1
100
AcDbEntity
  8
A_FLAECHEN
100
AcDbCircle
 62
7
  6
CONTINUOUS
 10
37.6432151284
 20
77.3165419762
 40
1.5
  0
ARC
  5
2D2
100
AcDbEntity
  8
0
100
AcDbCircle
 62
7
  6
CONTINUOUS
 10
39.2846889436
 20
88.0367696358
 40
0.8
100
AcDbArc
 50
18.1798566915
 51
116.8201433085
  0
ARC
  5
2D3
100
AcDbEntity
  8
0
100
AcDbCircle
 62
7
  6
CONTINUOUS
 10
37.363442788
 20
89.9580157913
 40
0.8
100
AcDbArc
 50
333.1798566915
 51
71.8201433085
  0
ARC
  5
2D4
100
AcDbEntity
  8
0
100
AcDbCircle
 62
7
  6
CONTINUOUS
 10
39.2846889436
 20
94.5963143166
 40
0.8
100
AcDbArc
 50
243.1798566915
 51
341.8201433085
  0
ARC
  5
2D5
100
AcDbEntity
  8
0
100
AcDbCircle
 62
7
  6
CONTINUOUS
 10
37.363442788
 20
92.6750681611
 40
0.8
100
AcDbArc
 50
288.1798566915
 51
26.8201433085
  0
ARC
  5
2D6
100
AcDbEntity
  8
0
100
AcDbCircle
 62
7
  6
CONTINUOUS
 10
38.3451180896
 20
89.0184449374
 40
0.5
100
AcDbArc
 50
153.1798566915
 51
296.8201433085
  0
ARC
  5
2D7
100
AcDbEntity
  8
0
100
AcDbCircle
 62
7
  6
CONTINUOUS
 10
38.3451180896
 20
93.6146390151
 40
0.5
100
AcDbArc
 50
63.1798566915
 51
206.8201433085
  0
ARC
  5
2D8
100
AcDbEntity
  8
0
100
AcDbCircle
 62
7
  6
CONTINUOUS
 10
37.3932151284
 20
91.3165419762
 40
0.5
100
AcDbArc
 50
108.1798566915
 51
251.8201433085
  0
ARC
  5
2D9
100
AcDbEntity
  8
A_RUNDUNGEN
100
AcDbCircle
 62
7
  6
CONTINUOUS
 10
-697.9622401658
 20
208.0192038276
 40
750.8435903321
100
AcDbArc
 50
356.9581710104
 51
357.120761214
  0
CIRCLE
  5
2DA
100
AcDbEntity
  8
A_RUNDUNGEN
100
AcDbCircle
 62
7
  6
CONTINUOUS
 10
37.6432151284
 20
105.3165419762
 40
5.0
  0
CIRCLE
  5
2DB
100
AcDbEntity
  8
A_RUNDUNGEN
100
AcDbCircle
 62
7
  6
CONTINUOUS
 10
37.6432151284
 20
133.3165419762
 40
5.0
  0
ARC
  5
2DC
100
AcDbEntity
  8
0
100
AcDbCircle
 62
7
  6
CONTINUOUS
 10
25.8932151284
 20
152.3165419762
 40
5.0
100
AcDbArc
 50
303.3670129692
 51
306.4288091051
  0
ARC
  5
2DD
100
AcDbEntity
  8
0
100
AcDbCircle
 62
7
  6
CONTINUOUS
 10
25.8932151284
 20
152.3165419762
 40
5.0
100
AcDbArc
 50
41.2520037317
 51
56.6329870308
  0
CIRCLE
  5
2DE
100
AcDbEntity
  8
0
100
AcDbCircle
 62
7
  6
CONTINUOUS
 10
37.6432151284
 20
105.3165419762
 40
2.8867513459
  0
CIRCLE
  5
2DF
100
AcDbEntity
  8
0
100
AcDbCircle
 62
7
  6
CONTINUOUS
 10
37.6432151284
 20
133.3165419762
 40
2.8867513459
  0
CIRCLE
  5
2E0
100
AcDbEntity
  8
A_FLAECHEN
100
AcDbCircle
 62
7
  6
CONTINUOUS
 10
37.6432151284
 20
105.3165419762
 40
1.5
  0
CIRCLE
  5
2E1
100
AcDbEntity
  8
A_FLAECHEN
100
AcDbCircle
 62
7
  6
CONTINUOUS
 10
37.6432151284
 20
133.3165419762
 40
1.5
  0
ARC
  5
2E2
100
AcDbEntity
  8
0
100
AcDbCircle
 62
7
  6
CONTINUOUS
 10
39.2846889436
 20
116.0367696358
 40
0.8
100
AcDbArc
 50
18.1798566915
 51
116.8201433085
  0
ARC
  5
2E3
100
AcDbEntity
  8
0
100
AcDbCircle
 62
7
  6
CONTINUOUS
 10
37.363442788
 20
117.9580157913
 40
0.8
100
AcDbArc
 50
333.1798566915
 51
71.8201433085
  0
ARC
  5
2E4
100
AcDbEntity
  8
0
100
AcDbCircle
 62
7
  6
CONTINUOUS
 10
37.363442788
 20
120.6750681611
 40
0.8
100
AcDbArc
 50
288.1798566915
 51
26.8201433085
  0
ARC
  5
2E5
100
AcDbEntity
  8
0
100
AcDbCircle
 62
7
  6
CONTINUOUS
 10
39.2846889436
 20
122.5963143166
 40
0.8
100
AcDbArc
 50
243.1798566915
 51
341.8201433085
  0
ARC
  5
2E6
100
AcDbEntity
  8
0
100
AcDbCircle
 62
7
  6
CONTINUOUS
 10
38.3451180896
 20
117.0184449374
 40
0.5
100
AcDbArc
 50
153.1798566915
 51
296.8201433085
  0
ARC
  5
2E7
100
AcDbEntity
  8
0
100
AcDbCircle
 62
7
  6
CONTINUOUS
 10
37.3932151284
 20
119.3165419762
 40
0.5
100
AcDbArc
 50
108.1798566915
 51
251.8201433085
  0
ARC
  5
2E8
100
AcDbEntity
  8
0
100
AcDbCircle
 62
7
  6
CONTINUOUS
 10
38.3451180896
 20
121.6146390151
 40
0.5
100
AcDbArc
 50
63.1798566915
 51
206.8201433085
  0
ARC
  5
2E9
100
AcDbEntity
  8
0
100
AcDbCircle
 62
7
  6
CONTINUOUS
 10
40.6432151284
 20
27.3165419762
 40
12.0
100
AcDbArc
 50
180.0
 51
360.0
  0
ARC
  5
2EA
100
AcDbEntity
  8
A_RUNDUNGEN
100
AcDbCircle
 62
7
  6
CONTINUOUS
 10
40.6432151284
 20
49.3165419762
 40
11.0
100
AcDbArc
 50
180.0
 51
360.0
  0
CIRCLE
  5
2EB
100
AcDbEntity
  8
A_FASEN
100
AcDbCircle
 62
7
  6
CONTINUOUS
 10
40.6432151284
 20
49.3165419762
 40
8.0
  0
ARC
  5
2EC
100
AcDbEntity
  8
0
100
AcDbCircle
 62
2
  6
CONTINUOUS
 10
40.6432151284
 20
49.3165419762
 40
7.0
100
AcDbArc
 50
255.0
 51
195.0
  0
CIRCLE
  5
2ED
100
AcDbEntity
  8
A_FASEN
100
AcDbCircle
 62
7
  6
CONTINUOUS
 10
40.6432151284
 20
49.3165419762
 40
7.0
  0
CIRCLE
  5
2EE
100
AcDbEntity
  8
A_ACHSEN
100
AcDbCircle
 62
7
  6
CONTINUOUS
 10
40.6432151284
 20
91.3165419762
 40
5.5
  0
CIRCLE
  5
2EF
100
AcDbEntity
  8
A_ACHSEN
100
AcDbCircle
 62
7
  6
CONTINUOUS
 10
40.6432151284
 20
49.3165419762
 40
5.0
  0
ARC
  5
2F0
100
AcDbEntity
  8
0
100
AcDbCircle
 62
7
  6
CONTINUOUS
 10
55.3932151284
 20
58.3165419762
 40
5.0
100
AcDbArc
 50
123.3670129692
 51
126.4288091051
  0
ARC
  5
2F1
100
AcDbEntity
  8
0
100
AcDbCircle
 62
7
  6
CONTINUOUS
 10
55.3932151284
 20
58.3165419762
 40
5.0
100
AcDbArc
 50
221.2520037317
 51
236.6329870308
  0
CIRCLE
  5
2F2
100
AcDbEntity
  8
A_ACHSEN
100
AcDbCircle
 62
7
  6
CONTINUOUS
 10
40.6432151284
 20
91.3165419762
 40
5.0
  0
CIRCLE
  5
2F3
100
AcDbEntity
  8
A_RUNDUNGEN
100
AcDbCircle
 62
7
  6
CONTINUOUS
 10
40.6432151284
 20
27.3165419762
 40
3.75
  0
ARC
  5
2F4
100
AcDbEntity
  8
0
100
AcDbCircle
 62
7
  6
CONTINUOUS
 10
43.9229874689
 20
92.6750681611
 40
0.8
100
AcDbArc
 50
153.1798566915
 51
251.8201433085
  0
ARC
  5
2F5
100
AcDbEntity
  8
0
100
AcDbCircle
 62
7
  6
CONTINUOUS
 10
42.0017413133
 20
94.5963143166
 40
0.8
100
AcDbArc
 50
198.1798566915
 51
296.8201433085
  0
ARC
  5
2F6
100
AcDbEntity
  8
0
100
AcDbCircle
 62
7
  6
CONTINUOUS
 10
42.0017413133
 20
88.0367696358
 40
0.8
100
AcDbArc
 50
63.1798566915
 51
161.8201433085
  0
ARC
  5
2F7
100
AcDbEntity
  8
0
100
AcDbCircle
 62
7
  6
CONTINUOUS
 10
43.9229874689
 20
89.9580157913
 40
0.8
100
AcDbArc
 50
108.1798566915
 51
206.8201433085
  0
CIRCLE
  5
2F8
100
AcDbEntity
  8
A_FLAECHEN
100
AcDbCircle
 62
7
  6
CONTINUOUS
 10
40.6432151284
 20
49.3165419762
 40
0.5
  0
ARC
  5
2F9
100
AcDbEntity
  8
0
100
AcDbCircle
 62
7
  6
CONTINUOUS
 10
42.9413121673
 20
93.6146390151
 40
0.5
100
AcDbArc
 50
333.1798566915
 51
116.8201433085
  0
ARC
  5
2FA
100
AcDbEntity
  8
0
100
AcDbCircle
 62
7
  6
CONTINUOUS
 10
40.6432151284
 20
94.5665419762
 40
0.5
100
AcDbArc
 50
18.1798566915
 51
161.8201433085
  0
ARC
  5
2FB
100
AcDbEntity
  8
0
100
AcDbCircle
 62
7
  6
CONTINUOUS
 10
40.6432151284
 20
88.0665419762
 40
0.5
100
AcDbArc
 50
198.1798566915
 51
341.8201433085
  0
ARC
  5
2FC
100
AcDbEntity
  8
0
100
AcDbCircle
 62
7
  6
CONTINUOUS
 10
42.9413121673
 20
89.0184449374
 40
0.5
100
AcDbArc
 50
243.1798566915
 51
26.8201433085
  0
ARC
  5
2FD
100
AcDbEntity
  8
0
100
AcDbCircle
 62
7
  6
CONTINUOUS
 10
43.8932151284
 20
91.3165419762
 40
0.5
100
AcDbArc
 50
288.1798566915
 51
71.8201433085
  0
ARC
  5
2FE
100
AcDbEntity
  8
A_RUNDUNGEN
100
AcDbCircle
 62
7
  6
CONTINUOUS
 10
40.6432151284
 20
161.3165419762
 40
11.0
100
AcDbArc
 50
0.0
 51
180.0
  0
CIRCLE
  5
2FF
100
AcDbEntity
  8
A_FASEN
100
AcDbCircle
 62
7
  6
CONTINUOUS
 10
40.6432151284
 20
161.3165419762
 40
8.0
  0
ARC
  5
300
100
AcDbEntity
  8
0
100
AcDbCircle
 62
2
  6
CONTINUOUS
 10
40.6432151284
 20
161.3165419762
 40
7.0
100
AcDbArc
 50
255.0
 51
195.0
  0
CIRCLE
  5
301
100
AcDbEntity
  8
A_FASEN
100
AcDbCircle
 62
7
  6
CONTINUOUS
 10
40.6432151284
 20
161.3165419762
 40
7.0
  0
CIRCLE
  5
302
100
AcDbEntity
  8
A_ACHSEN
100
AcDbCircle
 62
7
  6
CONTINUOUS
 10
40.6432151284
 20
119.3165419762
 40
5.5
  0
CIRCLE
  5
303
100
AcDbEntity
  8
A_ACHSEN
100
AcDbCircle
 62
7
  6
CONTINUOUS
 10
40.6432151284
 20
161.3165419762
 40
5.0
  0
ARC
  5
304
100
AcDbEntity
  8
0
100
AcDbCircle
 62
7
  6
CONTINUOUS
 10
55.3932151284
 20
152.3165419762
 40
5.0
100
AcDbArc
 50
123.3670129692
 51
138.7479962683
  0
ARC
  5
305
100
AcDbEntity
  8
0
100
AcDbCircle
 62
7
  6
CONTINUOUS
 10
55.3932151284
 20
152.3165419762
 40
5.0
100
AcDbArc
 50
233.5711908949
 51
236.6329870308
  0
CIRCLE
  5
306
100
AcDbEntity
  8
A_ACHSEN
100
AcDbCircle
 62
7
  6
CONTINUOUS
 10
40.6432151284
 20
119.3165419762
 40
5.0
  0
ARC
  5
307
100
AcDbEntity
  8
0
100
AcDbCircle
 62
7
  6
CONTINUOUS
 10
43.9229874689
 20
117.9580157913
 40
0.8
100
AcDbArc
 50
108.1798566915
 51
206.8201433085
  0
ARC
  5
308
100
AcDbEntity
  8
0
100
AcDbCircle
 62
7
  6
CONTINUOUS
 10
42.0017413133
 20
116.0367696358
 40
0.8
100
AcDbArc
 50
63.1798566915
 51
161.8201433085
  0
ARC
  5
309
100
AcDbEntity
  8
0
100
AcDbCircle
 62
7
  6
CONTINUOUS
 10
42.0017413133
 20
122.5963143166
 40
0.8
100
AcDbArc
 50
198.1798566915
 51
296.8201433085
  0
ARC
  5
30A
100
AcDbEntity
  8
0
100
AcDbCircle
 62
7
  6
CONTINUOUS
 10
43.9229874689
 20
120.6750681611
 40
0.8
100
AcDbArc
 50
153.1798566915
 51
251.8201433085
  0
CIRCLE
  5
30B
100
AcDbEntity
  8
A_FLAECHEN
100
AcDbCircle
 62
7
  6
CONTINUOUS
 10
40.6432151284
 20
161.3165419762
 40
0.5
  0
ARC
  5
30C
100
AcDbEntity
  8
0
100
AcDbCircle
 62
7
  6
CONTINUOUS
 10
42.9413121673
 20
117.0184449374
 40
0.5
100
AcDbArc
 50
243.1798566915
 51
26.8201433085
  0
ARC
  5
30D
100
AcDbEntity
  8
0
100
AcDbCircle
 62
7
  6
CONTINUOUS
 10
40.6432151284
 20
116.0665419762
 40
0.5
100
AcDbArc
 50
198.1798566915
 51
341.8201433085
  0
ARC
  5
30E
100
AcDbEntity
  8
0
100
AcDbCircle
 62
7
  6
CONTINUOUS
 10
40.6432151284
 20
122.5665419762
 40
0.5
100
AcDbArc
 50
18.1798566915
 51
161.8201433085
  0
ARC
  5
30F
100
AcDbEntity
  8
0
100
AcDbCircle
 62
7
  6
CONTINUOUS
 10
42.9413121673
 20
121.6146390151
 40
0.5
100
AcDbArc
 50
333.1798566915
 51
116.8201433085
  0
ARC
  5
310
100
AcDbEntity
  8
0
100
AcDbCircle
 62
7
  6
CONTINUOUS
 10
43.8932151284
 20
119.3165419762
 40
0.5
100
AcDbArc
 50
288.1798566915
 51
71.8201433085
  0
ARC
  5
311
100
AcDbEntity
  8
0
100
AcDbCircle
 62
7
  6
CONTINUOUS
 10
40.6432151284
 20
183.3165419762
 40
12.0
100
AcDbArc
 50
0.0
 51
180.0
  0
CIRCLE
  5
312
100
AcDbEntity
  8
A_RUNDUNGEN
100
AcDbCircle
 62
7
  6
CONTINUOUS
 10
40.6432151284
 20
183.3165419762
 40
4.0
  0
ARC
  5
313
100
AcDbEntity
  8
A_RUNDUNGEN
100
AcDbCircle
 62
7
  6
CONTINUOUS
 10
784.8979369101
 20
208.3113672114
 40
756.5004010365
100
AcDbArc
 50
182.8798466573
 51
183.0412210748
  0
SPLINE
  5
314
100
AcDbEntity
  8
A_RUNDUNGEN
100
AcDbSpline
 62
7
  6
CONTINUOUS
 70
0
 71
3
 72
14
 73
10
 74
0
 42
0.0000001
 43
0.0000001
 44
0.0000000001
 40
0.0
 40
0.0
 40
0.0
 40
0.0
 40
0.0357385392
 40
0.1038430488
 40
0.2025229791
 40
0.3278882961
 40
0.4754958773
 40
0.6405033933
 40
1.0
 40
1.0
 40
1.0
 40
1.0
 10
29.227133858
 20
40.6978936946
 30
0.0
 10
29.2262410741
 20
40.6916444841
 30
0.0
 10
29.2134163265
 20
40.6767047083
 30
0.0
 10
29.1889665299
 20
40.65183372
 30
0.0
 10
29.1490113165
 20
40.6184075116
 30
0.0
 10
29.0973983393
 20
40.5781208258
 30
0.0
 10
29.0349019862
 20
40.5324002417
 30
0.0
 10
28.9376301174
 20
40.4643753448
 30
0.0
 10
28.8602523078
 20
40.4133663861
 30
0.0
 10
28.8067662767
 20
40.3791401601
 30
0.0
  0
SPLINE
  5
315
100
AcDbEntity
  8
A_RUNDUNGEN
100
AcDbSpline
 62
7
  6
CONTINUOUS
 70
0
 71
3
 72
14
 73
10
 74
0
 42
0.0000001
 43
0.0000001
 44
0.0000000001
 40
0.0
 40
0.0
 40
0.0
 40
0.0
 40
0.3459821051
 40
0.5071420556
 40
0.6538066212
 40
0.7813913034
 40
0.8847564511
 40
0.9587926463
 40
1.0
 40
1.0
 40
1.0
 40
1.0
 10
52.3037319602
 20
39.8937834653
 30
0.0
 10
52.2569149259
 20
39.9406007002
 30
0.0
 10
52.1893476267
 20
40.0103112095
 30
0.0
 10
52.1047413853
 20
40.102469561
 30
0.0
 10
52.0496392734
 20
40.1650386548
 30
0.0
 10
52.0035254952
 20
40.2205258331
 30
0.0
 10
51.9674741232
 20
40.2668733253
 30
0.0
 10
51.9450685366
 20
40.301427109
 30
0.0
 10
51.9338999412
 20
40.3216657716
 30
0.0
 10
51.9335032744
 20
40.3295415008
 30
0.0
  0
SPLINE
  5
316
100
AcDbEntity
  8
A_RUNDUNGEN
100
AcDbSpline
 62
7
  6
CONTINUOUS
 70
0
 71
3
 72
14
 73
10
 74
0
 42
0.0000001
 43
0.0000001
 44
0.0000000001
 40
0.0
 40
0.0
 40
0.0
 40
0.0
 40
0.0412145988
 40
0.1152534665
 40
0.2186132129
 40
0.3461942962
 40
0.4928555492
 40
0.6540137412
 40
1.0
 40
1.0
 40
1.0
 40
1.0
 10
51.9335032745
 20
170.3035424518
 30
0.0
 10
51.9339000265
 20
170.3114195672
 30
0.0
 10
51.9450714204
 20
170.3316592226
 30
0.0
 10
51.9674739164
 20
170.3662157708
 30
0.0
 10
52.0035258447
 20
170.412561625
 30
0.0
 10
52.049639347
 20
170.4680458652
 30
0.0
 10
52.1047404183
 20
170.5306137201
 30
0.0
 10
52.1893464456
 20
170.6227720715
 30
0.0
 10
52.2569144273
 20
170.6924825999
 30
0.0
 10
52.3037319602
 20
170.7393004871
 30
0.0
  0
SPLINE
  5
317
100
AcDbEntity
  8
A_RUNDUNGEN
100
AcDbSpline
 62
7
  6
CONTINUOUS
 70
0
 71
3
 72
14
 73
10
 74
0
 42
0.0000001
 43
0.0000001
 44
0.0000000001
 40
0.0
 40
0.0
 40
0.0
 40
0.0
 40
0.3459664813
 40
0.5071190936
 40
0.6537672888
 40
0.7813199786
 40
0.8846735212
 40
0.9587570102
 40
1.0
 40
1.0
 40
1.0
 40
1.0
 10
28.9826982967
 20
170.7393004871
 30
0.0
 10
29.0295130689
 20
170.6924857138
 30
0.0
 10
29.0970763513
 20
170.6227780926
 30
0.0
 10
29.1816763222
 20
170.5306251955
 30
0.0
 10
29.2367708217
 20
170.468063975
 30
0.0
 10
29.2828744928
 20
170.4125843467
 30
0.0
 10
29.3189258962
 20
170.3662348663
 30
0.0
 10
29.3413362769
 20
170.3316720367
 30
0.0
 10
29.3525305731
 20
170.3114249785
 30
0.0
 10
29.3529269833
 20
170.30354245
 30
0.0
  0
SPLINE
  5
318
100
AcDbEntity
  8
A_RUNDUNGEN
100
AcDbSpline
 62
7
  6
CONTINUOUS
 70
0
 71
3
 72
15
 73
11
 74
0
 42
0.0000001
 43
0.0000001
 44
0.0000000001
 40
0.0
 40
0.0
 40
0.0
 40
0.0
 40
0.018513535
 40
0.043122331
 40
0.1115562182
 40
0.2055137654
 40
0.3236801247
 40
0.4643413529
 40
0.6255437864
 40
1.0
 40
1.0
 40
1.0
 40
1.0
 10
51.0093596082
 20
41.4174827206
 30
0.0
 10
51.0093587978
 20
41.4005071456
 30
0.0
 10
51.0163957372
 20
41.3611149231
 30
0.0
 10
51.0504109489
 20
41.2645421645
 30
0.0
 10
51.1315853793
 20
41.112634327
 30
0.0
 10
51.2709117078
 20
40.8964377636
 30
0.0
 10
51.4604207021
 20
40.6340610196
 30
0.0
 10
51.6967492288
 20
40.3299224315
 30
0.0
 10
52.0900997233
 20
39.8504211807
 30
0.0
 10
52.4136809592
 20
39.4807354354
 30
0.0
 10
52.6432151284
 20
39.2253870145
 30
0.0
  0
SPLINE
  5
319
100
AcDbEntity
  8
A_RUNDUNGEN
100
AcDbSpline
 62
7
  6
CONTINUOUS
 70
0
 71
3
 72
15
 73
11
 74
0
 42
0.0000001
 43
0.0000001
 44
0.0000000001
 40
0.0
 40
0.0
 40
0.0
 40
0.0
 40
0.3744511836
 40
0.5356520664
 40
0.6763124117
 40
0.7944787038
 40
0.8884380408
 40
0.956875802
 40
0.9814860795
 40
1.0
 40
1.0
 40
1.0
 40
1.0
 10
52.6432151284
 20
171.4076970095
 30
0.0
 10
52.4136867792
 20
171.152355126
 30
0.0
 10
52.0901133462
 20
170.7826784542
 30
0.0
 10
51.6967714551
 20
170.303188673
 30
0.0
 10
51.4604466693
 20
169.9990559737
 30
0.0
 10
51.2709387062
 20
169.7366823449
 30
0.0
 10
51.1316100582
 20
169.5204849274
 30
0.0
 10
51.0504299545
 20
169.368575151
 30
0.0
 10
51.0164094187
 20
169.2720001417
 30
0.0
 10
51.0093705241
 20
169.232606838
 30
0.0
 10
51.0093713368
 20
169.2156311142
 30
0.0
  0
SPLINE
  5
31A
100
AcDbEntity
  8
A_RUNDUNGEN
100
AcDbSpline
 62
7
  6
CONTINUOUS
 70
0
 71
3
 72
15
 73
11
 74
0
 42
0.0000001
 43
0.0000001
 44
0.0000000001
 40
0.0
 40
0.0
 40
0.0
 40
0.0
 40
0.0185135686
 40
0.0431224298
 40
0.1115564611
 40
0.2055140672
 40
0.3236804179
 40
0.4643416117
 40
0.6255439851
 40
1.0
 40
1.0
 40
1.0
 40
1.0
 10
30.2770704783
 20
169.2156016658
 30
0.0
 10
30.2770712686
 20
169.2325772683
 30
0.0
 10
30.2700342366
 20
169.2719695615
 30
0.0
 10
30.2360188093
 20
169.3685424544
 30
0.0
 10
30.1548441698
 20
169.5204504141
 30
0.0
 10
30.0155177451
 20
169.7366470659
 30
0.0
 10
29.8260087692
 20
169.9990237617
 30
0.0
 10
29.5896803444
 20
170.3031622123
 30
0.0
 10
29.1963301081
 20
170.7826631675
 30
0.0
 10
28.8727491152
 20
171.1523486801
 30
0.0
 10
28.6432151284
 20
171.4076969284
 30
0.0
  0
SPLINE
  5
31B
100
AcDbEntity
  8
A_RUNDUNGEN
100
AcDbSpline
 62
7
  6
CONTINUOUS
 70
0
 71
3
 72
14
 73
10
 74
0
 42
0.0000001
 43
0.0000001
 44
0.0000000001
 40
0.0
 40
0.0
 40
0.0
 40
0.0
 40
0.3546160634
 40
0.5180263871
 40
0.6648971666
 40
0.7904857553
 40
0.8904167458
 40
0.9608504964
 40
1.0
 40
1.0
 40
1.0
 40
1.0
 10
50.6674332112
 20
43.6134155477
 30
0.0
 10
50.7120415487
 20
43.5688072102
 30
0.0
 10
50.7761493429
 20
43.5025553517
 30
0.0
 10
50.8558545006
 20
43.4151726628
 30
0.0
 10
50.9068326823
 20
43.3566771591
 30
0.0
 10
50.9487079534
 20
43.3054844935
 30
0.0
 10
50.9807051938
 20
43.2632470387
 30
0.0
 10
51.0001345242
 20
43.2321514243
 30
0.0
 10
51.0093714677
 20
43.213844524
 30
0.0
 10
51.0093713368
 20
43.2068798804
 30
0.0
  0
SPLINE
  5
31C
100
AcDbEntity
  8
A_RUNDUNGEN
100
AcDbSpline
 62
7
  6
CONTINUOUS
 70
0
 71
3
 72
14
 73
10
 74
0
 42
0.0000001
 43
0.0000001
 44
0.0000000001
 40
0.0
 40
0.0
 40
0.0
 40
0.0
 40
0.0384719472
 40
0.1085469029
 40
0.2083591556
 40
0.3340119571
 40
0.4810726482
 40
0.6447575895
 40
1.0
 40
1.0
 40
1.0
 40
1.0
 10
30.2755476608
 20
43.2094710293
 30
0.0
 10
30.2757144759
 20
43.2162961939
 30
0.0
 10
30.2853126601
 20
43.2341328787
 30
0.0
 10
30.3049860293
 20
43.2647099652
 30
0.0
 10
30.3372955023
 20
43.3064530989
 30
0.0
 10
30.379403223
 20
43.3572681382
 30
0.0
 10
30.4305429378
 20
43.4154916234
 30
0.0
 10
30.5103565858
 20
43.5026395869
 30
0.0
 10
30.5744193744
 20
43.5688378764
 30
0.0
 10
30.6189961294
 20
43.6134146314
 30
0.0
  0
SPLINE
  5
31D
100
AcDbEntity
  8
A_RUNDUNGEN
100
AcDbSpline
 62
7
  6
CONTINUOUS
 70
0
 71
3
 72
14
 73
10
 74
0
 42
0.0000001
 43
0.0000001
 44
0.0000000001
 40
0.0
 40
0.0
 40
0.0
 40
0.0
 40
0.3546163786
 40
0.5180267732
 40
0.664897345
 40
0.7904853567
 40
0.890416089
 40
0.9608504198
 40
1.0
 40
1.0
 40
1.0
 40
1.0
 10
30.6189958952
 20
167.0196695553
 30
0.0
 10
30.5743876547
 20
167.0642777957
 30
0.0
 10
30.5102800125
 20
167.1305295056
 30
0.0
 10
30.4305750991
 20
167.2179119657
 30
0.0
 10
30.379597171
 20
167.2764072163
 30
0.0
 10
30.3377222195
 20
167.3275996163
 30
0.0
 10
30.3057251018
 20
167.3698369698
 30
0.0
 10
30.286295918
 20
167.4009324845
 30
0.0
 10
30.2770586177
 20
167.4192394362
 30
0.0
 10
30.2770589201
 20
167.426204072
 30
0.0
  0
SPLINE
  5
31E
100
AcDbEntity
  8
A_RUNDUNGEN
100
AcDbSpline
 62
7
  6
CONTINUOUS
 70
0
 71
3
 72
14
 73
10
 74
0
 42
0.0000001
 43
0.0000001
 44
0.0000000001
 40
0.0
 40
0.0
 40
0.0
 40
0.0
 40
0.0391536655
 40
0.1095910008
 40
0.2095203614
 40
0.3351065836
 40
0.4819751587
 40
0.6453841311
 40
1.0
 40
1.0
 40
1.0
 40
1.0
 10
51.0093713368
 20
167.426204072
 30
0.0
 10
51.009371527
 20
167.4192386839
 30
0.0
 10
51.000132366
 20
167.4009309606
 30
0.0
 10
50.980703607
 20
167.3698340244
 30
0.0
 10
50.9487060225
 20
167.3275966796
 30
0.0
 10
50.9068311413
 20
167.2764051485
 30
0.0
 10
50.8558535971
 20
167.2179104029
 30
0.0
 10
50.7761489122
 20
167.1305280988
 30
0.0
 10
50.7120412342
 20
167.0642764278
 30
0.0
 10
50.6674328942
 20
167.0196680878
 30
0.0
  0
SPLINE
  5
31F
100
AcDbEntity
  8
A_RUNDUNGEN
100
AcDbSpline
 62
7
  6
CONTINUOUS
 70
0
 71
3
 72
9
 73
5
 74
0
 42
0.0000001
 43
0.0000001
 44
0.0000000001
 40
0.0
 40
0.0
 40
0.0
 40
0.0
 40
0.2618327391
 40
1.0
 40
1.0
 40
1.0
 40
1.0
 10
28.907144711
 20
40.266059563
 30
0.0
 10
28.9421240541
 20
40.2903980735
 30
0.0
 10
29.0753280475
 20
40.3839099358
 30
0.0
 10
29.2069416948
 20
40.4797035751
 30
0.0
 10
29.3028509758
 20
40.5520530654
 30
0.0
  0
SPLINE
  5
320
100
AcDbEntity
  8
A_RUNDUNGEN
100
AcDbSpline
 62
7
  6
CONTINUOUS
 70
0
 71
3
 72
13
 73
9
 74
0
 42
0.0000001
 43
0.0000001
 44
0.0000000001
 40
0.0
 40
0.0
 40
0.0
 40
0.0
 40
0.3791540088
 40
0.6742040169
 40
0.7886483425
 40
0.8806113187
 40
0.9504855019
 40
1.0
 40
1.0
 40
1.0
 40
1.0
 10
29.3330445612
 20
40.5749174159
 30
0.0
 10
29.46450312
 20
40.674852414
 30
0.0
 10
29.6940546754
 20
40.8581410002
 30
0.0
 10
29.9471844885
 20
41.0912761927
 30
0.0
 10
30.0932915135
 20
41.2537517749
 30
0.0
 10
30.1660247413
 20
41.3500360481
 30
0.0
 10
30.2118538041
 20
41.4298835393
 30
0.0
 10
30.2277509927
 20
41.4808052855
 30
0.0
 10
30.2284212924
 20
41.5023597041
 30
0.0
  0
ELLIPSE
  5
321
100
AcDbEntity
  8
0
100
AcDbEllipse
 62
7
  6
CONTINUOUS
 10
40.6432151284
 20
46.8165419762
 30
0.0
 11
12.0
 21
-0.0
 31
0.0
 40
1.0
 41
-3.1415926536
 42
-2.7698254046
  0
ELLIPSE
  5
322
100
AcDbEntity
  8
0
100
AcDbEllipse
 62
7
  6
CONTINUOUS
 10
40.6432151284
 20
163.8165419762
 30
0.0
 11
12.0
 21
0.0
 31
0.0
 40
1.0
 41
2.7698254046
 42
3.1415926536
  0
ELLIPSE
  5
323
100
AcDbEntity
  8
0
100
AcDbEllipse
 62
7
  6
CONTINUOUS
 10
40.6432151284
 20
163.8165419762
 30
0.0
 11
0.0
 21
12.0
 31
0.0
 40
1.0
 41
-1.5707963268
 42
-1.1990290778
  0
ELLIPSE
  5
324
100
AcDbEntity
  8
0
100
AcDbEllipse
 62
7
  6
CONTINUOUS
 10
40.6432151284
 20
46.8165419762
 30
0.0
 11
12.0
 21
-0.0
 31
0.0
 40
1.0
 41
-0.371767249
 42
0.0
  0
ENDSEC
  0
SECTION
  2
OBJECTS
  0
DICTIONARY
  5
325
100
AcDbDictionary
  3
ACAD_GROUP
350
326
  3
ACAD_MLINESTYLE
350
327
  0
DICTIONARY
  5
326
102
{ACAD_REACTORS
330
325
102
}
100
AcDbDictionary
  0
DICTIONARY
  5
327
102
{ACAD_REACTORS
330
325
102
}
100
AcDbDictionary
  3
STANDARD
350
328
  0
MLINESTYLE
  5
328
102
{ACAD_REACTORS
330
327
102
}
100
AcDbMlineStyle
  2
STANDARD
 70
0
  3

 62
256
 51
90.0
 52
90.0
 71
2
 49
0.5
 62
256
  6
BYLAYER
 49
-0.5
 62
256
  6
BYLAYER
  0
ENDSEC
  0
EOF
