999
DXF file: d:\tmp\workingDir\0000063234\vx_7502_3d_v01_01.dxf
999
Pro/ENGINEER 2016380 by Parametric Technology Corporation
  0
SECTION
  2
HEADER
  9
$ACADVER
  1
AC1014
  9
$DWGCODEPAGE
  3
ANSI_1252
  9
$EXTMAX
 10
130.048
 20
220.0
 30
0.0
  9
$EXTMIN
 10
-0.0
 20
0.0
 30
0.0
  9
$LIMMIN
 10
-0.0
 20
0.0
  9
$LIMMAX
 10
130.048
 20
220.0
  9
$VIEWCTR
 10
65.024
 20
110.0
  9
$VIEWSIZE
 40
220.0
  9
$CLAYER
  8
0
  9
$LTSCALE
 40
14.3407407407
  9
$CELTYPE
  6
BYLAYER
  9
$DIMSCALE
 40
1.0
  9
$DIMASZ
 40
3.5
  9
$DIMEXO
 40
0.0
  9
$DIMDLI
 40
9.9081481481
  9
$DIMEXE
 40
2.0
  9
$DIMCEN
 40
2.3466666667
  9
$DIMLFAC
 40
1.0
  9
$DIMBLK
  1
_ARROW_FILLED
  9
$DIMALT
 70
0
  9
$DIMALTF
 40
25.4
  9
$DIMTXT
 40
3.5
  9
$DIMTOL
 70
1
  9
$DIMLIM
 70
0
  9
$DIMTFAC
 40
1.0
  9
$DIMTP
 40
0.01
  9
$DIMTM
 40
0.01
  9
$DIMGAP
 40
0.625
  9
$AUNITS
 70
0
  9
$PDMODE
 70
3
  9
$PDSIZE
 40
0.3125
  9
$HANDSEED
  5
4C4
  9
$TILEMODE
 70
1
  9
$MEASUREMENT
 70
1
  0
ENDSEC
  0
SECTION
  2
CLASSES
  0
ENDSEC
  0
SECTION
  2
TABLES
  0
TABLE
  2
VPORT
  5
8
100
AcDbSymbolTable
 70
2
  0
VPORT
  5
1F4
100
AcDbSymbolTableRecord
100
AcDbViewportTableRecord
  2
*ACTIVE
 70
0
 10
0.0
 20
0.0
 11
1.0
 21
1.0
 12
65.024
 22
110.0
 13
0.0
 23
0.0
 14
1.0
 24
1.0
 15
0.0
 25
0.0
 16
0.0
 26
0.0
 36
1.0
 17
0.0
 27
0.0
 37
0.0
 40
220.0
 41
0.5911272727
 42
50.0
 43
0.0
 44
0.0
 50
0.0
 51
0.0
 71
0
 72
100
 73
1
 74
1
 75
0
 76
0
 77
0
 78
0
  0
ENDTAB
  0
TABLE
  2
LTYPE
  5
5
100
AcDbSymbolTable
 70
6
  0
LTYPE
  5
14
100
AcDbSymbolTableRecord
100
AcDbLinetypeTableRecord
  2
BYBLOCK
 70
0
  3

 72
65
 73
0
 40
0.0
  0
LTYPE
  5
15
100
AcDbSymbolTableRecord
100
AcDbLinetypeTableRecord
  2
BYLAYER
 70
0
  3

 72
65
 73
0
 40
0.0
  0
LTYPE
  5
16
100
AcDbSymbolTableRecord
100
AcDbLinetypeTableRecord
  2
CONTINUOUS
 70
64
  3
Solid line
 72
65
 73
0
 40
0.0
  0
LTYPE
  5
1F5
100
AcDbSymbolTableRecord
100
AcDbLinetypeTableRecord
  2
CENTER
 70
64
  3
____ _ ____ _ ____ _ ____ _ ____ _ ____ _ ____
 72
65
 73
4
 40
0.6
 49
0.375
 74
0
 49
-0.075
 74
0
 49
0.075
 74
0
 49
-0.075
 74
0
  0
LTYPE
  5
1F6
100
AcDbSymbolTableRecord
100
AcDbLinetypeTableRecord
  2
HIDDEN
 70
64
  3
- - - - - - - - - - - - - - - - - - - -
 72
65
 73
2
 40
0.2
 49
0.1
 74
0
 49
-0.1
 74
0
  0
LTYPE
  5
1F7
100
AcDbSymbolTableRecord
100
AcDbLinetypeTableRecord
  2
PHANTOM
 70
64
  3
_____ _ _ _____ _ _ _____ _ _ _____
 72
65
 73
6
 40
0.8
 49
0.45
 74
0
 49
-0.05
 74
0
 49
0.1
 74
0
 49
-0.05
 74
0
 49
0.1
 74
0
 49
-0.05
 74
0
  0
LTYPE
  5
1F8
100
AcDbSymbolTableRecord
100
AcDbLinetypeTableRecord
  2
DOT
 70
64
  3
. . . . . . . . . . . . . . . . . . . .
 72
65
 73
2
 40
0.2
 49
0.1
 74
0
 49
-0.1
 74
0
  0
LTYPE
  5
1F9
100
AcDbSymbolTableRecord
100
AcDbLinetypeTableRecord
  2
DASHED
 70
64
  3
- - - - - - - - - - - - - - - - - - - -
 72
65
 73
2
 40
0.2
 49
0.1
 74
0
 49
-0.1
 74
0
  0
ENDTAB
  0
TABLE
  2
LAYER
  5
2
100
AcDbSymbolTable
 70
36
  0
LAYER
  5
10
100
AcDbSymbolTableRecord
100
AcDbLayerTableRecord
  2
0
 70
0
 62
7
  6
CONTINUOUS
  0
LAYER
  5
1FA
100
AcDbSymbolTableRecord
100
AcDbLayerTableRecord
  2
DEFAULT_1
 70
0
 62
7
  6
CENTER
  0
LAYER
  5
1FB
100
AcDbSymbolTableRecord
100
AcDbLayerTableRecord
  2
DEFAULT_2
 70
0
 62
8
  6
HIDDEN
  0
LAYER
  5
1FC
100
AcDbSymbolTableRecord
100
AcDbLayerTableRecord
  2
DEFAULT_3
 70
0
 62
7
  6
PHANTOM
  0
LAYER
  5
1FD
100
AcDbSymbolTableRecord
100
AcDbLayerTableRecord
  2
A_ACHSEN
 70
0
 62
7
  6
CONTINUOUS
  0
LAYER
  5
1FE
100
AcDbSymbolTableRecord
100
AcDbLayerTableRecord
  2
A_BASISEBENEN
 70
0
 62
7
  6
CONTINUOUS
  0
LAYER
  5
1FF
100
AcDbSymbolTableRecord
100
AcDbLayerTableRecord
  2
A_BEMASSUNGEN
 70
0
 62
7
  6
CONTINUOUS
  0
LAYER
  5
200
100
AcDbSymbolTableRecord
100
AcDbLayerTableRecord
  2
A_BOHRUNGEN
 70
0
 62
7
  6
CONTINUOUS
  0
LAYER
  5
201
100
AcDbSymbolTableRecord
100
AcDbLayerTableRecord
  2
A_EBENEN
 70
0
 62
7
  6
CONTINUOUS
  0
LAYER
  5
202
100
AcDbSymbolTableRecord
100
AcDbLayerTableRecord
  2
A_FASEN
 70
0
 62
7
  6
CONTINUOUS
  0
LAYER
  5
203
100
AcDbSymbolTableRecord
100
AcDbLayerTableRecord
  2
A_FLAECHEN
 70
0
 62
7
  6
CONTINUOUS
  0
LAYER
  5
204
100
AcDbSymbolTableRecord
100
AcDbLayerTableRecord
  2
A_FL_VERBAENDE
 70
0
 62
7
  6
CONTINUOUS
  0
LAYER
  5
205
100
AcDbSymbolTableRecord
100
AcDbLayerTableRecord
  2
A_KURVEN
 70
0
 62
7
  6
CONTINUOUS
  0
LAYER
  5
206
100
AcDbSymbolTableRecord
100
AcDbLayerTableRecord
  2
A_NOTIZEN_SYMB
 70
0
 62
7
  6
CONTINUOUS
  0
LAYER
  5
207
100
AcDbSymbolTableRecord
100
AcDbLayerTableRecord
  2
A_PUNKTE
 70
0
 62
7
  6
CONTINUOUS
  0
LAYER
  5
208
100
AcDbSymbolTableRecord
100
AcDbLayerTableRecord
  2
A_RUNDUNGEN
 70
0
 62
7
  6
CONTINUOUS
  0
LAYER
  5
209
100
AcDbSymbolTableRecord
100
AcDbLayerTableRecord
  2
A_TABELLEN
 70
0
 62
7
  6
CONTINUOUS
  0
LAYER
  5
20A
100
AcDbSymbolTableRecord
100
AcDbLayerTableRecord
  2
BASISEBENEN
 70
0
 62
7
  6
CONTINUOUS
  0
LAYER
  5
20B
100
AcDbSymbolTableRecord
100
AcDbLayerTableRecord
  2
XSEC_DATUMS
 70
0
 62
7
  6
CONTINUOUS
  0
ENDTAB
  0
TABLE
  2
STYLE
  5
3
100
AcDbSymbolTable
 70
1
  0
STYLE
  5
11
100
AcDbSymbolTableRecord
100
AcDbTextStyleTableRecord
  2
STANDARD
 70
0
 40
0.0
 41
1.0
 50
0.0
 71
0
 42
0.2
  3
txt
  4

  0
STYLE
  5
20C
100
AcDbSymbolTableRecord
100
AcDbTextStyleTableRecord
  2
TEXTSTYLE_1
 70
0
 40
0.0
 41
0.8
 50
0.0
 71
0
 42
0.2
  3
gdt
  4

  0
STYLE
  5
20D
100
AcDbSymbolTableRecord
100
AcDbTextStyleTableRecord
  2
TEXTSTYLE_2
 70
0
 40
0.0
 41
1.0
 50
0.0
 71
0
 42
0.2
  3
txt
  4

  0
ENDTAB
  0
TABLE
  2
VIEW
  5
6
100
AcDbSymbolTable
 70
0
  0
ENDTAB
  0
TABLE
  2
UCS
  5
7
100
AcDbSymbolTable
 70
0
  0
ENDTAB
  0
TABLE
  2
APPID
  5
9
100
AcDbSymbolTable
 70
1
  0
APPID
  5
20E
100
AcDbSymbolTableRecord
100
AcDbRegAppTableRecord
  2
ACAD
 70
0
  0
ENDTAB
  0
TABLE
  2
BLOCK_RECORD
  5
1
100
AcDbSymbolTable
 70
0
  0
BLOCK_RECORD
  5
1F
100
AcDbSymbolTableRecord
100
AcDbBlockTableRecord
  2
*MODEL_SPACE
  0
BLOCK_RECORD
  5
1B
100
AcDbSymbolTableRecord
100
AcDbBlockTableRecord
  2
*PAPER_SPACE
  0
BLOCK_RECORD
  5
20F
100
AcDbSymbolTableRecord
100
AcDbBlockTableRecord
  2
_ARROW_FILLED
  0
BLOCK_RECORD
  5
210
100
AcDbSymbolTableRecord
100
AcDbBlockTableRecord
  2
*D0
  0
BLOCK_RECORD
  5
211
100
AcDbSymbolTableRecord
100
AcDbBlockTableRecord
  2
*D1
  0
BLOCK_RECORD
  5
212
100
AcDbSymbolTableRecord
100
AcDbBlockTableRecord
  2
*D2
  0
BLOCK_RECORD
  5
213
100
AcDbSymbolTableRecord
100
AcDbBlockTableRecord
  2
*D3
  0
ENDTAB
  0
TABLE
  2
DIMSTYLE
  5
A
100
AcDbSymbolTable
 70
1
  0
DIMSTYLE
105
214
100
AcDbSymbolTableRecord
100
AcDbDimStyleTableRecord
  2
STANDARD
 70
0
  3

  4

  5
_ARROW_FILLED
  6
_ARROW_FILLED
  7
_ARROW_FILLED
 40
1.0
 41
3.5
 42
0.0
 43
0.38
 44
2.0
 45
0.0
 46
0.0
 47
0.01
 48
0.01
140
3.5
141
0.09
142
0.0
143
25.4
144
1.0
145
0.0
146
1.0
147
0.625
 71
1.0
 72
0.0
 73
0
 74
0
 75
0
 76
0
 77
1
 78
8
170
0
171
1
172
0
173
0
174
0
175
0
176
0
177
0
178
5
270
2
271
2
272
2
273
2
274
2
275
0
280
0
281
0
282
0
283
1
284
8
285
0
286
0
287
3
288
0
340
11
  0
DIMSTYLE
105
215
100
AcDbSymbolTableRecord
100
AcDbDimStyleTableRecord
  2
DIMSTYLE_1
 70
0
  3

  4

  5
_ARROW_FILLED
  6
_ARROW_FILLED
  7
_ARROW_FILLED
 40
1.0
 41
3.5
 42
0.0
 43
0.38
 44
2.0
 45
0.0
 46
0.0
 47
0.5
 48
0.5
140
3.5
141
0.09
142
0.0
143
25.4
144
1.0
145
0.0
146
1.0
147
0.875
 71
0.0
 72
0.0
 73
0
 74
0
 75
0
 76
0
 77
1
 78
8
170
0
171
1
172
0
173
0
174
0
175
0
176
0
177
0
178
5
270
2
271
4
272
-1
273
2
274
2
275
0
280
0
281
0
282
0
283
1
284
8
285
0
286
0
287
3
288
0
340
20D
  0
DIMSTYLE
105
216
100
AcDbSymbolTableRecord
100
AcDbDimStyleTableRecord
  2
DIMSTYLE_2
 70
0
  3

  4

  5
_ARROW_FILLED
  6
_ARROW_FILLED
  7
_ARROW_FILLED
 40
1.0
 41
3.5
 42
0.0
 43
0.38
 44
2.0
 45
0.0
 46
0.0
 47
0.2
 48
0.2
140
3.5
141
0.09
142
0.0
143
25.4
144
1.0
145
0.0
146
1.0
147
0.875
 71
0.0
 72
0.0
 73
0
 74
0
 75
0
 76
0
 77
1
 78
8
170
0
171
1
172
0
173
0
174
0
175
0
176
0
177
0
178
5
270
2
271
4
272
-1
273
2
274
2
275
0
280
0
281
0
282
0
283
1
284
8
285
0
286
0
287
3
288
0
340
20D
  0
DIMSTYLE
105
217
100
AcDbSymbolTableRecord
100
AcDbDimStyleTableRecord
  2
DIMSTYLE_3
 70
0
  3

  4

  5
_ARROW_FILLED
  6
_ARROW_FILLED
  7
_ARROW_FILLED
 40
1.0
 41
3.5
 42
0.0
 43
0.38
 44
2.0
 45
0.0
 46
0.0
 47
0.3
 48
0.3
140
3.5
141
0.09
142
0.0
143
25.4
144
1.0
145
0.0
146
1.0
147
0.875
 71
0.0
 72
0.0
 73
0
 74
0
 75
0
 76
0
 77
1
 78
8
170
0
171
1
172
0
173
0
174
0
175
0
176
0
177
0
178
5
270
2
271
4
272
-1
273
2
274
2
275
0
280
0
281
0
282
0
283
1
284
8
285
0
286
0
287
3
288
0
340
20D
  0
ENDTAB
  0
ENDSEC
  0
SECTION
  2
BLOCKS
  0
BLOCK
  5
20
100
AcDbEntity
  8
0
100
AcDbBlockBegin
  2
*MODEL_SPACE
 70
0
 10
0.0
 20
0.0
 30
0.0
  3
*MODEL_SPACE
  1

  0
ENDBLK
  5
21
100
AcDbEntity
  8
0
100
AcDbBlockEnd
  0
BLOCK
  5
1C
100
AcDbEntity
  8
0
100
AcDbBlockBegin
  2
*PAPER_SPACE
 70
0
 10
0.0
 20
0.0
 30
0.0
  3
*PAPER_SPACE
  1

  0
ENDBLK
  5
1D
100
AcDbEntity
  8
0
100
AcDbBlockEnd
  0
BLOCK
  5
218
100
AcDbEntity
  8
0
100
AcDbBlockBegin
  2
_ARROW_FILLED
 70
64
 10
0.0
 20
0.0
  3
_ARROW_FILLED
  1

  0
SOLID
  5
219
100
AcDbEntity
  8
0
  6
BYBLOCK
 62
0
100
AcDbTrace
 10
0.0
 20
0.0
 11
-1.0
 21
0.1428571429
 12
-1.0
 22
-0.1428571429
 13
-1.0
 23
-0.1428571429
  0
ENDBLK
  5
21A
100
AcDbEntity
  8
0
  6
BYBLOCK
 62
0
100
AcDbBlockEnd
  0
BLOCK
  5
21B
100
AcDbEntity
  8
A_BEMASSUNGEN
100
AcDbBlockBegin
 62
2
  6
CONTINUOUS
  2
*D0
 70
65
 10
0.0
 20
0.0
  3
*D0
  1

  0
MTEXT
  5
21C
100
AcDbEntity
  8
A_BEMASSUNGEN
100
AcDbMText
 62
5
  6
CONTINUOUS
  7
TEXTSTYLE_2
 71
2
 72
1
 10
10.3890995251
 20
119.2183651326
 30
0.0
 11
0.0
 21
1.0
 31
0.0
  1
180
 40
3.5
 41
11.25
  0
LINE
  5
21D
100
AcDbEntity
  8
A_BEMASSUNGEN
100
AcDbLine
 62
2
  6
CONTINUOUS
 10
38.8780387393
 20
209.2183651326
 11
12.7640995251
 21
209.2183651326
  0
LINE
  5
21E
100
AcDbEntity
  8
A_BEMASSUNGEN
100
AcDbLine
 62
2
  6
CONTINUOUS
 10
38.8780387393
 20
29.2183651326
 11
29.5720452489
 21
29.2183651326
  0
LINE
  5
21F
100
AcDbEntity
  8
A_BEMASSUNGEN
100
AcDbLine
 62
2
  6
CONTINUOUS
 10
24.5771493213
 20
29.2183651326
 11
12.7640995251
 21
29.2183651326
  0
LINE
  5
220
100
AcDbEntity
  8
A_BEMASSUNGEN
100
AcDbLine
 62
2
  6
CONTINUOUS
 10
14.7640995251
 20
209.2183651326
 11
14.7640995251
 21
119.2183651326
  0
LINE
  5
221
100
AcDbEntity
  8
A_BEMASSUNGEN
100
AcDbLine
 62
2
  6
CONTINUOUS
 10
14.7640995251
 20
29.2183651326
 11
14.7640995251
 21
119.2183651326
  0
INSERT
  5
222
100
AcDbEntity
  8
A_BEMASSUNGEN
100
AcDbBlockReference
 62
2
  6
CONTINUOUS
  2
_ARROW_FILLED
 10
14.7640995251
 20
209.2183651326
 41
3.5
 42
3.5
 43
3.5
 50
90.0
  0
INSERT
  5
223
100
AcDbEntity
  8
A_BEMASSUNGEN
100
AcDbBlockReference
 62
2
  6
CONTINUOUS
  2
_ARROW_FILLED
 10
14.7640995251
 20
29.2183651326
 41
3.5
 42
3.5
 43
3.5
 50
270.0
  0
ENDBLK
  5
224
100
AcDbEntity
  8
0
  6
BYBLOCK
 62
0
100
AcDbBlockEnd
  0
BLOCK
  5
225
100
AcDbEntity
  8
A_BEMASSUNGEN
100
AcDbBlockBegin
 62
2
  6
CONTINUOUS
  2
*D1
 70
65
 10
0.0
 20
0.0
  3
*D1
  1

  0
MTEXT
  5
226
100
AcDbEntity
  8
A_BEMASSUNGEN
100
AcDbMText
 62
5
  6
CONTINUOUS
  7
TEXTSTYLE_2
 71
2
 72
1
 10
38.8780387393
 20
22.361595664
 30
0.0
 11
1.0
 21
0.0
 31
0.0
  1
24
 40
3.5
 41
8.25
  0
LINE
  5
227
100
AcDbEntity
  8
A_BEMASSUNGEN
100
AcDbLine
 62
2
  6
CONTINUOUS
 10
50.8780387393
 20
41.2183651326
 11
50.8780387393
 21
15.986595664
  0
LINE
  5
228
100
AcDbEntity
  8
A_BEMASSUNGEN
100
AcDbLine
 62
2
  6
CONTINUOUS
 10
26.8780387393
 20
41.2183651326
 11
26.8780387393
 21
15.986595664
  0
LINE
  5
229
100
AcDbEntity
  8
A_BEMASSUNGEN
100
AcDbLine
 62
2
  6
CONTINUOUS
 10
50.8780387393
 20
17.986595664
 11
38.8780387393
 21
17.986595664
  0
LINE
  5
22A
100
AcDbEntity
  8
A_BEMASSUNGEN
100
AcDbLine
 62
2
  6
CONTINUOUS
 10
26.8780387393
 20
17.986595664
 11
38.8780387393
 21
17.986595664
  0
INSERT
  5
22B
100
AcDbEntity
  8
A_BEMASSUNGEN
100
AcDbBlockReference
 62
2
  6
CONTINUOUS
  2
_ARROW_FILLED
 10
50.8780387393
 20
17.986595664
 41
3.5
 42
3.5
 43
3.5
  0
INSERT
  5
22C
100
AcDbEntity
  8
A_BEMASSUNGEN
100
AcDbBlockReference
 62
2
  6
CONTINUOUS
  2
_ARROW_FILLED
 10
26.8780387393
 20
17.986595664
 41
3.5
 42
3.5
 43
3.5
 50
180.0
  0
ENDBLK
  5
22D
100
AcDbEntity
  8
0
  6
BYBLOCK
 62
0
100
AcDbBlockEnd
  0
BLOCK
  5
22E
100
AcDbEntity
  8
A_BEMASSUNGEN
100
AcDbBlockBegin
 62
2
  6
CONTINUOUS
  2
*D2
 70
65
 10
0.0
 20
0.0
  3
*D2
  1

  0
MTEXT
  5
22F
100
AcDbEntity
  8
A_BEMASSUNGEN
100
AcDbMText
 62
5
  6
CONTINUOUS
  7
TEXTSTYLE_2
 71
2
 72
1
 10
113.3913178733
 20
119.2183651326
 30
0.0
 11
0.0
 21
1.0
 31
0.0
  1
180
 40
3.5
 41
11.25
  0
LINE
  5
230
100
AcDbEntity
  8
A_BEMASSUNGEN
100
AcDbLine
 62
2
  6
CONTINUOUS
 10
103.8780387393
 20
209.2183651326
 11
119.7663178733
 21
209.2183651326
  0
LINE
  5
231
100
AcDbEntity
  8
A_BEMASSUNGEN
100
AcDbLine
 62
2
  6
CONTINUOUS
 10
103.8780387393
 20
29.2183651326
 11
119.7663178733
 21
29.2183651326
  0
LINE
  5
232
100
AcDbEntity
  8
A_BEMASSUNGEN
100
AcDbLine
 62
2
  6
CONTINUOUS
 10
117.7663178733
 20
209.2183651326
 11
117.7663178733
 21
119.2183651326
  0
LINE
  5
233
100
AcDbEntity
  8
A_BEMASSUNGEN
100
AcDbLine
 62
2
  6
CONTINUOUS
 10
117.7663178733
 20
29.2183651326
 11
117.7663178733
 21
119.2183651326
  0
INSERT
  5
234
100
AcDbEntity
  8
A_BEMASSUNGEN
100
AcDbBlockReference
 62
2
  6
CONTINUOUS
  2
_ARROW_FILLED
 10
117.7663178733
 20
209.2183651326
 41
3.5
 42
3.5
 43
3.5
 50
90.0
  0
INSERT
  5
235
100
AcDbEntity
  8
A_BEMASSUNGEN
100
AcDbBlockReference
 62
2
  6
CONTINUOUS
  2
_ARROW_FILLED
 10
117.7663178733
 20
29.2183651326
 41
3.5
 42
3.5
 43
3.5
 50
270.0
  0
ENDBLK
  5
236
100
AcDbEntity
  8
0
  6
BYBLOCK
 62
0
100
AcDbBlockEnd
  0
BLOCK
  5
237
100
AcDbEntity
  8
A_BEMASSUNGEN
100
AcDbBlockBegin
 62
2
  6
CONTINUOUS
  2
*D3
 70
65
 10
0.0
 20
0.0
  3
*D3
  1

  0
MTEXT
  5
238
100
AcDbEntity
  8
A_BEMASSUNGEN
100
AcDbMText
 62
5
  6
CONTINUOUS
  7
TEXTSTYLE_2
 71
2
 72
1
 10
65.4919966063
 20
12.673331448
 30
0.0
 11
1.0
 21
0.0
 31
0.0
  1
77
 40
3.5
 41
8.25
  0
LINE
  5
239
100
AcDbEntity
  8
A_BEMASSUNGEN
100
AcDbLine
 62
2
  6
CONTINUOUS
 10
26.8780387393
 20
41.2183651326
 11
26.8780387393
 21
6.298331448
  0
LINE
  5
23A
100
AcDbEntity
  8
A_BEMASSUNGEN
100
AcDbLine
 62
2
  6
CONTINUOUS
 10
103.8780387393
 20
29.2183651326
 11
103.8780387393
 21
6.298331448
  0
LINE
  5
23B
100
AcDbEntity
  8
A_BEMASSUNGEN
100
AcDbLine
 62
2
  6
CONTINUOUS
 10
26.8780387393
 20
8.298331448
 11
65.3780387393
 21
8.298331448
  0
LINE
  5
23C
100
AcDbEntity
  8
A_BEMASSUNGEN
100
AcDbLine
 62
2
  6
CONTINUOUS
 10
103.8780387393
 20
8.298331448
 11
65.3780387393
 21
8.298331448
  0
INSERT
  5
23D
100
AcDbEntity
  8
A_BEMASSUNGEN
100
AcDbBlockReference
 62
2
  6
CONTINUOUS
  2
_ARROW_FILLED
 10
26.8780387393
 20
8.298331448
 41
3.5
 42
3.5
 43
3.5
 50
180.0
  0
INSERT
  5
23E
100
AcDbEntity
  8
A_BEMASSUNGEN
100
AcDbBlockReference
 62
2
  6
CONTINUOUS
  2
_ARROW_FILLED
 10
103.8780387393
 20
8.298331448
 41
3.5
 42
3.5
 43
3.5
  0
ENDBLK
  5
23F
100
AcDbEntity
  8
0
  6
BYBLOCK
 62
0
100
AcDbBlockEnd
  0
ENDSEC
  0
SECTION
  2
ENTITIES
  0
DIMENSION
  5
240
100
AcDbEntity
  8
A_BEMASSUNGEN
100
AcDbDimension
 62
2
  6
CONTINUOUS
  2
*D0
 10
14.7640995251
 20
29.2183651326
 11
14.7640995251
 21
118.7183654339
 70
160
  3
DIMSTYLE_1
100
AcDbAlignedDimension
 13
38.8780387393
 23
209.2183651326
 14
38.8780387393
 24
29.2183651326
 50
270.0
100
AcDbRotatedDimension
  0
DIMENSION
  5
241
100
AcDbEntity
  8
A_BEMASSUNGEN
100
AcDbDimension
 62
2
  6
CONTINUOUS
  2
*D1
 10
26.8780387393
 20
17.986595664
 11
38.3780397135
 21
17.986595664
 70
160
  3
DIMSTYLE_2
100
AcDbAlignedDimension
 13
50.8780387393
 23
41.2183651326
 14
26.8780387393
 24
41.2183651326
 50
180.0
100
AcDbRotatedDimension
  0
DIMENSION
  5
242
100
AcDbEntity
  8
A_BEMASSUNGEN
100
AcDbDimension
 62
2
  6
CONTINUOUS
  2
*D2
 10
117.7663178733
 20
29.2183651326
 11
117.7663178733
 21
118.7183678612
 70
160
  3
DIMSTYLE_1
100
AcDbAlignedDimension
 13
103.8780387393
 23
209.2183651326
 14
103.8780387393
 24
29.2183651326
 50
270.0
100
AcDbRotatedDimension
  0
DIMENSION
  5
243
100
AcDbEntity
  8
A_BEMASSUNGEN
100
AcDbDimension
 62
2
  6
CONTINUOUS
  2
*D3
 10
103.8780387393
 20
8.298331448
 11
64.9919962384
 21
8.298331448
 70
160
  3
DIMSTYLE_3
100
AcDbAlignedDimension
 13
26.8780387393
 23
41.2183651326
 14
103.8780387393
 24
29.2183651326
100
AcDbRotatedDimension
  0
LINE
  5
244
100
AcDbEntity
  8
0
100
AcDbLine
 62
7
  6
CONTINUOUS
 10
103.8780387393
 20
29.2183651326
 11
67.9402165658
 21
29.2183651326
  0
LINE
  5
245
100
AcDbEntity
  8
0
100
AcDbLine
 62
7
  6
CONTINUOUS
 10
47.8780387393
 20
32.7183651326
 11
61.8780387393
 21
32.7183651326
  0
LINE
  5
246
100
AcDbEntity
  8
A_RUNDUNGEN
100
AcDbLine
 62
7
  6
CONTINUOUS
 10
47.8780387393
 20
205.7183651326
 11
47.4870130436
 21
205.4926063419
  0
LINE
  5
247
100
AcDbEntity
  8
0
100
AcDbLine
 62
7
  6
CONTINUOUS
 10
70.9130949084
 20
39.4760646215
 11
71.3075462264
 21
39.5058630289
  0
LINE
  5
248
100
AcDbEntity
  8
0
100
AcDbLine
 62
7
  6
CONTINUOUS
 10
85.9130949084
 20
41.9760646215
 11
86.3075462264
 21
42.0058630289
  0
LINE
  5
249
100
AcDbEntity
  8
A_ACHSEN
100
AcDbLine
 62
7
  6
CONTINUOUS
 10
74.5298905911
 20
41.2183651326
 11
73.2261868874
 21
41.2183651326
  0
LINE
  5
24A
100
AcDbEntity
  8
A_ACHSEN
100
AcDbLine
 62
7
  6
CENTER
 10
70.61877948
 20
41.2183651326
 11
65.8780387393
 21
41.2183651326
  0
LINE
  5
24B
100
AcDbEntity
  8
A_ACHSEN
100
AcDbLine
 62
7
  6
CONTINUOUS
 10
39.5298905911
 20
41.2183651326
 11
38.2261868874
 21
41.2183651326
  0
LINE
  5
24C
100
AcDbEntity
  8
A_ACHSEN
100
AcDbLine
 62
7
  6
CENTER
 10
35.61877948
 20
41.2183651326
 11
32.1280387393
 21
41.2183651326
  0
LINE
  5
24D
100
AcDbEntity
  8
A_ACHSEN
100
AcDbLine
 62
7
  6
CENTER
 10
42.1372979986
 20
41.2183651326
 11
45.6280387393
 21
41.2183651326
  0
LINE
  5
24E
100
AcDbEntity
  8
A_ACHSEN
100
AcDbLine
 62
7
  6
CENTER
 10
77.1372979986
 20
41.2183651326
 11
81.8780387393
 21
41.2183651326
  0
LINE
  5
24F
100
AcDbEntity
  8
0
100
AcDbLine
 62
7
  6
CONTINUOUS
 10
76.4485312522
 20
39.5058630289
 11
76.8429825701
 21
39.4760646215
  0
LINE
  5
250
100
AcDbEntity
  8
A_RUNDUNGEN
100
AcDbLine
 62
7
  6
CONTINUOUS
 10
47.4870130436
 20
32.9441239233
 11
47.8780387393
 21
32.7183651326
  0
LINE
  5
251
100
AcDbEntity
  8
0
100
AcDbLine
 62
7
  6
CONTINUOUS
 10
61.8780387393
 20
205.7183651326
 11
67.9402165658
 21
209.2183651326
  0
LINE
  5
252
100
AcDbEntity
  8
0
100
AcDbLine
 62
7
  6
CONTINUOUS
 10
76.8429825701
 20
42.9606656437
 11
76.4485312522
 21
42.9308672364
  0
LINE
  5
253
100
AcDbEntity
  8
0
100
AcDbLine
 62
7
  6
CONTINUOUS
 10
91.8429825701
 20
45.4606656437
 11
91.4485312522
 21
45.4308672364
  0
LINE
  5
254
100
AcDbEntity
  8
A_ACHSEN
100
AcDbLine
 62
7
  6
CONTINUOUS
 10
89.5298905911
 20
43.7183651326
 11
88.2261868874
 21
43.7183651326
  0
LINE
  5
255
100
AcDbEntity
  8
A_ACHSEN
100
AcDbLine
 62
7
  6
CENTER
 10
85.61877948
 20
43.7183651326
 11
80.8780387393
 21
43.7183651326
  0
LINE
  5
256
100
AcDbEntity
  8
A_ACHSEN
100
AcDbLine
 62
7
  6
CENTER
 10
92.1372979986
 20
43.7183651326
 11
96.8780387393
 21
43.7183651326
  0
LINE
  5
257
100
AcDbEntity
  8
0
100
AcDbLine
 62
7
  6
CONTINUOUS
 10
71.3075462264
 20
42.9308672364
 11
70.9130949084
 21
42.9606656437
  0
LINE
  5
258
100
AcDbEntity
  8
0
100
AcDbLine
 62
7
  6
CONTINUOUS
 10
91.4485312522
 20
42.0058630289
 11
91.8429825701
 21
41.9760646215
  0
LINE
  5
259
100
AcDbEntity
  8
0
100
AcDbLine
 62
7
  6
CONTINUOUS
 10
86.3075462264
 20
45.4308672364
 11
85.9130949084
 21
45.4606656437
  0
LINE
  5
25A
100
AcDbEntity
  8
0
100
AcDbLine
 62
7
  6
CONTINUOUS
 10
67.9402165658
 20
29.2183651326
 11
61.8780387393
 21
32.7183651326
  0
LINE
  5
25B
100
AcDbEntity
  8
0
100
AcDbLine
 62
7
  6
CONTINUOUS
 10
90.9130949084
 20
54.4760646215
 11
91.3075462264
 21
54.5058630289
  0
LINE
  5
25C
100
AcDbEntity
  8
A_ACHSEN
100
AcDbLine
 62
7
  6
CONTINUOUS
 10
82.7280387393
 20
52.5683651326
 11
75.2080387393
 21
52.5683651326
  0
LINE
  5
25D
100
AcDbEntity
  8
0
100
AcDbLine
 62
7
  6
CONTINUOUS
 10
27.0780387393
 20
163.4215134488
 11
27.8780387393
 21
164.2214158104
  0
LINE
  5
25E
100
AcDbEntity
  8
0
100
AcDbLine
 62
7
  6
CONTINUOUS
 10
96.8429825701
 20
57.9606656437
 11
96.4485312522
 21
57.9308672364
  0
LINE
  5
25F
100
AcDbEntity
  8
A_ACHSEN
100
AcDbLine
 62
7
  6
CONTINUOUS
 10
94.5298905911
 20
56.2183651326
 11
93.2261868874
 21
56.2183651326
  0
LINE
  5
260
100
AcDbEntity
  8
A_ACHSEN
100
AcDbLine
 62
7
  6
CENTER
 10
90.61877948
 20
56.2183651326
 11
85.8780387393
 21
56.2183651326
  0
LINE
  5
261
100
AcDbEntity
  8
A_ACHSEN
100
AcDbLine
 62
7
  6
CENTER
 10
97.1372979986
 20
56.2183651326
 11
101.8780387393
 21
56.2183651326
  0
LINE
  5
262
100
AcDbEntity
  8
A_ACHSEN
100
AcDbLine
 62
7
  6
CENTER
 10
75.7930479249
 20
56.7183651326
 11
69.9214967937
 21
56.7183651326
  0
LINE
  5
263
100
AcDbEntity
  8
A_ACHSEN
100
AcDbLine
 62
7
  6
CONTINUOUS
 10
75.7930479249
 20
56.7183651326
 11
76.510681952
 21
56.7183651326
  0
LINE
  5
264
100
AcDbEntity
  8
A_ACHSEN
100
AcDbLine
 62
7
  6
CENTER
 10
76.510681952
 20
56.7183651326
 11
88.9453955266
 21
56.7183651326
  0
LINE
  5
265
100
AcDbEntity
  8
0
100
AcDbLine
 62
7
  6
CONTINUOUS
 10
37.4346630663
 20
60.7183651326
 11
40.3214144123
 21
60.7183651326
  0
LINE
  5
266
100
AcDbEntity
  8
A_ACHSEN
100
AcDbLine
 62
7
  6
CONTINUOUS
 10
75.2080387393
 20
60.8683651326
 11
82.7280387393
 21
60.8683651326
  0
LINE
  5
267
100
AcDbEntity
  8
0
100
AcDbLine
 62
7
  6
CONTINUOUS
 10
96.4485312522
 20
54.5058630289
 11
96.8429825701
 21
54.4760646215
  0
LINE
  5
268
100
AcDbEntity
  8
0
100
AcDbLine
 62
7
  6
CONTINUOUS
 10
91.3075462264
 20
57.9308672364
 11
90.9130949084
 21
57.9606656437
  0
LINE
  5
269
100
AcDbEntity
  8
0
100
AcDbLine
 62
7
  6
CONTINUOUS
 10
27.0780387393
 20
75.0152168165
 11
27.8780387393
 21
74.2153144548
  0
LINE
  5
26A
100
AcDbEntity
  8
0
100
AcDbLine
 62
7
  6
CONTINUOUS
 10
37.4346630663
 20
177.7183651326
 11
35.9912873933
 21
175.2183651326
  0
LINE
  5
26B
100
AcDbEntity
  8
A_RUNDUNGEN
100
AcDbLine
 62
7
  6
CONTINUOUS
 10
50.8780387393
 20
184.9806068118
 11
50.5395737908
 21
184.6421418633
  0
LINE
  5
26C
100
AcDbEntity
  8
A_RUNDUNGEN
100
AcDbLine
 62
7
  6
CONTINUOUS
 10
50.0582806455
 20
182.0775153846
 11
48.9022565051
 21
180.9214912442
  0
LINE
  5
26D
100
AcDbEntity
  8
0
100
AcDbLine
 62
7
  6
CONTINUOUS
 10
70.5495143444
 20
196.3538257503
 11
70.8495042021
 21
196.6116742961
  0
LINE
  5
26E
100
AcDbEntity
  8
0
100
AcDbLine
 62
7
  6
CONTINUOUS
 10
77.2065631342
 20
198.082904515
 11
76.9065732765
 21
197.8250559691
  0
LINE
  5
26F
100
AcDbEntity
  8
A_ACHSEN
100
AcDbLine
 62
7
  6
CONTINUOUS
 10
39.5298905911
 20
63.2183651326
 11
38.2261868874
 21
63.2183651326
  0
LINE
  5
270
100
AcDbEntity
  8
A_ACHSEN
100
AcDbLine
 62
7
  6
CENTER
 10
35.61877948
 20
63.2183651326
 11
26.4780387393
 21
63.2183651326
  0
LINE
  5
271
100
AcDbEntity
  8
A_ACHSEN
100
AcDbLine
 62
7
  6
CENTER
 10
42.1372979986
 20
63.2183651326
 11
51.2780387393
 21
63.2183651326
  0
LINE
  5
272
100
AcDbEntity
  8
0
100
AcDbLine
 62
7
  6
CONTINUOUS
 10
40.3214144123
 20
65.7183651326
 11
37.4346630663
 21
65.7183651326
  0
LINE
  5
273
100
AcDbEntity
  8
0
100
AcDbLine
 62
7
  6
CONTINUOUS
 10
70.5495143444
 20
42.082904515
 11
70.8495042021
 21
41.8250559691
  0
LINE
  5
274
100
AcDbEntity
  8
0
100
AcDbLine
 62
7
  6
CONTINUOUS
 10
77.2065631342
 20
40.3538257503
 11
76.9065732765
 21
40.6116742961
  0
LINE
  5
275
100
AcDbEntity
  8
A_RUNDUNGEN
100
AcDbLine
 62
7
  6
CONTINUOUS
 10
50.8780387393
 20
53.4561234535
 11
50.5392411871
 21
53.7949210056
  0
LINE
  5
276
100
AcDbEntity
  8
A_RUNDUNGEN
100
AcDbLine
 62
7
  6
CONTINUOUS
 10
48.902256822
 20
57.5152387041
 11
50.0582806455
 21
56.3592148806
  0
LINE
  5
277
100
AcDbEntity
  8
0
100
AcDbLine
 62
7
  6
CONTINUOUS
 10
35.9912873933
 20
63.2183651326
 11
37.4346630663
 21
60.7183651326
  0
LINE
  5
278
100
AcDbEntity
  8
0
100
AcDbLine
 62
7
  6
CONTINUOUS
 10
40.3214144123
 20
172.7183651326
 11
41.7647900852
 21
175.2183651326
  0
LINE
  5
279
100
AcDbEntity
  8
0
100
AcDbLine
 62
7
  6
CONTINUOUS
 10
74.4847295758
 20
200.2468996698
 11
74.7425781217
 21
200.5468895275
  0
LINE
  5
27A
100
AcDbEntity
  8
0
100
AcDbLine
 62
7
  6
CONTINUOUS
 10
74.4847295758
 20
38.1898305954
 11
74.7425781217
 21
37.8898407377
  0
LINE
  5
27B
100
AcDbEntity
  8
0
100
AcDbLine
 62
7
  6
CONTINUOUS
 10
41.7647900852
 20
63.2183651326
 11
40.3214144123
 21
65.7183651326
  0
LINE
  5
27C
100
AcDbEntity
  8
A_RUNDUNGEN
100
AcDbLine
 62
7
  6
CONTINUOUS
 10
26.8780387393
 20
41.2183651326
 11
26.8780387393
 21
54.1763053959
  0
LINE
  5
27D
100
AcDbEntity
  8
0
100
AcDbLine
 62
7
  6
CONTINUOUS
 10
26.8780387393
 20
60.7183651326
 11
26.8780387393
 21
68.0425418605
  0
LINE
  5
27E
100
AcDbEntity
  8
0
100
AcDbLine
 62
7
  6
CONTINUOUS
 10
26.8780387393
 20
76.3941884047
 11
26.8780387393
 21
162.0425418605
  0
LINE
  5
27F
100
AcDbEntity
  8
0
100
AcDbLine
 62
7
  6
CONTINUOUS
 10
26.8780387393
 20
170.3941884047
 11
26.8780387393
 21
177.7183651326
  0
LINE
  5
280
100
AcDbEntity
  8
A_RUNDUNGEN
100
AcDbLine
 62
7
  6
CONTINUOUS
 10
26.8780387393
 20
184.9806068118
 11
26.8780387393
 21
197.2183651326
  0
LINE
  5
281
100
AcDbEntity
  8
0
100
AcDbLine
 62
7
  6
CONTINUOUS
 10
27.0780387393
 20
83.4766839856
 11
27.0780387393
 21
75.0152168165
  0
LINE
  5
282
100
AcDbEntity
  8
0
100
AcDbLine
 62
7
  6
CONTINUOUS
 10
27.0780387393
 20
154.9600462797
 11
27.0780387393
 21
163.4215134488
  0
LINE
  5
283
100
AcDbEntity
  8
0
100
AcDbLine
 62
7
  6
CONTINUOUS
 10
34.4346630663
 20
149.7183651326
 11
32.9912873933
 21
147.2183651326
  0
LINE
  5
284
100
AcDbEntity
  8
0
100
AcDbLine
 62
7
  6
CONTINUOUS
 10
73.2713479028
 20
194.1898305954
 11
73.0134993569
 21
193.8898407377
  0
LINE
  5
285
100
AcDbEntity
  8
0
100
AcDbLine
 62
7
  6
CONTINUOUS
 10
85.5495143444
 20
193.8538257503
 11
85.8495042021
 21
194.1116742961
  0
LINE
  5
286
100
AcDbEntity
  8
0
100
AcDbLine
 62
7
  6
CONTINUOUS
 10
92.2065631342
 20
195.582904515
 11
91.9065732765
 21
195.3250559691
  0
LINE
  5
287
100
AcDbEntity
  8
0
100
AcDbLine
 62
7
  6
CONTINUOUS
 10
70.9130949084
 20
79.4760646215
 11
71.3075462264
 21
79.5058630289
  0
LINE
  5
288
100
AcDbEntity
  8
0
100
AcDbLine
 62
7
  6
CONTINUOUS
 10
76.4485312522
 20
79.5058630289
 11
76.8429825701
 21
79.4760646215
  0
LINE
  5
289
100
AcDbEntity
  8
0
100
AcDbLine
 62
7
  6
CONTINUOUS
 10
85.5495143444
 20
44.582904515
 11
85.8495042021
 21
44.3250559691
  0
LINE
  5
28A
100
AcDbEntity
  8
0
100
AcDbLine
 62
7
  6
CONTINUOUS
 10
92.2065631342
 20
42.8538257503
 11
91.9065732765
 21
43.1116742961
  0
LINE
  5
28B
100
AcDbEntity
  8
0
100
AcDbLine
 62
7
  6
CONTINUOUS
 10
73.2713479028
 20
44.2468996698
 11
73.0134993569
 21
44.5468895275
  0
LINE
  5
28C
100
AcDbEntity
  8
0
100
AcDbLine
 62
7
  6
CONTINUOUS
 10
32.9912873933
 20
91.2183651326
 11
34.4346630663
 21
88.7183651326
  0
LINE
  5
28D
100
AcDbEntity
  8
A_RUNDUNGEN
100
AcDbLine
 62
7
  6
CONTINUOUS
 10
27.8780387393
 20
63.2183651326
 11
27.8780387393
 21
74.2153144548
  0
LINE
  5
28E
100
AcDbEntity
  8
0
100
AcDbLine
 62
7
  6
CONTINUOUS
 10
27.8780387393
 20
84.2183651326
 11
27.8780387393
 21
154.2183651326
  0
LINE
  5
28F
100
AcDbEntity
  8
A_RUNDUNGEN
100
AcDbLine
 62
7
  6
CONTINUOUS
 10
27.8780387393
 20
164.2214158104
 11
27.8780387393
 21
175.2183651326
  0
LINE
  5
290
100
AcDbEntity
  8
A_RUNDUNGEN
100
AcDbLine
 62
7
  6
CONTINUOUS
 10
28.5118940892
 20
183.1174248223
 11
28.5118825309
 21
181.3280272284
  0
LINE
  5
291
100
AcDbEntity
  8
0
100
AcDbLine
 62
7
  6
CONTINUOUS
 10
37.3214144123
 20
144.7183651326
 11
38.7647900852
 21
147.2183651326
  0
LINE
  5
292
100
AcDbEntity
  8
0
100
AcDbLine
 62
7
  6
CONTINUOUS
 10
89.4847295758
 20
197.7468996698
 11
89.7425781217
 21
198.0468895275
  0
LINE
  5
293
100
AcDbEntity
  8
0
100
AcDbLine
 62
7
  6
CONTINUOUS
 10
50.6780387393
 20
155.0225386517
 11
49.8737670605
 21
154.2183651326
  0
LINE
  5
294
100
AcDbEntity
  8
0
100
AcDbLine
 62
7
  6
CONTINUOUS
 10
50.6780387393
 20
154.9600539067
 11
49.9092816329
 21
154.1913906256
  0
LINE
  5
295
100
AcDbEntity
  8
0
100
AcDbLine
 62
7
  6
CONTINUOUS
 10
76.8429825701
 20
82.9606656437
 11
76.4485312522
 21
82.9308672364
  0
LINE
  5
296
100
AcDbEntity
  8
A_ACHSEN
100
AcDbLine
 62
7
  6
CONTINUOUS
 10
74.5298905911
 20
81.2183651326
 11
73.2261868874
 21
81.2183651326
  0
LINE
  5
297
100
AcDbEntity
  8
A_ACHSEN
100
AcDbLine
 62
7
  6
CENTER
 10
70.61877948
 20
81.2183651326
 11
65.8780387393
 21
81.2183651326
  0
LINE
  5
298
100
AcDbEntity
  8
A_ACHSEN
100
AcDbLine
 62
7
  6
CENTER
 10
77.1372979986
 20
81.2183651326
 11
81.8780387393
 21
81.2183651326
  0
LINE
  5
299
100
AcDbEntity
  8
0
100
AcDbLine
 62
7
  6
CONTINUOUS
 10
27.8780387393
 20
84.2183651326
 11
49.8780387393
 21
84.2183651326
  0
LINE
  5
29A
100
AcDbEntity
  8
0
100
AcDbLine
 62
7
  6
CONTINUOUS
 10
71.3075462264
 20
82.9308672364
 11
70.9130949084
 21
82.9606656437
  0
LINE
  5
29B
100
AcDbEntity
  8
0
100
AcDbLine
 62
7
  6
CONTINUOUS
 10
50.6780387393
 20
83.4141916136
 11
49.8737670605
 21
84.2183651326
  0
LINE
  5
29C
100
AcDbEntity
  8
0
100
AcDbLine
 62
7
  6
CONTINUOUS
 10
49.8780387393
 20
84.2765863472
 11
50.6780387393
 21
83.4766839856
  0
LINE
  5
29D
100
AcDbEntity
  8
0
100
AcDbLine
 62
7
  6
CONTINUOUS
 10
89.4847295758
 20
40.6898305954
 11
89.7425781217
 21
40.3898407377
  0
LINE
  5
29E
100
AcDbEntity
  8
0
100
AcDbLine
 62
7
  6
CONTINUOUS
 10
38.7647900852
 20
91.2183651326
 11
37.3214144123
 21
93.7183651326
  0
LINE
  5
29F
100
AcDbEntity
  8
A_ACHSEN
100
AcDbLine
 62
7
  6
CONTINUOUS
 10
35.8780387393
 20
147.8702169845
 11
35.8780387393
 21
146.5665132808
  0
LINE
  5
2A0
100
AcDbEntity
  8
A_ACHSEN
100
AcDbLine
 62
7
  6
CONTINUOUS
 10
35.8780387393
 20
119.8702169845
 11
35.8780387393
 21
118.5665132808
  0
LINE
  5
2A1
100
AcDbEntity
  8
A_ACHSEN
100
AcDbLine
 62
7
  6
CONTINUOUS
 10
35.8780387393
 20
91.8702169845
 11
35.8780387393
 21
90.5665132808
  0
LINE
  5
2A2
100
AcDbEntity
  8
A_ACHSEN
100
AcDbLine
 62
7
  6
CENTER
 10
35.8780387393
 20
84.9683651326
 11
35.8780387393
 21
88.2182651326
  0
LINE
  5
2A3
100
AcDbEntity
  8
A_ACHSEN
100
AcDbLine
 62
7
  6
CENTER
 10
35.8780387393
 20
94.2184651326
 11
35.8780387393
 21
97.4683651326
  0
LINE
  5
2A4
100
AcDbEntity
  8
A_ACHSEN
100
AcDbLine
 62
7
  6
CENTER
 10
35.8780387393
 20
112.9683651326
 11
35.8780387393
 21
116.2182651326
  0
LINE
  5
2A5
100
AcDbEntity
  8
A_ACHSEN
100
AcDbLine
 62
7
  6
CENTER
 10
35.8780387393
 20
122.2184651326
 11
35.8780387393
 21
125.4683651326
  0
LINE
  5
2A6
100
AcDbEntity
  8
A_ACHSEN
100
AcDbLine
 62
7
  6
CENTER
 10
35.8780387393
 20
140.9683651326
 11
35.8780387393
 21
144.2182651326
  0
LINE
  5
2A7
100
AcDbEntity
  8
A_ACHSEN
100
AcDbLine
 62
7
  6
CENTER
 10
35.8780387393
 20
150.2184651326
 11
35.8780387393
 21
153.4683651326
  0
LINE
  5
2A8
100
AcDbEntity
  8
A_ACHSEN
100
AcDbLine
 62
7
  6
CONTINUOUS
 10
38.8780387393
 20
197.8702169845
 11
38.8780387393
 21
196.5665132808
  0
LINE
  5
2A9
100
AcDbEntity
  8
A_ACHSEN
100
AcDbLine
 62
7
  6
CENTER
 10
38.8780387393
 20
193.9591058734
 11
38.8780387393
 21
190.2183651326
  0
LINE
  5
2AA
100
AcDbEntity
  8
A_ACHSEN
100
AcDbLine
 62
7
  6
CONTINUOUS
 10
38.8780387393
 20
41.8702169845
 11
38.8780387393
 21
40.5665132808
  0
LINE
  5
2AB
100
AcDbEntity
  8
A_ACHSEN
100
AcDbLine
 62
7
  6
CENTER
 10
38.8780387393
 20
37.9591058734
 11
38.8780387393
 21
34.4683651326
  0
LINE
  5
2AC
100
AcDbEntity
  8
A_ACHSEN
100
AcDbLine
 62
7
  6
CENTER
 10
38.8780387393
 20
44.4776243919
 11
38.8780387393
 21
47.9683651326
  0
LINE
  5
2AD
100
AcDbEntity
  8
A_ACHSEN
100
AcDbLine
 62
7
  6
CENTER
 10
38.8780387393
 20
49.2183651326
 11
38.8780387393
 21
189.2183651326
  0
LINE
  5
2AE
100
AcDbEntity
  8
A_ACHSEN
100
AcDbLine
 62
7
  6
CENTER
 10
38.8780387393
 20
200.4776243919
 11
38.8780387393
 21
204.2183651326
  0
LINE
  5
2AF
100
AcDbEntity
  8
0
100
AcDbLine
 62
7
  6
CONTINUOUS
 10
38.4029978396
 20
136.6243655928
 11
38.279577994
 21
136.2485367368
  0
LINE
  5
2B0
100
AcDbEntity
  8
0
100
AcDbLine
 62
7
  6
CONTINUOUS
 10
39.353079639
 20
129.8123646724
 11
39.4764994846
 21
130.1881935285
  0
LINE
  5
2B1
100
AcDbEntity
  8
0
100
AcDbLine
 62
7
  6
CONTINUOUS
 10
36.3122081986
 20
131.4988858945
 11
36.1337280756
 21
131.1458637521
  0
LINE
  5
2B2
100
AcDbEntity
  8
0
100
AcDbLine
 62
7
  6
CONTINUOUS
 10
41.44386928
 20
134.9378443708
 11
41.622349403
 21
135.2908665132
  0
LINE
  5
2B3
100
AcDbEntity
  8
0
100
AcDbLine
 62
7
  6
CONTINUOUS
 10
34.4346630663
 20
121.7183651326
 11
32.9912873933
 21
119.2183651326
  0
LINE
  5
2B4
100
AcDbEntity
  8
0
100
AcDbLine
 62
7
  6
CONTINUOUS
 10
88.2713479028
 20
191.6898305954
 11
88.0134993569
 21
191.3898407377
  0
LINE
  5
2B5
100
AcDbEntity
  8
0
100
AcDbLine
 62
7
  6
CONTINUOUS
 10
90.5495143444
 20
181.3538257503
 11
90.8495042021
 21
181.6116742961
  0
LINE
  5
2B6
100
AcDbEntity
  8
0
100
AcDbLine
 62
7
  6
CONTINUOUS
 10
97.2065631342
 20
183.082904515
 11
96.9065732765
 21
182.8250559691
  0
LINE
  5
2B7
100
AcDbEntity
  8
0
100
AcDbLine
 62
7
  6
CONTINUOUS
 10
40.9505401199
 20
135.9626757963
 11
40.5975179775
 21
135.7841956734
  0
LINE
  5
2B8
100
AcDbEntity
  8
0
100
AcDbLine
 62
7
  6
CONTINUOUS
 10
34.4346630663
 20
88.7183651326
 11
37.3214144123
 21
88.7183651326
  0
LINE
  5
2B9
100
AcDbEntity
  8
A_ACHSEN
100
AcDbLine
 62
7
  6
CONTINUOUS
 10
38.8781387393
 20
91.2183651326
 11
38.2261868874
 21
91.2183651326
  0
LINE
  5
2BA
100
AcDbEntity
  8
A_ACHSEN
100
AcDbLine
 62
7
  6
CONTINUOUS
 10
36.5298905911
 20
91.2183651326
 11
35.8779387393
 21
91.2183651326
  0
LINE
  5
2BB
100
AcDbEntity
  8
A_ACHSEN
100
AcDbLine
 62
7
  6
CONTINUOUS
 10
35.61877948
 20
91.2183651326
 11
35.2261868874
 21
91.2183651326
  0
LINE
  5
2BC
100
AcDbEntity
  8
A_ACHSEN
100
AcDbLine
 62
7
  6
CENTER
 10
29.6280387393
 20
91.2183651326
 11
32.8779387393
 21
91.2183651326
  0
LINE
  5
2BD
100
AcDbEntity
  8
A_ACHSEN
100
AcDbLine
 62
7
  6
CENTER
 10
35.61877948
 20
91.2183651326
 11
35.8779387393
 21
91.2183651326
  0
LINE
  5
2BE
100
AcDbEntity
  8
A_ACHSEN
100
AcDbLine
 62
7
  6
CENTER
 10
38.8781387393
 20
91.2183651326
 11
42.1372979986
 21
91.2183651326
  0
LINE
  5
2BF
100
AcDbEntity
  8
0
100
AcDbLine
 62
7
  6
CONTINUOUS
 10
37.3214144123
 20
93.7183651326
 11
34.4346630663
 21
93.7183651326
  0
LINE
  5
2C0
100
AcDbEntity
  8
0
100
AcDbLine
 62
7
  6
CONTINUOUS
 10
40.5975179775
 20
102.6525345919
 11
40.9505401199
 21
102.474054469
  0
LINE
  5
2C1
100
AcDbEntity
  8
0
100
AcDbLine
 62
7
  6
CONTINUOUS
 10
90.5495143444
 20
57.082904515
 11
90.8495042021
 21
56.8250559691
  0
LINE
  5
2C2
100
AcDbEntity
  8
0
100
AcDbLine
 62
7
  6
CONTINUOUS
 10
97.2065631342
 20
55.3538257503
 11
96.9065732765
 21
55.6116742961
  0
LINE
  5
2C3
100
AcDbEntity
  8
0
100
AcDbLine
 62
7
  6
CONTINUOUS
 10
88.2713479028
 20
46.7468996698
 11
88.0134993569
 21
47.0468895275
  0
LINE
  5
2C4
100
AcDbEntity
  8
0
100
AcDbLine
 62
7
  6
CONTINUOUS
 10
32.9912873933
 20
119.2183651326
 11
34.4346630663
 21
116.7183651326
  0
LINE
  5
2C5
100
AcDbEntity
  8
0
100
AcDbLine
 62
7
  6
CONTINUOUS
 10
36.1337280756
 20
107.2908665132
 11
36.3122081986
 21
106.9378443708
  0
LINE
  5
2C6
100
AcDbEntity
  8
0
100
AcDbLine
 62
7
  6
CONTINUOUS
 10
41.622349403
 20
103.1458637521
 11
41.44386928
 21
103.4988858945
  0
LINE
  5
2C7
100
AcDbEntity
  8
0
100
AcDbLine
 62
7
  6
CONTINUOUS
 10
38.279577994
 20
102.1881935285
 11
38.4029978396
 21
101.8123646724
  0
LINE
  5
2C8
100
AcDbEntity
  8
0
100
AcDbLine
 62
7
  6
CONTINUOUS
 10
39.4764994846
 20
108.2485367368
 11
39.353079639
 21
108.6243655928
  0
LINE
  5
2C9
100
AcDbEntity
  8
0
100
AcDbLine
 62
7
  6
CONTINUOUS
 10
38.4029978396
 20
108.6243655928
 11
38.279577994
 21
108.2485367368
  0
LINE
  5
2CA
100
AcDbEntity
  8
0
100
AcDbLine
 62
7
  6
CONTINUOUS
 10
39.353079639
 20
101.8123646724
 11
39.4764994846
 21
102.1881935285
  0
LINE
  5
2CB
100
AcDbEntity
  8
0
100
AcDbLine
 62
7
  6
CONTINUOUS
 10
36.3122081986
 20
103.4988858945
 11
36.1337280756
 21
103.1458637521
  0
LINE
  5
2CC
100
AcDbEntity
  8
0
100
AcDbLine
 62
7
  6
CONTINUOUS
 10
37.3214144123
 20
116.7183651326
 11
38.7647900852
 21
119.2183651326
  0
LINE
  5
2CD
100
AcDbEntity
  8
0
100
AcDbLine
 62
7
  6
CONTINUOUS
 10
94.4847295758
 20
185.2468996698
 11
94.7425781217
 21
185.5468895275
  0
LINE
  5
2CE
100
AcDbEntity
  8
0
100
AcDbLine
 62
7
  6
CONTINUOUS
 10
74.4847295758
 20
160.2468996698
 11
74.7425781217
 21
160.5468895275
  0
LINE
  5
2CF
100
AcDbEntity
  8
0
100
AcDbLine
 62
7
  6
CONTINUOUS
 10
70.5495143444
 20
156.3538257503
 11
70.8495042021
 21
156.6116742961
  0
LINE
  5
2D0
100
AcDbEntity
  8
0
100
AcDbLine
 62
7
  6
CONTINUOUS
 10
77.2065631342
 20
158.082904515
 11
76.9065732765
 21
157.8250559691
  0
LINE
  5
2D1
100
AcDbEntity
  8
0
100
AcDbLine
 62
7
  6
CONTINUOUS
 10
36.8055373587
 20
130.474054469
 11
37.1585595011
 21
130.6525345919
  0
LINE
  5
2D2
100
AcDbEntity
  8
0
100
AcDbLine
 62
7
  6
CONTINUOUS
 10
35.8478671352
 20
133.8168258779
 11
35.4720382791
 21
133.6934060324
  0
LINE
  5
2D3
100
AcDbEntity
  8
0
100
AcDbLine
 62
7
  6
CONTINUOUS
 10
41.9082103434
 20
132.6199043873
 11
42.2840391995
 21
132.7433242329
  0
LINE
  5
2D4
100
AcDbEntity
  8
A_ACHSEN
100
AcDbLine
 62
7
  6
CENTER
 10
77.3780387393
 20
99.2183651326
 11
94.3780387393
 21
99.2183651326
  0
LINE
  5
2D5
100
AcDbEntity
  8
0
100
AcDbLine
 62
7
  6
CONTINUOUS
 10
35.4720382791
 20
104.7433242329
 11
35.8478671352
 21
104.6199043873
  0
LINE
  5
2D6
100
AcDbEntity
  8
0
100
AcDbLine
 62
7
  6
CONTINUOUS
 10
42.2840391995
 20
105.6934060324
 11
41.9082103434
 21
105.8168258779
  0
LINE
  5
2D7
100
AcDbEntity
  8
0
100
AcDbLine
 62
7
  6
CONTINUOUS
 10
37.1585595011
 20
107.7841956734
 11
36.8055373587
 21
107.9626757963
  0
LINE
  5
2D8
100
AcDbEntity
  8
0
100
AcDbLine
 62
7
  6
CONTINUOUS
 10
70.5495143444
 20
82.082904515
 11
70.8495042021
 21
81.8250559691
  0
LINE
  5
2D9
100
AcDbEntity
  8
0
100
AcDbLine
 62
7
  6
CONTINUOUS
 10
77.2065631342
 20
80.3538257503
 11
76.9065732765
 21
80.6116742961
  0
LINE
  5
2DA
100
AcDbEntity
  8
0
100
AcDbLine
 62
7
  6
CONTINUOUS
 10
94.4847295758
 20
53.1898305954
 11
94.7425781217
 21
52.8898407377
  0
LINE
  5
2DB
100
AcDbEntity
  8
0
100
AcDbLine
 62
7
  6
CONTINUOUS
 10
74.4847295758
 20
78.1898305954
 11
74.7425781217
 21
77.8898407377
  0
LINE
  5
2DC
100
AcDbEntity
  8
0
100
AcDbLine
 62
7
  6
CONTINUOUS
 10
38.7647900852
 20
119.2183651326
 11
37.3214144123
 21
121.7183651326
  0
LINE
  5
2DD
100
AcDbEntity
  8
0
100
AcDbLine
 62
7
  6
CONTINUOUS
 10
36.1337280756
 20
135.2908665132
 11
36.3122081986
 21
134.9378443708
  0
LINE
  5
2DE
100
AcDbEntity
  8
0
100
AcDbLine
 62
7
  6
CONTINUOUS
 10
38.279577994
 20
130.1881935285
 11
38.4029978396
 21
129.8123646724
  0
LINE
  5
2DF
100
AcDbEntity
  8
0
100
AcDbLine
 62
7
  6
CONTINUOUS
 10
39.4764994846
 20
136.2485367368
 11
39.353079639
 21
136.6243655928
  0
LINE
  5
2E0
100
AcDbEntity
  8
A_RUNDUNGEN
100
AcDbLine
 62
7
  6
CONTINUOUS
 10
49.2441949477
 20
181.3280272284
 11
49.2441949477
 21
183.1174542706
  0
LINE
  5
2E1
100
AcDbEntity
  8
A_RUNDUNGEN
100
AcDbLine
 62
7
  6
CONTINUOUS
 10
49.2441832191
 20
55.319305877
 11
49.2441949477
 21
57.1087030368
  0
LINE
  5
2E2
100
AcDbEntity
  8
A_RUNDUNGEN
100
AcDbLine
 62
7
  6
CONTINUOUS
 10
49.8780387393
 20
63.2183651326
 11
49.8780387393
 21
74.2153144548
  0
LINE
  5
2E3
100
AcDbEntity
  8
0
100
AcDbLine
 62
7
  6
CONTINUOUS
 10
49.8780387393
 20
84.2140929324
 11
49.8780387393
 21
154.2226373328
  0
LINE
  5
2E4
100
AcDbEntity
  8
A_RUNDUNGEN
100
AcDbLine
 62
7
  6
CONTINUOUS
 10
49.8780387393
 20
164.2214158104
 11
49.8780387393
 21
175.2183651326
  0
LINE
  5
2E5
100
AcDbEntity
  8
0
100
AcDbLine
 62
7
  6
CONTINUOUS
 10
50.6780387393
 20
163.4215134488
 11
50.6780387393
 21
154.9600462797
  0
LINE
  5
2E6
100
AcDbEntity
  8
0
100
AcDbLine
 62
7
  6
CONTINUOUS
 10
50.6780387393
 20
75.0152168165
 11
50.6780387393
 21
83.4766839856
  0
LINE
  5
2E7
100
AcDbEntity
  8
0
100
AcDbLine
 62
7
  6
CONTINUOUS
 10
50.8780387393
 20
177.7183651326
 11
50.8780387393
 21
170.3941884047
  0
LINE
  5
2E8
100
AcDbEntity
  8
0
100
AcDbLine
 62
7
  6
CONTINUOUS
 10
50.8780387393
 20
162.0425418605
 11
50.8780387393
 21
76.3941884047
  0
LINE
  5
2E9
100
AcDbEntity
  8
0
100
AcDbLine
 62
7
  6
CONTINUOUS
 10
50.8780387393
 20
68.0425418605
 11
50.8780387393
 21
60.7183651326
  0
LINE
  5
2EA
100
AcDbEntity
  8
A_RUNDUNGEN
100
AcDbLine
 62
7
  6
CONTINUOUS
 10
50.8780387393
 20
53.4561234535
 11
50.8780387393
 21
41.2183651326
  0
LINE
  5
2EB
100
AcDbEntity
  8
A_RUNDUNGEN
100
AcDbLine
 62
7
  6
CONTINUOUS
 10
50.8780387393
 20
184.9806068118
 11
50.8780387393
 21
197.2183651326
  0
LINE
  5
2EC
100
AcDbEntity
  8
A_RUNDUNGEN
100
AcDbLine
 62
9
  6
CONTINUOUS
 10
50.8780387393
 20
197.2183651326
 11
50.8780387393
 21
198.7183651326
  0
LINE
  5
2ED
100
AcDbEntity
  8
0
100
AcDbLine
 62
7
  6
CONTINUOUS
 10
52.8780387393
 20
59.9683651326
 11
52.8780387393
 21
178.4683651326
  0
LINE
  5
2EE
100
AcDbEntity
  8
0
100
AcDbLine
 62
7
  6
CONTINUOUS
 10
41.44386928
 20
106.9378443708
 11
41.622349403
 21
107.2908665132
  0
LINE
  5
2EF
100
AcDbEntity
  8
0
100
AcDbLine
 62
7
  6
CONTINUOUS
 10
34.4346630663
 20
93.7183651326
 11
32.9912873933
 21
91.2183651326
  0
LINE
  5
2F0
100
AcDbEntity
  8
0
100
AcDbLine
 62
7
  6
CONTINUOUS
 10
93.2713479028
 20
179.1898305954
 11
93.0134993569
 21
178.8898407377
  0
LINE
  5
2F1
100
AcDbEntity
  8
0
100
AcDbLine
 62
7
  6
CONTINUOUS
 10
73.2713479028
 20
154.1898305954
 11
73.0134993569
 21
153.8898407377
  0
LINE
  5
2F2
100
AcDbEntity
  8
A_ACHSEN
100
AcDbLine
 62
7
  6
CONTINUOUS
 10
39.5298905911
 20
105.2183651326
 11
38.2261868874
 21
105.2183651326
  0
LINE
  5
2F3
100
AcDbEntity
  8
A_ACHSEN
100
AcDbLine
 62
7
  6
CENTER
 10
35.61877948
 20
105.2183651326
 11
30.3780387393
 21
105.2183651326
  0
LINE
  5
2F4
100
AcDbEntity
  8
A_ACHSEN
100
AcDbLine
 62
7
  6
CENTER
 10
42.1372979986
 20
105.2183651326
 11
47.3780387393
 21
105.2183651326
  0
LINE
  5
2F5
100
AcDbEntity
  8
0
100
AcDbLine
 62
7
  6
CONTINUOUS
 10
93.2713479028
 20
59.2468996698
 11
93.0134993569
 21
59.5468895275
  0
LINE
  5
2F6
100
AcDbEntity
  8
0
100
AcDbLine
 62
7
  6
CONTINUOUS
 10
73.2713479028
 20
84.2468996698
 11
73.0134993569
 21
84.5468895275
  0
LINE
  5
2F7
100
AcDbEntity
  8
0
100
AcDbLine
 62
7
  6
CONTINUOUS
 10
32.9912873933
 20
147.2183651326
 11
34.4346630663
 21
144.7183651326
  0
LINE
  5
2F8
100
AcDbEntity
  8
0
100
AcDbLine
 62
7
  6
CONTINUOUS
 10
41.622349403
 20
131.1458637521
 11
41.44386928
 21
131.4988858945
  0
LINE
  5
2F9
100
AcDbEntity
  8
0
100
AcDbLine
 62
7
  6
CONTINUOUS
 10
37.3214144123
 20
88.7183651326
 11
38.7647900852
 21
91.2183651326
  0
LINE
  5
2FA
100
AcDbEntity
  8
0
100
AcDbLine
 62
7
  6
CONTINUOUS
 10
38.7647900852
 20
147.2183651326
 11
37.3214144123
 21
149.7183651326
  0
LINE
  5
2FB
100
AcDbEntity
  8
0
100
AcDbLine
 62
7
  6
CONTINUOUS
 10
27.0780387393
 20
83.4766839856
 11
27.8489281322
 21
84.247479293
  0
LINE
  5
2FC
100
AcDbEntity
  8
0
100
AcDbLine
 62
7
  6
CONTINUOUS
 10
27.8823104181
 20
84.2183651326
 11
27.0780387393
 21
83.4141916136
  0
LINE
  5
2FD
100
AcDbEntity
  8
0
100
AcDbLine
 62
7
  6
CONTINUOUS
 10
40.9505401199
 20
107.9626757963
 11
40.5975179775
 21
107.7841956734
  0
LINE
  5
2FE
100
AcDbEntity
  8
A_ACHSEN
100
AcDbLine
 62
7
  6
CONTINUOUS
 10
81.3780387393
 20
114.9683651326
 11
70.3780387393
 21
114.9683651326
  0
LINE
  5
2FF
100
AcDbEntity
  8
0
100
AcDbLine
 62
7
  6
CONTINUOUS
 10
34.4346630663
 20
116.7183651326
 11
37.3214144123
 21
116.7183651326
  0
LINE
  5
300
100
AcDbEntity
  8
A_ACHSEN
100
AcDbLine
 62
7
  6
CONTINUOUS
 10
38.8781387393
 20
119.2183651326
 11
38.2261868874
 21
119.2183651326
  0
LINE
  5
301
100
AcDbEntity
  8
A_ACHSEN
100
AcDbLine
 62
7
  6
CONTINUOUS
 10
36.5298905911
 20
119.2183651326
 11
35.8779387393
 21
119.2183651326
  0
LINE
  5
302
100
AcDbEntity
  8
A_ACHSEN
100
AcDbLine
 62
7
  6
CONTINUOUS
 10
35.61877948
 20
119.2183651326
 11
35.2261868874
 21
119.2183651326
  0
LINE
  5
303
100
AcDbEntity
  8
A_ACHSEN
100
AcDbLine
 62
7
  6
CENTER
 10
29.6280387393
 20
119.2183651326
 11
32.8779387393
 21
119.2183651326
  0
LINE
  5
304
100
AcDbEntity
  8
A_ACHSEN
100
AcDbLine
 62
7
  6
CENTER
 10
35.61877948
 20
119.2183651326
 11
35.8779387393
 21
119.2183651326
  0
LINE
  5
305
100
AcDbEntity
  8
A_ACHSEN
100
AcDbLine
 62
7
  6
CENTER
 10
38.8781387393
 20
119.2183651326
 11
42.1372979986
 21
119.2183651326
  0
LINE
  5
306
100
AcDbEntity
  8
A_ACHSEN
100
AcDbLine
 62
7
  6
CENTER
 10
64.1151851194
 20
119.2183651326
 11
87.8111424949
 21
119.2183651326
  0
LINE
  5
307
100
AcDbEntity
  8
0
100
AcDbLine
 62
7
  6
CONTINUOUS
 10
40.5975179775
 20
130.6525345919
 11
40.9505401199
 21
130.474054469
  0
LINE
  5
308
100
AcDbEntity
  8
0
100
AcDbLine
 62
7
  6
CONTINUOUS
 10
27.8780387393
 20
154.1601515451
 11
27.0780387393
 21
154.9600539067
  0
LINE
  5
309
100
AcDbEntity
  8
0
100
AcDbLine
 62
7
  6
CONTINUOUS
 10
27.8823104181
 20
154.2183651326
 11
27.0780387393
 21
155.0225386517
  0
LINE
  5
30A
100
AcDbEntity
  8
0
100
AcDbLine
 62
7
  6
CONTINUOUS
 10
72.1357382282
 20
44.1833089635
 11
72.1655366356
 21
43.7888576455
  0
LINE
  5
30B
100
AcDbEntity
  8
0
100
AcDbLine
 62
7
  6
CONTINUOUS
 10
72.1357382282
 20
84.1833089635
 11
72.1655366356
 21
83.7888576455
  0
LINE
  5
30C
100
AcDbEntity
  8
0
100
AcDbLine
 62
7
  6
CONTINUOUS
 10
75.6203392504
 20
38.2534213018
 11
75.590540843
 21
38.6478726197
  0
LINE
  5
30D
100
AcDbEntity
  8
0
100
AcDbLine
 62
7
  6
CONTINUOUS
 10
75.6203392504
 20
78.2534213018
 11
75.590540843
 21
78.6478726197
  0
LINE
  5
30E
100
AcDbEntity
  8
A_ACHSEN
100
AcDbLine
 62
7
  6
CENTER
 10
70.3780387393
 20
112.9555115128
 11
70.3780387393
 21
125.4812187525
  0
LINE
  5
30F
100
AcDbEntity
  8
0
100
AcDbLine
 62
7
  6
CONTINUOUS
 10
72.1357382282
 20
194.2534213018
 11
72.1655366356
 21
194.6478726197
  0
LINE
  5
310
100
AcDbEntity
  8
0
100
AcDbLine
 62
7
  6
CONTINUOUS
 10
72.1357382282
 20
154.2534213018
 11
72.1655366356
 21
154.6478726197
  0
LINE
  5
311
100
AcDbEntity
  8
0
100
AcDbLine
 62
7
  6
CONTINUOUS
 10
75.6203392504
 20
200.1833089635
 11
75.590540843
 21
199.7888576455
  0
LINE
  5
312
100
AcDbEntity
  8
0
100
AcDbLine
 62
7
  6
CONTINUOUS
 10
75.6203392504
 20
160.1833089635
 11
75.590540843
 21
159.7888576455
  0
LINE
  5
313
100
AcDbEntity
  8
0
100
AcDbLine
 62
7
  6
CONTINUOUS
 10
37.4346630663
 20
65.7183651326
 11
35.9912873933
 21
63.2183651326
  0
LINE
  5
314
100
AcDbEntity
  8
0
100
AcDbLine
 62
7
  6
CONTINUOUS
 10
36.8055373587
 20
102.474054469
 11
37.1585595011
 21
102.6525345919
  0
LINE
  5
315
100
AcDbEntity
  8
0
100
AcDbLine
 62
7
  6
CONTINUOUS
 10
35.8478671352
 20
105.8168258779
 11
35.4720382791
 21
105.6934060324
  0
LINE
  5
316
100
AcDbEntity
  8
0
100
AcDbLine
 62
7
  6
CONTINUOUS
 10
41.9082103434
 20
104.6199043873
 11
42.2840391995
 21
104.7433242329
  0
LINE
  5
317
100
AcDbEntity
  8
0
100
AcDbLine
 62
7
  6
CONTINUOUS
 10
37.3214144123
 20
121.7183651326
 11
34.4346630663
 21
121.7183651326
  0
LINE
  5
318
100
AcDbEntity
  8
A_ACHSEN
100
AcDbLine
 62
7
  6
CONTINUOUS
 10
70.3780387393
 20
123.4683651326
 11
81.3780387393
 21
123.4683651326
  0
LINE
  5
319
100
AcDbEntity
  8
0
100
AcDbLine
 62
7
  6
CONTINUOUS
 10
35.4720382791
 20
132.7433242329
 11
35.8478671352
 21
132.6199043873
  0
LINE
  5
31A
100
AcDbEntity
  8
0
100
AcDbLine
 62
7
  6
CONTINUOUS
 10
42.2840391995
 20
133.6934060324
 11
41.9082103434
 21
133.8168258779
  0
LINE
  5
31B
100
AcDbEntity
  8
0
100
AcDbLine
 62
7
  6
CONTINUOUS
 10
37.1585595011
 20
135.7841956734
 11
36.8055373587
 21
135.9626757963
  0
LINE
  5
31C
100
AcDbEntity
  8
0
100
AcDbLine
 62
7
  6
CONTINUOUS
 10
35.9912873933
 20
175.2183651326
 11
37.4346630663
 21
172.7183651326
  0
LINE
  5
31D
100
AcDbEntity
  8
0
100
AcDbLine
 62
7
  6
CONTINUOUS
 10
72.1655366356
 20
159.7888576455
 11
72.1357382282
 21
160.1833089635
  0
LINE
  5
31E
100
AcDbEntity
  8
0
100
AcDbLine
 62
7
  6
CONTINUOUS
 10
72.1655366356
 20
199.7888576455
 11
72.1357382282
 21
200.1833089635
  0
LINE
  5
31F
100
AcDbEntity
  8
0
100
AcDbLine
 62
7
  6
CONTINUOUS
 10
75.590540843
 20
154.6478726197
 11
75.6203392504
 21
154.2534213018
  0
LINE
  5
320
100
AcDbEntity
  8
A_ACHSEN
100
AcDbLine
 62
7
  6
CONTINUOUS
 10
73.8780387393
 20
197.8702169845
 11
73.8780387393
 21
196.5665132808
  0
LINE
  5
321
100
AcDbEntity
  8
A_ACHSEN
100
AcDbLine
 62
7
  6
CENTER
 10
73.8780387393
 20
193.9591058734
 11
73.8780387393
 21
189.2183651326
  0
LINE
  5
322
100
AcDbEntity
  8
A_ACHSEN
100
AcDbLine
 62
7
  6
CONTINUOUS
 10
73.8780387393
 20
157.8702169845
 11
73.8780387393
 21
156.5665132808
  0
LINE
  5
323
100
AcDbEntity
  8
A_ACHSEN
100
AcDbLine
 62
7
  6
CENTER
 10
73.8780387393
 20
153.9591058734
 11
73.8780387393
 21
149.2183651326
  0
LINE
  5
324
100
AcDbEntity
  8
A_ACHSEN
100
AcDbLine
 62
7
  6
CONTINUOUS
 10
73.8780387393
 20
81.8702169845
 11
73.8780387393
 21
80.5665132808
  0
LINE
  5
325
100
AcDbEntity
  8
A_ACHSEN
100
AcDbLine
 62
7
  6
CENTER
 10
73.8780387393
 20
77.9591058734
 11
73.8780387393
 21
73.2183651326
  0
LINE
  5
326
100
AcDbEntity
  8
A_ACHSEN
100
AcDbLine
 62
7
  6
CONTINUOUS
 10
73.8780387393
 20
41.8702169845
 11
73.8780387393
 21
40.5665132808
  0
LINE
  5
327
100
AcDbEntity
  8
A_ACHSEN
100
AcDbLine
 62
7
  6
CENTER
 10
73.8780387393
 20
37.9591058734
 11
73.8780387393
 21
33.2183651326
  0
LINE
  5
328
100
AcDbEntity
  8
A_ACHSEN
100
AcDbLine
 62
7
  6
CENTER
 10
73.8780387393
 20
44.4776243919
 11
73.8780387393
 21
49.2183651326
  0
LINE
  5
329
100
AcDbEntity
  8
A_ACHSEN
100
AcDbLine
 62
7
  6
CENTER
 10
73.8780387393
 20
84.4776243919
 11
73.8780387393
 21
89.2183651326
  0
LINE
  5
32A
100
AcDbEntity
  8
A_ACHSEN
100
AcDbLine
 62
7
  6
CENTER
 10
73.8780387393
 20
160.4776243919
 11
73.8780387393
 21
165.2183651326
  0
LINE
  5
32B
100
AcDbEntity
  8
A_ACHSEN
100
AcDbLine
 62
7
  6
CENTER
 10
73.8780387393
 20
200.4776243919
 11
73.8780387393
 21
205.2183651326
  0
LINE
  5
32C
100
AcDbEntity
  8
A_ACHSEN
100
AcDbLine
 62
7
  6
CENTER
 10
76.0280387393
 20
175.9410963549
 11
76.0280387393
 21
187.4956339103
  0
LINE
  5
32D
100
AcDbEntity
  8
A_ACHSEN
100
AcDbLine
 62
7
  6
CONTINUOUS
 10
76.1289997003
 20
57.3702169845
 11
76.1289997003
 21
56.0665132808
  0
LINE
  5
32E
100
AcDbEntity
  8
A_ACHSEN
100
AcDbLine
 62
7
  6
CENTER
 10
76.1289997003
 20
55.6349669144
 11
76.1289997003
 21
50.3505708963
  0
LINE
  5
32F
100
AcDbEntity
  8
A_ACHSEN
100
AcDbLine
 62
7
  6
CENTER
 10
76.1289997003
 20
57.4616717108
 11
76.1289997003
 21
63.5289412131
  0
LINE
  5
330
100
AcDbEntity
  8
0
100
AcDbLine
 62
7
  6
CONTINUOUS
 10
72.1655366356
 20
78.6478726197
 11
72.1357382282
 21
78.2534213018
  0
LINE
  5
331
100
AcDbEntity
  8
0
100
AcDbLine
 62
7
  6
CONTINUOUS
 10
72.1655366356
 20
38.6478726197
 11
72.1357382282
 21
38.2534213018
  0
LINE
  5
332
100
AcDbEntity
  8
0
100
AcDbLine
 62
7
  6
CONTINUOUS
 10
75.590540843
 20
83.7888576455
 11
75.6203392504
 21
84.1833089635
  0
LINE
  5
333
100
AcDbEntity
  8
0
100
AcDbLine
 62
7
  6
CONTINUOUS
 10
40.3214144123
 20
60.7183651326
 11
41.7647900852
 21
63.2183651326
  0
LINE
  5
334
100
AcDbEntity
  8
0
100
AcDbLine
 62
7
  6
CONTINUOUS
 10
41.7647900852
 20
175.2183651326
 11
40.3214144123
 21
177.7183651326
  0
LINE
  5
335
100
AcDbEntity
  8
0
100
AcDbLine
 62
7
  6
CONTINUOUS
 10
75.590540843
 20
194.6478726197
 11
75.6203392504
 21
194.2534213018
  0
LINE
  5
336
100
AcDbEntity
  8
0
100
AcDbLine
 62
7
  6
CONTINUOUS
 10
87.1357382282
 20
46.6833089635
 11
87.1655366356
 21
46.2888576455
  0
LINE
  5
337
100
AcDbEntity
  8
0
100
AcDbLine
 62
7
  6
CONTINUOUS
 10
90.6203392504
 20
40.7534213018
 11
90.590540843
 21
41.1478726197
  0
LINE
  5
338
100
AcDbEntity
  8
A_ACHSEN
100
AcDbLine
 62
7
  6
CENTER
 10
81.3780387393
 20
112.785261377
 11
81.3780387393
 21
125.6514688882
  0
LINE
  5
339
100
AcDbEntity
  8
A_ACHSEN
100
AcDbLine
 62
7
  6
CENTER
 10
82.7280387393
 20
181.2769271298
 11
82.7280387393
 21
175.4939729223
  0
LINE
  5
33A
100
AcDbEntity
  8
A_ACHSEN
100
AcDbLine
 62
7
  6
CENTER
 10
82.7280387393
 20
50.5010083454
 11
82.7280387393
 21
62.9357219199
  0
LINE
  5
33B
100
AcDbEntity
  8
A_ACHSEN
100
AcDbLine
 62
7
  6
CONTINUOUS
 10
82.7280387393
 20
181.2769271298
 11
82.7280387393
 21
181.9182570881
  0
LINE
  5
33C
100
AcDbEntity
  8
A_ACHSEN
100
AcDbLine
 62
7
  6
CENTER
 10
82.7280387393
 20
181.9182570881
 11
82.7280387393
 21
187.9427573429
  0
LINE
  5
33D
100
AcDbEntity
  8
0
100
AcDbLine
 62
7
  6
CONTINUOUS
 10
75.590540843
 20
43.7888576455
 11
75.6203392504
 21
44.1833089635
  0
LINE
  5
33E
100
AcDbEntity
  8
0
100
AcDbLine
 62
7
  6
CONTINUOUS
 10
87.1357382282
 20
191.7534213018
 11
87.1655366356
 21
192.1478726197
  0
LINE
  5
33F
100
AcDbEntity
  8
0
100
AcDbLine
 62
7
  6
CONTINUOUS
 10
90.6203392504
 20
197.6833089635
 11
90.590540843
 21
197.2888576455
  0
LINE
  5
340
100
AcDbEntity
  8
A_RUNDUNGEN
100
AcDbLine
 62
7
  6
CONTINUOUS
 10
27.6977968331
 20
56.3592148806
 11
28.8541502925
 21
57.51556834
  0
LINE
  5
341
100
AcDbEntity
  8
A_ACHSEN
100
AcDbLine
 62
7
  6
CONTINUOUS
 10
39.5298905911
 20
133.2183651326
 11
38.2261868874
 21
133.2183651326
  0
LINE
  5
342
100
AcDbEntity
  8
A_ACHSEN
100
AcDbLine
 62
7
  6
CENTER
 10
35.61877948
 20
133.2183651326
 11
30.3780387393
 21
133.2183651326
  0
LINE
  5
343
100
AcDbEntity
  8
A_ACHSEN
100
AcDbLine
 62
7
  6
CENTER
 10
42.1372979986
 20
133.2183651326
 11
47.3780387393
 21
133.2183651326
  0
LINE
  5
344
100
AcDbEntity
  8
A_ACHSEN
100
AcDbLine
 62
7
  6
CENTER
 10
76.2160868778
 20
139.2183651326
 11
95.5399906008
 21
139.2183651326
  0
LINE
  5
345
100
AcDbEntity
  8
A_RUNDUNGEN
100
AcDbLine
 62
7
  6
CONTINUOUS
 10
28.8538195061
 20
180.9214927117
 11
27.6977968331
 21
182.0775153846
  0
LINE
  5
346
100
AcDbEntity
  8
A_RUNDUNGEN
100
AcDbLine
 62
7
  6
CONTINUOUS
 10
27.2175396773
 20
184.6411058738
 11
26.8780387393
 21
184.9806068118
  0
LINE
  5
347
100
AcDbEntity
  8
0
100
AcDbLine
 62
7
  6
CONTINUOUS
 10
92.1357382282
 20
59.1833089635
 11
92.1655366356
 21
58.7888576455
  0
LINE
  5
348
100
AcDbEntity
  8
0
100
AcDbLine
 62
7
  6
CONTINUOUS
 10
95.6203392504
 20
53.2534213018
 11
95.590540843
 21
53.6478726197
  0
LINE
  5
349
100
AcDbEntity
  8
A_ACHSEN
100
AcDbLine
 62
7
  6
CENTER
 10
85.8780387393
 20
90.7183651326
 11
85.8780387393
 21
107.7183651326
  0
LINE
  5
34A
100
AcDbEntity
  8
A_ACHSEN
100
AcDbLine
 62
7
  6
CENTER
 10
85.8780387393
 20
129.5564132711
 11
85.8780387393
 21
148.8803169941
  0
LINE
  5
34B
100
AcDbEntity
  8
A_ACHSEN
100
AcDbLine
 62
7
  6
CONTINUOUS
 10
88.8780387393
 20
195.3702169845
 11
88.8780387393
 21
194.0665132808
  0
LINE
  5
34C
100
AcDbEntity
  8
A_ACHSEN
100
AcDbLine
 62
7
  6
CENTER
 10
88.8780387393
 20
191.4591058734
 11
88.8780387393
 21
186.7183651326
  0
LINE
  5
34D
100
AcDbEntity
  8
A_ACHSEN
100
AcDbLine
 62
7
  6
CONTINUOUS
 10
88.8780387393
 20
44.3702169845
 11
88.8780387393
 21
43.0665132808
  0
LINE
  5
34E
100
AcDbEntity
  8
A_ACHSEN
100
AcDbLine
 62
7
  6
CENTER
 10
88.8780387393
 20
40.4591058734
 11
88.8780387393
 21
35.7183651326
  0
LINE
  5
34F
100
AcDbEntity
  8
A_ACHSEN
100
AcDbLine
 62
7
  6
CENTER
 10
88.8780387393
 20
46.9776243919
 11
88.8780387393
 21
51.7183651326
  0
LINE
  5
350
100
AcDbEntity
  8
A_ACHSEN
100
AcDbLine
 62
7
  6
CENTER
 10
88.8780387393
 20
197.9776243919
 11
88.8780387393
 21
202.7183651326
  0
LINE
  5
351
100
AcDbEntity
  8
0
100
AcDbLine
 62
7
  6
CONTINUOUS
 10
92.1357382282
 20
179.2534213018
 11
92.1655366356
 21
179.6478726197
  0
LINE
  5
352
100
AcDbEntity
  8
0
100
AcDbLine
 62
7
  6
CONTINUOUS
 10
95.6203392504
 20
185.1833089635
 11
95.590540843
 21
184.7888576455
  0
LINE
  5
353
100
AcDbEntity
  8
0
100
AcDbLine
 62
7
  6
CONTINUOUS
 10
49.8780387393
 20
74.2153144548
 11
50.6780387393
 21
75.0152168165
  0
LINE
  5
354
100
AcDbEntity
  8
0
100
AcDbLine
 62
7
  6
CONTINUOUS
 10
34.4346630663
 20
144.7183651326
 11
37.3214144123
 21
144.7183651326
  0
LINE
  5
355
100
AcDbEntity
  8
0
100
AcDbLine
 62
7
  6
CONTINUOUS
 10
49.8780387393
 20
164.2214158104
 11
50.6780387393
 21
163.4215134488
  0
LINE
  5
356
100
AcDbEntity
  8
0
100
AcDbLine
 62
7
  6
CONTINUOUS
 10
87.1655366356
 20
197.2888576455
 11
87.1357382282
 21
197.6833089635
  0
LINE
  5
357
100
AcDbEntity
  8
0
100
AcDbLine
 62
7
  6
CONTINUOUS
 10
90.590540843
 20
192.1478726197
 11
90.6203392504
 21
191.7534213018
  0
LINE
  5
358
100
AcDbEntity
  8
0
100
AcDbLine
 62
7
  6
CONTINUOUS
 10
92.1655366356
 20
184.7888576455
 11
92.1357382282
 21
185.1833089635
  0
LINE
  5
359
100
AcDbEntity
  8
A_ACHSEN
100
AcDbLine
 62
7
  6
CONTINUOUS
 10
93.8780387393
 20
182.8702169845
 11
93.8780387393
 21
181.5665132808
  0
LINE
  5
35A
100
AcDbEntity
  8
A_ACHSEN
100
AcDbLine
 62
7
  6
CENTER
 10
93.8780387393
 20
178.9591058734
 11
93.8780387393
 21
174.2183651326
  0
LINE
  5
35B
100
AcDbEntity
  8
A_ACHSEN
100
AcDbLine
 62
7
  6
CONTINUOUS
 10
93.8780387393
 20
56.8702169845
 11
93.8780387393
 21
55.5665132808
  0
LINE
  5
35C
100
AcDbEntity
  8
A_ACHSEN
100
AcDbLine
 62
7
  6
CENTER
 10
93.8780387393
 20
52.9591058734
 11
93.8780387393
 21
48.2183651326
  0
LINE
  5
35D
100
AcDbEntity
  8
A_ACHSEN
100
AcDbLine
 62
7
  6
CENTER
 10
93.8780387393
 20
59.4776243919
 11
93.8780387393
 21
64.2183651326
  0
LINE
  5
35E
100
AcDbEntity
  8
A_ACHSEN
100
AcDbLine
 62
7
  6
CENTER
 10
93.8780387393
 20
185.4776243919
 11
93.8780387393
 21
190.2183651326
  0
LINE
  5
35F
100
AcDbEntity
  8
0
100
AcDbLine
 62
7
  6
CONTINUOUS
 10
87.1655366356
 20
41.1478726197
 11
87.1357382282
 21
40.7534213018
  0
LINE
  5
360
100
AcDbEntity
  8
0
100
AcDbLine
 62
7
  6
CONTINUOUS
 10
90.590540843
 20
46.2888576455
 11
90.6203392504
 21
46.6833089635
  0
LINE
  5
361
100
AcDbEntity
  8
0
100
AcDbLine
 62
7
  6
CONTINUOUS
 10
92.1655366356
 20
53.6478726197
 11
92.1357382282
 21
53.2534213018
  0
LINE
  5
362
100
AcDbEntity
  8
0
100
AcDbLine
 62
7
  6
CONTINUOUS
 10
74.7425781217
 20
84.5468895275
 11
74.4847295758
 21
84.2468996698
  0
LINE
  5
363
100
AcDbEntity
  8
0
100
AcDbLine
 62
7
  6
CONTINUOUS
 10
73.0134993569
 20
77.8898407377
 11
73.2713479028
 21
78.1898305954
  0
LINE
  5
364
100
AcDbEntity
  8
0
100
AcDbLine
 62
7
  6
CONTINUOUS
 10
70.8495042021
 20
80.6116742961
 11
70.5495143444
 21
80.3538257503
  0
LINE
  5
365
100
AcDbEntity
  8
A_ACHSEN
100
AcDbLine
 62
7
  6
CONTINUOUS
 10
38.8781387393
 20
147.2183651326
 11
38.2261868874
 21
147.2183651326
  0
LINE
  5
366
100
AcDbEntity
  8
A_ACHSEN
100
AcDbLine
 62
7
  6
CONTINUOUS
 10
36.5298905911
 20
147.2183651326
 11
35.8779387393
 21
147.2183651326
  0
LINE
  5
367
100
AcDbEntity
  8
A_ACHSEN
100
AcDbLine
 62
7
  6
CONTINUOUS
 10
35.61877948
 20
147.2183651326
 11
35.2261868874
 21
147.2183651326
  0
LINE
  5
368
100
AcDbEntity
  8
A_ACHSEN
100
AcDbLine
 62
7
  6
CENTER
 10
29.6280387393
 20
147.2183651326
 11
32.8779387393
 21
147.2183651326
  0
LINE
  5
369
100
AcDbEntity
  8
A_ACHSEN
100
AcDbLine
 62
7
  6
CENTER
 10
35.61877948
 20
147.2183651326
 11
35.8779387393
 21
147.2183651326
  0
LINE
  5
36A
100
AcDbEntity
  8
A_ACHSEN
100
AcDbLine
 62
7
  6
CENTER
 10
38.8781387393
 20
147.2183651326
 11
42.1372979986
 21
147.2183651326
  0
LINE
  5
36B
100
AcDbEntity
  8
0
100
AcDbLine
 62
7
  6
CONTINUOUS
 10
37.3214144123
 20
149.7183651326
 11
34.4346630663
 21
149.7183651326
  0
LINE
  5
36C
100
AcDbEntity
  8
0
100
AcDbLine
 62
7
  6
CONTINUOUS
 10
70.8495042021
 20
157.8250559691
 11
70.5495143444
 21
158.082904515
  0
LINE
  5
36D
100
AcDbEntity
  8
0
100
AcDbLine
 62
7
  6
CONTINUOUS
 10
74.7425781217
 20
153.8898407377
 11
74.4847295758
 21
154.1898305954
  0
LINE
  5
36E
100
AcDbEntity
  8
0
100
AcDbLine
 62
7
  6
CONTINUOUS
 10
73.0134993569
 20
160.5468895275
 11
73.2713479028
 21
160.2468996698
  0
LINE
  5
36F
100
AcDbEntity
  8
0
100
AcDbLine
 62
7
  6
CONTINUOUS
 10
95.590540843
 20
179.6478726197
 11
95.6203392504
 21
179.2534213018
  0
LINE
  5
370
100
AcDbEntity
  8
0
100
AcDbLine
 62
7
  6
CONTINUOUS
 10
103.8780387393
 20
209.2183651326
 11
103.8780387393
 21
29.2183651326
  0
LINE
  5
371
100
AcDbEntity
  8
0
100
AcDbLine
 62
7
  6
CONTINUOUS
 10
95.590540843
 20
58.7888576455
 11
95.6203392504
 21
59.1833089635
  0
LINE
  5
372
100
AcDbEntity
  8
0
100
AcDbLine
 62
7
  6
CONTINUOUS
 10
76.9065732765
 20
81.8250559691
 11
77.2065631342
 21
82.082904515
  0
LINE
  5
373
100
AcDbEntity
  8
A_RUNDUNGEN
100
AcDbLine
 62
7
  6
CONTINUOUS
 10
26.8780387393
 20
54.1763053959
 11
27.0410635475
 21
54.2806264425
  0
LINE
  5
374
100
AcDbEntity
  8
0
100
AcDbLine
 62
7
  6
CONTINUOUS
 10
71.3075462264
 20
155.5058630289
 11
70.9130949084
 21
155.4760646215
  0
LINE
  5
375
100
AcDbEntity
  8
0
100
AcDbLine
 62
7
  6
CONTINUOUS
 10
76.4485312522
 20
158.9308672364
 11
76.8429825701
 21
158.9606656437
  0
LINE
  5
376
100
AcDbEntity
  8
0
100
AcDbLine
 62
7
  6
CONTINUOUS
 10
27.8780387393
 20
154.2183651326
 11
49.8780387393
 21
154.2183651326
  0
LINE
  5
377
100
AcDbEntity
  8
A_ACHSEN
100
AcDbLine
 62
7
  6
CONTINUOUS
 10
74.5298905911
 20
157.2183651326
 11
73.2261868874
 21
157.2183651326
  0
LINE
  5
378
100
AcDbEntity
  8
A_ACHSEN
100
AcDbLine
 62
7
  6
CENTER
 10
70.61877948
 20
157.2183651326
 11
65.8780387393
 21
157.2183651326
  0
LINE
  5
379
100
AcDbEntity
  8
A_ACHSEN
100
AcDbLine
 62
7
  6
CENTER
 10
77.1372979986
 20
157.2183651326
 11
81.8780387393
 21
157.2183651326
  0
LINE
  5
37A
100
AcDbEntity
  8
0
100
AcDbLine
 62
7
  6
CONTINUOUS
 10
76.8429825701
 20
155.4760646215
 11
76.4485312522
 21
155.5058630289
  0
LINE
  5
37B
100
AcDbEntity
  8
0
100
AcDbLine
 62
7
  6
CONTINUOUS
 10
76.9065732765
 20
156.6116742961
 11
77.2065631342
 21
156.3538257503
  0
LINE
  5
37C
100
AcDbEntity
  8
0
100
AcDbLine
 62
7
  6
CONTINUOUS
 10
70.9130949084
 20
158.9606656437
 11
71.3075462264
 21
158.9308672364
  0
LINE
  5
37D
100
AcDbEntity
  8
0
100
AcDbLine
 62
7
  6
CONTINUOUS
 10
74.7425781217
 20
44.5468895275
 11
74.4847295758
 21
44.2468996698
  0
LINE
  5
37E
100
AcDbEntity
  8
0
100
AcDbLine
 62
7
  6
CONTINUOUS
 10
73.0134993569
 20
37.8898407377
 11
73.2713479028
 21
38.1898305954
  0
LINE
  5
37F
100
AcDbEntity
  8
0
100
AcDbLine
 62
7
  6
CONTINUOUS
 10
91.3075462264
 20
180.5058630289
 11
90.9130949084
 21
180.4760646215
  0
LINE
  5
380
100
AcDbEntity
  8
0
100
AcDbLine
 62
7
  6
CONTINUOUS
 10
37.4346630663
 20
172.7183651326
 11
40.3214144123
 21
172.7183651326
  0
LINE
  5
381
100
AcDbEntity
  8
A_ACHSEN
100
AcDbLine
 62
7
  6
CONTINUOUS
 10
39.5298905911
 20
175.2183651326
 11
38.2261868874
 21
175.2183651326
  0
LINE
  5
382
100
AcDbEntity
  8
A_ACHSEN
100
AcDbLine
 62
7
  6
CENTER
 10
35.61877948
 20
175.2183651326
 11
26.4780387393
 21
175.2183651326
  0
LINE
  5
383
100
AcDbEntity
  8
A_ACHSEN
100
AcDbLine
 62
7
  6
CENTER
 10
42.1372979986
 20
175.2183651326
 11
51.2780387393
 21
175.2183651326
  0
LINE
  5
384
100
AcDbEntity
  8
A_ACHSEN
100
AcDbLine
 62
7
  6
CONTINUOUS
 10
82.7280387393
 20
177.5683651326
 11
76.0280387393
 21
177.5683651326
  0
LINE
  5
385
100
AcDbEntity
  8
0
100
AcDbLine
 62
7
  6
CONTINUOUS
 10
40.3214144123
 20
177.7183651326
 11
37.4346630663
 21
177.7183651326
  0
LINE
  5
386
100
AcDbEntity
  8
0
100
AcDbLine
 62
7
  6
CONTINUOUS
 10
74.7425781217
 20
193.8898407377
 11
74.4847295758
 21
194.1898305954
  0
LINE
  5
387
100
AcDbEntity
  8
0
100
AcDbLine
 62
7
  6
CONTINUOUS
 10
73.0134993569
 20
200.5468895275
 11
73.2713479028
 21
200.2468996698
  0
LINE
  5
388
100
AcDbEntity
  8
0
100
AcDbLine
 62
7
  6
CONTINUOUS
 10
94.7425781217
 20
59.5468895275
 11
94.4847295758
 21
59.2468996698
  0
LINE
  5
389
100
AcDbEntity
  8
0
100
AcDbLine
 62
7
  6
CONTINUOUS
 10
93.0134993569
 20
52.8898407377
 11
93.2713479028
 21
53.1898305954
  0
LINE
  5
38A
100
AcDbEntity
  8
0
100
AcDbLine
 62
7
  6
CONTINUOUS
 10
89.7425781217
 20
47.0468895275
 11
89.4847295758
 21
46.7468996698
  0
LINE
  5
38B
100
AcDbEntity
  8
0
100
AcDbLine
 62
7
  6
CONTINUOUS
 10
70.8495042021
 20
40.6116742961
 11
70.5495143444
 21
40.3538257503
  0
LINE
  5
38C
100
AcDbEntity
  8
0
100
AcDbLine
 62
7
  6
CONTINUOUS
 10
90.8495042021
 20
55.6116742961
 11
90.5495143444
 21
55.3538257503
  0
LINE
  5
38D
100
AcDbEntity
  8
0
100
AcDbLine
 62
7
  6
CONTINUOUS
 10
96.4485312522
 20
183.9308672364
 11
96.8429825701
 21
183.9606656437
  0
LINE
  5
38E
100
AcDbEntity
  8
A_ACHSEN
100
AcDbLine
 62
7
  6
CONTINUOUS
 10
82.5321481363
 20
181.7183651326
 11
82.0761868874
 21
181.7183651326
  0
LINE
  5
38F
100
AcDbEntity
  8
A_ACHSEN
100
AcDbLine
 62
7
  6
CENTER
 10
70.2507699616
 20
181.7183651326
 11
81.805307517
 21
181.7183651326
  0
LINE
  5
390
100
AcDbEntity
  8
A_ACHSEN
100
AcDbLine
 62
7
  6
CENTER
 10
82.5321481363
 20
181.7183651326
 11
88.9524309496
 21
181.7183651326
  0
LINE
  5
391
100
AcDbEntity
  8
A_ACHSEN
100
AcDbLine
 62
7
  6
CONTINUOUS
 10
94.5298905911
 20
182.2183651326
 11
93.2261868874
 21
182.2183651326
  0
LINE
  5
392
100
AcDbEntity
  8
A_ACHSEN
100
AcDbLine
 62
7
  6
CENTER
 10
90.61877948
 20
182.2183651326
 11
85.8780387393
 21
182.2183651326
  0
LINE
  5
393
100
AcDbEntity
  8
A_ACHSEN
100
AcDbLine
 62
7
  6
CENTER
 10
97.1372979986
 20
182.2183651326
 11
101.8780387393
 21
182.2183651326
  0
LINE
  5
394
100
AcDbEntity
  8
0
100
AcDbLine
 62
7
  6
CONTINUOUS
 10
96.8429825701
 20
180.4760646215
 11
96.4485312522
 21
180.5058630289
  0
LINE
  5
395
100
AcDbEntity
  8
0
100
AcDbLine
 62
7
  6
CONTINUOUS
 10
70.8495042021
 20
197.8250559691
 11
70.5495143444
 21
198.082904515
  0
LINE
  5
396
100
AcDbEntity
  8
0
100
AcDbLine
 62
7
  6
CONTINUOUS
 10
90.8495042021
 20
182.8250559691
 11
90.5495143444
 21
183.082904515
  0
LINE
  5
397
100
AcDbEntity
  8
0
100
AcDbLine
 62
7
  6
CONTINUOUS
 10
94.7425781217
 20
178.8898407377
 11
94.4847295758
 21
179.1898305954
  0
LINE
  5
398
100
AcDbEntity
  8
0
100
AcDbLine
 62
7
  6
CONTINUOUS
 10
93.0134993569
 20
185.5468895275
 11
93.2713479028
 21
185.2468996698
  0
LINE
  5
399
100
AcDbEntity
  8
0
100
AcDbLine
 62
7
  6
CONTINUOUS
 10
89.7425781217
 20
191.3898407377
 11
89.4847295758
 21
191.6898305954
  0
LINE
  5
39A
100
AcDbEntity
  8
0
100
AcDbLine
 62
7
  6
CONTINUOUS
 10
88.0134993569
 20
40.3898407377
 11
88.2713479028
 21
40.6898305954
  0
LINE
  5
39B
100
AcDbEntity
  8
0
100
AcDbLine
 62
7
  6
CONTINUOUS
 10
76.9065732765
 20
41.8250559691
 11
77.2065631342
 21
42.082904515
  0
LINE
  5
39C
100
AcDbEntity
  8
0
100
AcDbLine
 62
7
  6
CONTINUOUS
 10
96.9065732765
 20
56.8250559691
 11
97.2065631342
 21
57.082904515
  0
LINE
  5
39D
100
AcDbEntity
  8
0
100
AcDbLine
 62
7
  6
CONTINUOUS
 10
85.8495042021
 20
43.1116742961
 11
85.5495143444
 21
42.8538257503
  0
LINE
  5
39E
100
AcDbEntity
  8
0
100
AcDbLine
 62
7
  6
CONTINUOUS
 10
86.3075462264
 20
193.0058630289
 11
85.9130949084
 21
192.9760646215
  0
LINE
  5
39F
100
AcDbEntity
  8
A_ACHSEN
100
AcDbLine
 62
7
  6
CONTINUOUS
 10
76.0280387393
 20
185.8683651326
 11
82.7280387393
 21
185.8683651326
  0
LINE
  5
3A0
100
AcDbEntity
  8
0
100
AcDbLine
 62
7
  6
CONTINUOUS
 10
90.9130949084
 20
183.9606656437
 11
91.3075462264
 21
183.9308672364
  0
LINE
  5
3A1
100
AcDbEntity
  8
0
100
AcDbLine
 62
7
  6
CONTINUOUS
 10
76.9065732765
 20
196.6116742961
 11
77.2065631342
 21
196.3538257503
  0
LINE
  5
3A2
100
AcDbEntity
  8
0
100
AcDbLine
 62
7
  6
CONTINUOUS
 10
96.9065732765
 20
181.6116742961
 11
97.2065631342
 21
181.3538257503
  0
LINE
  5
3A3
100
AcDbEntity
  8
0
100
AcDbLine
 62
7
  6
CONTINUOUS
 10
85.8495042021
 20
195.3250559691
 11
85.5495143444
 21
195.582904515
  0
LINE
  5
3A4
100
AcDbEntity
  8
0
100
AcDbLine
 62
7
  6
CONTINUOUS
 10
88.0134993569
 20
198.0468895275
 11
88.2713479028
 21
197.7468996698
  0
LINE
  5
3A5
100
AcDbEntity
  8
0
100
AcDbLine
 62
7
  6
CONTINUOUS
 10
91.9065732765
 20
44.3250559691
 11
92.2065631342
 21
44.582904515
  0
LINE
  5
3A6
100
AcDbEntity
  8
0
100
AcDbLine
 62
7
  6
CONTINUOUS
 10
91.4485312522
 20
196.4308672364
 11
91.8429825701
 21
196.4606656437
  0
LINE
  5
3A7
100
AcDbEntity
  8
0
100
AcDbLine
 62
7
  6
CONTINUOUS
 10
71.3075462264
 20
195.5058630289
 11
70.9130949084
 21
195.4760646215
  0
LINE
  5
3A8
100
AcDbEntity
  8
0
100
AcDbLine
 62
7
  6
CONTINUOUS
 10
76.4485312522
 20
198.9308672364
 11
76.8429825701
 21
198.9606656437
  0
LINE
  5
3A9
100
AcDbEntity
  8
A_ACHSEN
100
AcDbLine
 62
7
  6
CONTINUOUS
 10
89.5298905911
 20
194.7183651326
 11
88.2261868874
 21
194.7183651326
  0
LINE
  5
3AA
100
AcDbEntity
  8
A_ACHSEN
100
AcDbLine
 62
7
  6
CENTER
 10
85.61877948
 20
194.7183651326
 11
80.8780387393
 21
194.7183651326
  0
LINE
  5
3AB
100
AcDbEntity
  8
A_ACHSEN
100
AcDbLine
 62
7
  6
CENTER
 10
92.1372979986
 20
194.7183651326
 11
96.8780387393
 21
194.7183651326
  0
LINE
  5
3AC
100
AcDbEntity
  8
A_ACHSEN
100
AcDbLine
 62
7
  6
CONTINUOUS
 10
74.5298905911
 20
197.2183651326
 11
73.2261868874
 21
197.2183651326
  0
LINE
  5
3AD
100
AcDbEntity
  8
A_ACHSEN
100
AcDbLine
 62
7
  6
CENTER
 10
70.61877948
 20
197.2183651326
 11
65.8780387393
 21
197.2183651326
  0
LINE
  5
3AE
100
AcDbEntity
  8
A_ACHSEN
100
AcDbLine
 62
7
  6
CONTINUOUS
 10
39.5298905911
 20
197.2183651326
 11
38.2261868874
 21
197.2183651326
  0
LINE
  5
3AF
100
AcDbEntity
  8
A_ACHSEN
100
AcDbLine
 62
7
  6
CENTER
 10
35.61877948
 20
197.2183651326
 11
31.8780387393
 21
197.2183651326
  0
LINE
  5
3B0
100
AcDbEntity
  8
A_ACHSEN
100
AcDbLine
 62
7
  6
CENTER
 10
42.1372979986
 20
197.2183651326
 11
45.8780387393
 21
197.2183651326
  0
LINE
  5
3B1
100
AcDbEntity
  8
A_ACHSEN
100
AcDbLine
 62
7
  6
CENTER
 10
77.1372979986
 20
197.2183651326
 11
81.8780387393
 21
197.2183651326
  0
LINE
  5
3B2
100
AcDbEntity
  8
0
100
AcDbLine
 62
7
  6
CONTINUOUS
 10
91.8429825701
 20
192.9760646215
 11
91.4485312522
 21
193.0058630289
  0
LINE
  5
3B3
100
AcDbEntity
  8
0
100
AcDbLine
 62
7
  6
CONTINUOUS
 10
76.8429825701
 20
195.4760646215
 11
76.4485312522
 21
195.5058630289
  0
LINE
  5
3B4
100
AcDbEntity
  8
0
100
AcDbLine
 62
7
  6
CONTINUOUS
 10
85.9130949084
 20
196.4606656437
 11
86.3075462264
 21
196.4308672364
  0
LINE
  5
3B5
100
AcDbEntity
  8
0
100
AcDbLine
 62
7
  6
CONTINUOUS
 10
91.9065732765
 20
194.1116742961
 11
92.2065631342
 21
193.8538257503
  0
LINE
  5
3B6
100
AcDbEntity
  8
0
100
AcDbLine
 62
7
  6
CONTINUOUS
 10
70.9130949084
 20
198.9606656437
 11
71.3075462264
 21
198.9308672364
  0
LINE
  5
3B7
100
AcDbEntity
  8
0
100
AcDbLine
 62
7
  6
CONTINUOUS
 10
61.8780387393
 20
205.7183651326
 11
47.8780387393
 21
205.7183651326
  0
LINE
  5
3B8
100
AcDbEntity
  8
0
100
AcDbLine
 62
7
  6
CONTINUOUS
 10
67.9402165658
 20
209.2183651326
 11
103.8780387393
 21
209.2183651326
  0
ARC
  5
3B9
100
AcDbEntity
  8
A_RUNDUNGEN
100
AcDbCircle
 62
7
  6
CONTINUOUS
 10
-705.3768603132
 20
16.2235304625
 40
756.5005785583
100
AcDbArc
 50
2.8798466963
 51
3.0412210761
  0
ARC
  5
3BA
100
AcDbEntity
  8
A_RUNDUNGEN
100
AcDbCircle
 62
7
  6
CONTINUOUS
 10
-236.2944143132
 20
63.5703831944
 40
264.8835479276
100
AcDbArc
 50
358.2333192808
 51
358.6027247016
  0
ARC
  5
3BB
100
AcDbEntity
  8
A_RUNDUNGEN
100
AcDbCircle
 62
7
  6
CONTINUOUS
 10
-71.3962643381
 20
68.7461176571
 40
99.8652508123
100
AcDbArc
 50
351.8563807466
 51
352.8749010285
  0
ARC
  5
3BC
100
AcDbEntity
  8
A_RUNDUNGEN
100
AcDbCircle
 62
7
  6
CONTINUOUS
 10
16.9794233307
 20
68.8070933661
 40
17.8209688024
100
AcDbArc
 50
303.7415539806
 51
304.1168111807
  0
ARC
  5
3BD
100
AcDbEntity
  8
A_RUNDUNGEN
100
AcDbCircle
 62
9
  6
CONTINUOUS
 10
38.871300606
 20
61.345286196
 40
16.9810390099
100
AcDbArc
 50
276.3477072692
 51
314.9962558766
  0
ARC
  5
3BE
100
AcDbEntity
  8
A_RUNDUNGEN
100
AcDbCircle
 62
7
  6
CONTINUOUS
 10
17.7254758943
 20
67.7066525558
 40
16.4914710781
100
AcDbArc
 50
304.1152949499
 51
304.8194061264
  0
ARC
  5
3BF
100
AcDbEntity
  8
A_RUNDUNGEN
100
AcDbCircle
 62
7
  6
CONTINUOUS
 10
21.4010337421
 20
62.5890036336
 40
10.1901255567
100
AcDbArc
 50
307.0286610277
 51
307.2416137506
  0
CIRCLE
  5
3C0
100
AcDbEntity
  8
A_RUNDUNGEN
100
AcDbCircle
 62
7
  6
CONTINUOUS
 10
35.8780387393
 20
91.2183651326
 40
5.0
  0
ARC
  5
3C1
100
AcDbEntity
  8
0
100
AcDbCircle
 62
7
  6
CONTINUOUS
 10
24.1280387393
 20
72.2183651326
 40
5.0
100
AcDbArc
 50
303.3670129692
 51
318.7479962683
  0
ARC
  5
3C2
100
AcDbEntity
  8
0
100
AcDbCircle
 62
7
  6
CONTINUOUS
 10
24.1280387393
 20
72.2183651326
 40
5.0
100
AcDbArc
 50
53.5711908949
 51
56.6329870308
  0
CIRCLE
  5
3C3
100
AcDbEntity
  8
A_RUNDUNGEN
100
AcDbCircle
 62
9
  6
CONTINUOUS
 10
35.8780387393
 20
91.2183651326
 40
4.5999993875
  0
CIRCLE
  5
3C4
100
AcDbEntity
  8
0
100
AcDbCircle
 62
7
  6
CONTINUOUS
 10
35.8780387393
 20
91.2183651326
 40
2.8867513459
  0
CIRCLE
  5
3C5
100
AcDbEntity
  8
A_FLAECHEN
100
AcDbCircle
 62
7
  6
CONTINUOUS
 10
35.8780387393
 20
91.2183651326
 40
1.5
  0
ARC
  5
3C6
100
AcDbEntity
  8
0
100
AcDbCircle
 62
7
  6
CONTINUOUS
 10
37.5195125544
 20
101.9385927922
 40
0.8
100
AcDbArc
 50
18.1798566915
 51
116.8201433085
  0
ARC
  5
3C7
100
AcDbEntity
  8
0
100
AcDbCircle
 62
7
  6
CONTINUOUS
 10
35.5982663989
 20
103.8598389477
 40
0.8
100
AcDbArc
 50
333.1798566915
 51
71.8201433085
  0
ARC
  5
3C8
100
AcDbEntity
  8
0
100
AcDbCircle
 62
7
  6
CONTINUOUS
 10
37.5195125544
 20
108.498137473
 40
0.8
100
AcDbArc
 50
243.1798566915
 51
341.8201433085
  0
ARC
  5
3C9
100
AcDbEntity
  8
0
100
AcDbCircle
 62
7
  6
CONTINUOUS
 10
35.5982663989
 20
106.5768913175
 40
0.8
100
AcDbArc
 50
288.1798566915
 51
26.8201433085
  0
ARC
  5
3CA
100
AcDbEntity
  8
0
100
AcDbCircle
 62
7
  6
CONTINUOUS
 10
36.5799417004
 20
102.9202680938
 40
0.5
100
AcDbArc
 50
153.1798566915
 51
296.8201433085
  0
ARC
  5
3CB
100
AcDbEntity
  8
0
100
AcDbCircle
 62
7
  6
CONTINUOUS
 10
36.5799417004
 20
107.5164621715
 40
0.5
100
AcDbArc
 50
63.1798566915
 51
206.8201433085
  0
ARC
  5
3CC
100
AcDbEntity
  8
0
100
AcDbCircle
 62
7
  6
CONTINUOUS
 10
35.6280387393
 20
105.2183651326
 40
0.5
100
AcDbArc
 50
108.1798566915
 51
251.8201433085
  0
ARC
  5
3CD
100
AcDbEntity
  8
A_RUNDUNGEN
100
AcDbCircle
 62
7
  6
CONTINUOUS
 10
-699.7274165635
 20
221.9210269845
 40
750.8435903408
100
AcDbArc
 50
356.9581710104
 51
357.120761214
  0
ARC
  5
3CE
100
AcDbEntity
  8
A_RUNDUNGEN
100
AcDbCircle
 62
9
  6
CONTINUOUS
 10
38.8701089822
 20
177.0895423141
 40
16.9832422993
100
AcDbArc
 50
45.0054230873
 51
82.3149445634
  0
CIRCLE
  5
3CF
100
AcDbEntity
  8
A_RUNDUNGEN
100
AcDbCircle
 62
7
  6
CONTINUOUS
 10
35.8780387393
 20
119.2183651326
 40
5.0
  0
CIRCLE
  5
3D0
100
AcDbEntity
  8
A_RUNDUNGEN
100
AcDbCircle
 62
7
  6
CONTINUOUS
 10
35.8780387393
 20
147.2183651326
 40
5.0
  0
ARC
  5
3D1
100
AcDbEntity
  8
0
100
AcDbCircle
 62
7
  6
CONTINUOUS
 10
24.1280387393
 20
166.2183651326
 40
5.0
100
AcDbArc
 50
303.3670129692
 51
306.4288091051
  0
ARC
  5
3D2
100
AcDbEntity
  8
0
100
AcDbCircle
 62
7
  6
CONTINUOUS
 10
24.1280387393
 20
166.2183651326
 40
5.0
100
AcDbArc
 50
41.2520037317
 51
56.6329870308
  0
CIRCLE
  5
3D3
100
AcDbEntity
  8
A_RUNDUNGEN
100
AcDbCircle
 62
9
  6
CONTINUOUS
 10
35.8780387393
 20
119.2183651326
 40
4.5999993875
  0
CIRCLE
  5
3D4
100
AcDbEntity
  8
A_RUNDUNGEN
100
AcDbCircle
 62
9
  6
CONTINUOUS
 10
35.8780387393
 20
147.2183651326
 40
4.5999993875
  0
CIRCLE
  5
3D5
100
AcDbEntity
  8
0
100
AcDbCircle
 62
7
  6
CONTINUOUS
 10
35.8780387393
 20
119.2183651326
 40
2.8867513459
  0
CIRCLE
  5
3D6
100
AcDbEntity
  8
0
100
AcDbCircle
 62
7
  6
CONTINUOUS
 10
35.8780387393
 20
147.2183651326
 40
2.8867513459
  0
CIRCLE
  5
3D7
100
AcDbEntity
  8
A_FLAECHEN
100
AcDbCircle
 62
7
  6
CONTINUOUS
 10
35.8780387393
 20
119.2183651326
 40
1.5
  0
CIRCLE
  5
3D8
100
AcDbEntity
  8
A_FLAECHEN
100
AcDbCircle
 62
7
  6
CONTINUOUS
 10
35.8780387393
 20
147.2183651326
 40
1.5
  0
ARC
  5
3D9
100
AcDbEntity
  8
0
100
AcDbCircle
 62
7
  6
CONTINUOUS
 10
37.5195125544
 20
129.9385927922
 40
0.8
100
AcDbArc
 50
18.1798566915
 51
116.8201433085
  0
ARC
  5
3DA
100
AcDbEntity
  8
0
100
AcDbCircle
 62
7
  6
CONTINUOUS
 10
35.5982663989
 20
131.8598389477
 40
0.8
100
AcDbArc
 50
333.1798566915
 51
71.8201433085
  0
ARC
  5
3DB
100
AcDbEntity
  8
0
100
AcDbCircle
 62
7
  6
CONTINUOUS
 10
35.5982663989
 20
134.5768913175
 40
0.8
100
AcDbArc
 50
288.1798566915
 51
26.8201433085
  0
ARC
  5
3DC
100
AcDbEntity
  8
0
100
AcDbCircle
 62
7
  6
CONTINUOUS
 10
37.5195125544
 20
136.498137473
 40
0.8
100
AcDbArc
 50
243.1798566915
 51
341.8201433085
  0
ARC
  5
3DD
100
AcDbEntity
  8
0
100
AcDbCircle
 62
7
  6
CONTINUOUS
 10
36.5799417004
 20
130.9202680938
 40
0.5
100
AcDbArc
 50
153.1798566915
 51
296.8201433085
  0
ARC
  5
3DE
100
AcDbEntity
  8
0
100
AcDbCircle
 62
7
  6
CONTINUOUS
 10
35.6280387393
 20
133.2183651326
 40
0.5
100
AcDbArc
 50
108.1798566915
 51
251.8201433085
  0
ARC
  5
3DF
100
AcDbEntity
  8
0
100
AcDbCircle
 62
7
  6
CONTINUOUS
 10
36.5799417004
 20
135.5164621715
 40
0.5
100
AcDbArc
 50
63.1798566915
 51
206.8201433085
  0
ARC
  5
3E0
100
AcDbEntity
  8
A_RUNDUNGEN
100
AcDbCircle
 62
9
  6
CONTINUOUS
 10
38.8847702689
 20
61.3452824172
 40
16.9810327679
100
AcDbArc
 50
225.0037566877
 51
263.6523289811
  0
ARC
  5
3E1
100
AcDbEntity
  8
A_RUNDUNGEN
100
AcDbCircle
 62
7
  6
CONTINUOUS
 10
38.8780387393
 20
59.9683651326
 40
14.0
100
AcDbArc
 50
328.9972808661
 51
360.0
  0
ARC
  5
3E2
100
AcDbEntity
  8
0
100
AcDbCircle
 62
7
  6
CONTINUOUS
 10
38.8780387393
 20
41.2183651326
 40
12.0
100
AcDbArc
 50
180.0
 51
360.0
  0
ARC
  5
3E3
100
AcDbEntity
  8
A_RUNDUNGEN
100
AcDbCircle
 62
9
  6
CONTINUOUS
 10
38.8780409885
 20
61.268223046
 40
11.9506480262
100
AcDbArc
 50
263.6380014734
 51
276.36197709
  0
ARC
  5
3E4
100
AcDbEntity
  8
A_RUNDUNGEN
100
AcDbCircle
 62
7
  6
CONTINUOUS
 10
38.8780387393
 20
63.2183651326
 40
11.0
100
AcDbArc
 50
180.0
 51
360.0
  0
ARC
  5
3E5
100
AcDbEntity
  8
0
100
AcDbCircle
 62
9
  6
CONTINUOUS
 10
39.8780387393
 20
39.7183651326
 40
11.0
100
AcDbArc
 50
320.4788036414
 51
360.0
  0
CIRCLE
  5
3E6
100
AcDbEntity
  8
A_FASEN
100
AcDbCircle
 62
7
  6
CONTINUOUS
 10
38.8780387393
 20
63.2183651326
 40
8.0
  0
ARC
  5
3E7
100
AcDbEntity
  8
0
100
AcDbCircle
 62
2
  6
CONTINUOUS
 10
38.8780387393
 20
63.2183651326
 40
7.0
100
AcDbArc
 50
255.0
 51
195.0
  0
CIRCLE
  5
3E8
100
AcDbEntity
  8
A_FASEN
100
AcDbCircle
 62
7
  6
CONTINUOUS
 10
38.8780387393
 20
63.2183651326
 40
7.0
  0
CIRCLE
  5
3E9
100
AcDbEntity
  8
A_ACHSEN
100
AcDbCircle
 62
7
  6
CONTINUOUS
 10
38.8780387393
 20
63.2183651326
 40
5.0
  0
ARC
  5
3EA
100
AcDbEntity
  8
0
100
AcDbCircle
 62
7
  6
CONTINUOUS
 10
53.6280387393
 20
72.2183651326
 40
5.0
100
AcDbArc
 50
123.3670129692
 51
126.4288091051
  0
ARC
  5
3EB
100
AcDbEntity
  8
0
100
AcDbCircle
 62
7
  6
CONTINUOUS
 10
53.6280387393
 20
72.2183651326
 40
5.0
100
AcDbArc
 50
221.2520037317
 51
236.6329870308
  0
CIRCLE
  5
3EC
100
AcDbEntity
  8
A_RUNDUNGEN
100
AcDbCircle
 62
7
  6
CONTINUOUS
 10
38.8780387393
 20
41.2183651326
 40
3.75
  0
ARC
  5
3ED
100
AcDbEntity
  8
0
100
AcDbCircle
 62
2
  6
CONTINUOUS
 10
38.8780387393
 20
41.2183651326
 40
3.0
100
AcDbArc
 50
255.0
 51
195.0
  0
CIRCLE
  5
3EE
100
AcDbEntity
  8
A_ACHSEN
100
AcDbCircle
 62
7
  6
CONTINUOUS
 10
38.8780387393
 20
41.2183651326
 40
2.5
  0
CIRCLE
  5
3EF
100
AcDbEntity
  8
A_FLAECHEN
100
AcDbCircle
 62
7
  6
CONTINUOUS
 10
38.8780387393
 20
63.2183651326
 40
0.5
  0
CIRCLE
  5
3F0
100
AcDbEntity
  8
A_ACHSEN
100
AcDbCircle
 62
7
  6
CONTINUOUS
 10
38.8780387393
 20
105.2183651326
 40
5.5
  0
CIRCLE
  5
3F1
100
AcDbEntity
  8
A_ACHSEN
100
AcDbCircle
 62
7
  6
CONTINUOUS
 10
38.8780387393
 20
105.2183651326
 40
5.0
  0
ARC
  5
3F2
100
AcDbEntity
  8
0
100
AcDbCircle
 62
7
  6
CONTINUOUS
 10
42.1578110797
 20
106.5768913175
 40
0.8
100
AcDbArc
 50
153.1798566915
 51
251.8201433085
  0
ARC
  5
3F3
100
AcDbEntity
  8
0
100
AcDbCircle
 62
7
  6
CONTINUOUS
 10
40.2365649242
 20
108.498137473
 40
0.8
100
AcDbArc
 50
198.1798566915
 51
296.8201433085
  0
ARC
  5
3F4
100
AcDbEntity
  8
0
100
AcDbCircle
 62
7
  6
CONTINUOUS
 10
40.2365649242
 20
101.9385927922
 40
0.8
100
AcDbArc
 50
63.1798566915
 51
161.8201433085
  0
ARC
  5
3F5
100
AcDbEntity
  8
0
100
AcDbCircle
 62
7
  6
CONTINUOUS
 10
42.1578110797
 20
103.8598389477
 40
0.8
100
AcDbArc
 50
108.1798566915
 51
206.8201433085
  0
ARC
  5
3F6
100
AcDbEntity
  8
0
100
AcDbCircle
 62
7
  6
CONTINUOUS
 10
41.1761357782
 20
107.5164621715
 40
0.5
100
AcDbArc
 50
333.1798566915
 51
116.8201433085
  0
ARC
  5
3F7
100
AcDbEntity
  8
0
100
AcDbCircle
 62
7
  6
CONTINUOUS
 10
38.8780387393
 20
108.4683651326
 40
0.5
100
AcDbArc
 50
18.1798566915
 51
161.8201433085
  0
ARC
  5
3F8
100
AcDbEntity
  8
0
100
AcDbCircle
 62
7
  6
CONTINUOUS
 10
38.8780387393
 20
101.9683651326
 40
0.5
100
AcDbArc
 50
198.1798566915
 51
341.8201433085
  0
ARC
  5
3F9
100
AcDbEntity
  8
0
100
AcDbCircle
 62
7
  6
CONTINUOUS
 10
41.1761357782
 20
102.9202680938
 40
0.5
100
AcDbArc
 50
243.1798566915
 51
26.8201433085
  0
ARC
  5
3FA
100
AcDbEntity
  8
0
100
AcDbCircle
 62
7
  6
CONTINUOUS
 10
42.1280387393
 20
105.2183651326
 40
0.5
100
AcDbArc
 50
288.1798566915
 51
71.8201433085
  0
CIRCLE
  5
3FB
100
AcDbEntity
  8
A_ACHSEN
100
AcDbCircle
 62
8
  6
HIDDEN
 10
73.8780387393
 20
41.2183651326
 40
5.0
  0
ARC
  5
3FC
100
AcDbEntity
  8
0
100
AcDbCircle
 62
7
  6
CONTINUOUS
 10
76.3882678125
 20
38.7081360594
 40
0.8
100
AcDbArc
 50
85.6798566915
 51
184.3201433085
  0
ARC
  5
3FD
100
AcDbEntity
  8
0
100
AcDbCircle
 62
7
  6
CONTINUOUS
 10
77.4280387393
 20
41.2183651326
 40
0.8
100
AcDbArc
 50
130.6798566915
 51
229.3201433085
  0
ARC
  5
3FE
100
AcDbEntity
  8
0
100
AcDbCircle
 62
7
  6
CONTINUOUS
 10
76.3882678125
 20
43.7285942058
 40
0.8
100
AcDbArc
 50
175.6798566915
 51
274.3201433085
  0
ARC
  5
3FF
100
AcDbEntity
  8
0
100
AcDbCircle
 62
7
  6
CONTINUOUS
 10
73.8780387393
 20
44.7683651326
 40
0.8
100
AcDbArc
 50
220.6798566915
 51
319.3201433085
  0
ARC
  5
400
100
AcDbEntity
  8
0
100
AcDbCircle
 62
7
  6
CONTINUOUS
 10
71.3678096661
 20
43.7285942058
 40
0.8
100
AcDbArc
 50
265.6798566915
 51
4.3201433085
  0
ARC
  5
401
100
AcDbEntity
  8
0
100
AcDbCircle
 62
7
  6
CONTINUOUS
 10
70.3280387393
 20
41.2183651326
 40
0.8
100
AcDbArc
 50
310.6798566915
 51
49.3201433085
  0
ARC
  5
402
100
AcDbEntity
  8
0
100
AcDbCircle
 62
7
  6
CONTINUOUS
 10
71.3678096661
 20
38.7081360594
 40
0.8
100
AcDbArc
 50
355.6798566915
 51
94.3201433085
  0
ARC
  5
403
100
AcDbEntity
  8
0
100
AcDbCircle
 62
7
  6
CONTINUOUS
 10
73.8780387393
 20
37.6683651326
 40
0.8
100
AcDbArc
 50
40.6798566915
 51
139.3201433086
  0
ARC
  5
404
100
AcDbEntity
  8
0
100
AcDbCircle
 62
7
  6
CONTINUOUS
 10
75.1217598945
 20
38.215756652
 40
0.5
100
AcDbArc
 50
220.6798566915
 51
4.3201433085
  0
ARC
  5
405
100
AcDbEntity
  8
0
100
AcDbCircle
 62
7
  6
CONTINUOUS
 10
76.88064722
 20
39.9746439774
 40
0.5
100
AcDbArc
 50
265.6798566914
 51
49.3201433085
  0
ARC
  5
406
100
AcDbEntity
  8
0
100
AcDbCircle
 62
7
  6
CONTINUOUS
 10
76.88064722
 20
42.4620862878
 40
0.5
100
AcDbArc
 50
310.6798566914
 51
94.3201433085
  0
ARC
  5
407
100
AcDbEntity
  8
0
100
AcDbCircle
 62
7
  6
CONTINUOUS
 10
75.1217598945
 20
44.2209736133
 40
0.5
100
AcDbArc
 50
355.6798566915
 51
139.3201433086
  0
ARC
  5
408
100
AcDbEntity
  8
0
100
AcDbCircle
 62
7
  6
CONTINUOUS
 10
72.6343175841
 20
44.2209736133
 40
0.5
100
AcDbArc
 50
40.6798566915
 51
184.3201433085
  0
ARC
  5
409
100
AcDbEntity
  8
0
100
AcDbCircle
 62
7
  6
CONTINUOUS
 10
70.8754302586
 20
42.4620862878
 40
0.5
100
AcDbArc
 50
85.6798566914
 51
229.3201433085
  0
ARC
  5
40A
100
AcDbEntity
  8
0
100
AcDbCircle
 62
7
  6
CONTINUOUS
 10
70.8754302586
 20
39.9746439774
 40
0.5
100
AcDbArc
 50
130.6798566915
 51
274.3201433086
  0
ARC
  5
40B
100
AcDbEntity
  8
0
100
AcDbCircle
 62
7
  6
CONTINUOUS
 10
72.6343175841
 20
38.215756652
 40
0.5
100
AcDbArc
 50
175.6798566915
 51
319.3201433086
  0
ARC
  5
40C
100
AcDbEntity
  8
A_ACHSEN
100
AcDbCircle
 62
7
  6
CONTINUOUS
 10
76.1289997003
 20
56.7183651326
 40
4.250960961
100
AcDbArc
 50
102.5122128479
 51
257.4877871521
  0
ARC
  5
40D
100
AcDbEntity
  8
A_ACHSEN
100
AcDbCircle
 62
7
  6
CONTINUOUS
 10
82.7280387393
 20
56.7183651326
 40
4.15
100
AcDbArc
 50
270.0
 51
90.0
  0
CIRCLE
  5
40E
100
AcDbEntity
  8
A_ACHSEN
100
AcDbCircle
 62
8
  6
HIDDEN
 10
88.8780387393
 20
43.7183651326
 40
5.0
  0
ARC
  5
40F
100
AcDbEntity
  8
0
100
AcDbCircle
 62
7
  6
CONTINUOUS
 10
91.3882678125
 20
41.2081360594
 40
0.8
100
AcDbArc
 50
85.6798566915
 51
184.3201433085
  0
ARC
  5
410
100
AcDbEntity
  8
0
100
AcDbCircle
 62
7
  6
CONTINUOUS
 10
92.4280387393
 20
43.7183651326
 40
0.8
100
AcDbArc
 50
130.6798566915
 51
229.3201433086
  0
ARC
  5
411
100
AcDbEntity
  8
0
100
AcDbCircle
 62
7
  6
CONTINUOUS
 10
91.3882678125
 20
46.2285942058
 40
0.8
100
AcDbArc
 50
175.6798566915
 51
274.3201433086
  0
ARC
  5
412
100
AcDbEntity
  8
0
100
AcDbCircle
 62
7
  6
CONTINUOUS
 10
88.8780387393
 20
47.2683651326
 40
0.8
100
AcDbArc
 50
220.6798566915
 51
319.3201433085
  0
ARC
  5
413
100
AcDbEntity
  8
0
100
AcDbCircle
 62
7
  6
CONTINUOUS
 10
86.3678096661
 20
46.2285942058
 40
0.8
100
AcDbArc
 50
265.6798566915
 51
4.3201433085
  0
ARC
  5
414
100
AcDbEntity
  8
0
100
AcDbCircle
 62
7
  6
CONTINUOUS
 10
85.3280387393
 20
43.7183651326
 40
0.8
100
AcDbArc
 50
310.6798566914
 51
49.3201433085
  0
ARC
  5
415
100
AcDbEntity
  8
0
100
AcDbCircle
 62
7
  6
CONTINUOUS
 10
86.3678096661
 20
41.2081360594
 40
0.8
100
AcDbArc
 50
355.6798566915
 51
94.3201433085
  0
ARC
  5
416
100
AcDbEntity
  8
0
100
AcDbCircle
 62
7
  6
CONTINUOUS
 10
88.8780387393
 20
40.1683651326
 40
0.8
100
AcDbArc
 50
40.6798566915
 51
139.3201433085
  0
ARC
  5
417
100
AcDbEntity
  8
0
100
AcDbCircle
 62
7
  6
CONTINUOUS
 10
90.1217598945
 20
40.715756652
 40
0.5
100
AcDbArc
 50
220.6798566915
 51
4.3201433085
  0
ARC
  5
418
100
AcDbEntity
  8
0
100
AcDbCircle
 62
7
  6
CONTINUOUS
 10
91.88064722
 20
42.4746439774
 40
0.5
100
AcDbArc
 50
265.6798566915
 51
49.3201433085
  0
ARC
  5
419
100
AcDbEntity
  8
0
100
AcDbCircle
 62
7
  6
CONTINUOUS
 10
91.88064722
 20
44.9620862878
 40
0.5
100
AcDbArc
 50
310.6798566915
 51
94.3201433085
  0
ARC
  5
41A
100
AcDbEntity
  8
0
100
AcDbCircle
 62
7
  6
CONTINUOUS
 10
90.1217598945
 20
46.7209736133
 40
0.5
100
AcDbArc
 50
355.6798566915
 51
139.3201433086
  0
ARC
  5
41B
100
AcDbEntity
  8
0
100
AcDbCircle
 62
7
  6
CONTINUOUS
 10
87.6343175841
 20
46.7209736133
 40
0.5
100
AcDbArc
 50
40.6798566915
 51
184.3201433085
  0
ARC
  5
41C
100
AcDbEntity
  8
0
100
AcDbCircle
 62
7
  6
CONTINUOUS
 10
85.8754302586
 20
44.9620862878
 40
0.5
100
AcDbArc
 50
85.6798566915
 51
229.3201433085
  0
ARC
  5
41D
100
AcDbEntity
  8
0
100
AcDbCircle
 62
7
  6
CONTINUOUS
 10
85.8754302586
 20
42.4746439774
 40
0.5
100
AcDbArc
 50
130.6798566915
 51
274.3201433085
  0
ARC
  5
41E
100
AcDbEntity
  8
0
100
AcDbCircle
 62
7
  6
CONTINUOUS
 10
87.6343175841
 20
40.715756652
 40
0.5
100
AcDbArc
 50
175.6798566915
 51
319.3201433086
  0
CIRCLE
  5
41F
100
AcDbEntity
  8
A_ACHSEN
100
AcDbCircle
 62
8
  6
HIDDEN
 10
93.8780387393
 20
56.2183651326
 40
5.0
  0
ARC
  5
420
100
AcDbEntity
  8
0
100
AcDbCircle
 62
7
  6
CONTINUOUS
 10
96.3882678125
 20
53.7081360594
 40
0.8
100
AcDbArc
 50
85.6798566915
 51
184.3201433085
  0
ARC
  5
421
100
AcDbEntity
  8
0
100
AcDbCircle
 62
7
  6
CONTINUOUS
 10
97.4280387393
 20
56.2183651326
 40
0.8
100
AcDbArc
 50
130.6798566915
 51
229.3201433085
  0
ARC
  5
422
100
AcDbEntity
  8
0
100
AcDbCircle
 62
7
  6
CONTINUOUS
 10
96.3882678125
 20
58.7285942058
 40
0.8
100
AcDbArc
 50
175.6798566915
 51
274.3201433085
  0
ARC
  5
423
100
AcDbEntity
  8
0
100
AcDbCircle
 62
7
  6
CONTINUOUS
 10
93.8780387393
 20
59.7683651326
 40
0.8
100
AcDbArc
 50
220.6798566915
 51
319.3201433085
  0
ARC
  5
424
100
AcDbEntity
  8
0
100
AcDbCircle
 62
7
  6
CONTINUOUS
 10
91.3678096661
 20
58.7285942058
 40
0.8
100
AcDbArc
 50
265.6798566914
 51
4.3201433085
  0
ARC
  5
425
100
AcDbEntity
  8
0
100
AcDbCircle
 62
7
  6
CONTINUOUS
 10
90.3280387393
 20
56.2183651326
 40
0.8
100
AcDbArc
 50
310.6798566915
 51
49.3201433085
  0
ARC
  5
426
100
AcDbEntity
  8
0
100
AcDbCircle
 62
7
  6
CONTINUOUS
 10
91.3678096661
 20
53.7081360594
 40
0.8
100
AcDbArc
 50
355.6798566915
 51
94.3201433085
  0
ARC
  5
427
100
AcDbEntity
  8
0
100
AcDbCircle
 62
7
  6
CONTINUOUS
 10
93.8780387393
 20
52.6683651326
 40
0.8
100
AcDbArc
 50
40.6798566915
 51
139.3201433085
  0
ARC
  5
428
100
AcDbEntity
  8
0
100
AcDbCircle
 62
7
  6
CONTINUOUS
 10
95.1217598945
 20
53.215756652
 40
0.5
100
AcDbArc
 50
220.6798566915
 51
4.3201433085
  0
ARC
  5
429
100
AcDbEntity
  8
0
100
AcDbCircle
 62
7
  6
CONTINUOUS
 10
96.88064722
 20
54.9746439774
 40
0.5
100
AcDbArc
 50
265.6798566915
 51
49.3201433085
  0
ARC
  5
42A
100
AcDbEntity
  8
0
100
AcDbCircle
 62
7
  6
CONTINUOUS
 10
96.88064722
 20
57.4620862878
 40
0.5
100
AcDbArc
 50
310.6798566914
 51
94.3201433085
  0
ARC
  5
42B
100
AcDbEntity
  8
0
100
AcDbCircle
 62
7
  6
CONTINUOUS
 10
95.1217598945
 20
59.2209736133
 40
0.5
100
AcDbArc
 50
355.6798566915
 51
139.3201433085
  0
ARC
  5
42C
100
AcDbEntity
  8
0
100
AcDbCircle
 62
7
  6
CONTINUOUS
 10
92.6343175841
 20
59.2209736133
 40
0.5
100
AcDbArc
 50
40.6798566915
 51
184.3201433085
  0
ARC
  5
42D
100
AcDbEntity
  8
0
100
AcDbCircle
 62
7
  6
CONTINUOUS
 10
90.8754302586
 20
57.4620862878
 40
0.5
100
AcDbArc
 50
85.6798566915
 51
229.3201433085
  0
ARC
  5
42E
100
AcDbEntity
  8
0
100
AcDbCircle
 62
7
  6
CONTINUOUS
 10
90.8754302586
 20
54.9746439774
 40
0.5
100
AcDbArc
 50
130.6798566915
 51
274.3201433086
  0
ARC
  5
42F
100
AcDbEntity
  8
0
100
AcDbCircle
 62
7
  6
CONTINUOUS
 10
92.6343175841
 20
53.215756652
 40
0.5
100
AcDbArc
 50
175.6798566915
 51
319.3201433085
  0
CIRCLE
  5
430
100
AcDbEntity
  8
A_ACHSEN
100
AcDbCircle
 62
7
  6
CONTINUOUS
 10
85.8780387393
 20
99.2183651326
 40
5.5
  0
CIRCLE
  5
431
100
AcDbEntity
  8
A_ACHSEN
100
AcDbCircle
 62
8
  6
HIDDEN
 10
73.8780387393
 20
81.2183651326
 40
5.0
  0
ARC
  5
432
100
AcDbEntity
  8
0
100
AcDbCircle
 62
7
  6
CONTINUOUS
 10
76.3882678125
 20
78.7081360594
 40
0.8
100
AcDbArc
 50
85.6798566915
 51
184.3201433085
  0
ARC
  5
433
100
AcDbEntity
  8
0
100
AcDbCircle
 62
7
  6
CONTINUOUS
 10
77.4280387393
 20
81.2183651326
 40
0.8
100
AcDbArc
 50
130.6798566915
 51
229.3201433085
  0
ARC
  5
434
100
AcDbEntity
  8
0
100
AcDbCircle
 62
7
  6
CONTINUOUS
 10
76.3882678125
 20
83.7285942058
 40
0.8
100
AcDbArc
 50
175.6798566915
 51
274.3201433085
  0
ARC
  5
435
100
AcDbEntity
  8
0
100
AcDbCircle
 62
7
  6
CONTINUOUS
 10
73.8780387393
 20
84.7683651326
 40
0.8
100
AcDbArc
 50
220.6798566915
 51
319.3201433085
  0
ARC
  5
436
100
AcDbEntity
  8
0
100
AcDbCircle
 62
7
  6
CONTINUOUS
 10
71.3678096661
 20
83.7285942058
 40
0.8
100
AcDbArc
 50
265.6798566915
 51
4.3201433085
  0
ARC
  5
437
100
AcDbEntity
  8
0
100
AcDbCircle
 62
7
  6
CONTINUOUS
 10
70.3280387393
 20
81.2183651326
 40
0.8
100
AcDbArc
 50
310.6798566915
 51
49.3201433086
  0
ARC
  5
438
100
AcDbEntity
  8
0
100
AcDbCircle
 62
7
  6
CONTINUOUS
 10
71.3678096661
 20
78.7081360594
 40
0.8
100
AcDbArc
 50
355.6798566915
 51
94.3201433085
  0
ARC
  5
439
100
AcDbEntity
  8
0
100
AcDbCircle
 62
7
  6
CONTINUOUS
 10
73.8780387393
 20
77.6683651326
 40
0.8
100
AcDbArc
 50
40.6798566915
 51
139.3201433085
  0
ARC
  5
43A
100
AcDbEntity
  8
0
100
AcDbCircle
 62
7
  6
CONTINUOUS
 10
75.1217598945
 20
78.215756652
 40
0.5
100
AcDbArc
 50
220.6798566915
 51
4.3201433085
  0
ARC
  5
43B
100
AcDbEntity
  8
0
100
AcDbCircle
 62
7
  6
CONTINUOUS
 10
76.88064722
 20
79.9746439774
 40
0.5
100
AcDbArc
 50
265.6798566915
 51
49.3201433085
  0
ARC
  5
43C
100
AcDbEntity
  8
0
100
AcDbCircle
 62
7
  6
CONTINUOUS
 10
76.88064722
 20
82.4620862878
 40
0.5
100
AcDbArc
 50
310.6798566915
 51
94.3201433085
  0
ARC
  5
43D
100
AcDbEntity
  8
0
100
AcDbCircle
 62
7
  6
CONTINUOUS
 10
75.1217598945
 20
84.2209736133
 40
0.5
100
AcDbArc
 50
355.6798566915
 51
139.3201433085
  0
ARC
  5
43E
100
AcDbEntity
  8
0
100
AcDbCircle
 62
7
  6
CONTINUOUS
 10
72.6343175841
 20
84.2209736133
 40
0.5
100
AcDbArc
 50
40.6798566914
 51
184.3201433085
  0
ARC
  5
43F
100
AcDbEntity
  8
0
100
AcDbCircle
 62
7
  6
CONTINUOUS
 10
70.8754302586
 20
82.4620862878
 40
0.5
100
AcDbArc
 50
85.6798566915
 51
229.3201433086
  0
ARC
  5
440
100
AcDbEntity
  8
0
100
AcDbCircle
 62
7
  6
CONTINUOUS
 10
70.8754302586
 20
79.9746439774
 40
0.5
100
AcDbArc
 50
130.6798566915
 51
274.3201433085
  0
ARC
  5
441
100
AcDbEntity
  8
0
100
AcDbCircle
 62
7
  6
CONTINUOUS
 10
72.6343175841
 20
78.215756652
 40
0.5
100
AcDbArc
 50
175.6798566915
 51
319.3201433086
  0
CIRCLE
  5
442
100
AcDbEntity
  8
A_ACHSEN
100
AcDbCircle
 62
7
  6
CONTINUOUS
 10
38.8780387393
 20
133.2183651326
 40
5.5
  0
CIRCLE
  5
443
100
AcDbEntity
  8
A_ACHSEN
100
AcDbCircle
 62
7
  6
CONTINUOUS
 10
85.8780387393
 20
139.2183651326
 40
5.5
  0
CIRCLE
  5
444
100
AcDbEntity
  8
A_ACHSEN
100
AcDbCircle
 62
8
  6
HIDDEN
 10
73.8780387393
 20
157.2183651326
 40
5.0
  0
ARC
  5
445
100
AcDbEntity
  8
0
100
AcDbCircle
 62
7
  6
CONTINUOUS
 10
53.6280387393
 20
166.2183651326
 40
5.0
100
AcDbArc
 50
123.3670129692
 51
138.7479962683
  0
ARC
  5
446
100
AcDbEntity
  8
0
100
AcDbCircle
 62
7
  6
CONTINUOUS
 10
53.6280387393
 20
166.2183651326
 40
5.0
100
AcDbArc
 50
233.5711908949
 51
236.6329870308
  0
CIRCLE
  5
447
100
AcDbEntity
  8
A_ACHSEN
100
AcDbCircle
 62
7
  6
CONTINUOUS
 10
38.8780387393
 20
133.2183651326
 40
5.0
  0
ARC
  5
448
100
AcDbEntity
  8
A_ACHSEN
100
AcDbCircle
 62
7
  6
CONTINUOUS
 10
70.3780387393
 20
119.2183651326
 40
4.25
100
AcDbArc
 50
90.0
 51
270.0
  0
ARC
  5
449
100
AcDbEntity
  8
A_ACHSEN
100
AcDbCircle
 62
7
  6
CONTINUOUS
 10
81.3780387393
 20
119.2183651326
 40
4.25
100
AcDbArc
 50
270.0
 51
90.0
  0
ARC
  5
44A
100
AcDbEntity
  8
0
100
AcDbCircle
 62
7
  6
CONTINUOUS
 10
42.1578110797
 20
131.8598389477
 40
0.8
100
AcDbArc
 50
108.1798566915
 51
206.8201433085
  0
ARC
  5
44B
100
AcDbEntity
  8
0
100
AcDbCircle
 62
7
  6
CONTINUOUS
 10
40.2365649242
 20
129.9385927922
 40
0.8
100
AcDbArc
 50
63.1798566915
 51
161.8201433085
  0
ARC
  5
44C
100
AcDbEntity
  8
0
100
AcDbCircle
 62
7
  6
CONTINUOUS
 10
40.2365649242
 20
136.498137473
 40
0.8
100
AcDbArc
 50
198.1798566915
 51
296.8201433085
  0
ARC
  5
44D
100
AcDbEntity
  8
0
100
AcDbCircle
 62
7
  6
CONTINUOUS
 10
42.1578110797
 20
134.5768913175
 40
0.8
100
AcDbArc
 50
153.1798566915
 51
251.8201433085
  0
ARC
  5
44E
100
AcDbEntity
  8
0
100
AcDbCircle
 62
7
  6
CONTINUOUS
 10
73.8780387393
 20
160.7683651326
 40
0.8
100
AcDbArc
 50
220.6798566915
 51
319.3201433085
  0
ARC
  5
44F
100
AcDbEntity
  8
0
100
AcDbCircle
 62
7
  6
CONTINUOUS
 10
71.3678096661
 20
159.7285942058
 40
0.8
100
AcDbArc
 50
265.6798566915
 51
4.3201433085
  0
ARC
  5
450
100
AcDbEntity
  8
0
100
AcDbCircle
 62
7
  6
CONTINUOUS
 10
70.3280387393
 20
157.2183651326
 40
0.8
100
AcDbArc
 50
310.6798566914
 51
49.3201433085
  0
ARC
  5
451
100
AcDbEntity
  8
0
100
AcDbCircle
 62
7
  6
CONTINUOUS
 10
71.3678096661
 20
154.7081360594
 40
0.8
100
AcDbArc
 50
355.6798566915
 51
94.3201433085
  0
ARC
  5
452
100
AcDbEntity
  8
0
100
AcDbCircle
 62
7
  6
CONTINUOUS
 10
73.8780387393
 20
153.6683651326
 40
0.8
100
AcDbArc
 50
40.6798566915
 51
139.3201433085
  0
ARC
  5
453
100
AcDbEntity
  8
0
100
AcDbCircle
 62
7
  6
CONTINUOUS
 10
76.3882678125
 20
154.7081360594
 40
0.8
100
AcDbArc
 50
85.6798566915
 51
184.3201433085
  0
ARC
  5
454
100
AcDbEntity
  8
0
100
AcDbCircle
 62
7
  6
CONTINUOUS
 10
77.4280387393
 20
157.2183651326
 40
0.8
100
AcDbArc
 50
130.6798566915
 51
229.3201433085
  0
ARC
  5
455
100
AcDbEntity
  8
0
100
AcDbCircle
 62
7
  6
CONTINUOUS
 10
76.3882678125
 20
159.7285942058
 40
0.8
100
AcDbArc
 50
175.6798566915
 51
274.3201433085
  0
ARC
  5
456
100
AcDbEntity
  8
0
100
AcDbCircle
 62
7
  6
CONTINUOUS
 10
41.1761357782
 20
130.9202680938
 40
0.5
100
AcDbArc
 50
243.1798566915
 51
26.8201433085
  0
ARC
  5
457
100
AcDbEntity
  8
0
100
AcDbCircle
 62
7
  6
CONTINUOUS
 10
38.8780387393
 20
129.9683651326
 40
0.5
100
AcDbArc
 50
198.1798566915
 51
341.8201433085
  0
ARC
  5
458
100
AcDbEntity
  8
0
100
AcDbCircle
 62
7
  6
CONTINUOUS
 10
38.8780387393
 20
136.4683651326
 40
0.5
100
AcDbArc
 50
18.1798566915
 51
161.8201433085
  0
ARC
  5
459
100
AcDbEntity
  8
0
100
AcDbCircle
 62
7
  6
CONTINUOUS
 10
41.1761357782
 20
135.5164621715
 40
0.5
100
AcDbArc
 50
333.1798566915
 51
116.8201433085
  0
ARC
  5
45A
100
AcDbEntity
  8
0
100
AcDbCircle
 62
7
  6
CONTINUOUS
 10
42.1280387393
 20
133.2183651326
 40
0.5
100
AcDbArc
 50
288.1798566915
 51
71.8201433085
  0
ARC
  5
45B
100
AcDbEntity
  8
0
100
AcDbCircle
 62
7
  6
CONTINUOUS
 10
75.1217598945
 20
160.2209736133
 40
0.5
100
AcDbArc
 50
355.6798566915
 51
139.3201433085
  0
ARC
  5
45C
100
AcDbEntity
  8
0
100
AcDbCircle
 62
7
  6
CONTINUOUS
 10
72.6343175841
 20
160.2209736133
 40
0.5
100
AcDbArc
 50
40.6798566914
 51
184.3201433085
  0
ARC
  5
45D
100
AcDbEntity
  8
0
100
AcDbCircle
 62
7
  6
CONTINUOUS
 10
70.8754302586
 20
158.4620862878
 40
0.5
100
AcDbArc
 50
85.6798566915
 51
229.3201433085
  0
ARC
  5
45E
100
AcDbEntity
  8
0
100
AcDbCircle
 62
7
  6
CONTINUOUS
 10
70.8754302586
 20
155.9746439774
 40
0.5
100
AcDbArc
 50
130.6798566914
 51
274.3201433085
  0
ARC
  5
45F
100
AcDbEntity
  8
0
100
AcDbCircle
 62
7
  6
CONTINUOUS
 10
72.6343175841
 20
154.215756652
 40
0.5
100
AcDbArc
 50
175.6798566915
 51
319.3201433085
  0
ARC
  5
460
100
AcDbEntity
  8
0
100
AcDbCircle
 62
7
  6
CONTINUOUS
 10
75.1217598945
 20
154.215756652
 40
0.5
100
AcDbArc
 50
220.6798566915
 51
4.3201433085
  0
ARC
  5
461
100
AcDbEntity
  8
0
100
AcDbCircle
 62
7
  6
CONTINUOUS
 10
76.88064722
 20
155.9746439774
 40
0.5
100
AcDbArc
 50
265.6798566915
 51
49.3201433085
  0
ARC
  5
462
100
AcDbEntity
  8
0
100
AcDbCircle
 62
7
  6
CONTINUOUS
 10
76.88064722
 20
158.4620862878
 40
0.5
100
AcDbArc
 50
310.6798566915
 51
94.3201433085
  0
ARC
  5
463
100
AcDbEntity
  8
A_RUNDUNGEN
100
AcDbCircle
 62
9
  6
CONTINUOUS
 10
38.8857473124
 20
177.089875481
 40
16.982848887
100
AcDbArc
 50
97.6843217246
 51
134.9948241382
  0
ARC
  5
464
100
AcDbEntity
  8
A_RUNDUNGEN
100
AcDbCircle
 62
7
  6
CONTINUOUS
 10
38.8780387393
 20
178.4683651326
 40
14.0
100
AcDbArc
 50
0.0
 51
31.0027191339
  0
ARC
  5
465
100
AcDbEntity
  8
A_RUNDUNGEN
100
AcDbCircle
 62
9
  6
CONTINUOUS
 10
38.8780596286
 20
177.213684165
 40
11.9057697065
100
AcDbArc
 50
82.2674653564
 51
97.7327338954
  0
ARC
  5
466
100
AcDbEntity
  8
A_RUNDUNGEN
100
AcDbCircle
 62
7
  6
CONTINUOUS
 10
38.8780387393
 20
175.2183651326
 40
11.0
100
AcDbArc
 50
0.0
 51
180.0
  0
CIRCLE
  5
467
100
AcDbEntity
  8
A_FASEN
100
AcDbCircle
 62
7
  6
CONTINUOUS
 10
38.8780387393
 20
175.2183651326
 40
8.0
  0
ARC
  5
468
100
AcDbEntity
  8
0
100
AcDbCircle
 62
2
  6
CONTINUOUS
 10
38.8780387393
 20
175.2183651326
 40
7.0
100
AcDbArc
 50
255.0
 51
195.0
  0
CIRCLE
  5
469
100
AcDbEntity
  8
A_FASEN
100
AcDbCircle
 62
7
  6
CONTINUOUS
 10
38.8780387393
 20
175.2183651326
 40
7.0
  0
CIRCLE
  5
46A
100
AcDbEntity
  8
A_ACHSEN
100
AcDbCircle
 62
7
  6
CONTINUOUS
 10
38.8780387393
 20
175.2183651326
 40
5.0
  0
CIRCLE
  5
46B
100
AcDbEntity
  8
A_FLAECHEN
100
AcDbCircle
 62
7
  6
CONTINUOUS
 10
38.8780387393
 20
175.2183651326
 40
0.5
  0
ARC
  5
46C
100
AcDbEntity
  8
0
100
AcDbCircle
 62
7
  6
CONTINUOUS
 10
38.8780387393
 20
197.2183651326
 40
12.0
100
AcDbArc
 50
0.0
 51
180.0
  0
ARC
  5
46D
100
AcDbEntity
  8
0
100
AcDbCircle
 62
9
  6
CONTINUOUS
 10
39.8780387393
 20
198.7183651326
 40
11.0
100
AcDbArc
 50
0.0
 51
39.5211963586
  0
CIRCLE
  5
46E
100
AcDbEntity
  8
A_RUNDUNGEN
100
AcDbCircle
 62
7
  6
CONTINUOUS
 10
38.8780387393
 20
197.2183651326
 40
4.0
  0
ARC
  5
46F
100
AcDbEntity
  8
0
100
AcDbCircle
 62
2
  6
CONTINUOUS
 10
38.8780387393
 20
197.2183651326
 40
3.0
100
AcDbArc
 50
255.0
 51
195.0
  0
CIRCLE
  5
470
100
AcDbEntity
  8
A_ACHSEN
100
AcDbCircle
 62
7
  6
CONTINUOUS
 10
38.8780387393
 20
197.2183651326
 40
2.5
  0
CIRCLE
  5
471
100
AcDbEntity
  8
A_ACHSEN
100
AcDbCircle
 62
8
  6
HIDDEN
 10
93.8780387393
 20
182.2183651326
 40
5.0
  0
ARC
  5
472
100
AcDbEntity
  8
A_ACHSEN
100
AcDbCircle
 62
7
  6
CONTINUOUS
 10
76.0280387393
 20
181.7183651326
 40
4.15
100
AcDbArc
 50
90.0
 51
270.0
  0
ARC
  5
473
100
AcDbEntity
  8
A_ACHSEN
100
AcDbCircle
 62
7
  6
CONTINUOUS
 10
82.7280387393
 20
181.7183651326
 40
4.15
100
AcDbArc
 50
270.0
 51
90.0
  0
ARC
  5
474
100
AcDbEntity
  8
0
100
AcDbCircle
 62
7
  6
CONTINUOUS
 10
93.8780387393
 20
185.7683651326
 40
0.8
100
AcDbArc
 50
220.6798566915
 51
319.3201433085
  0
ARC
  5
475
100
AcDbEntity
  8
0
100
AcDbCircle
 62
7
  6
CONTINUOUS
 10
91.3678096661
 20
184.7285942058
 40
0.8
100
AcDbArc
 50
265.6798566915
 51
4.3201433085
  0
ARC
  5
476
100
AcDbEntity
  8
0
100
AcDbCircle
 62
7
  6
CONTINUOUS
 10
90.3280387393
 20
182.2183651326
 40
0.8
100
AcDbArc
 50
310.6798566914
 51
49.3201433085
  0
ARC
  5
477
100
AcDbEntity
  8
0
100
AcDbCircle
 62
7
  6
CONTINUOUS
 10
91.3678096661
 20
179.7081360594
 40
0.8
100
AcDbArc
 50
355.6798566915
 51
94.3201433086
  0
ARC
  5
478
100
AcDbEntity
  8
0
100
AcDbCircle
 62
7
  6
CONTINUOUS
 10
93.8780387393
 20
178.6683651326
 40
0.8
100
AcDbArc
 50
40.6798566914
 51
139.3201433085
  0
ARC
  5
479
100
AcDbEntity
  8
0
100
AcDbCircle
 62
7
  6
CONTINUOUS
 10
96.3882678125
 20
179.7081360594
 40
0.8
100
AcDbArc
 50
85.6798566915
 51
184.3201433085
  0
ARC
  5
47A
100
AcDbEntity
  8
0
100
AcDbCircle
 62
7
  6
CONTINUOUS
 10
97.4280387393
 20
182.2183651326
 40
0.8
100
AcDbArc
 50
130.6798566915
 51
229.3201433085
  0
ARC
  5
47B
100
AcDbEntity
  8
0
100
AcDbCircle
 62
7
  6
CONTINUOUS
 10
96.3882678125
 20
184.7285942058
 40
0.8
100
AcDbArc
 50
175.6798566915
 51
274.3201433085
  0
ARC
  5
47C
100
AcDbEntity
  8
0
100
AcDbCircle
 62
7
  6
CONTINUOUS
 10
95.1217598945
 20
185.2209736133
 40
0.5
100
AcDbArc
 50
355.6798566915
 51
139.3201433085
  0
ARC
  5
47D
100
AcDbEntity
  8
0
100
AcDbCircle
 62
7
  6
CONTINUOUS
 10
92.6343175841
 20
185.2209736133
 40
0.5
100
AcDbArc
 50
40.6798566914
 51
184.3201433085
  0
ARC
  5
47E
100
AcDbEntity
  8
0
100
AcDbCircle
 62
7
  6
CONTINUOUS
 10
90.8754302586
 20
183.4620862878
 40
0.5
100
AcDbArc
 50
85.6798566914
 51
229.3201433085
  0
ARC
  5
47F
100
AcDbEntity
  8
0
100
AcDbCircle
 62
7
  6
CONTINUOUS
 10
90.8754302586
 20
180.9746439774
 40
0.5
100
AcDbArc
 50
130.6798566915
 51
274.3201433085
  0
ARC
  5
480
100
AcDbEntity
  8
0
100
AcDbCircle
 62
7
  6
CONTINUOUS
 10
92.6343175841
 20
179.215756652
 40
0.5
100
AcDbArc
 50
175.6798566915
 51
319.3201433085
  0
ARC
  5
481
100
AcDbEntity
  8
0
100
AcDbCircle
 62
7
  6
CONTINUOUS
 10
95.1217598945
 20
179.215756652
 40
0.5
100
AcDbArc
 50
220.6798566915
 51
4.3201433085
  0
ARC
  5
482
100
AcDbEntity
  8
0
100
AcDbCircle
 62
7
  6
CONTINUOUS
 10
96.88064722
 20
180.9746439774
 40
0.5
100
AcDbArc
 50
265.6798566915
 51
49.3201433086
  0
ARC
  5
483
100
AcDbEntity
  8
0
100
AcDbCircle
 62
7
  6
CONTINUOUS
 10
96.88064722
 20
183.4620862878
 40
0.5
100
AcDbArc
 50
310.6798566915
 51
94.3201433085
  0
CIRCLE
  5
484
100
AcDbEntity
  8
A_ACHSEN
100
AcDbCircle
 62
8
  6
HIDDEN
 10
88.8780387393
 20
194.7183651326
 40
5.0
  0
CIRCLE
  5
485
100
AcDbEntity
  8
A_ACHSEN
100
AcDbCircle
 62
8
  6
HIDDEN
 10
73.8780387393
 20
197.2183651326
 40
5.0
  0
ARC
  5
486
100
AcDbEntity
  8
0
100
AcDbCircle
 62
7
  6
CONTINUOUS
 10
88.8780387393
 20
198.2683651326
 40
0.8
100
AcDbArc
 50
220.6798566915
 51
319.3201433085
  0
ARC
  5
487
100
AcDbEntity
  8
0
100
AcDbCircle
 62
7
  6
CONTINUOUS
 10
86.3678096661
 20
197.2285942058
 40
0.8
100
AcDbArc
 50
265.6798566915
 51
4.3201433085
  0
ARC
  5
488
100
AcDbEntity
  8
0
100
AcDbCircle
 62
7
  6
CONTINUOUS
 10
85.3280387393
 20
194.7183651326
 40
0.8
100
AcDbArc
 50
310.6798566914
 51
49.3201433085
  0
ARC
  5
489
100
AcDbEntity
  8
0
100
AcDbCircle
 62
7
  6
CONTINUOUS
 10
86.3678096661
 20
192.2081360594
 40
0.8
100
AcDbArc
 50
355.6798566915
 51
94.3201433085
  0
ARC
  5
48A
100
AcDbEntity
  8
0
100
AcDbCircle
 62
7
  6
CONTINUOUS
 10
88.8780387393
 20
191.1683651326
 40
0.8
100
AcDbArc
 50
40.6798566915
 51
139.3201433085
  0
ARC
  5
48B
100
AcDbEntity
  8
0
100
AcDbCircle
 62
7
  6
CONTINUOUS
 10
91.3882678125
 20
192.2081360594
 40
0.8
100
AcDbArc
 50
85.6798566914
 51
184.3201433085
  0
ARC
  5
48C
100
AcDbEntity
  8
0
100
AcDbCircle
 62
7
  6
CONTINUOUS
 10
92.4280387393
 20
194.7183651326
 40
0.8
100
AcDbArc
 50
130.6798566915
 51
229.3201433085
  0
ARC
  5
48D
100
AcDbEntity
  8
0
100
AcDbCircle
 62
7
  6
CONTINUOUS
 10
91.3882678125
 20
197.2285942058
 40
0.8
100
AcDbArc
 50
175.6798566915
 51
274.3201433085
  0
ARC
  5
48E
100
AcDbEntity
  8
0
100
AcDbCircle
 62
7
  6
CONTINUOUS
 10
73.8780387393
 20
200.7683651326
 40
0.8
100
AcDbArc
 50
220.6798566914
 51
319.3201433085
  0
ARC
  5
48F
100
AcDbEntity
  8
0
100
AcDbCircle
 62
7
  6
CONTINUOUS
 10
71.3678096661
 20
199.7285942058
 40
0.8
100
AcDbArc
 50
265.6798566915
 51
4.3201433085
  0
ARC
  5
490
100
AcDbEntity
  8
0
100
AcDbCircle
 62
7
  6
CONTINUOUS
 10
70.3280387393
 20
197.2183651326
 40
0.8
100
AcDbArc
 50
310.6798566915
 51
49.3201433085
  0
ARC
  5
491
100
AcDbEntity
  8
0
100
AcDbCircle
 62
7
  6
CONTINUOUS
 10
71.3678096661
 20
194.7081360594
 40
0.8
100
AcDbArc
 50
355.6798566915
 51
94.3201433085
  0
ARC
  5
492
100
AcDbEntity
  8
0
100
AcDbCircle
 62
7
  6
CONTINUOUS
 10
73.8780387393
 20
193.6683651326
 40
0.8
100
AcDbArc
 50
40.6798566915
 51
139.3201433085
  0
ARC
  5
493
100
AcDbEntity
  8
0
100
AcDbCircle
 62
7
  6
CONTINUOUS
 10
76.3882678125
 20
194.7081360594
 40
0.8
100
AcDbArc
 50
85.6798566915
 51
184.3201433085
  0
ARC
  5
494
100
AcDbEntity
  8
0
100
AcDbCircle
 62
7
  6
CONTINUOUS
 10
77.4280387393
 20
197.2183651326
 40
0.8
100
AcDbArc
 50
130.6798566915
 51
229.3201433085
  0
ARC
  5
495
100
AcDbEntity
  8
0
100
AcDbCircle
 62
7
  6
CONTINUOUS
 10
76.3882678125
 20
199.7285942058
 40
0.8
100
AcDbArc
 50
175.6798566915
 51
274.3201433085
  0
ARC
  5
496
100
AcDbEntity
  8
0
100
AcDbCircle
 62
7
  6
CONTINUOUS
 10
90.1217598945
 20
197.7209736133
 40
0.5
100
AcDbArc
 50
355.6798566915
 51
139.3201433085
  0
ARC
  5
497
100
AcDbEntity
  8
0
100
AcDbCircle
 62
7
  6
CONTINUOUS
 10
87.6343175841
 20
197.7209736133
 40
0.5
100
AcDbArc
 50
40.6798566914
 51
184.3201433085
  0
ARC
  5
498
100
AcDbEntity
  8
0
100
AcDbCircle
 62
7
  6
CONTINUOUS
 10
85.8754302586
 20
195.9620862878
 40
0.5
100
AcDbArc
 50
85.6798566915
 51
229.3201433085
  0
ARC
  5
499
100
AcDbEntity
  8
0
100
AcDbCircle
 62
7
  6
CONTINUOUS
 10
85.8754302586
 20
193.4746439774
 40
0.5
100
AcDbArc
 50
130.6798566915
 51
274.3201433085
  0
ARC
  5
49A
100
AcDbEntity
  8
0
100
AcDbCircle
 62
7
  6
CONTINUOUS
 10
87.6343175841
 20
191.715756652
 40
0.5
100
AcDbArc
 50
175.6798566915
 51
319.3201433085
  0
ARC
  5
49B
100
AcDbEntity
  8
0
100
AcDbCircle
 62
7
  6
CONTINUOUS
 10
90.1217598945
 20
191.715756652
 40
0.5
100
AcDbArc
 50
220.6798566914
 51
4.3201433085
  0
ARC
  5
49C
100
AcDbEntity
  8
0
100
AcDbCircle
 62
7
  6
CONTINUOUS
 10
91.88064722
 20
193.4746439774
 40
0.5
100
AcDbArc
 50
265.6798566915
 51
49.3201433085
  0
ARC
  5
49D
100
AcDbEntity
  8
0
100
AcDbCircle
 62
7
  6
CONTINUOUS
 10
91.88064722
 20
195.9620862878
 40
0.5
100
AcDbArc
 50
310.6798566915
 51
94.3201433085
  0
ARC
  5
49E
100
AcDbEntity
  8
0
100
AcDbCircle
 62
7
  6
CONTINUOUS
 10
75.1217598945
 20
200.2209736133
 40
0.5
100
AcDbArc
 50
355.6798566915
 51
139.3201433085
  0
ARC
  5
49F
100
AcDbEntity
  8
0
100
AcDbCircle
 62
7
  6
CONTINUOUS
 10
72.6343175841
 20
200.2209736133
 40
0.5
100
AcDbArc
 50
40.6798566914
 51
184.3201433085
  0
ARC
  5
4A0
100
AcDbEntity
  8
0
100
AcDbCircle
 62
7
  6
CONTINUOUS
 10
70.8754302586
 20
198.4620862878
 40
0.5
100
AcDbArc
 50
85.6798566914
 51
229.3201433085
  0
ARC
  5
4A1
100
AcDbEntity
  8
0
100
AcDbCircle
 62
7
  6
CONTINUOUS
 10
70.8754302586
 20
195.9746439774
 40
0.5
100
AcDbArc
 50
130.6798566915
 51
274.3201433086
  0
ARC
  5
4A2
100
AcDbEntity
  8
0
100
AcDbCircle
 62
7
  6
CONTINUOUS
 10
72.6343175841
 20
194.215756652
 40
0.5
100
AcDbArc
 50
175.6798566915
 51
319.3201433086
  0
ARC
  5
4A3
100
AcDbEntity
  8
0
100
AcDbCircle
 62
7
  6
CONTINUOUS
 10
75.1217598945
 20
194.215756652
 40
0.5
100
AcDbArc
 50
220.6798566914
 51
4.3201433085
  0
ARC
  5
4A4
100
AcDbEntity
  8
0
100
AcDbCircle
 62
7
  6
CONTINUOUS
 10
76.88064722
 20
195.9746439774
 40
0.5
100
AcDbArc
 50
265.6798566915
 51
49.3201433086
  0
ARC
  5
4A5
100
AcDbEntity
  8
0
100
AcDbCircle
 62
7
  6
CONTINUOUS
 10
76.88064722
 20
198.4620862878
 40
0.5
100
AcDbArc
 50
310.6798566915
 51
94.3201433086
  0
ARC
  5
4A6
100
AcDbEntity
  8
A_RUNDUNGEN
100
AcDbCircle
 62
7
  6
CONTINUOUS
 10
783.1327605242
 20
222.2131903679
 40
756.5004010397
100
AcDbArc
 50
182.8798466573
 51
183.0412210748
  0
SPLINE
  5
4A7
100
AcDbEntity
  8
A_RUNDUNGEN
100
AcDbSpline
 62
7
  6
CONTINUOUS
 70
0
 71
3
 72
14
 73
10
 74
0
 42
0.0000001
 43
0.0000001
 44
0.0000000001
 40
0.0
 40
0.0
 40
0.0
 40
0.0
 40
0.0357385392
 40
0.1038430488
 40
0.2025229791
 40
0.3278882961
 40
0.4754958773
 40
0.6405033933
 40
1.0
 40
1.0
 40
1.0
 40
1.0
 10
27.4619574689
 20
54.599716851
 30
0.0
 10
27.461064685
 20
54.5934676405
 30
0.0
 10
27.4482399374
 20
54.5785278647
 30
0.0
 10
27.4237901407
 20
54.5536568764
 30
0.0
 10
27.3838349273
 20
54.520230668
 30
0.0
 10
27.3322219502
 20
54.4799439823
 30
0.0
 10
27.269725597
 20
54.4342233981
 30
0.0
 10
27.1724537283
 20
54.3661985012
 30
0.0
 10
27.0950759186
 20
54.3151895425
 30
0.0
 10
27.0415898875
 20
54.2809633165
 30
0.0
  0
SPLINE
  5
4A8
100
AcDbEntity
  8
A_RUNDUNGEN
100
AcDbSpline
 62
7
  6
CONTINUOUS
 70
0
 71
3
 72
14
 73
10
 74
0
 42
0.0000001
 43
0.0000001
 44
0.0000000001
 40
0.0
 40
0.0
 40
0.0
 40
0.0
 40
0.3459821051
 40
0.5071420556
 40
0.6538066212
 40
0.7813913034
 40
0.8847564511
 40
0.9587926463
 40
1.0
 40
1.0
 40
1.0
 40
1.0
 10
50.5385555711
 20
53.7956066217
 30
0.0
 10
50.4917385367
 20
53.8424238566
 30
0.0
 10
50.4241712376
 20
53.9121343659
 30
0.0
 10
50.3395649962
 20
54.0042927174
 30
0.0
 10
50.2844628843
 20
54.0668618112
 30
0.0
 10
50.2383491061
 20
54.1223489895
 30
0.0
 10
50.202297734
 20
54.1686964817
 30
0.0
 10
50.1798921475
 20
54.2032502654
 30
0.0
 10
50.168723552
 20
54.223488928
 30
0.0
 10
50.1683268853
 20
54.2313646572
 30
0.0
  0
SPLINE
  5
4A9
100
AcDbEntity
  8
A_RUNDUNGEN
100
AcDbSpline
 62
7
  6
CONTINUOUS
 70
0
 71
3
 72
14
 73
10
 74
0
 42
0.0000001
 43
0.0000001
 44
0.0000000001
 40
0.0
 40
0.0
 40
0.0
 40
0.0
 40
0.0412145988
 40
0.1152534665
 40
0.2186132129
 40
0.3461942962
 40
0.4928555492
 40
0.6540137412
 40
1.0
 40
1.0
 40
1.0
 40
1.0
 10
50.1683268854
 20
184.2053656082
 30
0.0
 10
50.1687236374
 20
184.2132427236
 30
0.0
 10
50.1798950313
 20
184.233482379
 30
0.0
 10
50.2022975272
 20
184.2680389272
 30
0.0
 10
50.2383494555
 20
184.3143847814
 30
0.0
 10
50.2844629579
 20
184.3698690216
 30
0.0
 10
50.3395640292
 20
184.4324368765
 30
0.0
 10
50.4241700564
 20
184.5245952279
 30
0.0
 10
50.4917380381
 20
184.5943057563
 30
0.0
 10
50.5385555711
 20
184.6411236435
 30
0.0
  0
SPLINE
  5
4AA
100
AcDbEntity
  8
A_RUNDUNGEN
100
AcDbSpline
 62
7
  6
CONTINUOUS
 70
0
 71
3
 72
14
 73
10
 74
0
 42
0.0000001
 43
0.0000001
 44
0.0000000001
 40
0.0
 40
0.0
 40
0.0
 40
0.0
 40
0.3459664813
 40
0.5071190936
 40
0.6537672888
 40
0.7813199786
 40
0.8846735212
 40
0.9587570102
 40
1.0
 40
1.0
 40
1.0
 40
1.0
 10
27.2175219075
 20
184.6411236435
 30
0.0
 10
27.2643366798
 20
184.5943088702
 30
0.0
 10
27.3318999622
 20
184.524601249
 30
0.0
 10
27.4164999331
 20
184.4324483519
 30
0.0
 10
27.4715944325
 20
184.3698871314
 30
0.0
 10
27.5176981036
 20
184.3144075031
 30
0.0
 10
27.553749507
 20
184.2680580227
 30
0.0
 10
27.5761598878
 20
184.2334951931
 30
0.0
 10
27.5873541839
 20
184.2132481349
 30
0.0
 10
27.5877505941
 20
184.2053656064
 30
0.0
  0
SPLINE
  5
4AB
100
AcDbEntity
  8
A_RUNDUNGEN
100
AcDbSpline
 62
7
  6
CONTINUOUS
 70
0
 71
3
 72
15
 73
11
 74
0
 42
0.0000001
 43
0.0000001
 44
0.0000000001
 40
0.0
 40
0.0
 40
0.0
 40
0.0
 40
0.018513535
 40
0.043122331
 40
0.1115562182
 40
0.2055137654
 40
0.3236801247
 40
0.4643413529
 40
0.6255437864
 40
1.0
 40
1.0
 40
1.0
 40
1.0
 10
49.2441832191
 20
55.319305877
 30
0.0
 10
49.2441824087
 20
55.302330302
 30
0.0
 10
49.251219348
 20
55.2629380795
 30
0.0
 10
49.2852345598
 20
55.1663653209
 30
0.0
 10
49.3664089901
 20
55.0144574834
 30
0.0
 10
49.5057353186
 20
54.79826092
 30
0.0
 10
49.695244313
 20
54.535884176
 30
0.0
 10
49.9315728396
 20
54.2317455879
 30
0.0
 10
50.3249233341
 20
53.7522443371
 30
0.0
 10
50.64850457
 20
53.3825585918
 30
0.0
 10
50.8780387393
 20
53.1272101709
 30
0.0
  0
SPLINE
  5
4AC
100
AcDbEntity
  8
A_RUNDUNGEN
100
AcDbSpline
 62
9
  6
CONTINUOUS
 70
0
 71
3
 72
11
 73
7
 74
0
 42
0.0000001
 43
0.0000001
 44
0.0000000001
 40
0.0
 40
0.0
 40
0.0
 40
0.0
 40
0.2501135692
 40
0.5001594135
 40
0.7501230711
 40
1.0
 40
1.0
 40
1.0
 40
1.0
 10
40.479967544
 20
189.0111936947
 30
0.0
 10
41.3815135411
 20
188.8888614704
 30
0.0
 10
43.1627979062
 20
188.4347407574
 30
0.0
 10
45.6047039432
 20
187.1664349874
 30
0.0
 10
47.6966933761
 20
185.3805536097
 30
0.0
 10
48.7889684715
 20
183.9041908764
 30
0.0
 10
49.244177178
 20
183.1174445313
 30
0.0
  0
SPLINE
  5
4AD
100
AcDbEntity
  8
A_RUNDUNGEN
100
AcDbSpline
 62
7
  6
CONTINUOUS
 70
0
 71
3
 72
15
 73
11
 74
0
 42
0.0000001
 43
0.0000001
 44
0.0000000001
 40
0.0
 40
0.0
 40
0.0
 40
0.0
 40
0.3744511836
 40
0.5356520664
 40
0.6763124117
 40
0.7944787038
 40
0.8884380408
 40
0.956875802
 40
0.9814860795
 40
1.0
 40
1.0
 40
1.0
 40
1.0
 10
50.8780387393
 20
185.3095201659
 30
0.0
 10
50.6485103901
 20
185.0541782824
 30
0.0
 10
50.3249369571
 20
184.6845016106
 30
0.0
 10
49.931595066
 20
184.2050118294
 30
0.0
 10
49.6952702802
 20
183.9008791301
 30
0.0
 10
49.5057623171
 20
183.6385055013
 30
0.0
 10
49.366433669
 20
183.4223080838
 30
0.0
 10
49.2852535654
 20
183.2703983074
 30
0.0
 10
49.2512330295
 20
183.1738232981
 30
0.0
 10
49.244194135
 20
183.1344299944
 30
0.0
 10
49.2441949477
 20
183.1174542706
 30
0.0
  0
SPLINE
  5
4AE
100
AcDbEntity
  8
A_RUNDUNGEN
100
AcDbSpline
 62
9
  6
CONTINUOUS
 70
0
 71
3
 72
11
 73
7
 74
0
 42
0.0000001
 43
0.0000001
 44
0.0000000001
 40
0.0
 40
0.0
 40
0.0
 40
0.0
 40
0.2498773682
 40
0.4998411863
 40
0.7498868156
 40
1.0
 40
1.0
 40
1.0
 40
1.0
 10
28.5119097677
 20
183.1174391484
 30
0.0
 10
28.9671186049
 20
183.9041872954
 30
0.0
 10
30.0593808906
 20
185.3805617369
 30
0.0
 10
32.151372635
 20
187.1664465822
 30
0.0
 10
34.5932834658
 20
188.4347390035
 30
0.0
 10
36.3745657881
 20
188.8888580017
 30
0.0
 10
37.2761107617
 20
189.0111875633
 30
0.0
  0
SPLINE
  5
4AF
100
AcDbEntity
  8
A_RUNDUNGEN
100
AcDbSpline
 62
7
  6
CONTINUOUS
 70
0
 71
3
 72
15
 73
11
 74
0
 42
0.0000001
 43
0.0000001
 44
0.0000000001
 40
0.0
 40
0.0
 40
0.0
 40
0.0
 40
0.0185135686
 40
0.0431224298
 40
0.1115564611
 40
0.2055140672
 40
0.3236804179
 40
0.4643416117
 40
0.6255439851
 40
1.0
 40
1.0
 40
1.0
 40
1.0
 10
28.5118940892
 20
183.1174248223
 30
0.0
 10
28.5118948794
 20
183.1344004247
 30
0.0
 10
28.5048578474
 20
183.1737927179
 30
0.0
 10
28.4708424202
 20
183.2703656108
 30
0.0
 10
28.3896677806
 20
183.4222735705
 30
0.0
 10
28.2503413559
 20
183.6384702223
 30
0.0
 10
28.0608323801
 20
183.9008469181
 30
0.0
 10
27.8245039553
 20
184.2049853687
 30
0.0
 10
27.4311537189
 20
184.6844863239
 30
0.0
 10
27.107572726
 20
185.0541718365
 30
0.0
 10
26.8780387393
 20
185.3095200848
 30
0.0
  0
SPLINE
  5
4B0
100
AcDbEntity
  8
A_RUNDUNGEN
100
AcDbSpline
 62
9
  6
CONTINUOUS
 70
0
 71
3
 72
15
 73
11
 74
0
 42
0.0000001
 43
0.0000001
 44
0.0000000001
 40
0.0
 40
0.0
 40
0.0
 40
0.0
 40
0.1250061232
 40
0.2499994838
 40
0.3750000907
 40
0.5000003484
 40
0.6250005259
 40
0.7500008509
 40
0.8749948959
 40
1.0
 40
1.0
 40
1.0
 40
1.0
 10
48.90224239
 20
57.5152531362
 30
0.0
 10
48.4064119042
 20
56.6336617546
 30
0.0
 10
47.1742698518
 20
54.9942018907
 30
0.0
 10
44.7524781558
 20
53.1103104449
 30
0.0
 10
41.9209769963
 20
51.9235282937
 30
0.0
 10
38.8779960078
 20
51.5189613003
 30
0.0
 10
35.834990914
 20
51.9235364114
 30
0.0
 10
33.003585646
 20
53.1104215536
 30
0.0
 10
30.5814998721
 20
54.9940565773
 30
0.0
 10
29.34998382
 20
56.6339881292
 30
0.0
 10
28.8541502925
 20
57.51556834
 30
0.0
  0
SPLINE
  5
4B1
100
AcDbEntity
  8
A_RUNDUNGEN
100
AcDbSpline
 62
7
  6
CONTINUOUS
 70
0
 71
3
 72
14
 73
10
 74
0
 42
0.0000001
 43
0.0000001
 44
0.0000000001
 40
0.0
 40
0.0
 40
0.0
 40
0.0
 40
0.3546160634
 40
0.5180263871
 40
0.6648971666
 40
0.7904857553
 40
0.8904167458
 40
0.9608504964
 40
1.0
 40
1.0
 40
1.0
 40
1.0
 10
48.902256822
 20
57.5152387041
 30
0.0
 10
48.9468651596
 20
57.4706303666
 30
0.0
 10
49.0109729537
 20
57.4043785081
 30
0.0
 10
49.0906781115
 20
57.3169958192
 30
0.0
 10
49.1416562932
 20
57.2585003155
 30
0.0
 10
49.1835315643
 20
57.2073076499
 30
0.0
 10
49.2155288047
 20
57.1650701951
 30
0.0
 10
49.234958135
 20
57.1339745807
 30
0.0
 10
49.2441950785
 20
57.1156676804
 30
0.0
 10
49.2441949477
 20
57.1087030368
 30
0.0
  0
SPLINE
  5
4B2
100
AcDbEntity
  8
A_RUNDUNGEN
100
AcDbSpline
 62
9
  6
CONTINUOUS
 70
0
 71
3
 72
15
 73
11
 74
0
 42
0.0000001
 43
0.0000001
 44
0.0000000001
 40
0.0
 40
0.0
 40
0.0
 40
0.0
 40
0.1250063148
 40
0.2499972853
 40
0.3749994834
 40
0.4999999992
 40
0.6250005154
 40
0.7500027092
 40
0.8749936881
 40
1.0
 40
1.0
 40
1.0
 40
1.0
 10
49.2441947755
 20
57.1087029151
 30
0.0
 10
48.7200526377
 20
56.2106246447
 30
0.0
 10
47.4304353217
 20
54.5437062154
 30
0.0
 10
44.9220069873
 20
52.6329321738
 30
0.0
 10
42.0046858045
 20
51.4311517924
 30
0.0
 10
38.8765219284
 20
51.0219409824
 30
0.0
 10
35.7484600751
 20
51.4319330607
 30
0.0
 10
32.8314402015
 20
52.634443254
 30
0.0
 10
30.3234863978
 20
54.5458420605
 30
0.0
 10
29.0342928302
 20
56.213087243
 30
0.0
 10
28.5103712716
 20
57.1112941857
 30
0.0
  0
SPLINE
  5
4B3
100
AcDbEntity
  8
A_RUNDUNGEN
100
AcDbSpline
 62
7
  6
CONTINUOUS
 70
0
 71
3
 72
14
 73
10
 74
0
 42
0.0000001
 43
0.0000001
 44
0.0000000001
 40
0.0
 40
0.0
 40
0.0
 40
0.0
 40
0.0384719472
 40
0.1085469029
 40
0.2083591556
 40
0.3340119571
 40
0.4810726482
 40
0.6447575895
 40
1.0
 40
1.0
 40
1.0
 40
1.0
 10
28.5103712716
 20
57.1112941857
 30
0.0
 10
28.5105380867
 20
57.1181193503
 30
0.0
 10
28.520136271
 20
57.1359560352
 30
0.0
 10
28.5398096402
 20
57.1665331216
 30
0.0
 10
28.5721191132
 20
57.2082762553
 30
0.0
 10
28.6142268338
 20
57.2590912946
 30
0.0
 10
28.6653665487
 20
57.3173147798
 30
0.0
 10
28.7451801966
 20
57.4044627433
 30
0.0
 10
28.8092429853
 20
57.4706610328
 30
0.0
 10
28.8538197403
 20
57.5152377878
 30
0.0
  0
SPLINE
  5
4B4
100
AcDbEntity
  8
A_RUNDUNGEN
100
AcDbSpline
 62
9
  6
CONTINUOUS
 70
0
 71
3
 72
15
 73
11
 74
0
 42
0.0000001
 43
0.0000001
 44
0.0000000001
 40
0.0
 40
0.0
 40
0.0
 40
0.0
 40
0.125006141
 40
0.2499995043
 40
0.3750001132
 40
0.5000003707
 40
0.6250005477
 40
0.7500008766
 40
0.8749948819
 40
1.0
 40
1.0
 40
1.0
 40
1.0
 10
28.8538259024
 20
180.9214863153
 30
0.0
 10
29.3496657718
 20
181.803072424
 30
0.0
 10
30.5818059509
 20
183.4425308743
 30
0.0
 10
33.0035978887
 20
185.3264232304
 30
0.0
 10
35.8350991678
 20
186.513203602
 30
0.0
 10
38.878080257
 20
186.9177691764
 30
0.0
 10
41.9210836948
 20
186.5131916915
 30
0.0
 10
44.7524916631
 20
185.3263091699
 30
0.0
 10
47.1745632996
 20
183.4426640495
 30
0.0
 10
48.4061077093
 20
181.8027521813
 30
0.0
 10
48.9019321549
 20
180.921166894
 30
0.0
  0
SPLINE
  5
4B5
100
AcDbEntity
  8
A_RUNDUNGEN
100
AcDbSpline
 62
7
  6
CONTINUOUS
 70
0
 71
3
 72
14
 73
10
 74
0
 42
0.0000001
 43
0.0000001
 44
0.0000000001
 40
0.0
 40
0.0
 40
0.0
 40
0.0
 40
0.3546163786
 40
0.5180267732
 40
0.664897345
 40
0.7904853567
 40
0.890416089
 40
0.9608504198
 40
1.0
 40
1.0
 40
1.0
 40
1.0
 10
28.8538195061
 20
180.9214927117
 30
0.0
 10
28.8092112656
 20
180.9661009521
 30
0.0
 10
28.7451036233
 20
181.032352662
 30
0.0
 10
28.6653987099
 20
181.1197351221
 30
0.0
 10
28.6144207819
 20
181.1782303727
 30
0.0
 10
28.5725458303
 20
181.2294227727
 30
0.0
 10
28.5405487126
 20
181.2716601262
 30
0.0
 10
28.5211195289
 20
181.3027556409
 30
0.0
 10
28.5118822286
 20
181.3210625926
 30
0.0
 10
28.5118825309
 20
181.3280272284
 30
0.0
  0
SPLINE
  5
4B6
100
AcDbEntity
  8
A_RUNDUNGEN
100
AcDbSpline
 62
9
  6
CONTINUOUS
 70
0
 71
3
 72
15
 73
11
 74
0
 42
0.0000001
 43
0.0000001
 44
0.0000000001
 40
0.0
 40
0.0
 40
0.0
 40
0.0
 40
0.1250063101
 40
0.2499972949
 40
0.3749994871
 40
0.5000000035
 40
0.6250005188
 40
0.7500027176
 40
0.8749936866
 40
1.0
 40
1.0
 40
1.0
 40
1.0
 10
28.5118834279
 20
181.3280272118
 30
0.0
 10
29.0359688931
 20
182.2259949825
 30
0.0
 10
30.3253930582
 20
183.8927352571
 30
0.0
 10
32.8334306198
 20
185.8033910831
 30
0.0
 10
35.7503009641
 20
187.0052537887
 30
0.0
 10
38.8780391075
 20
187.4147563736
 30
0.0
 10
42.0057767366
 20
187.0052535506
 30
0.0
 10
44.922648755
 20
185.8033924132
 30
0.0
 10
47.4306805599
 20
183.8927324489
 30
0.0
 10
48.7201166437
 20
182.2259996237
 30
0.0
 10
49.2441948335
 20
181.3280275752
 30
0.0
  0
SPLINE
  5
4B7
100
AcDbEntity
  8
A_RUNDUNGEN
100
AcDbSpline
 62
7
  6
CONTINUOUS
 70
0
 71
3
 72
14
 73
10
 74
0
 42
0.0000001
 43
0.0000001
 44
0.0000000001
 40
0.0
 40
0.0
 40
0.0
 40
0.0
 40
0.0391536655
 40
0.1095910008
 40
0.2095203614
 40
0.3351065836
 40
0.4819751587
 40
0.6453841311
 40
1.0
 40
1.0
 40
1.0
 40
1.0
 10
49.2441949477
 20
181.3280272284
 30
0.0
 10
49.2441951378
 20
181.3210618403
 30
0.0
 10
49.2349559768
 20
181.302754117
 30
0.0
 10
49.2155272179
 20
181.2716571808
 30
0.0
 10
49.1835296333
 20
181.229419836
 30
0.0
 10
49.1416547522
 20
181.1782283049
 30
0.0
 10
49.0906772079
 20
181.1197335593
 30
0.0
 10
49.0109725231
 20
181.0323512552
 30
0.0
 10
48.946864845
 20
180.9660995842
 30
0.0
 10
48.9022565051
 20
180.9214912442
 30
0.0
  0
SPLINE
  5
4B8
100
AcDbEntity
  8
A_RUNDUNGEN
100
AcDbSpline
 62
9
  6
CONTINUOUS
 70
0
 71
3
 72
11
 73
7
 74
0
 42
0.0000001
 43
0.0000001
 44
0.0000000001
 40
0.0
 40
0.0
 40
0.0
 40
0.0
 40
0.2501149195
 40
0.5001622221
 40
0.7501258672
 40
1.0
 40
1.0
 40
1.0
 40
1.0
 10
37.5537922992
 20
49.3911725199
 30
0.0
 10
36.6185366401
 20
49.4957765118
 30
0.0
 10
34.7658361943
 20
49.9297278962
 30
0.0
 10
32.2235210489
 20
51.2132224477
 30
0.0
 10
30.0516466388
 20
53.0536917693
 30
0.0
 10
28.9275107984
 20
54.5866267993
 30
0.0
 10
28.4632449033
 20
55.4041828605
 30
0.0
  0
SPLINE
  5
4B9
100
AcDbEntity
  8
A_RUNDUNGEN
100
AcDbSpline
 62
7
  6
CONTINUOUS
 70
0
 71
3
 72
9
 73
5
 74
0
 42
0.0000001
 43
0.0000001
 44
0.0000000001
 40
0.0
 40
0.0
 40
0.0
 40
0.0
 40
0.2618327391
 40
1.0
 40
1.0
 40
1.0
 40
1.0
 10
27.1419683219
 20
54.1678827194
 30
0.0
 10
27.176947665
 20
54.1922212299
 30
0.0
 10
27.3101516584
 20
54.2857330922
 30
0.0
 10
27.4417653056
 20
54.3815267315
 30
0.0
 10
27.5376745866
 20
54.4538762218
 30
0.0
  0
SPLINE
  5
4BA
100
AcDbEntity
  8
A_RUNDUNGEN
100
AcDbSpline
 62
7
  6
CONTINUOUS
 70
0
 71
3
 72
12
 73
8
 74
0
 42
0.0000001
 43
0.0000001
 44
0.0000000001
 40
0.0
 40
0.0
 40
0.0
 40
0.0
 40
0.3792314609
 40
0.6743417406
 40
0.8805869304
 40
0.9504753872
 40
1.0
 40
1.0
 40
1.0
 40
1.0
 10
27.567868172
 20
54.4767405723
 30
0.0
 10
27.6993267309
 20
54.5766755704
 30
0.0
 10
27.9292873926
 20
54.7599349316
 30
0.0
 10
28.2105030167
 20
55.0202928174
 30
0.0
 10
28.3758340605
 20
55.2087818098
 30
0.0
 10
28.4467031681
 20
55.3316980073
 30
0.0
 10
28.4625746036
 20
55.3826284419
 30
0.0
 10
28.4632449033
 20
55.4041828605
 30
0.0
  0
SPLINE
  5
4BB
100
AcDbEntity
  8
A_RUNDUNGEN
100
AcDbSpline
 62
9
  6
CONTINUOUS
 70
0
 71
3
 72
11
 73
7
 74
0
 42
0.0000001
 43
0.0000001
 44
0.0000000001
 40
0.0
 40
0.0
 40
0.0
 40
0.0
 40
0.2498755825
 40
0.4998397765
 40
0.749886533
 40
1.0
 40
1.0
 40
1.0
 40
1.0
 10
49.2441673152
 20
55.3192914074
 30
0.0
 10
48.7773674818
 20
54.5125115787
 30
0.0
 10
47.6523672837
 20
53.0009762249
 30
0.0
 10
45.4902563346
 20
51.1876045203
 30
0.0
 10
42.9663156994
 20
49.9231289362
 30
0.0
 10
41.1294834852
 20
49.4948743621
 30
0.0
 10
40.2022852091
 20
49.3911722499
 30
0.0
  0
ELLIPSE
  5
4BC
100
AcDbEntity
  8
0
100
AcDbEllipse
 62
7
  6
CONTINUOUS
 10
38.8780387393
 20
60.7183651326
 30
0.0
 11
12.0
 21
0.0
 31
0.0
 40
1.0
 41
-3.1415926536
 42
-2.7698254046
  0
ELLIPSE
  5
4BD
100
AcDbEntity
  8
0
100
AcDbEllipse
 62
7
  6
CONTINUOUS
 10
38.8780387393
 20
177.7183651326
 30
0.0
 11
12.0
 21
0.0
 31
0.0
 40
1.0
 41
2.7698254046
 42
3.1415926536
  0
ELLIPSE
  5
4BE
100
AcDbEntity
  8
0
100
AcDbEllipse
 62
7
  6
CONTINUOUS
 10
38.8780387393
 20
177.7183651326
 30
0.0
 11
12.0
 21
0.0
 31
0.0
 40
1.0
 41
0.0
 42
0.371767249
  0
ELLIPSE
  5
4BF
100
AcDbEntity
  8
0
100
AcDbEllipse
 62
7
  6
CONTINUOUS
 10
38.8780387393
 20
60.7183651326
 30
0.0
 11
12.0
 21
0.0
 31
0.0
 40
1.0
 41
-0.371767249
 42
-0.0
  0
ENDSEC
  0
SECTION
  2
OBJECTS
  0
DICTIONARY
  5
4C0
100
AcDbDictionary
  3
ACAD_GROUP
350
4C1
  3
ACAD_MLINESTYLE
350
4C2
  0
DICTIONARY
  5
4C1
102
{ACAD_REACTORS
330
4C0
102
}
100
AcDbDictionary
  0
DICTIONARY
  5
4C2
102
{ACAD_REACTORS
330
4C0
102
}
100
AcDbDictionary
  3
STANDARD
350
4C3
  0
MLINESTYLE
  5
4C3
102
{ACAD_REACTORS
330
4C2
102
}
100
AcDbMlineStyle
  2
STANDARD
 70
0
  3

 62
256
 51
90.0
 52
90.0
 71
2
 49
0.5
 62
256
  6
BYLAYER
 49
-0.5
 62
256
  6
BYLAYER
  0
ENDSEC
  0
EOF
