  0
SECTION
  2
HEADER
  9
$ACADVER
  1
AC1018
  9
$ACADMAINTVER
 70
     0
  9
$DWGCODEPAGE
  3
ANSI_1252
  9
$INSBASE
 10
0.0
 20
0.0
 30
0.0
  9
$EXTMIN
 10
60.69197630274479
 20
110.220604648152
 30
0.0
  9
$EXTMAX
 10
195.70782185843
 20
240.689573868869
 30
0.0
  9
$LIMMIN
 10
0.0
 20
0.0
  9
$LIMMAX
 10
12.0
 20
9.0
  9
$ORTHOMODE
 70
     0
  9
$REGENMODE
 70
     1
  9
$FILLMODE
 70
     1
  9
$QTEXTMODE
 70
     0
  9
$MIRRTEXT
 70
     1
  9
$LTSCALE
 40
1.0
  9
$ATTMODE
 70
     1
  9
$TEXTSIZE
 40
0.2
  9
$TRACEWID
 40
0.05
  9
$TEXTSTYLE
  7
Standard
  9
$CLAYER
  8
0
  9
$CELTYPE
  6
ByLayer
  9
$CECOLOR
 62
   256
  9
$CELTSCALE
 40
1.0
  9
$DISPSILH
 70
     0
  9
$DIMSCALE
 40
1.0
  9
$DIMASZ
 40
0.18
  9
$DIMEXO
 40
0.0625
  9
$DIMDLI
 40
0.38
  9
$DIMRND
 40
0.0
  9
$DIMDLE
 40
0.0
  9
$DIMEXE
 40
0.18
  9
$DIMTP
 40
0.0
  9
$DIMTM
 40
0.0
  9
$DIMTXT
 40
0.18
  9
$DIMCEN
 40
0.09
  9
$DIMTSZ
 40
0.0
  9
$DIMTOL
 70
     0
  9
$DIMLIM
 70
     0
  9
$DIMTIH
 70
     1
  9
$DIMTOH
 70
     1
  9
$DIMSE1
 70
     0
  9
$DIMSE2
 70
     0
  9
$DIMTAD
 70
     0
  9
$DIMZIN
 70
     0
  9
$DIMBLK
  1

  9
$DIMASO
 70
     1
  9
$DIMSHO
 70
     1
  9
$DIMPOST
  1

  9
$DIMAPOST
  1

  9
$DIMALT
 70
     0
  9
$DIMALTD
 70
     2
  9
$DIMALTF
 40
25.4
  9
$DIMLFAC
 40
1.0
  9
$DIMTOFL
 70
     0
  9
$DIMTVP
 40
0.0
  9
$DIMTIX
 70
     0
  9
$DIMSOXD
 70
     0
  9
$DIMSAH
 70
     0
  9
$DIMBLK1
  1

  9
$DIMBLK2
  1

  9
$DIMSTYLE
  2
Standard
  9
$DIMCLRD
 70
     0
  9
$DIMCLRE
 70
     0
  9
$DIMCLRT
 70
     0
  9
$DIMTFAC
 40
1.0
  9
$DIMGAP
 40
0.09
  9
$DIMJUST
 70
     0
  9
$DIMSD1
 70
     0
  9
$DIMSD2
 70
     0
  9
$DIMTOLJ
 70
     1
  9
$DIMTZIN
 70
     0
  9
$DIMALTZ
 70
     0
  9
$DIMALTTZ
 70
     0
  9
$DIMUPT
 70
     0
  9
$DIMDEC
 70
     4
  9
$DIMTDEC
 70
     4
  9
$DIMALTU
 70
     2
  9
$DIMALTTD
 70
     2
  9
$DIMTXSTY
  7
Standard
  9
$DIMAUNIT
 70
     0
  9
$DIMADEC
 70
     0
  9
$DIMALTRND
 40
0.0
  9
$DIMAZIN
 70
     0
  9
$DIMDSEP
 70
    46
  9
$DIMATFIT
 70
     3
  9
$DIMFRAC
 70
     0
  9
$DIMLDRBLK
  1

  9
$DIMLUNIT
 70
     2
  9
$DIMLWD
 70
    -2
  9
$DIMLWE
 70
    -2
  9
$DIMTMOVE
 70
     0
  9
$LUNITS
 70
     2
  9
$LUPREC
 70
     4
  9
$SKETCHINC
 40
0.1
  9
$FILLETRAD
 40
0.5
  9
$AUNITS
 70
     0
  9
$AUPREC
 70
     0
  9
$MENU
  1
.
  9
$ELEVATION
 40
0.0
  9
$PELEVATION
 40
0.0
  9
$THICKNESS
 40
0.0
  9
$LIMCHECK
 70
     0
  9
$CHAMFERA
 40
0.5
  9
$CHAMFERB
 40
0.5
  9
$CHAMFERC
 40
1.0
  9
$CHAMFERD
 40
0.0
  9
$SKPOLY
 70
     0
  9
$TDCREATE
 40
2454483.383672778
  9
$TDUCREATE
 40
2454483.342006111
  9
$TDUPDATE
 40
2454483.383672789
  9
$TDUUPDATE
 40
2454483.342006123
  9
$TDINDWG
 40
0.0000000116
  9
$TDUSRTIMER
 40
0.0000000116
  9
$USRTIMER
 70
     1
  9
$ANGBASE
 50
0.0
  9
$ANGDIR
 70
     0
  9
$PDMODE
 70
     0
  9
$PDSIZE
 40
0.0
  9
$PLINEWID
 40
0.0
  9
$SPLFRAME
 70
     0
  9
$SPLINETYPE
 70
     6
  9
$SPLINESEGS
 70
     8
  9
$HANDSEED
  5
123
  9
$SURFTAB1
 70
     6
  9
$SURFTAB2
 70
     6
  9
$SURFTYPE
 70
     6
  9
$SURFU
 70
     6
  9
$SURFV
 70
     6
  9
$UCSBASE
  2

  9
$UCSNAME
  2

  9
$UCSORG
 10
0.0
 20
0.0
 30
0.0
  9
$UCSXDIR
 10
1.0
 20
0.0
 30
0.0
  9
$UCSYDIR
 10
0.0
 20
1.0
 30
0.0
  9
$UCSORTHOREF
  2

  9
$UCSORTHOVIEW
 70
     0
  9
$UCSORGTOP
 10
0.0
 20
0.0
 30
0.0
  9
$UCSORGBOTTOM
 10
0.0
 20
0.0
 30
0.0
  9
$UCSORGLEFT
 10
0.0
 20
0.0
 30
0.0
  9
$UCSORGRIGHT
 10
0.0
 20
0.0
 30
0.0
  9
$UCSORGFRONT
 10
0.0
 20
0.0
 30
0.0
  9
$UCSORGBACK
 10
0.0
 20
0.0
 30
0.0
  9
$PUCSBASE
  2

  9
$PUCSNAME
  2

  9
$PUCSORG
 10
0.0
 20
0.0
 30
0.0
  9
$PUCSXDIR
 10
1.0
 20
0.0
 30
0.0
  9
$PUCSYDIR
 10
0.0
 20
1.0
 30
0.0
  9
$PUCSORTHOREF
  2

  9
$PUCSORTHOVIEW
 70
     0
  9
$PUCSORGTOP
 10
0.0
 20
0.0
 30
0.0
  9
$PUCSORGBOTTOM
 10
0.0
 20
0.0
 30
0.0
  9
$PUCSORGLEFT
 10
0.0
 20
0.0
 30
0.0
  9
$PUCSORGRIGHT
 10
0.0
 20
0.0
 30
0.0
  9
$PUCSORGFRONT
 10
0.0
 20
0.0
 30
0.0
  9
$PUCSORGBACK
 10
0.0
 20
0.0
 30
0.0
  9
$USERI1
 70
     0
  9
$USERI2
 70
     0
  9
$USERI3
 70
     0
  9
$USERI4
 70
     0
  9
$USERI5
 70
     0
  9
$USERR1
 40
14.5
  9
$USERR2
 40
0.0
  9
$USERR3
 40
0.0
  9
$USERR4
 40
0.0
  9
$USERR5
 40
0.0
  9
$WORLDVIEW
 70
     1
  9
$SHADEDGE
 70
     3
  9
$SHADEDIF
 70
    70
  9
$TILEMODE
 70
     1
  9
$MAXACTVP
 70
    64
  9
$PINSBASE
 10
0.0
 20
0.0
 30
0.0
  9
$PLIMCHECK
 70
     0
  9
$PEXTMIN
 10
1.00000000000000E+20
 20
1.00000000000000E+20
 30
1.00000000000000E+20
  9
$PEXTMAX
 10
-1.00000000000000E+20
 20
-1.00000000000000E+20
 30
-1.00000000000000E+20
  9
$PLIMMIN
 10
0.0
 20
0.0
  9
$PLIMMAX
 10
12.0
 20
9.0
  9
$UNITMODE
 70
     0
  9
$VISRETAIN
 70
     1
  9
$PLINEGEN
 70
     0
  9
$PSLTSCALE
 70
     1
  9
$TREEDEPTH
 70
  3020
  9
$CMLSTYLE
  2
Standard
  9
$CMLJUST
 70
     0
  9
$CMLSCALE
 40
1.0
  9
$PROXYGRAPHICS
 70
     1
  9
$MEASUREMENT
 70
     1
  9
$CELWEIGHT
370
    -1
  9
$ENDCAPS
280
     0
  9
$JOINSTYLE
280
     0
  9
$LWDISPLAY
290
     0
  9
$INSUNITS
 70
     1
  9
$HYPERLINKBASE
  1

  9
$STYLESHEET
  1

  9
$XEDIT
290
     1
  9
$CEPSNTYPE
380
     0
  9
$PSTYLEMODE
290
     1
  9
$FINGERPRINTGUID
  2
{F6577936-F16F-45CF-909A-31F2711F7177}
  9
$VERSIONGUID
  2
{FAEB1C32-E019-11D5-929B-00C0DF256EC4}
  9
$EXTNAMES
290
     1
  9
$PSVPSCALE
 40
0.0
  9
$OLESTARTUP
290
     0
  9
$SORTENTS
280
   127
  9
$INDEXCTL
280
     0
  9
$HIDETEXT
280
     1
  9
$XCLIPFRAME
290
     0
  9
$HALOGAP
280
     0
  9
$OBSCOLOR
 70
   257
  9
$OBSLTYPE
280
     0
  9
$INTERSECTIONDISPLAY
280
     0
  9
$INTERSECTIONCOLOR
 70
   257
  9
$DIMASSOC
280
     2
  9
$PROJECTNAME
  1

  0
ENDSEC
  0
SECTION
  2
CLASSES
  0
CLASS
  1
ACDBDICTIONARYWDFLT
  2
AcDbDictionaryWithDefault
  3
ObjectDBX Classes
 90
        0
 91
        3
280
     0
281
     0
  0
CLASS
  1

  2
exOdDbCircle
  3

 90
        0
 91
        3
280
     0
281
     1
  0
CLASS
  1

  2
exOdDbSpline
  3

 90
        0
 91
        3
280
     0
281
     1
  0
ENDSEC
  0
SECTION
  2
TABLES
  0
TABLE
  2
VPORT
  5
8
330
0
100
AcDbSymbolTable
 70
     1
  0
VPORT
  5
29
330
8
100
AcDbSymbolTableRecord
100
AcDbViewportTableRecord
  2
*Active
 70
     0
 10
0.0
 20
0.0
 11
1.0
 21
1.0
 12
128.1998990805874
 22
175.4550892585105
 13
0.0
 23
0.0
 14
0.5
 24
0.5
 15
0.5
 25
0.5
 16
0.0
 26
0.0
 36
1.0
 17
0.0
 27
0.0
 37
0.0
 40
143.5158661427887
 41
1.60267857142857
 42
50.0
 43
0.0
 44
0.0
 50
0.0
 51
0.0
 71
     0
 72
   100
 73
     1
 74
     3
 75
     0
 76
     0
 77
     0
 78
     0
281
     0
 65
     1
110
0.0
120
0.0
130
0.0
111
1.0
121
0.0
131
0.0
112
0.0
122
1.0
132
0.0
 79
     0
146
0.0
  0
ENDTAB
  0
TABLE
  2
LTYPE
  5
5
330
0
100
AcDbSymbolTable
 70
     9
  0
LTYPE
  5
14
330
5
100
AcDbSymbolTableRecord
100
AcDbLinetypeTableRecord
  2
ByBlock
 70
     0
  3

 72
    65
 73
     0
 40
0.0
  0
LTYPE
  5
15
330
5
100
AcDbSymbolTableRecord
100
AcDbLinetypeTableRecord
  2
ByLayer
 70
     0
  3

 72
    65
 73
     0
 40
0.0
  0
LTYPE
  5
16
330
5
100
AcDbSymbolTableRecord
100
AcDbLinetypeTableRecord
  2
Continuous
 70
     0
  3
Solid line
 72
    65
 73
     0
 40
0.0
  0
LTYPE
  5
2A
330
5
100
AcDbSymbolTableRecord
100
AcDbLinetypeTableRecord
  2
DASHED
 70
     0
  3
Dashed
 72
    65
 73
     2
 40
15.0
 49
7.0
 74
     0
 49
-8.0
 74
     0
  0
LTYPE
  5
2B
330
5
100
AcDbSymbolTableRecord
100
AcDbLinetypeTableRecord
  2
DOTTED
 70
     0
  3
Dotted
 72
    65
 73
     2
 40
1.0
 49
0.0
 74
     0
 49
-1.0
 74
     0
  0
LTYPE
  5
2C
330
5
100
AcDbSymbolTableRecord
100
AcDbLinetypeTableRecord
  2
DOT_CENTER
 70
     0
  3
Dot_Center
 72
    65
 73
     4
 40
14.0
 49
12.0
 74
     0
 49
-1.0
 74
     0
 49
0.0
 74
     0
 49
-1.0
 74
     0
  0
LTYPE
  5
2D
330
5
100
AcDbSymbolTableRecord
100
AcDbLinetypeTableRecord
  2
LONG_DASHED
 70
     0
  3
Long_Dashed
 72
    65
 73
     2
 40
15.0
 49
10.0
 74
     0
 49
-5.0
 74
     0
  0
LTYPE
  5
2E
330
5
100
AcDbSymbolTableRecord
100
AcDbLinetypeTableRecord
  2
DASH_CENTER
 70
     0
  3
Dash_Center
 72
    65
 73
     4
 40
14.0
 49
11.0
 74
     0
 49
-1.0
 74
     0
 49
1.0
 74
     0
 49
-1.0
 74
     0
  0
LTYPE
  5
2F
330
5
100
AcDbSymbolTableRecord
100
AcDbLinetypeTableRecord
  2
PHANTOM
 70
     0
  3
Phantom
 72
    65
 73
     6
 40
13.0
 49
10.0
 74
     0
 49
-1.0
 74
     0
 49
0.0
 74
     0
 49
-1.0
 74
     0
 49
0.0
 74
     0
 49
-1.0
 74
     0
  0
LTYPE
  5
30
330
5
100
AcDbSymbolTableRecord
100
AcDbLinetypeTableRecord
  2
CENTER_DASH_DASH
 70
     0
  3
Center_Dash_Dash
 72
    65
 73
     6
 40
14.0
 49
9.0
 74
     0
 49
-1.0
 74
     0
 49
1.0
 74
     0
 49
-1.0
 74
     0
 49
1.0
 74
     0
 49
-1.0
 74
     0
  0
LTYPE
  5
31
330
5
100
AcDbSymbolTableRecord
100
AcDbLinetypeTableRecord
  2
HIDDEN_2
 70
     0
  3
HIDDEN_2
 72
    65
 73
     2
 40
2.0
 49
1.0
 74
     0
 49
-1.0
 74
     0
  0
ENDTAB
  0
TABLE
  2
LAYER
  5
2
330
0
100
AcDbSymbolTable
 70
     3
  0
LAYER
  5
10
330
2
100
AcDbSymbolTableRecord
100
AcDbLayerTableRecord
  2
0
 70
     0
 62
     7
  6
Continuous
370
    -3
390
F
  0
LAYER
  5
32
330
2
100
AcDbSymbolTableRecord
100
AcDbLayerTableRecord
  2
1
 70
     0
 62
     7
  6
Continuous
370
    -3
390
F
  0
LAYER
  5
33
330
2
100
AcDbSymbolTableRecord
100
AcDbLayerTableRecord
  2
DEFAULT_2
 70
     0
 62
     7
  6
Continuous
370
    -3
390
F
  0
ENDTAB
  0
TABLE
  2
STYLE
  5
3
330
0
100
AcDbSymbolTable
 70
     2
  0
STYLE
  5
11
330
3
100
AcDbSymbolTableRecord
100
AcDbTextStyleTableRecord
  2
Standard
 70
     0
 40
0.0
 41
1.0
 50
0.0
 71
     0
 42
0.2
  3
txt
  4

  0
STYLE
  5
A1
330
3
100
AcDbSymbolTableRecord
100
AcDbTextStyleTableRecord
  2
CONVERTER_11
 70
     0
 40
0.0
 41
0.9
 50
0.0
 71
     0
 42
0.2
  3
txt.shx
  4

  0
ENDTAB
  0
TABLE
  2
VIEW
  5
6
330
0
100
AcDbSymbolTable
 70
     0
  0
ENDTAB
  0
TABLE
  2
UCS
  5
7
330
0
100
AcDbSymbolTable
 70
     0
  0
ENDTAB
  0
TABLE
  2
APPID
  5
9
330
0
100
AcDbSymbolTable
 70
     1
  0
APPID
  5
12
330
9
100
AcDbSymbolTableRecord
100
AcDbRegAppTableRecord
  2
ACAD
 70
     0
  0
ENDTAB
  0
TABLE
  2
DIMSTYLE
  5
A
330
0
100
AcDbSymbolTable
 70
    13
100
AcDbDimStyleTable
  0
DIMSTYLE
105
27
330
A
100
AcDbSymbolTableRecord
100
AcDbDimStyleTableRecord
  2
Standard
 70
     0
340
11
  0
DIMSTYLE
105
A5
102
{ACAD_REACTORS
330
A6
102
}
330
A
100
AcDbSymbolTableRecord
100
AcDbDimStyleTableRecord
  2
ME10_DIM_10
 70
     0
 41
3.5
 42
0.0
 44
2.0
 73
     0
 74
     0
 77
     1
 78
     8
140
3.5
147
2.0
172
     1
173
     1
176
     2
177
     2
178
     2
271
     3
340
A1
  0
DIMSTYLE
105
B0
102
{ACAD_REACTORS
330
B1
102
}
330
A
100
AcDbSymbolTableRecord
100
AcDbDimStyleTableRecord
  2
ME10_DIM_11
 70
     0
 41
3.5
 42
0.0
 44
2.0
 73
     0
 74
     0
 77
     1
 78
     8
140
3.5
147
2.0
172
     1
173
     1
176
     2
177
     2
178
     2
271
     3
340
A1
  0
DIMSTYLE
105
BB
102
{ACAD_REACTORS
330
BC
102
}
330
A
100
AcDbSymbolTableRecord
100
AcDbDimStyleTableRecord
  2
ME10_DIM_12
 70
     0
 41
3.5
 42
0.0
 44
2.0
 73
     0
 74
     0
 77
     1
 78
     8
140
3.5
147
2.0
172
     1
173
     1
176
     2
177
     2
178
     2
271
     3
340
A1
  0
DIMSTYLE
105
C6
102
{ACAD_REACTORS
330
C7
102
}
330
A
100
AcDbSymbolTableRecord
100
AcDbDimStyleTableRecord
  2
ME10_DIM_13
 70
     0
 41
3.5
 42
0.0
 44
2.0
 73
     0
 74
     0
 77
     1
 78
     8
140
3.5
147
2.0
172
     1
173
     1
176
     2
177
     2
178
     2
271
     3
340
A1
  0
DIMSTYLE
105
D3
102
{ACAD_REACTORS
330
D4
102
}
330
A
100
AcDbSymbolTableRecord
100
AcDbDimStyleTableRecord
  2
ME10_DIM_14
 70
     0
 41
3.5
 42
0.0
 44
2.0
 73
     0
 74
     0
 77
     1
 78
     8
140
3.5
147
2.0
172
     1
173
     1
176
     2
177
     2
178
     2
271
     3
340
A1
  0
DIMSTYLE
105
DE
102
{ACAD_REACTORS
330
DF
102
}
330
A
100
AcDbSymbolTableRecord
100
AcDbDimStyleTableRecord
  2
ME10_DIM_15
 70
     0
 41
3.5
 42
0.0
 44
2.0
 73
     0
 74
     0
 77
     1
 78
     8
140
3.5
147
2.0
172
     1
173
     1
176
     2
177
     2
178
     2
271
     3
340
A1
  0
DIMSTYLE
105
E9
102
{ACAD_REACTORS
330
EA
102
}
330
A
100
AcDbSymbolTableRecord
100
AcDbDimStyleTableRecord
  2
ME10_DIM_16
 70
     0
 41
3.5
 42
0.0
 44
2.0
 73
     0
 74
     0
 77
     1
 78
     8
140
3.5
147
2.0
172
     1
173
     1
176
     2
177
     2
178
     2
271
     3
340
A1
  0
DIMSTYLE
105
F4
102
{ACAD_REACTORS
330
F5
102
}
330
A
100
AcDbSymbolTableRecord
100
AcDbDimStyleTableRecord
  2
ME10_DIM_17
 70
     0
 41
3.5
 42
0.0
 44
2.0
 73
     0
 74
     0
 77
     1
 78
     8
140
3.5
147
2.0
172
     1
173
     1
176
     2
177
     2
178
     2
271
     3
340
A1
  0
DIMSTYLE
105
FF
102
{ACAD_REACTORS
330
100
102
}
330
A
100
AcDbSymbolTableRecord
100
AcDbDimStyleTableRecord
  2
ME10_DIM_18
 70
     0
 41
3.5
 42
0.0
 44
2.0
 73
     0
 74
     0
 77
     1
 78
     8
140
3.5
147
2.0
172
     1
173
     1
176
     2
177
     2
178
     2
271
     3
340
A1
  0
DIMSTYLE
105
10A
102
{ACAD_REACTORS
330
10B
102
}
330
A
100
AcDbSymbolTableRecord
100
AcDbDimStyleTableRecord
  2
ME10_DIM_19
 70
     0
 41
3.5
 42
0.0
 44
2.0
 73
     0
 74
     0
 77
     1
 78
     8
140
3.5
147
2.0
172
     1
173
     1
176
     2
177
     2
178
     2
271
     3
340
A1
  0
DIMSTYLE
105
115
102
{ACAD_REACTORS
330
116
102
}
330
A
100
AcDbSymbolTableRecord
100
AcDbDimStyleTableRecord
  2
ME10_DIM_20
 70
     0
  3
ø<>
 41
3.5
 42
0.0
 44
2.0
 73
     0
 74
     0
 77
     1
 78
     8
140
3.5
147
2.0
172
     1
173
     1
176
     2
177
     2
178
     2
271
     3
340
A1
  0
DIMSTYLE
105
121
102
{ACAD_REACTORS
330
122
102
}
330
A
100
AcDbSymbolTableRecord
100
AcDbDimStyleTableRecord
  2
ME10_DIM_21
 70
     0
 41
3.5
 42
0.0
 44
2.0
 73
     0
 74
     0
 77
     1
 78
     8
140
3.5
147
2.0
172
     1
173
     1
176
     2
177
     2
178
     2
271
     3
340
A1
  0
ENDTAB
  0
TABLE
  2
BLOCK_RECORD
  5
1
330
0
100
AcDbSymbolTable
 70
    13
  0
BLOCK_RECORD
  5
1F
330
1
100
AcDbSymbolTableRecord
100
AcDbBlockTableRecord
  2
*Model_Space
340
22
  0
BLOCK_RECORD
  5
1B
330
1
100
AcDbSymbolTableRecord
100
AcDbBlockTableRecord
  2
*Paper_Space
340
1E
  0
BLOCK_RECORD
  5
23
330
1
100
AcDbSymbolTableRecord
100
AcDbBlockTableRecord
  2
*Paper_Space0
340
26
  0
BLOCK_RECORD
  5
9A
330
1
100
AcDbSymbolTableRecord
100
AcDbBlockTableRecord
  2
*D1
340
0
  0
BLOCK_RECORD
  5
A7
330
1
100
AcDbSymbolTableRecord
100
AcDbBlockTableRecord
  2
*D2
340
0
  0
BLOCK_RECORD
  5
B2
330
1
100
AcDbSymbolTableRecord
100
AcDbBlockTableRecord
  2
*D3
340
0
  0
BLOCK_RECORD
  5
BD
330
1
100
AcDbSymbolTableRecord
100
AcDbBlockTableRecord
  2
*D4
340
0
  0
BLOCK_RECORD
  5
C8
330
1
100
AcDbSymbolTableRecord
100
AcDbBlockTableRecord
  2
*D5
340
0
  0
BLOCK_RECORD
  5
D5
330
1
100
AcDbSymbolTableRecord
100
AcDbBlockTableRecord
  2
*D6
340
0
  0
BLOCK_RECORD
  5
E0
330
1
100
AcDbSymbolTableRecord
100
AcDbBlockTableRecord
  2
*D7
340
0
  0
BLOCK_RECORD
  5
EB
330
1
100
AcDbSymbolTableRecord
100
AcDbBlockTableRecord
  2
*D8
340
0
  0
BLOCK_RECORD
  5
F6
330
1
100
AcDbSymbolTableRecord
100
AcDbBlockTableRecord
  2
*D9
340
0
  0
BLOCK_RECORD
  5
101
330
1
100
AcDbSymbolTableRecord
100
AcDbBlockTableRecord
  2
*D10
340
0
  0
BLOCK_RECORD
  5
10C
330
1
100
AcDbSymbolTableRecord
100
AcDbBlockTableRecord
  2
*D11
340
0
  0
BLOCK_RECORD
  5
117
330
1
100
AcDbSymbolTableRecord
100
AcDbBlockTableRecord
  2
*D12
340
0
  0
ENDTAB
  0
ENDSEC
  0
SECTION
  2
BLOCKS
  0
BLOCK
  5
20
330
1F
100
AcDbEntity
  8
0
100
AcDbBlockBegin
  2
*Model_Space
 70
     0
 71
     0
 10
0.0
 20
0.0
 30
0.0
  3
*Model_Space
  1

  0
ENDBLK
  5
21
330
1F
100
AcDbEntity
  8
0
100
AcDbBlockEnd
  0
BLOCK
  5
1C
330
1B
100
AcDbEntity
 67
     1
  8
0
100
AcDbBlockBegin
  2
*Paper_Space
 70
     0
 71
     0
 10
0.0
 20
0.0
 30
0.0
  3
*Paper_Space
  1

  0
ENDBLK
  5
1D
330
1B
100
AcDbEntity
 67
     1
  8
0
100
AcDbBlockEnd
  0
BLOCK
  5
24
330
23
100
AcDbEntity
  8
0
100
AcDbBlockBegin
  2
*Paper_Space0
 70
     0
 71
     0
 10
0.0
 20
0.0
 30
0.0
  3
*Paper_Space0
  1

  0
ENDBLK
  5
25
330
23
100
AcDbEntity
  8
0
100
AcDbBlockEnd
  0
BLOCK
  5
A3
330
9A
100
AcDbEntity
  8
0
100
AcDbBlockBegin
  2
*D1
 70
     1
 71
     0
 10
0.0
 20
0.0
 30
0.0
  3
*D1
  1

  0
LINE
  5
9B
330
9A
100
AcDbEntity
  8
1
  6
Continuous
 62
     2
100
AcDbLine
 10
66.19197630274479
 20
199.1283962134
 30
0.0
 11
66.19197630274479
 21
136.1283962134
 31
0.0
  0
LINE
  5
9C
330
9A
100
AcDbEntity
  8
1
  6
Continuous
 62
     2
100
AcDbLine
 10
92.2798820755
 20
199.1283962134
 30
0.0
 11
77.9259673130808
 21
199.1283962134
 31
0.0
  0
LINE
  5
9D
330
9A
100
AcDbEntity
  8
1
  6
Continuous
 62
     2
100
AcDbLine
 10
68.5001224763886
 20
199.1283962134
 30
0.0
 11
64.19197630274479
 21
199.1283962134
 31
0.0
  0
LINE
  5
9E
330
9A
100
AcDbEntity
  8
1
  6
Continuous
 62
     2
100
AcDbLine
 10
92.2798820755
 20
136.1283962134
 30
0.0
 11
64.19197630274479
 21
136.1283962134
 31
0.0
  0
SOLID
  5
9F
330
9A
100
AcDbEntity
  8
1
 62
     2
100
AcDbTrace
 10
66.65276004430068
 20
195.6283962134
 30
0.0
 11
65.7311925611889
 21
195.6283962134
 31
0.0
 12
66.19197630274479
 22
199.1283962134
 32
0.0
 13
66.19197630274479
 23
199.1283962134
 33
0.0
  0
SOLID
  5
A0
330
9A
100
AcDbEntity
  8
1
 62
     2
100
AcDbTrace
 10
65.7311925611889
 20
139.6283962134
 30
0.0
 11
66.65276004430068
 21
139.6283962134
 31
0.0
 12
66.19197630274479
 22
136.1283962134
 32
0.0
 13
66.19197630274479
 23
136.1283962134
 33
0.0
  0
MTEXT
  5
A2
330
9A
100
AcDbEntity
  8
1
 62
     2
100
AcDbMText
 10
64.19197630274479
 20
162.3306140779943
 30
0.0
 40
3.5
 41
0.0
 71
     7
 72
     1
  1
63
  7
CONVERTER_11
 11
0.0
 21
1.0
 31
0.0
 73
     1
 44
0.60024009603842
  0
ENDBLK
  5
A4
330
9A
100
AcDbEntity
  8
0
100
AcDbBlockEnd
  0
BLOCK
  5
AE
330
A7
100
AcDbEntity
  8
0
100
AcDbBlockBegin
  2
*D2
 70
     1
 71
     0
 10
0.0
 20
0.0
 30
0.0
  3
*D2
  1

  0
LINE
  5
A8
330
A7
100
AcDbEntity
  8
1
  6
Continuous
 62
     2
100
AcDbLine
 10
76.0214090698977
 20
217.1308962264001
 30
0.0
 11
76.0214090698977
 21
181.1308962264001
 31
0.0
  0
LINE
  5
A9
330
A7
100
AcDbEntity
  8
1
  6
Continuous
 62
     2
100
AcDbLine
 10
88.9798820755
 20
217.1308962264001
 30
0.0
 11
74.0214090698977
 21
217.1308962264001
 31
0.0
  0
LINE
  5
AA
330
A7
100
AcDbEntity
  8
1
  6
Continuous
 62
     2
100
AcDbLine
 10
88.9798820755
 20
181.1308962264001
 30
0.0
 11
74.0214090698977
 21
181.1308962264001
 31
0.0
  0
SOLID
  5
AB
330
A7
100
AcDbEntity
  8
1
 62
     2
100
AcDbTrace
 10
76.48219281145359
 20
213.6308962264001
 30
0.0
 11
75.56062532834181
 21
213.6308962264001
 31
0.0
 12
76.0214090698977
 22
217.1308962264001
 32
0.0
 13
76.0214090698977
 23
217.1308962264001
 33
0.0
  0
SOLID
  5
AC
330
A7
100
AcDbEntity
  8
1
 62
     2
100
AcDbTrace
 10
75.56062532834181
 20
184.6308962264001
 30
0.0
 11
76.48219281145359
 21
184.6308962264001
 31
0.0
 12
76.0214090698977
 22
181.1308962264001
 32
0.0
 13
76.0214090698977
 23
181.1308962264001
 33
0.0
  0
MTEXT
  5
AD
330
A7
100
AcDbEntity
  8
1
 62
     2
100
AcDbMText
 10
74.0214090698977
 20
196.8466826230468
 30
0.0
 40
3.5
 41
0.0
 71
     7
 72
     1
  1
36
  7
CONVERTER_11
 11
0.0
 21
1.0
 31
0.0
 73
     1
 44
0.60024009603842
  0
ENDBLK
  5
AF
330
A7
100
AcDbEntity
  8
0
100
AcDbBlockEnd
  0
BLOCK
  5
B9
330
B2
100
AcDbEntity
  8
0
100
AcDbBlockBegin
  2
*D3
 70
     1
 71
     0
 10
0.0
 20
0.0
 30
0.0
  3
*D3
  1

  0
LINE
  5
B3
330
B2
100
AcDbEntity
  8
1
  6
Continuous
 62
     2
100
AcDbLine
 10
193.70782185843
 20
124.6308962264
 30
0.0
 11
193.70782185843
 21
173.6308962264
 31
0.0
  0
LINE
  5
B4
330
B2
100
AcDbEntity
  8
1
  6
Continuous
 62
     2
100
AcDbLine
 10
107.0298820755
 20
124.6308962264
 30
0.0
 11
195.70782185843
 21
124.6308962264
 31
0.0
  0
LINE
  5
B5
330
B2
100
AcDbEntity
  8
1
  6
Continuous
 62
     2
100
AcDbLine
 10
107.7798820755
 20
173.6308962264
 30
0.0
 11
195.70782185843
 21
173.6308962264
 31
0.0
  0
SOLID
  5
B6
330
B2
100
AcDbEntity
  8
1
 62
     2
100
AcDbTrace
 10
193.2470381168741
 20
128.1308962264
 30
0.0
 11
194.1686055999859
 21
128.1308962264
 31
0.0
 12
193.70782185843
 22
124.6308962264
 32
0.0
 13
193.70782185843
 23
124.6308962264
 33
0.0
  0
SOLID
  5
B7
330
B2
100
AcDbEntity
  8
1
 62
     2
100
AcDbTrace
 10
194.1686055999859
 20
170.1308962264
 30
0.0
 11
193.2470381168741
 21
170.1308962264
 31
0.0
 12
193.70782185843
 22
173.6308962264
 32
0.0
 13
193.70782185843
 23
173.6308962264
 33
0.0
  0
MTEXT
  5
B8
330
B2
100
AcDbEntity
  8
1
 62
     2
100
AcDbMText
 10
191.70782185843
 20
145.677430991818
 30
0.0
 40
3.5
 41
0.0
 71
     7
 72
     1
  1
49
  7
CONVERTER_11
 11
0.0
 21
1.0
 31
0.0
 73
     1
 44
0.60024009603842
  0
ENDBLK
  5
BA
330
B2
100
AcDbEntity
  8
0
100
AcDbBlockEnd
  0
BLOCK
  5
C4
330
BD
100
AcDbEntity
  8
0
100
AcDbBlockBegin
  2
*D4
 70
     1
 71
     0
 10
0.0
 20
0.0
 30
0.0
  3
*D4
  1

  0
LINE
  5
BE
330
BD
100
AcDbEntity
  8
1
  6
Continuous
 62
     2
100
AcDbLine
 10
193.70782185843
 20
223.6308962264
 30
0.0
 11
193.70782185843
 21
174.6308962264
 31
0.0
  0
LINE
  5
BF
330
BD
100
AcDbEntity
  8
1
  6
Continuous
 62
     2
100
AcDbLine
 10
161.5298820755
 20
223.6308962264
 30
0.0
 11
195.70782185843
 21
223.6308962264
 31
0.0
  0
LINE
  5
C0
330
BD
100
AcDbEntity
  8
1
  6
Continuous
 62
     2
100
AcDbLine
 10
161.5298820755
 20
174.6308962264
 30
0.0
 11
195.70782185843
 21
174.6308962264
 31
0.0
  0
SOLID
  5
C1
330
BD
100
AcDbEntity
  8
1
 62
     2
100
AcDbTrace
 10
194.1686055999859
 20
220.1308962264
 30
0.0
 11
193.2470381168741
 21
220.1308962264
 31
0.0
 12
193.70782185843
 22
223.6308962264
 32
0.0
 13
193.70782185843
 23
223.6308962264
 33
0.0
  0
SOLID
  5
C2
330
BD
100
AcDbEntity
  8
1
 62
     2
100
AcDbTrace
 10
193.2470381168741
 20
178.1308962264
 30
0.0
 11
194.1686055999859
 21
178.1308962264
 31
0.0
 12
193.70782185843
 22
174.6308962264
 32
0.0
 13
193.70782185843
 23
174.6308962264
 33
0.0
  0
MTEXT
  5
C3
330
BD
100
AcDbEntity
  8
1
 62
     2
100
AcDbMText
 10
191.70782185843
 20
196.869154259421
 30
0.0
 40
3.5
 41
0.0
 71
     7
 72
     1
  1
49
  7
CONVERTER_11
 11
0.0
 21
1.0
 31
0.0
 73
     1
 44
0.60024009603842
  0
ENDBLK
  5
C5
330
BD
100
AcDbEntity
  8
0
100
AcDbBlockEnd
  0
BLOCK
  5
D1
330
C8
100
AcDbEntity
  8
0
100
AcDbBlockBegin
  2
*D5
 70
     1
 71
     0
 10
0.0
 20
0.0
 30
0.0
  3
*D5
  1

  0
LINE
  5
C9
330
C8
100
AcDbEntity
  8
1
  6
Continuous
 62
     2
100
AcDbLine
 10
183.689270116276
 20
173.6308962264
 30
0.0
 11
183.689270116276
 21
166.6308962264
 31
0.0
  0
LINE
  5
CA
330
C8
100
AcDbEntity
  8
1
  6
Continuous
 62
     2
100
AcDbLine
 10
183.689270116276
 20
174.6308962264
 30
0.0
 11
183.689270116276
 21
173.6308962264
 31
0.0
  0
LINE
  5
CB
330
C8
100
AcDbEntity
  8
1
  6
Continuous
 62
     2
100
AcDbLine
 10
183.689270116276
 20
181.6308962264
 30
0.0
 11
183.689270116276
 21
174.6308962264
 31
0.0
  0
LINE
  5
CC
330
C8
100
AcDbEntity
  8
1
  6
Continuous
 62
     2
100
AcDbLine
 10
86.02990737210003
 20
174.6308962264
 30
0.0
 11
185.689270116276
 21
174.6308962264
 31
0.0
  0
LINE
  5
CD
330
C8
100
AcDbEntity
  8
1
  6
Continuous
 62
     2
100
AcDbLine
 10
107.7798820755
 20
173.6308962264
 30
0.0
 11
185.689270116276
 21
173.6308962264
 31
0.0
  0
SOLID
  5
CE
330
C8
100
AcDbEntity
  8
1
 62
     2
100
AcDbTrace
 10
183.2284863747201
 20
178.1308962264
 30
0.0
 11
184.1500538578319
 21
178.1308962264
 31
0.0
 12
183.689270116276
 22
174.6308962264
 32
0.0
 13
183.689270116276
 23
174.6308962264
 33
0.0
  0
SOLID
  5
CF
330
C8
100
AcDbEntity
  8
1
 62
     2
100
AcDbTrace
 10
184.1500538578319
 20
170.1308962264
 30
0.0
 11
183.2284863747201
 21
170.1308962264
 31
0.0
 12
183.689270116276
 22
173.6308962264
 32
0.0
 13
183.689270116276
 23
173.6308962264
 33
0.0
  0
MTEXT
  5
D0
330
C8
100
AcDbEntity
  8
1
 62
     2
100
AcDbMText
 10
181.689270116276
 20
177.810957772339
 30
0.0
 40
3.5
 41
0.0
 71
     7
 72
     1
  1
1
  7
CONVERTER_11
 11
0.0
 21
1.0
 31
0.0
 73
     1
 44
0.60024009603842
  0
ENDBLK
  5
D2
330
C8
100
AcDbEntity
  8
0
100
AcDbBlockEnd
  0
BLOCK
  5
DC
330
D5
100
AcDbEntity
  8
0
100
AcDbBlockBegin
  2
*D6
 70
     1
 71
     0
 10
0.0
 20
0.0
 30
0.0
  3
*D6
  1

  0
LINE
  5
D6
330
D5
100
AcDbEntity
  8
1
  6
Continuous
 62
     2
100
AcDbLine
 10
169.227772027065
 20
213.6308962264
 30
0.0
 11
169.227772027065
 21
184.6308962264
 31
0.0
  0
LINE
  5
D7
330
D5
100
AcDbEntity
  8
1
  6
Continuous
 62
     2
100
AcDbLine
 10
163.0898820755
 20
213.6308962264
 30
0.0
 11
171.227772027065
 21
213.6308962264
 31
0.0
  0
LINE
  5
D8
330
D5
100
AcDbEntity
  8
1
  6
Continuous
 62
     2
100
AcDbLine
 10
163.0898820755
 20
184.6308962264
 30
0.0
 11
171.227772027065
 21
184.6308962264
 31
0.0
  0
SOLID
  5
D9
330
D5
100
AcDbEntity
  8
1
 62
     2
100
AcDbTrace
 10
169.6885557686209
 20
210.1308962264
 30
0.0
 11
168.7669882855091
 21
210.1308962264
 31
0.0
 12
169.227772027065
 22
213.6308962264
 32
0.0
 13
169.227772027065
 23
213.6308962264
 33
0.0
  0
SOLID
  5
DA
330
D5
100
AcDbEntity
  8
1
 62
     2
100
AcDbTrace
 10
168.7669882855091
 20
188.1308962264
 30
0.0
 11
169.6885557686209
 21
188.1308962264
 31
0.0
 12
169.227772027065
 22
184.6308962264
 32
0.0
 13
169.227772027065
 23
184.6308962264
 33
0.0
  0
MTEXT
  5
DB
330
D5
100
AcDbEntity
  8
1
 62
     2
100
AcDbMText
 10
167.227772027065
 20
196.869154259421
 30
0.0
 40
3.5
 41
0.0
 71
     7
 72
     1
  1
29
  7
CONVERTER_11
 11
0.0
 21
1.0
 31
0.0
 73
     1
 44
0.60024009603842
  0
ENDBLK
  5
DD
330
D5
100
AcDbEntity
  8
0
100
AcDbBlockEnd
  0
BLOCK
  5
E7
330
E0
100
AcDbEntity
  8
0
100
AcDbBlockBegin
  2
*D7
 70
     1
 71
     0
 10
0.0
 20
0.0
 30
0.0
  3
*D7
  1

  0
LINE
  5
E1
330
E0
100
AcDbEntity
  8
1
  6
Continuous
 62
     2
100
AcDbLine
 10
157.310396547848
 20
204.1308962264
 30
0.0
 11
157.310396547848
 21
194.1308962264
 31
0.0
  0
LINE
  5
E2
330
E0
100
AcDbEntity
  8
1
  6
Continuous
 62
     2
100
AcDbLine
 10
152.456987951851
 20
204.1308962264
 30
0.0
 11
159.310396547848
 21
204.1308962264
 31
0.0
  0
LINE
  5
E3
330
E0
100
AcDbEntity
  8
1
  6
Continuous
 62
     2
100
AcDbLine
 10
152.456987951851
 20
194.1308962264
 30
0.0
 11
159.310396547848
 21
194.1308962264
 31
0.0
  0
SOLID
  5
E4
330
E0
100
AcDbEntity
  8
1
 62
     2
100
AcDbTrace
 10
157.7711802894039
 20
200.6308962264
 30
0.0
 11
156.8496128062921
 21
200.6308962264
 31
0.0
 12
157.310396547848
 22
204.1308962264
 32
0.0
 13
157.310396547848
 23
204.1308962264
 33
0.0
  0
SOLID
  5
E5
330
E0
100
AcDbEntity
  8
1
 62
     2
100
AcDbTrace
 10
156.8496128062921
 20
197.6308962264
 30
0.0
 11
157.7711802894039
 21
197.6308962264
 31
0.0
 12
157.310396547848
 22
194.1308962264
 32
0.0
 13
157.310396547848
 23
194.1308962264
 33
0.0
  0
MTEXT
  5
E6
330
E0
100
AcDbEntity
  8
1
 62
     2
100
AcDbMText
 10
155.310396547848
 20
197.160480230417
 30
0.0
 40
3.5
 41
0.0
 71
     7
 72
     1
  1
10
  7
CONVERTER_11
 11
0.0
 21
1.0
 31
0.0
 73
     1
 44
0.60024009603842
  0
ENDBLK
  5
E8
330
E0
100
AcDbEntity
  8
0
100
AcDbBlockEnd
  0
BLOCK
  5
F2
330
EB
100
AcDbEntity
  8
0
100
AcDbBlockBegin
  2
*D8
 70
     1
 71
     0
 10
0.0
 20
0.0
 30
0.0
  3
*D8
  1

  0
LINE
  5
EC
330
EB
100
AcDbEntity
  8
1
  6
Continuous
 62
     2
100
AcDbLine
 10
134.994526777944
 20
211.1308962264
 30
0.0
 11
134.994526777944
 21
187.1308962264
 31
0.0
  0
LINE
  5
ED
330
EB
100
AcDbEntity
  8
1
  6
Continuous
 62
     2
100
AcDbLine
 10
136.0898820755
 20
211.1308962264
 30
0.0
 11
132.994526777944
 21
211.1308962264
 31
0.0
  0
LINE
  5
EE
330
EB
100
AcDbEntity
  8
1
  6
Continuous
 62
     2
100
AcDbLine
 10
136.0898820755
 20
187.1308962264
 30
0.0
 11
132.994526777944
 21
187.1308962264
 31
0.0
  0
SOLID
  5
EF
330
EB
100
AcDbEntity
  8
1
 62
     2
100
AcDbTrace
 10
135.4553105194999
 20
207.6308962264
 30
0.0
 11
134.5337430363881
 21
207.6308962264
 31
0.0
 12
134.994526777944
 22
211.1308962264
 32
0.0
 13
134.994526777944
 23
211.1308962264
 33
0.0
  0
SOLID
  5
F0
330
EB
100
AcDbEntity
  8
1
 62
     2
100
AcDbTrace
 10
134.5337430363881
 20
190.6308962264
 30
0.0
 11
135.4553105194999
 21
190.6308962264
 31
0.0
 12
134.994526777944
 22
187.1308962264
 32
0.0
 13
134.994526777944
 23
187.1308962264
 33
0.0
  0
MTEXT
  5
F1
330
EB
100
AcDbEntity
  8
1
 62
     2
100
AcDbMText
 10
132.994526777944
 20
196.518643215915
 30
0.0
 40
3.5
 41
0.0
 71
     7
 72
     1
  1
24
  7
CONVERTER_11
 11
0.0
 21
1.0
 31
0.0
 73
     1
 44
0.60024009603842
  0
ENDBLK
  5
F3
330
EB
100
AcDbEntity
  8
0
100
AcDbBlockEnd
  0
BLOCK
  5
FD
330
F6
100
AcDbEntity
  8
0
100
AcDbBlockBegin
  2
*D9
 70
     1
 71
     0
 10
0.0
 20
0.0
 30
0.0
  3
*D9
  1

  0
LINE
  5
F7
330
F6
100
AcDbEntity
  8
1
  6
Continuous
 62
     2
100
AcDbLine
 10
121.441433095698
 20
208.1308962264
 30
0.0
 11
121.441433095698
 21
190.1308962264
 31
0.0
  0
LINE
  5
F8
330
F6
100
AcDbEntity
  8
1
  6
Continuous
 62
     2
100
AcDbLine
 10
117.858102831374
 20
190.1308962264
 30
0.0
 11
123.441433095698
 21
190.1308962264
 31
0.0
  0
LINE
  5
F9
330
F6
100
AcDbEntity
  8
1
  6
Continuous
 62
     2
100
AcDbLine
 10
117.858102831374
 20
208.1308962264
 30
0.0
 11
123.441433095698
 21
208.1308962264
 31
0.0
  0
SOLID
  5
FA
330
F6
100
AcDbEntity
  8
1
 62
     2
100
AcDbTrace
 10
121.9022168372539
 20
204.6308962264
 30
0.0
 11
120.9806493541421
 21
204.6308962264
 31
0.0
 12
121.441433095698
 22
208.1308962264
 32
0.0
 13
121.441433095698
 23
208.1308962264
 33
0.0
  0
SOLID
  5
FB
330
F6
100
AcDbEntity
  8
1
 62
     2
100
AcDbTrace
 10
120.9806493541421
 20
193.6308962264
 30
0.0
 11
121.9022168372539
 21
193.6308962264
 31
0.0
 12
121.441433095698
 22
190.1308962264
 32
0.0
 13
121.441433095698
 23
190.1308962264
 33
0.0
  0
MTEXT
  5
FC
330
F6
100
AcDbEntity
  8
1
 62
     2
100
AcDbMText
 10
119.441433095698
 20
197.043643215915
 30
0.0
 40
3.5
 41
0.0
 71
     7
 72
     1
  1
18
  7
CONVERTER_11
 11
0.0
 21
1.0
 31
0.0
 73
     1
 44
0.60024009603842
  0
ENDBLK
  5
FE
330
F6
100
AcDbEntity
  8
0
100
AcDbBlockEnd
  0
BLOCK
  5
108
330
101
100
AcDbEntity
  8
0
100
AcDbBlockBegin
  2
*D10
 70
     1
 71
     0
 10
0.0
 20
0.0
 30
0.0
  3
*D10
  1

  0
LINE
  5
102
330
101
100
AcDbEntity
  8
1
  6
Continuous
 62
     2
100
AcDbLine
 10
96.52988207550004
 20
235.189573868869
 30
0.0
 11
114.5298820755
 21
235.189573868869
 31
0.0
  0
LINE
  5
103
330
101
100
AcDbEntity
  8
1
  6
Continuous
 62
     2
100
AcDbLine
 10
114.5298820755
 20
220.4258962264
 30
0.0
 11
114.5298820755
 21
237.189573868869
 31
0.0
  0
LINE
  5
104
330
101
100
AcDbEntity
  8
1
  6
Continuous
 62
     2
100
AcDbLine
 10
96.52988207550004
 20
228.6808962264
 30
0.0
 11
96.52988207550004
 21
237.189573868869
 31
0.0
  0
SOLID
  5
105
330
101
100
AcDbEntity
  8
1
 62
     2
100
AcDbTrace
 10
100.0298820755
 20
235.6503576104249
 30
0.0
 11
100.0298820755
 21
234.7287901273131
 31
0.0
 12
96.52988207550004
 22
235.189573868869
 32
0.0
 13
96.52988207550004
 23
235.189573868869
 33
0.0
  0
SOLID
  5
106
330
101
100
AcDbEntity
  8
1
 62
     2
100
AcDbTrace
 10
111.0298820755
 20
234.7287901273131
 30
0.0
 11
111.0298820755
 21
235.6503576104249
 31
0.0
 12
114.5298820755
 22
235.189573868869
 32
0.0
 13
114.5298820755
 23
235.189573868869
 33
0.0
  0
MTEXT
  5
107
330
101
100
AcDbEntity
  8
1
 62
     2
100
AcDbMText
 10
102.6224787242434
 20
237.189573868869
 30
0.0
 40
3.5
 41
0.0
 71
     7
 72
     1
  1
18
  7
CONVERTER_11
 11
0.9999999999970621
 21
2.424068405545307E-6
 31
0.0
 73
     1
 44
0.60024009603842
  0
ENDBLK
  5
109
330
101
100
AcDbEntity
  8
0
100
AcDbBlockEnd
  0
BLOCK
  5
113
330
10C
100
AcDbEntity
  8
0
100
AcDbBlockBegin
  2
*D11
 70
     1
 71
     0
 10
0.0
 20
0.0
 30
0.0
  3
*D11
  1

  0
LINE
  5
10D
330
10C
100
AcDbEntity
  8
1
  6
Continuous
 62
     2
100
AcDbLine
 10
86.02988207549998
 20
112.220604648152
 30
0.0
 11
107.0298820755
 21
112.220604648152
 31
0.0
  0
LINE
  5
10E
330
10C
100
AcDbEntity
  8
1
  6
Continuous
 62
     2
100
AcDbLine
 10
86.02988207549998
 20
124.6308962264
 30
0.0
 11
86.02988207549998
 21
110.220604648152
 31
0.0
  0
LINE
  5
10F
330
10C
100
AcDbEntity
  8
1
  6
Continuous
 62
     2
100
AcDbLine
 10
107.0298820755
 20
124.6308962264
 30
0.0
 11
107.0298820755
 21
110.220604648152
 31
0.0
  0
SOLID
  5
110
330
10C
100
AcDbEntity
  8
1
 62
     2
100
AcDbTrace
 10
89.52988207549998
 20
112.6813883897079
 30
0.0
 11
89.52988207549998
 21
111.7598209065961
 31
0.0
 12
86.02988207549998
 22
112.220604648152
 32
0.0
 13
86.02988207549998
 23
112.220604648152
 33
0.0
  0
SOLID
  5
111
330
10C
100
AcDbEntity
  8
1
 62
     2
100
AcDbTrace
 10
103.5298820755
 20
111.7598209065961
 30
0.0
 11
103.5298820755
 21
112.6813883897079
 31
0.0
 12
107.0298820755
 22
112.220604648152
 32
0.0
 13
107.0298820755
 23
112.220604648152
 33
0.0
  0
MTEXT
  5
112
330
10C
100
AcDbEntity
  8
1
 62
     2
100
AcDbMText
 10
93.48488207555744
 20
114.2205976910757
 30
0.0
 40
3.5
 41
0.0
 71
     7
 72
     1
  1
\C2;ø\C2;21
  7
CONVERTER_11
 11
0.9999999999970621
 21
2.424068405545307E-6
 31
0.0
 73
     1
 44
0.60024009603842
  0
ENDBLK
  5
114
330
10C
100
AcDbEntity
  8
0
100
AcDbBlockEnd
  0
BLOCK
  5
11F
330
117
100
AcDbEntity
  8
0
100
AcDbBlockBegin
  2
*D12
 70
     1
 71
     0
 10
0.0
 20
0.0
 30
0.0
  3
*D12
  1

  0
LINE
  5
118
330
117
100
AcDbEntity
  8
1
  6
Continuous
 62
     2
100
AcDbLine
 10
107.0298820755
 20
112.220604648152
 30
0.0
 11
173.5298820755
 21
112.220604648152
 31
0.0
  0
LINE
  5
119
330
117
100
AcDbEntity
  8
1
  6
Continuous
 62
     2
100
AcDbLine
 10
107.0298820755
 20
124.6308962264
 30
0.0
 11
107.0298820755
 21
110.220604648152
 31
0.0
  0
LINE
  5
11A
330
117
100
AcDbEntity
  8
1
  6
Continuous
 62
     2
100
AcDbLine
 10
173.5298820755
 20
186.6308962264
 30
0.0
 11
173.5298820755
 21
127.402752546562
 31
0.0
  0
LINE
  5
11B
330
117
100
AcDbEntity
  8
1
  6
Continuous
 62
     2
100
AcDbLine
 10
173.5298820755
 20
121.966243728368
 30
0.0
 11
173.5298820755
 21
110.220604648152
 31
0.0
  0
SOLID
  5
11C
330
117
100
AcDbEntity
  8
1
 62
     2
100
AcDbTrace
 10
110.5298820755
 20
112.6813883897079
 30
0.0
 11
110.5298820755
 21
111.7598209065961
 31
0.0
 12
107.0298820755
 22
112.220604648152
 32
0.0
 13
107.0298820755
 23
112.220604648152
 33
0.0
  0
SOLID
  5
11D
330
117
100
AcDbEntity
  8
1
 62
     2
100
AcDbTrace
 10
170.0298820755
 20
111.7598209065961
 30
0.0
 11
170.0298820755
 21
112.6813883897079
 31
0.0
 12
173.5298820755
 22
112.220604648152
 32
0.0
 13
173.5298820755
 23
112.220604648152
 33
0.0
  0
MTEXT
  5
11E
330
117
100
AcDbEntity
  8
1
 62
     2
100
AcDbMText
 10
134.3230711257861
 20
114.220604648152
 30
0.0
 40
3.5
 41
0.0
 71
     7
 72
     1
  1
66.5
  7
CONVERTER_11
 11
0.9999999999970621
 21
2.424068405545307E-6
 31
0.0
 73
     1
 44
0.60024009603842
  0
ENDBLK
  5
120
330
117
100
AcDbEntity
  8
0
100
AcDbBlockEnd
  0
ENDSEC
  0
SECTION
  2
ENTITIES
  0
POINT
  5
34
330
1F
100
AcDbEntity
  8
1
 62
     3
 60
     1
100
AcDbPoint
 10
107.0298820755001
 20
223.6308962264
 30
0.0
  0
LINE
  5
35
330
1F
100
AcDbEntity
  8
0
  6
Continuous
 62
     7
100
AcDbLine
 10
107.0298820755001
 20
223.6308962264
 30
0.0
 11
161.5298820755
 21
223.6308962264
 31
0.0
  0
LINE
  5
36
330
1F
100
AcDbEntity
  8
0
  6
Continuous
 62
     7
100
AcDbLine
 10
107.0298820755001
 20
174.6308962264
 30
0.0
 11
86.02990737210003
 21
174.6308962264
 31
0.0
  0
LINE
  5
37
330
1F
100
AcDbEntity
  8
1
  6
DASHED
 62
     2
100
AcDbLine
 10
107.0298820755001
 20
223.6308962264
 30
0.0
 11
107.0298820755001
 21
174.6308962264
 31
0.0
  0
LINE
  5
38
330
1F
100
AcDbEntity
  8
1
  6
Continuous
 62
     7
100
AcDbLine
 10
87.3898820755
 20
225.6308962264
 30
0.0
 11
105.9898820755
 21
225.6308962264
 31
0.0
  0
LINE
  5
39
330
1F
100
AcDbEntity
  8
0
  6
Continuous
 62
     2
100
AcDbLine
 10
136.0898820755
 20
187.1308962264
 30
0.0
 11
133.035462130092
 21
187.1308962264
 31
0.0
  0
LINE
  5
3A
330
1F
100
AcDbEntity
  8
0
  6
Continuous
 62
     2
100
AcDbLine
 10
136.0898820755
 20
211.1308962264
 30
0.0
 11
133.035462130092
 21
211.1308962264
 31
0.0
  0
LINE
  5
3B
330
1F
100
AcDbEntity
  8
1
  6
DOT_CENTER
 62
     2
100
AcDbLine
 10
96.5298820755
 20
140.3808962264
 30
0.0
 11
96.52988207549998
 21
120.346802356148
 31
0.0
  0
LINE
  5
3C
330
1F
100
AcDbEntity
  8
1
  6
DOT_CENTER
 62
     2
100
AcDbLine
 10
100.7798820755
 20
136.1283962134
 30
0.0
 11
92.2798820755
 21
136.1283962134
 31
0.0
  0
LINE
  5
3D
330
1F
100
AcDbEntity
  8
1
  6
DOT_CENTER
 62
     2
100
AcDbLine
 10
96.5298820755
 20
203.3783962134
 30
0.0
 11
96.5298820755
 21
188.6808962264
 31
0.0
  0
LINE
  5
3E
330
1F
100
AcDbEntity
  8
1
  6
DOT_CENTER
 62
     2
100
AcDbLine
 10
100.7798820755
 20
199.1283962134
 30
0.0
 11
92.2798820755
 21
199.1283962134
 31
0.0
  0
LINE
  5
3F
330
1F
100
AcDbEntity
  8
1
  6
DOT_CENTER
 62
     2
100
AcDbLine
 10
96.5298820755
 20
188.6808962264
 30
0.0
 11
96.5298820755
 21
140.3808962264
 31
0.0
  0
LINE
  5
40
330
1F
100
AcDbEntity
  8
1
  6
DOT_CENTER
 62
     2
100
AcDbLine
 10
104.0798820755
 20
181.1308962264
 30
0.0
 11
88.9798820755
 21
181.1308962264
 31
0.0
  0
LINE
  5
41
330
1F
100
AcDbEntity
  8
1
  6
DOT_CENTER
 62
     2
100
AcDbLine
 10
96.5298820755
 20
228.6808962264
 30
0.0
 11
96.5298820755
 21
203.3783962134
 31
0.0
  0
LINE
  5
42
330
1F
100
AcDbEntity
  8
1
  6
DOT_CENTER
 62
     2
100
AcDbLine
 10
88.9798820755
 20
217.1308962264
 30
0.0
 11
104.0798820755
 21
217.1308962264
 31
0.0
  0
LINE
  5
43
330
1F
100
AcDbEntity
  8
0
  6
Continuous
 62
     7
100
AcDbLine
 10
86.02990737210003
 20
223.6308962264
 30
0.0
 11
107.0298820755001
 21
223.6308962264
 31
0.0
  0
LINE
  5
44
330
1F
100
AcDbEntity
  8
1
  6
DOT_CENTER
 62
     2
100
AcDbLine
 10
113.858102831374
 20
208.1308962264
 30
0.0
 11
117.858102831374
 21
208.1308962264
 31
0.0
  0
LINE
  5
45
330
1F
100
AcDbEntity
  8
1
  6
DOT_CENTER
 62
     2
100
AcDbLine
 10
113.858102831374
 20
190.1308962264
 30
0.0
 11
117.858102831374
 21
190.1308962264
 31
0.0
  0
LINE
  5
46
330
1F
100
AcDbEntity
  8
1
  6
DOT_CENTER
 62
     2
100
AcDbLine
 10
148.5398820755
 20
198.048002102751
 30
0.0
 11
148.5398820755
 21
190.213790350049
 31
0.0
  0
LINE
  5
47
330
1F
100
AcDbEntity
  8
1
  6
DOT_CENTER
 62
     2
100
AcDbLine
 10
152.456987951851
 20
194.1308962264
 30
0.0
 11
144.62277619915
 21
194.1308962264
 31
0.0
  0
LINE
  5
48
330
1F
100
AcDbEntity
  8
1
  6
DOT_CENTER
 62
     2
100
AcDbLine
 10
148.5398820755
 20
208.048002102751
 30
0.0
 11
148.5398820755
 21
200.213790350049
 31
0.0
  0
LINE
  5
49
330
1F
100
AcDbEntity
  8
1
  6
DOT_CENTER
 62
     2
100
AcDbLine
 10
152.456987951851
 20
204.1308962264
 30
0.0
 11
144.62277619915
 21
204.1308962264
 31
0.0
  0
LINE
  5
4A
330
1F
100
AcDbEntity
  8
1
  6
DASHED
 62
     2
100
AcDbLine
 10
160.7411347585
 20
220.4258962264
 30
0.0
 11
160.7411347585
 21
177.8358962264
 31
0.0
  0
LINE
  5
4B
330
1F
100
AcDbEntity
  8
DEFAULT_2
  6
DASHED
 62
     2
100
AcDbLine
 10
114.5298820755
 20
177.8358962264
 30
0.0
 11
160.7411347585
 21
177.8358962264
 31
0.0
  0
LINE
  5
4C
330
1F
100
AcDbEntity
  8
DEFAULT_2
  6
DASHED
 62
     2
100
AcDbLine
 10
114.5298820755
 20
220.4258962264
 30
0.0
 11
112.0398820755
 21
220.4258962264
 31
0.0
  0
LINE
  5
4D
330
1F
100
AcDbEntity
  8
1
  6
DOT_CENTER
 62
     2
100
AcDbLine
 10
155.5398820755
 20
221.1808962264
 30
0.0
 11
155.5398820755
 21
206.0808962264
 31
0.0
  0
LINE
  5
4E
330
1F
100
AcDbEntity
  8
1
  6
DOT_CENTER
 62
     2
100
AcDbLine
 10
147.9898820755
 20
213.6308962264
 30
0.0
 11
163.0898820755
 21
213.6308962264
 31
0.0
  0
LINE
  5
4F
330
1F
100
AcDbEntity
  8
1
  6
DOT_CENTER
 62
     2
100
AcDbLine
 10
141.5398820755
 20
218.6808962264
 30
0.0
 11
141.5398820755
 21
203.5808962264
 31
0.0
  0
LINE
  5
50
330
1F
100
AcDbEntity
  8
1
  6
DOT_CENTER
 62
     2
100
AcDbLine
 10
133.9898820755
 20
211.1308962264
 30
0.0
 11
149.0898820755
 21
211.1308962264
 31
0.0
  0
LINE
  5
51
330
1F
100
AcDbEntity
  8
1
  6
DOT_CENTER
 62
     2
100
AcDbLine
 10
128.5398820755
 20
218.6808962264
 30
0.0
 11
128.5398820755
 21
203.5808962264
 31
0.0
  0
LINE
  5
52
330
1F
100
AcDbEntity
  8
1
  6
DOT_CENTER
 62
     2
100
AcDbLine
 10
120.9898820755
 20
211.1308962264
 30
0.0
 11
136.0898820755
 21
211.1308962264
 31
0.0
  0
LINE
  5
53
330
1F
100
AcDbEntity
  8
DEFAULT_2
  6
DASHED
 62
     2
100
AcDbLine
 10
160.7411347585
 20
220.4258962264
 30
0.0
 11
114.5298820755
 21
220.4258962264
 31
0.0
  0
LINE
  5
54
330
1F
100
AcDbEntity
  8
1
  6
DOT_CENTER
 62
     2
100
AcDbLine
 10
155.5398820755
 20
192.1808962264
 30
0.0
 11
155.5398820755
 21
177.0808962264
 31
0.0
  0
LINE
  5
55
330
1F
100
AcDbEntity
  8
1
  6
DOT_CENTER
 62
     2
100
AcDbLine
 10
163.0898820755
 20
184.6308962264
 30
0.0
 11
147.9898820755
 21
184.6308962264
 31
0.0
  0
LINE
  5
56
330
1F
100
AcDbEntity
  8
1
  6
DOT_CENTER
 62
     2
100
AcDbLine
 10
141.5398820755
 20
194.6808962264
 30
0.0
 11
141.5398820755
 21
179.5808962264
 31
0.0
  0
LINE
  5
57
330
1F
100
AcDbEntity
  8
1
  6
DOT_CENTER
 62
     2
100
AcDbLine
 10
149.0898820755
 20
187.1308962264
 30
0.0
 11
133.9898820755
 21
187.1308962264
 31
0.0
  0
LINE
  5
58
330
1F
100
AcDbEntity
  8
DEFAULT_2
  6
DASHED
 62
     2
100
AcDbLine
 10
112.0398820755
 20
177.8358962264
 30
0.0
 11
112.0398820755
 21
220.4258962264
 31
0.0
  0
LINE
  5
59
330
1F
100
AcDbEntity
  8
DEFAULT_2
  6
DASHED
 62
     2
100
AcDbLine
 10
112.0398820755
 20
177.8358962264
 30
0.0
 11
114.5298820755
 21
177.8358962264
 31
0.0
  0
LINE
  5
5A
330
1F
100
AcDbEntity
  8
1
  6
DOT_CENTER
 62
     2
100
AcDbLine
 10
128.5398820755
 20
194.6808962264
 30
0.0
 11
128.5398820755
 21
179.5808962264
 31
0.0
  0
LINE
  5
5B
330
1F
100
AcDbEntity
  8
1
  6
DOT_CENTER
 62
     2
100
AcDbLine
 10
136.0898820755
 20
187.1308962264
 30
0.0
 11
120.9898820755
 21
187.1308962264
 31
0.0
  0
LINE
  5
5C
330
1F
100
AcDbEntity
  8
0
  6
Continuous
 62
     7
100
AcDbLine
 10
173.5298820755
 20
186.6308962264
 30
0.0
 11
173.5298820755
 21
211.6308962264
 31
0.0
  0
LINE
  5
5D
330
1F
100
AcDbEntity
  8
DEFAULT_2
  6
DASHED
 62
     2
100
AcDbLine
 10
114.5298820755
 20
210.6308962264
 30
0.0
 11
117.5298820755
 21
210.6308962264
 31
0.0
  0
LINE
  5
5E
330
1F
100
AcDbEntity
  8
DEFAULT_2
  6
DASHED
 62
     2
100
AcDbLine
 10
114.5298820755
 20
205.6308962264
 30
0.0
 11
117.5298820755
 21
205.6308962264
 31
0.0
  0
LINE
  5
5F
330
1F
100
AcDbEntity
  8
DEFAULT_2
  6
DASHED
 62
     2
100
AcDbLine
 10
117.5298820755
 20
192.6308962264
 30
0.0
 11
114.5298820755
 21
192.6308962264
 31
0.0
  0
LINE
  5
60
330
1F
100
AcDbEntity
  8
DEFAULT_2
  6
DASHED
 62
     2
100
AcDbLine
 10
114.5298820755
 20
187.6308962264
 30
0.0
 11
117.5298820755
 21
187.6308962264
 31
0.0
  0
LINE
  5
61
330
1F
100
AcDbEntity
  8
DEFAULT_2
  6
HIDDEN_2
 62
   252
420
  8685188
100
AcDbLine
 10
161.0097220729
 20
183.0208962264
 30
0.0
 11
161.0398820755
 21
183.0208962264
 31
0.0
  0
LINE
  5
62
330
1F
100
AcDbEntity
  8
0
  6
Continuous
 62
     7
100
AcDbLine
 10
161.5298820755
 20
174.6308962264
 30
0.0
 11
107.0298820755001
 21
174.6308962264
 31
0.0
  0
LINE
  5
63
330
1F
100
AcDbEntity
  8
0
  6
Continuous
 62
     7
100
AcDbLine
 10
85.2798820755
 20
173.6308962264
 30
0.0
 11
107.7798820755
 21
173.6308962264
 31
0.0
  0
LINE
  5
64
330
1F
100
AcDbEntity
  8
0
  6
Continuous
 62
     7
100
AcDbLine
 10
107.7798820755
 20
166.1308962264
 30
0.0
 11
85.2798820755
 21
166.1308962264
 31
0.0
  0
LINE
  5
65
330
1F
100
AcDbEntity
  8
DEFAULT_2
  6
DASHED
 62
     2
100
AcDbLine
 10
117.5298820755
 20
187.6308962264
 30
0.0
 11
117.5298820755
 21
192.6308962264
 31
0.0
  0
LINE
  5
66
330
1F
100
AcDbEntity
  8
DEFAULT_2
  6
DASHED
 62
     2
100
AcDbLine
 10
117.5298820755
 20
210.6308962264
 30
0.0
 11
117.5298820755
 21
205.6308962264
 31
0.0
  0
LINE
  5
67
330
1F
100
AcDbEntity
  8
DEFAULT_2
  6
DASHED
 62
     2
100
AcDbLine
 10
114.5298820755
 20
177.8358962264
 30
0.0
 11
114.5298820755
 21
220.4258962264
 31
0.0
  0
LINE
  5
68
330
1F
100
AcDbEntity
  8
0
  6
Continuous
 62
     7
100
AcDbLine
 10
107.7798820755
 20
166.1308962264
 30
0.0
 11
107.7798820755
 21
173.6308962264
 31
0.0
  0
LINE
  5
69
330
1F
100
AcDbEntity
  8
0
  6
Continuous
 62
     7
100
AcDbLine
 10
107.0298820755
 20
124.6308962264
 30
0.0
 11
107.0298820755
 21
166.1308962264
 31
0.0
  0
LINE
  5
6A
330
1F
100
AcDbEntity
  8
0
  6
Continuous
 62
     7
100
AcDbLine
 10
106.9898820755
 20
223.6308962264
 30
0.0
 11
106.9898820755
 21
224.6308962264
 31
0.0
  0
LINE
  5
6B
330
1F
100
AcDbEntity
  8
0
  6
Continuous
 62
     7
100
AcDbLine
 10
106.8298820755
 20
124.6308962264
 30
0.0
 11
106.8298820755
 21
123.6308962264
 31
0.0
  0
LINE
  5
6C
330
1F
100
AcDbEntity
  8
0
  6
Continuous
 62
     7
100
AcDbLine
 10
106.5298820755
 20
173.6308962264
 30
0.0
 11
106.5298820755
 21
174.6308962264
 31
0.0
  0
LINE
  5
6D
330
1F
100
AcDbEntity
  8
0
  6
Continuous
 62
     7
100
AcDbLine
 10
105.9598820755
 20
223.6308962264
 30
0.0
 11
105.9598820755
 21
174.6308962264
 31
0.0
  0
LINE
  5
6E
330
1F
100
AcDbEntity
  8
0
  6
Continuous
 62
     7
100
AcDbLine
 10
86.5298820755
 20
173.6308962264
 30
0.0
 11
86.5298820755
 21
174.6308962264
 31
0.0
  0
LINE
  5
6F
330
1F
100
AcDbEntity
  8
0
  6
Continuous
 62
     7
100
AcDbLine
 10
86.3898820755
 20
223.6308962264
 30
0.0
 11
86.3898820755
 21
224.6308962264
 31
0.0
  0
LINE
  5
70
330
1F
100
AcDbEntity
  8
0
  6
Continuous
 62
     7
100
AcDbLine
 10
86.2298820755
 20
124.6308962264
 30
0.0
 11
86.2298820755
 21
123.6308962264
 31
0.0
  0
LINE
  5
71
330
1F
100
AcDbEntity
  8
0
  6
Continuous
 62
     7
100
AcDbLine
 10
86.02988207550003
 20
223.6308962264
 30
0.0
 11
86.02988207550003
 21
174.6308962264
 31
0.0
  0
LINE
  5
72
330
1F
100
AcDbEntity
  8
0
  6
Continuous
 62
     7
100
AcDbLine
 10
86.02988207549998
 20
124.6308962264
 30
0.0
 11
86.02988207549998
 21
166.1308962264
 31
0.0
  0
LINE
  5
73
330
1F
100
AcDbEntity
  8
0
  6
Continuous
 62
     7
100
AcDbLine
 10
85.2798820755
 20
173.6308962264
 30
0.0
 11
85.2798820755
 21
166.1308962264
 31
0.0
  0
LINE
  5
74
330
1F
100
AcDbEntity
  8
0
  6
Continuous
 62
     7
100
AcDbLine
 10
86.02988207549998
 20
124.6308962264
 30
0.0
 11
107.0298820755
 21
124.6308962264
 31
0.0
  0
LINE
  5
75
330
1F
100
AcDbEntity
  8
0
  6
Continuous
 62
     7
100
AcDbLine
 10
105.8298520368
 20
122.6308962264
 30
0.0
 11
87.2299121141
 21
122.6308962264
 31
0.0
  0
ARC
  5
76
330
1F
100
AcDbEntity
  8
0
  6
Continuous
 62
     7
100
AcDbCircle
 10
161.5298820755
 20
211.6308962264
 30
0.0
 40
12.0
100
AcDbArc
 50
0.0
 51
90.0
  0
ARC
  5
77
330
1F
100
AcDbEntity
  8
0
  6
Continuous
 62
     7
100
AcDbCircle
 10
161.5298820755
 20
186.6308962264
 30
0.0
 40
12.0
100
AcDbArc
 50
-90.0
 51
0.0
  0
ARC
  5
78
330
1F
100
AcDbEntity
  8
0
  6
Continuous
 62
     7
100
AcDbCircle
 10
106.9598820755
 20
222.6308857671
 30
0.0
 40
1.0
100
AcDbArc
 50
90.0
 51
107.2999497929897
  0
ARC
  5
79
330
1F
100
AcDbEntity
  8
0
  6
Continuous
 62
     7
100
AcDbCircle
 10
105.9898820755
 20
224.6308962264
 30
0.0
 40
1.0
100
AcDbArc
 50
0.0
 51
90.0
  0
ARC
  5
7A
330
1F
100
AcDbEntity
  8
0
  6
Continuous
 62
     7
100
AcDbCircle
 10
87.3898820755
 20
224.6308962264
 30
0.0
 40
1.0
100
AcDbArc
 50
90.0
 51
180.0
  0
ARC
  5
7B
330
1F
100
AcDbEntity
  8
0
  6
Continuous
 62
     7
100
AcDbCircle
 10
87.2298820755
 20
123.6308962264
 30
0.0
 40
1.0
100
AcDbArc
 50
180.0
 51
-90.0
  0
ARC
  5
7C
330
1F
100
AcDbEntity
  8
0
  6
Continuous
 62
     7
100
AcDbCircle
 10
105.8298820755
 20
123.6308962264
 30
0.0
 40
1.0
100
AcDbArc
 50
-90.0
 51
0.0
  0
ARC
  5
7D
330
1F
100
AcDbEntity
  8
0
  6
Continuous
 62
     7
100
AcDbCircle
 10
165.3927315378
 20
199.1308962264
 30
0.0
 40
9.067150537600071
100
AcDbArc
 50
-26.17746557939632
 51
26.1774655794018
  0
ARC
  5
7E
330
1F
100
AcDbEntity
  8
DEFAULT_2
  6
LONG_DASHED
 62
     2
100
AcDbCircle
 10
148.5398820755
 20
194.1308962264
 30
0.0
 40
2.197368978500474
100
AcDbArc
 50
57.7801604978925
 51
-57.7801604978929
  0
ARC
  5
7F
330
1F
100
AcDbEntity
  8
DEFAULT_2
  6
LONG_DASHED
 62
     2
100
AcDbCircle
 10
148.5398820755
 20
194.1308962264
 30
0.0
 40
2.805000000000801
100
AcDbArc
 50
131.7562133308408
 51
-131.7562133308404
  0
ARC
  5
80
330
1F
100
AcDbEntity
  8
DEFAULT_2
  6
LONG_DASHED
 62
     2
100
AcDbCircle
 10
148.5398820755
 20
204.1308962264
 30
0.0
 40
2.805000000000801
100
AcDbArc
 50
131.7562133308408
 51
-131.7562133308404
  0
ARC
  5
81
330
1F
100
AcDbEntity
  8
DEFAULT_2
  6
LONG_DASHED
 62
     2
100
AcDbCircle
 10
148.5398820755
 20
204.1308962264
 30
0.0
 40
2.197368978500474
100
AcDbArc
 50
57.7801604978925
 51
-57.7801604978929
  0
ARC
  5
82
330
1F
100
AcDbEntity
  8
DEFAULT_2
  6
LONG_DASHED
 62
     2
100
AcDbCircle
 10
148.0398820755
 20
204.1308962264
 30
0.0
 40
2.500000000000521
100
AcDbArc
 50
-123.1758170597009
 51
123.1758170597012
  0
ARC
  5
83
330
1F
100
AcDbEntity
  8
DEFAULT_2
  6
LONG_DASHED
 62
     2
100
AcDbCircle
 10
148.0398820755
 20
194.1308962264
 30
0.0
 40
2.500000000000521
100
AcDbArc
 50
-123.1758170597009
 51
123.1758170597012
  0
CIRCLE
  5
84
330
1F
100
AcDbEntity
  8
1
  6
DASHED
 62
     2
100
AcDbCircle
 10
96.5298820755
 20
136.1283962134
 30
0.0
 40
2.5
  0
CIRCLE
  5
85
330
1F
100
AcDbEntity
  8
1
  6
DASHED
 62
     2
100
AcDbCircle
 10
96.5298820755
 20
181.1308962264
 30
0.0
 40
3.0
  0
CIRCLE
  5
86
330
1F
100
AcDbEntity
  8
1
  6
DASHED
 62
     2
100
AcDbCircle
 10
96.5298820755
 20
181.1308962264
 30
0.0
 40
5.5
  0
CIRCLE
  5
87
330
1F
100
AcDbEntity
  8
1
  6
DASHED
 62
     2
100
AcDbCircle
 10
96.5298820755
 20
199.1283962134
 30
0.0
 40
2.5
  0
CIRCLE
  5
88
330
1F
100
AcDbEntity
  8
1
  6
DASHED
 62
     2
100
AcDbCircle
 10
96.5298820755
 20
217.1308962264
 30
0.0
 40
3.0
  0
CIRCLE
  5
89
330
1F
100
AcDbEntity
  8
1
  6
DASHED
 62
     2
100
AcDbCircle
 10
96.5298820755
 20
217.1308962264
 30
0.0
 40
5.5
  0
CIRCLE
  5
8A
330
1F
100
AcDbEntity
  8
1
  6
DASHED
 62
     2
100
AcDbCircle
 10
155.5398820755
 20
213.6308962264
 30
0.0
 40
3.0
  0
CIRCLE
  5
8B
330
1F
100
AcDbEntity
  8
1
  6
DASHED
 62
     2
100
AcDbCircle
 10
155.5398820755
 20
213.6308962264
 30
0.0
 40
5.5
  0
CIRCLE
  5
8C
330
1F
100
AcDbEntity
  8
1
  6
DASHED
 62
     2
100
AcDbCircle
 10
141.5398820755
 20
211.1308962264
 30
0.0
 40
3.0
  0
CIRCLE
  5
8D
330
1F
100
AcDbEntity
  8
1
  6
DASHED
 62
     2
100
AcDbCircle
 10
141.5398820755
 20
211.1308962264
 30
0.0
 40
5.5
  0
CIRCLE
  5
8E
330
1F
100
AcDbEntity
  8
1
  6
DASHED
 62
     2
100
AcDbCircle
 10
128.5398820755
 20
211.1308962264
 30
0.0
 40
3.0
  0
CIRCLE
  5
8F
330
1F
100
AcDbEntity
  8
1
  6
DASHED
 62
     2
100
AcDbCircle
 10
128.5398820755
 20
211.1308962264
 30
0.0
 40
5.5
  0
CIRCLE
  5
90
330
1F
100
AcDbEntity
  8
1
  6
DASHED
 62
     2
100
AcDbCircle
 10
155.5398820755
 20
184.6308962264
 30
0.0
 40
3.0
  0
CIRCLE
  5
91
330
1F
100
AcDbEntity
  8
1
  6
DASHED
 62
     2
100
AcDbCircle
 10
155.5398820755
 20
184.6308962264
 30
0.0
 40
5.5
  0
CIRCLE
  5
92
330
1F
100
AcDbEntity
  8
1
  6
DASHED
 62
     2
100
AcDbCircle
 10
141.5398820755
 20
187.1308962264
 30
0.0
 40
3.0
  0
CIRCLE
  5
93
330
1F
100
AcDbEntity
  8
1
  6
DASHED
 62
     2
100
AcDbCircle
 10
141.5398820755
 20
187.1308962264
 30
0.0
 40
5.5
  0
CIRCLE
  5
94
330
1F
100
AcDbEntity
  8
1
  6
DASHED
 62
     2
100
AcDbCircle
 10
128.5398820755
 20
187.1308962264
 30
0.0
 40
5.5
  0
CIRCLE
  5
95
330
1F
100
AcDbEntity
  8
1
  6
DASHED
 62
     2
100
AcDbCircle
 10
128.5398820755
 20
187.1308962264
 30
0.0
 40
3.0
  0
SPLINE
  5
96
330
1F
100
AcDbEntity
  8
0
  6
Continuous
 62
     7
100
AcDbSpline
210
0.0
220
0.0
230
1.0
 70
     8
 71
     3
 72
    15
 73
    11
 74
     9
 42
0.0000000001
 43
0.0000000001
 44
0.00000001
 40
0.0
 40
0.0
 40
0.0
 40
0.0
 40
0.0839969109335785
 40
0.1679938263805063
 40
0.2100002126568835
 40
0.2520063934668013
 40
0.2940188760468978
 40
0.3360315607916419
 40
0.4200520693222237
 40
0.5040725773759416
 40
0.5040725773759416
 40
0.5040725773759416
 40
0.5040725773759416
 10
106.0598820755
 20
222.733265727
 30
0.0
 10
106.0493195473729
 20
222.7073245289982
 30
0.0
 10
106.0281944905511
 20
222.6554421316008
 30
0.0
 10
106.0074421666526
 20
222.5884957606874
 30
0.0
 10
105.9933743274671
 20
222.5342845893012
 30
0.0
 10
105.9842717936579
 20
222.4932642664487
 30
0.0
 10
105.9765904710144
 20
222.4519520880418
 30
0.0
 10
105.9683129087618
 20
222.3965481967996
 30
0.0
 10
105.9612004935092
 20
222.3268032217661
 30
0.0
 10
105.9603215481689
 20
222.2707761490024
 30
0.0
 10
105.9598820755
 20
222.2427626127
 30
0.0
 11
106.0598820755
 21
222.733265727
 31
0.0
 11
106.0293254472066
 21
222.6550239637675
 31
0.0
 11
106.0041374901694
 21
222.5748925178497
 31
0.0
 11
105.9936159408174
 21
222.5342251662364
 31
0.0
 11
105.9845091513252
 21
222.4932180252561
 31
0.0
 11
105.9768360436679
 21
222.4519121889685
 31
0.0
 11
105.9705977652252
 21
222.4103652328642
 31
0.0
 11
105.9624032237553
 21
222.3267452870149
 31
0.0
 11
105.9598820755
 21
222.2427626127
 31
0.0
  0
SPLINE
  5
97
330
1F
100
AcDbEntity
  8
0
  6
Continuous
 62
     7
100
AcDbSpline
210
0.0
220
0.0
230
1.0
 70
     8
 71
     3
 72
    87
 73
    83
 74
    81
 42
0.0000000001
 43
0.0000000001
 44
0.00000001
 40
0.0
 40
0.0
 40
0.0
 40
0.0
 40
0.018101613620119
 40
0.0362030778338303
 40
0.0445068969107358
 40
0.0528107327250803
 40
0.060898639904712
 40
0.068986569321003
 40
0.0772935235522041
 40
0.0856005066317849
 40
0.0936903335770936
 40
0.1017801271222251
 40
0.1094409758961264
 40
0.1171018461571858
 40
0.1247497889104461
 40
0.1323975937808107
 40
0.1400575384373197
 40
0.1477176342586863
 40
0.1550602244417623
 40
0.1624027624016486
 40
0.1701678905787319
 40
0.1779330220832127
 40
0.1859372967886154
 40
0.193941626867054
 40
0.2091816068151846
 40
0.2244218899094851
 40
0.2399176794682674
 40
0.2554133912049985
 40
0.2731752576157538
 40
0.2909373943998648
 40
0.3085539767676881
 40
0.3261704334679925
 40
0.3418715662168678
 40
0.3575726217801471
 40
0.3729145709857368
 40
0.3882565510660086
 40
0.4025754677911571
 40
0.4168943405646748
 40
0.4312081772157106
 40
0.4455220287574699
 40
0.4602055453096491
 40
0.4748890737351785
 40
0.4896797603518629
 40
0.504470435721704
 40
0.5201730426536882
 40
0.5358756840445051
 40
0.5516250062902563
 40
0.5673743392845073
 40
0.5838258373441297
 40
0.6002773178051255
 40
0.6168409515833342
 40
0.6334046035611886
 40
0.6508935952864271
 40
0.6683825959822425
 40
0.6858853860850846
 40
0.7033881595946705
 40
0.7198915069564537
 40
0.7363948502778556
 40
0.7527703367486973
 40
0.7691458110738544
 40
0.7844441030942398
 40
0.7997424077459021
 40
0.8144858921062915
 40
0.8292293548166093
 40
0.8423677036773102
 40
0.8555060203011433
 40
0.8685813637541925
 40
0.8816567437343248
 40
0.8945993155063215
 40
0.907541872851319
 40
0.9209837230055644
 40
0.9344255836170365
 40
0.9481215295061483
 40
0.9618174575395168
 40
0.9724910049999862
 40
0.983164545484197
 40
0.9940250761422079
 40
1.004885611389602
 40
1.016114640871125
 40
1.027343668316978
 40
1.051632901186073
 40
1.075922139244127
 40
1.075922139244127
 40
1.075922139244127
 40
1.075922139244127
 10
106.6625468918
 20
223.5856647929
 30
0.0
 10
106.6568232946632
 20
223.5837523584478
 30
0.0
 10
106.6453761476309
 20
223.579927505328
 30
0.0
 10
106.6315685027607
 20
223.5744791730364
 30
0.0
 10
106.6209504803915
 20
223.5698829667692
 30
0.0
 10
106.613471730145
 20
223.5664412764789
 30
0.0
 10
106.6061354735391
 20
223.5628673888964
 30
0.0
 10
106.5988738316344
 20
223.5591420161072
 30
0.0
 10
106.5916228630126
 20
223.5552394590063
 30
0.0
 10
106.5844455985242
 20
223.5512018093465
 30
0.0
 10
106.5774011210428
 20
223.5470783463042
 30
0.0
 10
106.5706094868149
 20
223.5429514539431
 30
0.0
 10
106.5640039379127
 20
223.5387955779473
 30
0.0
 10
106.5575877785487
 20
223.5346169764807
 30
0.0
 10
106.5512438401045
 20
223.5303372498018
 30
0.0
 10
106.5449751269224
 20
223.5259484820586
 30
0.0
 10
106.538785129472
 20
223.5214425425511
 30
0.0
 10
106.5327485944673
 20
223.5169004946033
 30
0.0
 10
106.5268550410239
 20
223.5123455622899
 30
0.0
 10
106.520986136573
 20
223.5077023292914
 30
0.0
 10
106.5150560071983
 20
223.5029101395578
 30
0.0
 10
106.5090047494383
 20
223.4979175605949
 30
0.0
 10
106.5029419408035
 20
223.4928142805535
 30
0.0
 10
106.4950403376413
 20
223.4860271718835
 30
0.0
 10
106.4854307830174
 20
223.4775277429829
 30
0.0
 10
106.4741413585329
 20
223.467162369585
 30
0.0
 10
106.4629817948162
 20
223.4565333063144
 30
0.0
 10
106.4514148892876
 20
223.4451169988231
 30
0.0
 10
106.4395318110876
 20
223.4329493707389
 30
0.0
 10
106.4273832125395
 20
223.4200571253235
 30
0.0
 10
106.4154754580631
 20
223.4070078067628
 30
0.0
 10
106.4042244471794
 20
223.3942920229735
 30
0.0
 10
106.3935679491603
 20
223.3819051447922
 30
0.0
 10
106.383563471571
 20
223.3699592447517
 30
0.0
 10
106.3737940258426
 20
223.3579744936558
 30
0.0
 10
106.3644650514728
 20
223.3462266980983
 30
0.0
 10
106.355486984875
 20
223.3346371700336
 30
0.0
 10
106.3468512198663
 20
223.3232172137373
 30
0.0
 10
106.3383504021271
 20
223.3116985577956
 30
0.0
 10
106.329911882005
 20
223.2999840620697
 30
0.0
 10
106.3215380800757
 20
223.2880722527432
 30
0.0
 10
106.3132103439991
 20
223.2759349546198
 30
0.0
 10
106.3049980712649
 20
223.2636762299502
 30
0.0
 10
106.2967335144823
 20
223.2510447422633
 30
0.0
 10
106.2884436272692
 20
223.2380676322174
 30
0.0
 10
106.2801199930316
 20
223.2247339633053
 30
0.0
 10
106.2719164025771
 20
223.2113078860419
 30
0.0
 10
106.2637041145444
 20
223.1975953754057
 30
0.0
 10
106.2554879605454
 20
223.1836130183637
 30
0.0
 10
106.2472538441634
 20
223.1693270642859
 30
0.0
 10
106.2391198935962
 20
223.1549408878084
 30
0.0
 10
106.2309335320266
 20
223.1401876936939
 30
0.0
 10
106.222716625961
 20
223.1250992829611
 30
0.0
 10
106.2144733009956
 20
223.109669447484
 30
0.0
 10
106.2063498753966
 20
223.0941709646429
 30
0.0
 10
106.1985017586975
 20
223.07889974675
 30
0.0
 10
106.1909257454446
 20
223.0638638878539
 30
0.0
 10
106.183634857732
 20
223.0491056970121
 30
0.0
 10
106.1764804941961
 20
223.0343281875685
 30
0.0
 10
106.1696157757914
 20
223.0198572949814
 30
0.0
 10
106.1630135835856
 20
223.0056598220148
 30
0.0
 10
106.1567400868434
 20
222.9919098852581
 30
0.0
 10
106.1506377300272
 20
222.9782855523853
 30
0.0
 10
106.1449244054265
 20
222.965276270822
 30
0.0
 10
106.1395184654585
 20
222.952716808708
 30
0.0
 10
106.1344204609428
 20
222.9406305273785
 30
0.0
 10
106.1294231119559
 20
222.9285249954465
 30
0.0
 10
106.1245333290477
 20
222.9164460118451
 30
0.0
 10
106.1197329615826
 20
222.9043788536814
 30
0.0
 10
106.1149575208279
 20
222.8921705512134
 30
0.0
 10
106.1101906328909
 20
222.8797804127685
 30
0.0
 10
106.1054056447895
 20
222.8671283980054
 30
0.0
 10
106.1006641622653
 20
222.8543696183017
 30
0.0
 10
106.0963159595687
 20
222.8424493574022
 30
0.0
 10
106.0923740748379
 20
222.8314535184622
 30
0.0
 10
106.0888010416231
 20
222.8213296180397
 30
0.0
 10
106.0852586342159
 20
222.8111289554102
 30
0.0
 10
106.0817070050861
 20
222.8007356324779
 30
0.0
 10
106.0781670510714
 20
222.790208645501
 30
0.0
 10
106.0732713714535
 20
222.775415222648
 30
0.0
 10
106.0671325591384
 20
222.7564476690839
 30
0.0
 10
106.0622989035516
 20
222.7409930415782
 30
0.0
 10
106.0598820755
 20
222.733265727
 30
0.0
 11
106.6625468918
 21
223.5856647929
 31
0.0
 11
106.6454300124282
 21
223.5797757474574
 31
0.0
 11
106.6285825463401
 21
223.5731556346873
 31
0.0
 11
106.6209632595315
 21
223.5698541380888
 31
0.0
 11
106.6134195901484
 21
223.5663832964805
 31
0.0
 11
106.6061479590603
 21
223.5628424457542
 31
0.0
 11
106.5989510143444
 21
223.5591521085069
 31
0.0
 11
106.5916353570832
 21
223.5552168007126
 31
0.0
 11
106.5843944858263
 21
223.5511454678442
 31
0.0
 11
106.5774124720816
 21
223.5470592979904
 31
0.0
 11
106.5704986279459
 21
223.5428588790982
 31
0.0
 11
106.56401473693
 21
223.5387787122842
 31
0.0
 11
106.5575956196441
 21
223.534597340927
 31
0.0
 11
106.551256290569
 21
223.5303190310698
 31
0.0
 11
106.544992089079
 21
223.525931697138
 31
0.0
 11
106.5387972036862
 21
223.5214263506352
 31
0.0
 11
106.5326742500437
 21
223.5168234703756
 31
0.0
 11
106.5268635882961
 21
223.5123346129874
 31
0.0
 11
106.521104290897
 21
223.5077801254025
 31
0.0
 11
106.5150643288354
 21
223.5028999538993
 31
0.0
 11
106.5090742728503
 21
223.4979586487501
 31
0.0
 11
106.5029505936125
 21
223.4928041394473
 31
0.0
 11
106.496878685078
 21
223.4875886599149
 31
0.0
 11
106.4854624710072
 21
223.4774927674279
 31
0.0
 11
106.47423558863
 21
223.4671862966021
 31
0.0
 11
106.4630137707782
 21
223.4565003105385
 31
0.0
 11
106.4519838910203
 21
223.4456164309566
 31
0.0
 11
106.439570053475
 21
223.4329128670554
 31
0.0
 11
106.4273848705371
 21
223.4199894456853
 31
0.0
 11
106.4155089181066
 21
223.406977692222
 31
0.0
 11
106.403833932193
 21
223.3937854880623
 31
0.0
 11
106.3935943925436
 21
223.381882656577
 31
0.0
 11
106.3835136917701
 21
223.3698451062567
 31
0.0
 11
106.3738194932376
 21
223.3579540205098
 31
0.0
 11
106.364278022533
 21
223.3459399999681
 31
0.0
 11
106.3555090478256
 21
223.3346202623932
 31
0.0
 11
106.3468725379473
 21
223.3231991935017
 31
0.0
 11
106.3383726262546
 21
223.3116823614334
 31
0.0
 11
106.3300060252936
 21
223.3000683038169
 31
0.0
 11
106.3215609395669
 21
223.2880563853437
 31
0.0
 11
106.31325297383
 21
223.2759492092759
 31
0.0
 11
106.3050204069731
 21
223.2636614408235
 31
0.0
 11
106.2969218602696
 21
223.2512849461991
 31
0.0
 11
106.2884666577039
 21
223.2380531128404
 31
0.0
 11
106.2801495410399
 21
223.2247340093778
 31
0.0
 11
106.2719363503069
 21
223.2112958305881
 31
0.0
 11
106.263842800121
 21
223.1977852445478
 31
0.0
 11
106.2555078378516
 21
223.1836014441976
 31
0.0
 11
106.2472921621869
 21
223.1693482381467
 31
0.0
 11
106.2391391716703
 21
223.1549300999321
 31
0.0
 11
106.2311018108424
 21
223.1404471652238
 31
0.0
 11
106.2227371721457
 21
223.1250882052643
 31
0.0
 11
106.2144957922668
 21
223.1096627456915
 31
0.0
 11
106.206370733418
 21
223.0941601304254
 31
0.0
 11
106.1983708529287
 21
223.0785925682308
 31
0.0
 11
106.1909451351776
 21
223.0638542104517
 31
0.0
 11
106.1836357665803
 21
223.0490578098254
 31
0.0
 11
106.1765000218527
 21
223.0343188239601
 31
0.0
 11
106.1694814600342
 21
223.0195236913356
 31
0.0
 11
106.1630303395479
 21
223.0056521094788
 31
0.0
 11
106.1566797347793
 21
222.9917342093394
 31
0.0
 11
106.1506541083398
 21
222.9782782754404
 31
0.0
 11
106.1447267920385
 21
222.9647787712215
 31
0.0
 11
106.1395331677809
 21
222.9527105286876
 31
0.0
 11
106.1344278057352
 21
222.940604718426
 31
0.0
 11
106.1294369414329
 21
222.9285193603456
 31
0.0
 11
106.124528996943
 21
222.916400051681
 31
0.0
 11
106.1197444915161
 21
222.9043743013138
 31
0.0
 11
106.11502917786
 21
222.8923212681788
 31
0.0
 11
106.1102025713272
 21
222.8797758624482
 31
0.0
 11
106.1054475841408
 21
222.8672031255323
 31
0.0
 11
106.1006770828141
 21
222.8543648526388
 31
0.0
 11
106.0959841278845
 21
222.8414980496666
 31
0.0
 11
106.0923823434507
 21
222.8314505741487
 31
0.0
 11
106.0888301751492
 21
222.8213854578142
 31
0.0
 11
106.0852671256784
 21
222.8111260326529
 31
0.0
 11
106.0817549609706
 21
222.800849071773
 31
0.0
 11
106.0781755799499
 21
222.790205804671
 31
0.0
 11
106.0746465179212
 21
222.7795457493908
 31
0.0
 11
106.0671707039891
 21
222.7564355992523
 31
0.0
 11
106.0598820755
 21
222.733265727
 31
0.0
  0
SPLINE
  5
98
330
1F
100
AcDbEntity
  8
DEFAULT_2
  6
HIDDEN_2
 62
   252
420
  8685188
100
AcDbSpline
210
0.0
220
0.0
230
1.0
 70
     8
 71
     3
 72
     9
 73
     5
 74
     3
 42
0.0000000001
 43
0.0000000001
 44
0.00000001
 40
0.0
 40
0.0
 40
0.0
 40
0.0
 40
0.0115325039865647
 40
0.023065007973467
 40
0.023065007973467
 40
0.023065007973467
 40
0.023065007973467
 10
159.039882075496
 20
188.860565244187
 30
0.0
 10
159.038271597405
 20
188.8640558017158
 30
0.0
 10
159.0350506412229
 20
188.8710369167734
 30
0.0
 10
159.0318199844743
 20
188.8780135479911
 30
0.0
 10
159.0302046561
 20
188.8815018636
 30
0.0
 11
159.039882075496
 21
188.860565244187
 31
0.0
 11
159.0350482160813
 21
188.8710357958133
 31
0.0
 11
159.0302046561
 21
188.8815018636
 31
0.0
  0
SPLINE
  5
99
330
1F
100
AcDbEntity
  8
DEFAULT_2
  6
HIDDEN_2
 62
   252
420
  8685188
100
AcDbSpline
210
0.0
220
0.0
230
1.0
 70
     8
 71
     3
 72
     9
 73
     5
 74
     3
 42
0.0000000001
 43
0.0000000001
 44
0.00000001
 40
0.0
 40
0.0
 40
0.0
 40
0.0
 40
0.0115325039866834
 40
0.0230650079734468
 40
0.0230650079734468
 40
0.0230650079734468
 40
0.0230650079734468
 10
159.0302046561
 20
180.3802905892
 30
0.0
 10
159.0318199844644
 20
180.3837789048134
 30
0.0
 10
159.0350506411933
 20
180.3907555360403
 30
0.0
 10
159.0382715973951
 20
180.3977366510887
 30
0.0
 10
159.039882075496
 20
180.401227208613
 30
0.0
 11
159.0302046561
 21
180.3802905892
 31
0.0
 11
159.0350482160615
 21
180.3907566569956
 31
0.0
 11
159.039882075496
 21
180.401227208613
 31
0.0
  0
DIMENSION
  5
A6
330
1F
100
AcDbEntity
  8
1
100
AcDbDimension
  2
*D1
 10
66.19197630274479
 20
199.1283962134
 30
0.0
 11
62.44197630274479
 21
164.9556140779943
 31
0.0
 70
    32
  1
<>
 71
     5
 42
-1.0
 53
90.0
  3
ME10_DIM_10
100
AcDbAlignedDimension
 13
92.2798820755
 23
136.1283962134
 33
0.0
 14
92.2798820755
 24
199.1283962134
 34
0.0
 50
90.0
100
AcDbRotatedDimension
  0
DIMENSION
  5
B1
330
1F
100
AcDbEntity
  8
1
100
AcDbDimension
  2
*D2
 10
76.0214090698977
 20
217.1308962264001
 30
0.0
 11
72.2714090698977
 21
199.4716826230468
 31
0.0
 70
    32
  1
<>
 71
     5
 42
-1.0
 53
90.0
  3
ME10_DIM_11
100
AcDbAlignedDimension
 13
88.9798820755
 23
181.1308962264
 33
0.0
 14
88.9798820755
 24
217.1308962264
 34
0.0
 50
90.0
100
AcDbRotatedDimension
  0
DIMENSION
  5
BC
330
1F
100
AcDbEntity
  8
1
100
AcDbDimension
  2
*D3
 10
193.70782185843
 20
124.6308962264
 30
0.0
 11
189.95782185843
 21
148.302430991818
 31
0.0
 70
    32
  1
<>
 71
     5
 42
-1.0
 53
90.0
  3
ME10_DIM_12
100
AcDbAlignedDimension
 13
107.7798820755
 23
173.6308962264
 33
0.0
 14
107.0298820755
 24
124.6308962264
 34
0.0
 50
90.0
100
AcDbRotatedDimension
  0
DIMENSION
  5
C7
330
1F
100
AcDbEntity
  8
1
100
AcDbDimension
  2
*D4
 10
193.70782185843
 20
223.6308962264
 30
0.0
 11
189.95782185843
 21
199.494154259421
 31
0.0
 70
    32
  1
<>
 71
     5
 42
-1.0
 53
90.0
  3
ME10_DIM_13
100
AcDbAlignedDimension
 13
161.5298820755
 23
174.6308962264
 33
0.0
 14
161.5298820755
 24
223.6308962264
 34
0.0
 50
90.0
100
AcDbRotatedDimension
  0
DIMENSION
  5
D4
330
1F
100
AcDbEntity
  8
1
100
AcDbDimension
  2
*D5
 10
183.689270116276
 20
174.6308962264
 30
0.0
 11
179.939270116276
 21
178.335957772339
 31
0.0
 70
    32
  1
<>
 71
     5
 42
-1.0
 53
90.0
  3
ME10_DIM_14
100
AcDbAlignedDimension
 13
107.7798820755
 23
173.6308962264
 33
0.0
 14
86.02990737210003
 24
174.6308962264
 34
0.0
 50
90.0
100
AcDbRotatedDimension
  0
DIMENSION
  5
DF
330
1F
100
AcDbEntity
  8
1
100
AcDbDimension
  2
*D6
 10
169.227772027065
 20
213.6308962264
 30
0.0
 11
165.477772027065
 21
199.494154259421
 31
0.0
 70
    32
  1
<>
 71
     5
 42
-1.0
 53
90.0
  3
ME10_DIM_15
100
AcDbAlignedDimension
 13
163.0898820755
 23
184.6308962264
 33
0.0
 14
163.0898820755
 24
213.6308962264
 34
0.0
 50
90.0
100
AcDbRotatedDimension
  0
DIMENSION
  5
EA
330
1F
100
AcDbEntity
  8
1
100
AcDbDimension
  2
*D7
 10
157.310396547848
 20
204.1308962264
 30
0.0
 11
153.560396547848
 21
199.260480230417
 31
0.0
 70
    32
  1
<>
 71
     5
 42
-1.0
 53
90.0
  3
ME10_DIM_16
100
AcDbAlignedDimension
 13
152.456987951851
 23
194.1308962264
 33
0.0
 14
152.456987951851
 24
204.1308962264
 34
0.0
 50
90.0
100
AcDbRotatedDimension
  0
DIMENSION
  5
F5
330
1F
100
AcDbEntity
  8
1
100
AcDbDimension
  2
*D8
 10
134.994526777944
 20
211.1308962264
 30
0.0
 11
131.244526777944
 21
199.143643215915
 31
0.0
 70
    32
  1
<>
 71
     5
 42
-1.0
 53
90.0
  3
ME10_DIM_17
100
AcDbAlignedDimension
 13
136.0898820755
 23
187.1308962264
 33
0.0
 14
136.0898820755
 24
211.1308962264
 34
0.0
 50
90.0
100
AcDbRotatedDimension
  0
DIMENSION
  5
100
330
1F
100
AcDbEntity
  8
1
100
AcDbDimension
  2
*D9
 10
121.441433095698
 20
208.1308962264
 30
0.0
 11
117.691433095698
 21
199.143643215915
 31
0.0
 70
    32
  1
<>
 71
     5
 42
-1.0
 53
90.0
  3
ME10_DIM_18
100
AcDbAlignedDimension
 13
117.858102831374
 23
190.1308962264
 33
0.0
 14
117.858102831374
 24
208.1308962264
 34
0.0
 50
90.0
100
AcDbRotatedDimension
  0
DIMENSION
  5
10B
330
1F
100
AcDbEntity
  8
1
100
AcDbDimension
  2
*D10
 10
96.52988207550004
 20
235.189573868869
 30
0.0
 11
104.7224787242434
 21
238.939573868869
 31
0.0
 70
    32
  1
<>
 71
     5
 42
-1.0
 53
0.00013888888889
  3
ME10_DIM_19
100
AcDbAlignedDimension
 13
114.5298820755
 23
220.4258962264
 33
0.0
 14
96.5298820755
 24
228.6808962264
 34
0.0
100
AcDbRotatedDimension
  0
DIMENSION
  5
116
330
1F
100
AcDbEntity
  8
1
100
AcDbDimension
  2
*D11
 10
86.02988207549998
 20
112.220604648152
 30
0.0
 11
96.529882075549
 21
115.970604648152
 31
0.0
 70
    32
  1
<>
 71
     5
 42
-1.0
 53
0.00013888888889
  3
ME10_DIM_20
100
AcDbAlignedDimension
 13
107.0298820755
 23
124.6308962264
 33
0.0
 14
86.02988207549998
 24
124.6308962264
 34
0.0
100
AcDbRotatedDimension
  0
DIMENSION
  5
122
330
1F
100
AcDbEntity
  8
1
100
AcDbDimension
  2
*D12
 10
107.0298820755
 20
112.220604648152
 30
0.0
 11
139.0918211257861
 21
115.970604648152
 31
0.0
 70
    32
  1
<>
 71
     5
 42
-1.0
 53
0.00013888888889
  3
ME10_DIM_21
100
AcDbAlignedDimension
 13
173.5298820755
 23
186.6308962264
 33
0.0
 14
107.0298820755
 24
124.6308962264
 34
0.0
100
AcDbRotatedDimension
  0
ENDSEC
  0
SECTION
  2
OBJECTS
  0
DICTIONARY
  5
C
330
0
100
AcDbDictionary
281
     1
  3
ACAD_GROUP
350
D
  3
ACAD_LAYOUT
350
1A
  3
ACAD_MLINESTYLE
350
17
  3
ACAD_PLOTSETTINGS
350
19
  3
ACAD_PLOTSTYLENAME
350
E
  0
DICTIONARY
  5
D
102
{ACAD_REACTORS
330
C
102
}
330
C
100
AcDbDictionary
281
     1
  0
DICTIONARY
  5
1A
102
{ACAD_REACTORS
330
C
102
}
330
C
100
AcDbDictionary
281
     1
  3
Layout1
350
1E
  3
Layout2
350
26
  3
Model
350
22
  0
DICTIONARY
  5
17
102
{ACAD_REACTORS
330
C
102
}
330
C
100
AcDbDictionary
281
     1
  3
Standard
350
18
  0
DICTIONARY
  5
19
102
{ACAD_REACTORS
330
C
102
}
330
C
100
AcDbDictionary
281
     1
  0
ACDBDICTIONARYWDFLT
  5
E
102
{ACAD_REACTORS
330
C
102
}
330
C
100
AcDbDictionary
281
     1
  3
Normal
350
F
100
AcDbDictionaryWithDefault
340
F
  0
LAYOUT
  5
1E
102
{ACAD_REACTORS
330
1A
102
}
330
1A
100
AcDbPlotSettings
  1

  2

  4

  6

 40
0.0
 41
0.0
 42
0.0
 43
0.0
 44
0.0
 45
0.0
 46
0.0
 47
0.0
 48
0.0
 49
0.0
140
0.0
141
0.0
142
1.0
143
1.0
 70
   688
 72
     0
 73
     0
 74
     5
  7

 75
    16
 76
     0
 77
     2
 78
   300
147
1.0
148
0.0
149
0.0
100
AcDbLayout
  1
Layout1
 70
     1
 71
     1
 10
0.0
 20
0.0
 11
0.0
 21
0.0
 12
0.0
 22
0.0
 32
0.0
 14
0.0
 24
0.0
 34
0.0
 15
0.0
 25
0.0
 35
0.0
146
0.0
 13
0.0
 23
0.0
 33
0.0
 16
1.0
 26
0.0
 36
0.0
 17
0.0
 27
1.0
 37
0.0
 76
     0
330
1B
  0
LAYOUT
  5
26
102
{ACAD_REACTORS
330
1A
102
}
330
1A
100
AcDbPlotSettings
  1

  2

  4

  6

 40
0.0
 41
0.0
 42
0.0
 43
0.0
 44
0.0
 45
0.0
 46
0.0
 47
0.0
 48
0.0
 49
0.0
140
0.0
141
0.0
142
1.0
143
1.0
 70
   688
 72
     0
 73
     0
 74
     5
  7

 75
    16
 76
     0
 77
     2
 78
   300
147
1.0
148
0.0
149
0.0
100
AcDbLayout
  1
Layout2
 70
     1
 71
     2
 10
0.0
 20
0.0
 11
0.0
 21
0.0
 12
0.0
 22
0.0
 32
0.0
 14
0.0
 24
0.0
 34
0.0
 15
0.0
 25
0.0
 35
0.0
146
0.0
 13
0.0
 23
0.0
 33
0.0
 16
1.0
 26
0.0
 36
0.0
 17
0.0
 27
1.0
 37
0.0
 76
     0
330
23
  0
LAYOUT
  5
22
102
{ACAD_REACTORS
330
1A
102
}
330
1A
100
AcDbPlotSettings
  1

  2

  4

  6

 40
0.0
 41
0.0
 42
0.0
 43
0.0
 44
0.0
 45
0.0
 46
0.0
 47
0.0
 48
0.0
 49
0.0
140
0.0
141
0.0
142
1.0
143
1.0
 70
  1712
 72
     0
 73
     0
 74
     0
  7

 75
     0
 76
     0
 77
     2
 78
   300
147
1.0
148
0.0
149
0.0
100
AcDbLayout
  1
Model
 70
     1
 71
     0
 10
0.0
 20
0.0
 11
0.0
 21
0.0
 12
0.0
 22
0.0
 32
0.0
 14
60.69197630274479
 24
110.220604648152
 34
0.0
 15
195.70782185843
 25
240.689573868869
 35
0.0
146
0.0
 13
0.0
 23
0.0
 33
0.0
 16
1.0
 26
0.0
 36
0.0
 17
0.0
 27
1.0
 37
0.0
 76
     0
330
1F
  0
MLINESTYLE
  5
18
102
{ACAD_REACTORS
330
17
102
}
330
17
100
AcDbMlineStyle
  2
Standard
 70
     0
  3

 62
   256
 51
90.0
 52
90.0
 71
     2
 49
0.5
 62
   256
  6
BYLAYER
 49
-0.5
 62
   256
  6
BYLAYER
  0
ACDBPLACEHOLDER
  5
F
102
{ACAD_REACTORS
330
E
102
}
330
E
  0
ENDSEC
  0
EOF
