  0
SECTION
  2
HEADER
  9
$ACADVER
  1
AC1018
  9
$ACADMAINTVER
 70
     0
  9
$DWGCODEPAGE
  3
ANSI_1252
  9
$INSBASE
 10
0.0
 20
0.0
 30
0.0
  9
$EXTMIN
 10
80838.95873594572
 20
32327.6720712291
 30
0.0
  9
$EXTMAX
 10
80999.92606421582
 20
32468.0760230568
 30
0.0
  9
$LIMMIN
 10
0.0
 20
0.0
  9
$LIMMAX
 10
12.0
 20
9.0
  9
$ORTHOMODE
 70
     0
  9
$REGENMODE
 70
     1
  9
$FILLMODE
 70
     1
  9
$QTEXTMODE
 70
     0
  9
$MIRRTEXT
 70
     1
  9
$LTSCALE
 40
1.0
  9
$ATTMODE
 70
     1
  9
$TEXTSIZE
 40
0.2
  9
$TRACEWID
 40
0.05
  9
$TEXTSTYLE
  7
Standard
  9
$CLAYER
  8
0
  9
$CELTYPE
  6
ByLayer
  9
$CECOLOR
 62
   256
  9
$CELTSCALE
 40
1.0
  9
$DISPSILH
 70
     0
  9
$DIMSCALE
 40
1.0
  9
$DIMASZ
 40
0.18
  9
$DIMEXO
 40
0.0625
  9
$DIMDLI
 40
0.38
  9
$DIMRND
 40
0.0
  9
$DIMDLE
 40
0.0
  9
$DIMEXE
 40
0.18
  9
$DIMTP
 40
0.0
  9
$DIMTM
 40
0.0
  9
$DIMTXT
 40
0.18
  9
$DIMCEN
 40
0.09
  9
$DIMTSZ
 40
0.0
  9
$DIMTOL
 70
     0
  9
$DIMLIM
 70
     0
  9
$DIMTIH
 70
     1
  9
$DIMTOH
 70
     1
  9
$DIMSE1
 70
     0
  9
$DIMSE2
 70
     0
  9
$DIMTAD
 70
     0
  9
$DIMZIN
 70
     0
  9
$DIMBLK
  1

  9
$DIMASO
 70
     1
  9
$DIMSHO
 70
     1
  9
$DIMPOST
  1

  9
$DIMAPOST
  1

  9
$DIMALT
 70
     0
  9
$DIMALTD
 70
     2
  9
$DIMALTF
 40
25.4
  9
$DIMLFAC
 40
1.0
  9
$DIMTOFL
 70
     0
  9
$DIMTVP
 40
0.0
  9
$DIMTIX
 70
     0
  9
$DIMSOXD
 70
     0
  9
$DIMSAH
 70
     0
  9
$DIMBLK1
  1

  9
$DIMBLK2
  1

  9
$DIMSTYLE
  2
Standard
  9
$DIMCLRD
 70
     0
  9
$DIMCLRE
 70
     0
  9
$DIMCLRT
 70
     0
  9
$DIMTFAC
 40
1.0
  9
$DIMGAP
 40
0.09
  9
$DIMJUST
 70
     0
  9
$DIMSD1
 70
     0
  9
$DIMSD2
 70
     0
  9
$DIMTOLJ
 70
     1
  9
$DIMTZIN
 70
     0
  9
$DIMALTZ
 70
     0
  9
$DIMALTTZ
 70
     0
  9
$DIMUPT
 70
     0
  9
$DIMDEC
 70
     4
  9
$DIMTDEC
 70
     4
  9
$DIMALTU
 70
     2
  9
$DIMALTTD
 70
     2
  9
$DIMTXSTY
  7
Standard
  9
$DIMAUNIT
 70
     0
  9
$DIMADEC
 70
     0
  9
$DIMALTRND
 40
0.0
  9
$DIMAZIN
 70
     0
  9
$DIMDSEP
 70
    46
  9
$DIMATFIT
 70
     3
  9
$DIMFRAC
 70
     0
  9
$DIMLDRBLK
  1

  9
$DIMLUNIT
 70
     2
  9
$DIMLWD
 70
    -2
  9
$DIMLWE
 70
    -2
  9
$DIMTMOVE
 70
     0
  9
$LUNITS
 70
     2
  9
$LUPREC
 70
     4
  9
$SKETCHINC
 40
0.1
  9
$FILLETRAD
 40
0.5
  9
$AUNITS
 70
     0
  9
$AUPREC
 70
     0
  9
$MENU
  1
.
  9
$ELEVATION
 40
0.0
  9
$PELEVATION
 40
0.0
  9
$THICKNESS
 40
0.0
  9
$LIMCHECK
 70
     0
  9
$CHAMFERA
 40
0.5
  9
$CHAMFERB
 40
0.5
  9
$CHAMFERC
 40
1.0
  9
$CHAMFERD
 40
0.0
  9
$SKPOLY
 70
     0
  9
$TDCREATE
 40
2454483.371105509
  9
$TDUCREATE
 40
2454483.329438842
  9
$TDUPDATE
 40
2454483.371105521
  9
$TDUUPDATE
 40
2454483.329438854
  9
$TDINDWG
 40
0.0000000116
  9
$TDUSRTIMER
 40
0.0000000116
  9
$USRTIMER
 70
     1
  9
$ANGBASE
 50
0.0
  9
$ANGDIR
 70
     0
  9
$PDMODE
 70
     0
  9
$PDSIZE
 40
0.0
  9
$PLINEWID
 40
0.0
  9
$SPLFRAME
 70
     0
  9
$SPLINETYPE
 70
     6
  9
$SPLINESEGS
 70
     8
  9
$HANDSEED
  5
131
  9
$SURFTAB1
 70
     6
  9
$SURFTAB2
 70
     6
  9
$SURFTYPE
 70
     6
  9
$SURFU
 70
     6
  9
$SURFV
 70
     6
  9
$UCSBASE
  2

  9
$UCSNAME
  2

  9
$UCSORG
 10
0.0
 20
0.0
 30
0.0
  9
$UCSXDIR
 10
1.0
 20
0.0
 30
0.0
  9
$UCSYDIR
 10
0.0
 20
1.0
 30
0.0
  9
$UCSORTHOREF
  2

  9
$UCSORTHOVIEW
 70
     0
  9
$UCSORGTOP
 10
0.0
 20
0.0
 30
0.0
  9
$UCSORGBOTTOM
 10
0.0
 20
0.0
 30
0.0
  9
$UCSORGLEFT
 10
0.0
 20
0.0
 30
0.0
  9
$UCSORGRIGHT
 10
0.0
 20
0.0
 30
0.0
  9
$UCSORGFRONT
 10
0.0
 20
0.0
 30
0.0
  9
$UCSORGBACK
 10
0.0
 20
0.0
 30
0.0
  9
$PUCSBASE
  2

  9
$PUCSNAME
  2

  9
$PUCSORG
 10
0.0
 20
0.0
 30
0.0
  9
$PUCSXDIR
 10
1.0
 20
0.0
 30
0.0
  9
$PUCSYDIR
 10
0.0
 20
1.0
 30
0.0
  9
$PUCSORTHOREF
  2

  9
$PUCSORTHOVIEW
 70
     0
  9
$PUCSORGTOP
 10
0.0
 20
0.0
 30
0.0
  9
$PUCSORGBOTTOM
 10
0.0
 20
0.0
 30
0.0
  9
$PUCSORGLEFT
 10
0.0
 20
0.0
 30
0.0
  9
$PUCSORGRIGHT
 10
0.0
 20
0.0
 30
0.0
  9
$PUCSORGFRONT
 10
0.0
 20
0.0
 30
0.0
  9
$PUCSORGBACK
 10
0.0
 20
0.0
 30
0.0
  9
$USERI1
 70
     0
  9
$USERI2
 70
     0
  9
$USERI3
 70
     0
  9
$USERI4
 70
     0
  9
$USERI5
 70
     0
  9
$USERR1
 40
14.5
  9
$USERR2
 40
0.0
  9
$USERR3
 40
0.0
  9
$USERR4
 40
0.0
  9
$USERR5
 40
0.0
  9
$WORLDVIEW
 70
     1
  9
$SHADEDGE
 70
     3
  9
$SHADEDIF
 70
    70
  9
$TILEMODE
 70
     1
  9
$MAXACTVP
 70
    64
  9
$PINSBASE
 10
0.0
 20
0.0
 30
0.0
  9
$PLIMCHECK
 70
     0
  9
$PEXTMIN
 10
1.00000000000000E+20
 20
1.00000000000000E+20
 30
1.00000000000000E+20
  9
$PEXTMAX
 10
-1.00000000000000E+20
 20
-1.00000000000000E+20
 30
-1.00000000000000E+20
  9
$PLIMMIN
 10
0.0
 20
0.0
  9
$PLIMMAX
 10
12.0
 20
9.0
  9
$UNITMODE
 70
     0
  9
$VISRETAIN
 70
     1
  9
$PLINEGEN
 70
     0
  9
$PSLTSCALE
 70
     1
  9
$TREEDEPTH
 70
  3020
  9
$CMLSTYLE
  2
Standard
  9
$CMLJUST
 70
     0
  9
$CMLSCALE
 40
1.0
  9
$PROXYGRAPHICS
 70
     1
  9
$MEASUREMENT
 70
     1
  9
$CELWEIGHT
370
    -1
  9
$ENDCAPS
280
     0
  9
$JOINSTYLE
280
     0
  9
$LWDISPLAY
290
     0
  9
$INSUNITS
 70
     1
  9
$HYPERLINKBASE
  1

  9
$STYLESHEET
  1

  9
$XEDIT
290
     1
  9
$CEPSNTYPE
380
     0
  9
$PSTYLEMODE
290
     1
  9
$FINGERPRINTGUID
  2
{B2E73907-3AAF-4665-B824-2D28D1DBA6C3}
  9
$VERSIONGUID
  2
{FAEB1C32-E019-11D5-929B-00C0DF256EC4}
  9
$EXTNAMES
290
     1
  9
$PSVPSCALE
 40
0.0
  9
$OLESTARTUP
290
     0
  9
$SORTENTS
280
   127
  9
$INDEXCTL
280
     0
  9
$HIDETEXT
280
     1
  9
$XCLIPFRAME
290
     0
  9
$HALOGAP
280
     0
  9
$OBSCOLOR
 70
   257
  9
$OBSLTYPE
280
     0
  9
$INTERSECTIONDISPLAY
280
     0
  9
$INTERSECTIONCOLOR
 70
   257
  9
$DIMASSOC
280
     2
  9
$PROJECTNAME
  1

  0
ENDSEC
  0
SECTION
  2
CLASSES
  0
CLASS
  1
ACDBDICTIONARYWDFLT
  2
AcDbDictionaryWithDefault
  3
ObjectDBX Classes
 90
        0
 91
        3
280
     0
281
     0
  0
CLASS
  1

  2
exOdDbCircle
  3

 90
        0
 91
        3
280
     0
281
     1
  0
CLASS
  1

  2
exOdDbSpline
  3

 90
        0
 91
        3
280
     0
281
     1
  0
ENDSEC
  0
SECTION
  2
TABLES
  0
TABLE
  2
VPORT
  5
8
330
0
100
AcDbSymbolTable
 70
     1
  0
VPORT
  5
29
330
8
100
AcDbSymbolTableRecord
100
AcDbViewportTableRecord
  2
*Active
 70
     0
 10
0.0
 20
0.0
 11
1.0
 21
1.0
 12
80919.44240008076
 22
32397.87404714295
 13
0.0
 23
0.0
 14
0.5
 24
0.5
 15
0.5
 25
0.5
 16
0.0
 26
0.0
 36
1.0
 17
0.0
 27
0.0
 37
0.0
 40
154.4443470104725
 41
1.60267857142857
 42
50.0
 43
0.0
 44
0.0
 50
0.0
 51
0.0
 71
     0
 72
   100
 73
     1
 74
     3
 75
     0
 76
     0
 77
     0
 78
     0
281
     0
 65
     1
110
0.0
120
0.0
130
0.0
111
1.0
121
0.0
131
0.0
112
0.0
122
1.0
132
0.0
 79
     0
146
0.0
  0
ENDTAB
  0
TABLE
  2
LTYPE
  5
5
330
0
100
AcDbSymbolTable
 70
     9
  0
LTYPE
  5
14
330
5
100
AcDbSymbolTableRecord
100
AcDbLinetypeTableRecord
  2
ByBlock
 70
     0
  3

 72
    65
 73
     0
 40
0.0
  0
LTYPE
  5
15
330
5
100
AcDbSymbolTableRecord
100
AcDbLinetypeTableRecord
  2
ByLayer
 70
     0
  3

 72
    65
 73
     0
 40
0.0
  0
LTYPE
  5
16
330
5
100
AcDbSymbolTableRecord
100
AcDbLinetypeTableRecord
  2
Continuous
 70
     0
  3
Solid line
 72
    65
 73
     0
 40
0.0
  0
LTYPE
  5
2A
330
5
100
AcDbSymbolTableRecord
100
AcDbLinetypeTableRecord
  2
DASHED
 70
     0
  3
Dashed
 72
    65
 73
     2
 40
15.0
 49
7.0
 74
     0
 49
-8.0
 74
     0
  0
LTYPE
  5
2B
330
5
100
AcDbSymbolTableRecord
100
AcDbLinetypeTableRecord
  2
DOTTED
 70
     0
  3
Dotted
 72
    65
 73
     2
 40
1.0
 49
0.0
 74
     0
 49
-1.0
 74
     0
  0
LTYPE
  5
2C
330
5
100
AcDbSymbolTableRecord
100
AcDbLinetypeTableRecord
  2
DOT_CENTER
 70
     0
  3
Dot_Center
 72
    65
 73
     4
 40
14.0
 49
12.0
 74
     0
 49
-1.0
 74
     0
 49
0.0
 74
     0
 49
-1.0
 74
     0
  0
LTYPE
  5
2D
330
5
100
AcDbSymbolTableRecord
100
AcDbLinetypeTableRecord
  2
LONG_DASHED
 70
     0
  3
Long_Dashed
 72
    65
 73
     2
 40
15.0
 49
10.0
 74
     0
 49
-5.0
 74
     0
  0
LTYPE
  5
2E
330
5
100
AcDbSymbolTableRecord
100
AcDbLinetypeTableRecord
  2
DASH_CENTER
 70
     0
  3
Dash_Center
 72
    65
 73
     4
 40
14.0
 49
11.0
 74
     0
 49
-1.0
 74
     0
 49
1.0
 74
     0
 49
-1.0
 74
     0
  0
LTYPE
  5
2F
330
5
100
AcDbSymbolTableRecord
100
AcDbLinetypeTableRecord
  2
PHANTOM
 70
     0
  3
Phantom
 72
    65
 73
     6
 40
13.0
 49
10.0
 74
     0
 49
-1.0
 74
     0
 49
0.0
 74
     0
 49
-1.0
 74
     0
 49
0.0
 74
     0
 49
-1.0
 74
     0
  0
LTYPE
  5
30
330
5
100
AcDbSymbolTableRecord
100
AcDbLinetypeTableRecord
  2
CENTER_DASH_DASH
 70
     0
  3
Center_Dash_Dash
 72
    65
 73
     6
 40
14.0
 49
9.0
 74
     0
 49
-1.0
 74
     0
 49
1.0
 74
     0
 49
-1.0
 74
     0
 49
1.0
 74
     0
 49
-1.0
 74
     0
  0
LTYPE
  5
31
330
5
100
AcDbSymbolTableRecord
100
AcDbLinetypeTableRecord
  2
HIDDEN_1
 70
     0
  3
HIDDEN_1
 72
    65
 73
     2
 40
2.0
 49
1.0
 74
     0
 49
-1.0
 74
     0
  0
ENDTAB
  0
TABLE
  2
LAYER
  5
2
330
0
100
AcDbSymbolTable
 70
     3
  0
LAYER
  5
10
330
2
100
AcDbSymbolTableRecord
100
AcDbLayerTableRecord
  2
0
 70
     0
 62
     7
  6
Continuous
370
    -3
390
F
  0
LAYER
  5
32
330
2
100
AcDbSymbolTableRecord
100
AcDbLayerTableRecord
  2
1
 70
     0
 62
     7
  6
Continuous
370
    -3
390
F
  0
LAYER
  5
33
330
2
100
AcDbSymbolTableRecord
100
AcDbLayerTableRecord
  2
DEFAULT_2
 70
     0
 62
     7
  6
Continuous
370
    -3
390
F
  0
ENDTAB
  0
TABLE
  2
STYLE
  5
3
330
0
100
AcDbSymbolTable
 70
     2
  0
STYLE
  5
11
330
3
100
AcDbSymbolTableRecord
100
AcDbTextStyleTableRecord
  2
Standard
 70
     0
 40
0.0
 41
1.0
 50
0.0
 71
     0
 42
0.2
  3
txt
  4

  0
STYLE
  5
B6
330
3
100
AcDbSymbolTableRecord
100
AcDbTextStyleTableRecord
  2
CONVERTER_11
 70
     0
 40
0.0
 41
0.9
 50
0.0
 71
     0
 42
0.2
  3
txt.shx
  4

  0
ENDTAB
  0
TABLE
  2
VIEW
  5
6
330
0
100
AcDbSymbolTable
 70
     0
  0
ENDTAB
  0
TABLE
  2
UCS
  5
7
330
0
100
AcDbSymbolTable
 70
     0
  0
ENDTAB
  0
TABLE
  2
APPID
  5
9
330
0
100
AcDbSymbolTable
 70
     1
  0
APPID
  5
12
330
9
100
AcDbSymbolTableRecord
100
AcDbRegAppTableRecord
  2
ACAD
 70
     0
  0
ENDTAB
  0
TABLE
  2
DIMSTYLE
  5
A
330
0
100
AcDbSymbolTable
 70
    12
100
AcDbDimStyleTable
  0
DIMSTYLE
105
27
330
A
100
AcDbSymbolTableRecord
100
AcDbDimStyleTableRecord
  2
Standard
 70
     0
340
11
  0
DIMSTYLE
105
BA
102
{ACAD_REACTORS
330
BB
102
}
330
A
100
AcDbSymbolTableRecord
100
AcDbDimStyleTableRecord
  2
ME10_DIM_10
 70
     0
 41
3.5
 42
0.0
 44
2.0
 73
     0
 74
     0
 77
     1
 78
     8
140
3.5
147
2.0
172
     1
173
     1
176
     2
177
     2
178
     2
271
     3
340
B6
  0
DIMSTYLE
105
C6
102
{ACAD_REACTORS
330
C7
102
}
330
A
100
AcDbSymbolTableRecord
100
AcDbDimStyleTableRecord
  2
ME10_DIM_11
 70
     0
 41
3.5
 42
0.0
 44
2.0
 73
     0
 74
     0
 77
     1
 78
     8
140
3.5
147
2.0
172
     1
173
     1
176
     2
177
     2
178
     2
271
     3
340
B6
  0
DIMSTYLE
105
D5
102
{ACAD_REACTORS
330
D6
102
}
330
A
100
AcDbSymbolTableRecord
100
AcDbDimStyleTableRecord
  2
ME10_DIM_12
 70
     0
 41
3.5
 42
0.0
 44
2.0
 73
     0
 74
     0
 77
     1
 78
     8
140
3.5
147
2.0
172
     1
173
     1
176
     2
177
     2
178
     2
271
     3
340
B6
  0
DIMSTYLE
105
E1
102
{ACAD_REACTORS
330
E2
102
}
330
A
100
AcDbSymbolTableRecord
100
AcDbDimStyleTableRecord
  2
ME10_DIM_13
 70
     0
 41
3.5
 42
0.0
 44
2.0
 73
     0
 74
     0
 77
     1
 78
     8
140
3.5
147
2.0
172
     1
173
     1
176
     2
177
     2
178
     2
271
     3
340
B6
  0
DIMSTYLE
105
EC
102
{ACAD_REACTORS
330
ED
102
}
330
A
100
AcDbSymbolTableRecord
100
AcDbDimStyleTableRecord
  2
ME10_DIM_14
 70
     0
 41
3.5
 42
0.0
 44
2.0
 73
     0
 74
     0
 77
     1
 78
     8
140
3.5
147
2.0
172
     1
173
     1
176
     2
177
     2
178
     2
271
     3
340
B6
  0
DIMSTYLE
105
F7
102
{ACAD_REACTORS
330
F8
102
}
330
A
100
AcDbSymbolTableRecord
100
AcDbDimStyleTableRecord
  2
ME10_DIM_15
 70
     0
 41
3.5
 42
0.0
 44
2.0
 73
     0
 74
     0
 77
     1
 78
     8
140
3.5
147
2.0
172
     1
173
     1
176
     2
177
     2
178
     2
271
     3
340
B6
  0
DIMSTYLE
105
102
102
{ACAD_REACTORS
330
103
102
}
330
A
100
AcDbSymbolTableRecord
100
AcDbDimStyleTableRecord
  2
ME10_DIM_16
 70
     0
 41
3.5
 42
0.0
 44
2.0
 73
     0
 74
     0
 77
     1
 78
     8
140
3.5
147
2.0
172
     1
173
     1
176
     2
177
     2
178
     2
271
     3
340
B6
  0
DIMSTYLE
105
10D
102
{ACAD_REACTORS
330
10E
102
}
330
A
100
AcDbSymbolTableRecord
100
AcDbDimStyleTableRecord
  2
ME10_DIM_17
 70
     0
 41
3.5
 42
0.0
 44
2.0
 73
     0
 74
     0
 77
     1
 78
     8
140
3.5
147
2.0
172
     1
173
     1
176
     2
177
     2
178
     2
271
     3
340
B6
  0
DIMSTYLE
105
118
102
{ACAD_REACTORS
330
119
102
}
330
A
100
AcDbSymbolTableRecord
100
AcDbDimStyleTableRecord
  2
ME10_DIM_18
 70
     0
 41
3.5
 42
0.0
 44
2.0
 73
     0
 74
     0
 77
     1
 78
     8
140
3.5
147
2.0
172
     1
173
     1
176
     2
177
     2
178
     2
271
     3
340
B6
  0
DIMSTYLE
105
123
102
{ACAD_REACTORS
330
124
102
}
330
A
100
AcDbSymbolTableRecord
100
AcDbDimStyleTableRecord
  2
ME10_DIM_19
 70
     0
  3
ø<>
 41
3.5
 42
0.0
 44
2.0
 73
     0
 74
     0
 77
     1
 78
     8
140
3.5
147
2.0
172
     1
173
     1
176
     2
177
     2
178
     2
271
     3
340
B6
  0
DIMSTYLE
105
12F
102
{ACAD_REACTORS
330
130
102
}
330
A
100
AcDbSymbolTableRecord
100
AcDbDimStyleTableRecord
  2
ME10_DIM_20
 70
     0
 41
3.5
 42
0.0
 44
2.0
 73
     0
 74
     0
 77
     1
 78
     8
140
3.5
147
2.0
172
     1
173
     1
176
     2
177
     2
178
     2
271
     3
340
B6
  0
ENDTAB
  0
TABLE
  2
BLOCK_RECORD
  5
1
330
0
100
AcDbSymbolTable
 70
    12
  0
BLOCK_RECORD
  5
1F
330
1
100
AcDbSymbolTableRecord
100
AcDbBlockTableRecord
  2
*Model_Space
340
22
  0
BLOCK_RECORD
  5
1B
330
1
100
AcDbSymbolTableRecord
100
AcDbBlockTableRecord
  2
*Paper_Space
340
1E
  0
BLOCK_RECORD
  5
23
330
1
100
AcDbSymbolTableRecord
100
AcDbBlockTableRecord
  2
*Paper_Space0
340
26
  0
BLOCK_RECORD
  5
AF
330
1
100
AcDbSymbolTableRecord
100
AcDbBlockTableRecord
  2
*D1
340
0
  0
BLOCK_RECORD
  5
BC
330
1
100
AcDbSymbolTableRecord
100
AcDbBlockTableRecord
  2
*D2
340
0
  0
BLOCK_RECORD
  5
C8
330
1
100
AcDbSymbolTableRecord
100
AcDbBlockTableRecord
  2
*D3
340
0
  0
BLOCK_RECORD
  5
D7
330
1
100
AcDbSymbolTableRecord
100
AcDbBlockTableRecord
  2
*D4
340
0
  0
BLOCK_RECORD
  5
E3
330
1
100
AcDbSymbolTableRecord
100
AcDbBlockTableRecord
  2
*D5
340
0
  0
BLOCK_RECORD
  5
EE
330
1
100
AcDbSymbolTableRecord
100
AcDbBlockTableRecord
  2
*D6
340
0
  0
BLOCK_RECORD
  5
F9
330
1
100
AcDbSymbolTableRecord
100
AcDbBlockTableRecord
  2
*D7
340
0
  0
BLOCK_RECORD
  5
104
330
1
100
AcDbSymbolTableRecord
100
AcDbBlockTableRecord
  2
*D8
340
0
  0
BLOCK_RECORD
  5
10F
330
1
100
AcDbSymbolTableRecord
100
AcDbBlockTableRecord
  2
*D9
340
0
  0
BLOCK_RECORD
  5
11A
330
1
100
AcDbSymbolTableRecord
100
AcDbBlockTableRecord
  2
*D10
340
0
  0
BLOCK_RECORD
  5
125
330
1
100
AcDbSymbolTableRecord
100
AcDbBlockTableRecord
  2
*D11
340
0
  0
ENDTAB
  0
ENDSEC
  0
SECTION
  2
BLOCKS
  0
BLOCK
  5
20
330
1F
100
AcDbEntity
  8
0
100
AcDbBlockBegin
  2
*Model_Space
 70
     0
 71
     0
 10
0.0
 20
0.0
 30
0.0
  3
*Model_Space
  1

  0
ENDBLK
  5
21
330
1F
100
AcDbEntity
  8
0
100
AcDbBlockEnd
  0
BLOCK
  5
1C
330
1B
100
AcDbEntity
 67
     1
  8
0
100
AcDbBlockBegin
  2
*Paper_Space
 70
     0
 71
     0
 10
0.0
 20
0.0
 30
0.0
  3
*Paper_Space
  1

  0
ENDBLK
  5
1D
330
1B
100
AcDbEntity
 67
     1
  8
0
100
AcDbBlockEnd
  0
BLOCK
  5
24
330
23
100
AcDbEntity
  8
0
100
AcDbBlockBegin
  2
*Paper_Space0
 70
     0
 71
     0
 10
0.0
 20
0.0
 30
0.0
  3
*Paper_Space0
  1

  0
ENDBLK
  5
25
330
23
100
AcDbEntity
  8
0
100
AcDbBlockEnd
  0
BLOCK
  5
B8
330
AF
100
AcDbEntity
  8
0
100
AcDbBlockBegin
  2
*D1
 70
     1
 71
     0
 10
0.0
 20
0.0
 30
0.0
  3
*D1
  1

  0
LINE
  5
B0
330
AF
100
AcDbEntity
  8
1
  6
Continuous
 62
     2
100
AcDbLine
 10
80997.92606421582
 20
32395.52739851842
 30
0.0
 11
80997.92606421582
 21
32343.52739851842
 31
0.0
  0
LINE
  5
B1
330
AF
100
AcDbEntity
  8
1
  6
Continuous
 62
     2
100
AcDbLine
 10
80890.59349224652
 20
32395.52739851842
 30
0.0
 11
80976.3351365315
 21
32395.52739851842
 31
0.0
  0
LINE
  5
B2
330
AF
100
AcDbEntity
  8
1
  6
Continuous
 62
     2
100
AcDbLine
 10
80978.8193835888
 20
32395.52739851842
 30
0.0
 11
80999.92606421582
 21
32395.52739851842
 31
0.0
  0
LINE
  5
B3
330
AF
100
AcDbEntity
  8
1
  6
Continuous
 62
     2
100
AcDbLine
 10
80889.59349224652
 20
32343.52739851842
 30
0.0
 11
80999.92606421582
 21
32343.52739851842
 31
0.0
  0
SOLID
  5
B4
330
AF
100
AcDbEntity
  8
1
 62
     2
100
AcDbTrace
 10
80998.38684795737
 20
32392.02739851842
 30
0.0
 11
80997.46528047427
 21
32392.02739851842
 31
0.0
 12
80997.92606421582
 22
32395.52739851842
 32
0.0
 13
80997.92606421582
 23
32395.52739851842
 33
0.0
  0
SOLID
  5
B5
330
AF
100
AcDbEntity
  8
1
 62
     2
100
AcDbTrace
 10
80997.46528047427
 20
32347.02739851842
 30
0.0
 11
80998.38684795737
 21
32347.02739851842
 31
0.0
 12
80997.92606421582
 22
32343.52739851842
 32
0.0
 13
80997.92606421582
 23
32343.52739851842
 33
0.0
  0
MTEXT
  5
B7
330
AF
100
AcDbEntity
  8
1
 62
     2
100
AcDbMText
 10
80995.92606421582
 20
32367.32724673822
 30
0.0
 40
3.5
 41
0.0
 71
     7
 72
     1
  1
52
  7
CONVERTER_11
 11
0.0
 21
1.0
 31
0.0
 73
     1
 44
0.60024009603842
  0
ENDBLK
  5
B9
330
AF
100
AcDbEntity
  8
0
100
AcDbBlockEnd
  0
BLOCK
  5
C4
330
BC
100
AcDbEntity
  8
0
100
AcDbBlockBegin
  2
*D2
 70
     1
 71
     0
 10
0.0
 20
0.0
 30
0.0
  3
*D2
  1

  0
LINE
  5
BD
330
BC
100
AcDbEntity
  8
1
  6
Continuous
 62
     2
100
AcDbLine
 10
80997.92606421582
 20
32448.52739851842
 30
0.0
 11
80997.92606421582
 21
32396.52739851842
 31
0.0
  0
LINE
  5
BE
330
BC
100
AcDbEntity
  8
1
  6
Continuous
 62
     2
100
AcDbLine
 10
80962.59349224652
 20
32448.52739851842
 30
0.0
 11
80999.92606421582
 21
32448.52739851842
 31
0.0
  0
LINE
  5
BF
330
BC
100
AcDbEntity
  8
1
  6
Continuous
 62
     2
100
AcDbLine
 10
80962.59349224652
 20
32396.52739851842
 30
0.0
 11
80976.3351365315
 21
32396.52739851842
 31
0.0
  0
LINE
  5
C0
330
BC
100
AcDbEntity
  8
1
  6
Continuous
 62
     2
100
AcDbLine
 10
80979.080883279
 20
32396.52739851842
 30
0.0
 11
80999.92606421582
 21
32396.52739851842
 31
0.0
  0
SOLID
  5
C1
330
BC
100
AcDbEntity
  8
1
 62
     2
100
AcDbTrace
 10
80998.38684795737
 20
32445.02739851842
 30
0.0
 11
80997.46528047427
 21
32445.02739851842
 31
0.0
 12
80997.92606421582
 22
32448.52739851842
 32
0.0
 13
80997.92606421582
 23
32448.52739851842
 33
0.0
  0
SOLID
  5
C2
330
BC
100
AcDbEntity
  8
1
 62
     2
100
AcDbTrace
 10
80997.46528047427
 20
32400.02739851842
 30
0.0
 11
80998.38684795737
 21
32400.02739851842
 31
0.0
 12
80997.92606421582
 22
32396.52739851842
 32
0.0
 13
80997.92606421582
 23
32396.52739851842
 33
0.0
  0
MTEXT
  5
C3
330
BC
100
AcDbEntity
  8
1
 62
     2
100
AcDbMText
 10
80995.92606421582
 20
32418.58977041362
 30
0.0
 40
3.5
 41
0.0
 71
     7
 72
     1
  1
52
  7
CONVERTER_11
 11
0.0
 21
1.0
 31
0.0
 73
     1
 44
0.60024009603842
  0
ENDBLK
  5
C5
330
BC
100
AcDbEntity
  8
0
100
AcDbBlockEnd
  0
BLOCK
  5
D3
330
C8
100
AcDbEntity
  8
0
100
AcDbBlockBegin
  2
*D3
 70
     1
 71
     0
 10
0.0
 20
0.0
 30
0.0
  3
*D3
  1

  0
LINE
  5
C9
330
C8
100
AcDbEntity
  8
1
  6
Continuous
 62
     2
100
AcDbLine
 10
80987.46513919502
 20
32396.52739851842
 30
0.0
 11
80987.46513919502
 21
32403.52739851842
 31
0.0
  0
LINE
  5
CA
330
C8
100
AcDbEntity
  8
1
  6
Continuous
 62
     2
100
AcDbLine
 10
80987.46513919502
 20
32395.52739851842
 30
0.0
 11
80987.46513919502
 21
32396.52739851842
 31
0.0
  0
LINE
  5
CB
330
C8
100
AcDbEntity
  8
1
  6
Continuous
 62
     2
100
AcDbLine
 10
80987.46513919502
 20
32388.52739851842
 30
0.0
 11
80987.46513919502
 21
32395.52739851842
 31
0.0
  0
LINE
  5
CC
330
C8
100
AcDbEntity
  8
1
  6
Continuous
 62
     2
100
AcDbLine
 10
80890.59349224652
 20
32395.52739851842
 30
0.0
 11
80970.3206436559
 21
32395.52739851842
 31
0.0
  0
LINE
  5
CD
330
C8
100
AcDbEntity
  8
1
  6
Continuous
 62
     2
100
AcDbLine
 10
80983.395628168
 20
32395.52739851842
 30
0.0
 11
80989.46513919502
 21
32395.52739851842
 31
0.0
  0
LINE
  5
CE
330
C8
100
AcDbEntity
  8
1
  6
Continuous
 62
     2
100
AcDbLine
 10
80865.84349224652
 20
32396.52739851842
 30
0.0
 11
80972.0203916425
 21
32396.52739851842
 31
0.0
  0
LINE
  5
CF
330
C8
100
AcDbEntity
  8
1
  6
Continuous
 62
     2
100
AcDbLine
 10
80982.7418789424
 20
32396.52739851842
 30
0.0
 11
80989.46513919502
 21
32396.52739851842
 31
0.0
  0
SOLID
  5
D0
330
C8
100
AcDbEntity
  8
1
 62
     2
100
AcDbTrace
 10
80987.92592293657
 20
32392.02739851842
 30
0.0
 11
80987.00435545346
 21
32392.02739851842
 31
0.0
 12
80987.46513919502
 22
32395.52739851842
 32
0.0
 13
80987.46513919502
 23
32395.52739851842
 33
0.0
  0
SOLID
  5
D1
330
C8
100
AcDbEntity
  8
1
 62
     2
100
AcDbTrace
 10
80987.00435545346
 20
32400.02739851842
 30
0.0
 11
80987.92592293657
 21
32400.02739851842
 31
0.0
 12
80987.46513919502
 22
32396.52739851842
 32
0.0
 13
80987.46513919502
 23
32396.52739851842
 33
0.0
  0
MTEXT
  5
D2
330
C8
100
AcDbEntity
  8
1
 62
     2
100
AcDbMText
 10
80985.46513919502
 20
32401.42695173612
 30
0.0
 40
3.5
 41
0.0
 71
     7
 72
     1
  1
1
  7
CONVERTER_11
 11
0.0
 21
1.0
 31
0.0
 73
     1
 44
0.60024009603842
  0
ENDBLK
  5
D4
330
C8
100
AcDbEntity
  8
0
100
AcDbBlockEnd
  0
BLOCK
  5
DF
330
D7
100
AcDbEntity
  8
0
100
AcDbBlockBegin
  2
*D4
 70
     1
 71
     0
 10
0.0
 20
0.0
 30
0.0
  3
*D4
  1

  0
LINE
  5
D8
330
D7
100
AcDbEntity
  8
1
  6
Continuous
 62
     2
100
AcDbLine
 10
80844.45873594572
 20
32422.52739851842
 30
0.0
 11
80844.45873594572
 21
32359.02739851842
 31
0.0
  0
LINE
  5
D9
330
D7
100
AcDbEntity
  8
1
  6
Continuous
 62
     2
100
AcDbLine
 10
80873.34349224652
 20
32422.52739851842
 30
0.0
 11
80858.0134721814
 21
32422.52739851842
 31
0.0
  0
LINE
  5
DA
330
D7
100
AcDbEntity
  8
1
  6
Continuous
 62
     2
100
AcDbLine
 10
80847.1052017893
 20
32422.52739851842
 30
0.0
 11
80842.45873594572
 21
32422.52739851842
 31
0.0
  0
LINE
  5
DB
330
D7
100
AcDbEntity
  8
1
  6
Continuous
 62
     2
100
AcDbLine
 10
80873.34349224652
 20
32359.02739851842
 30
0.0
 11
80842.45873594572
 21
32359.02739851842
 31
0.0
  0
SOLID
  5
DC
330
D7
100
AcDbEntity
  8
1
 62
     2
100
AcDbTrace
 10
80844.91951968728
 20
32419.02739851842
 30
0.0
 11
80843.99795220417
 21
32419.02739851842
 31
0.0
 12
80844.45873594572
 22
32422.52739851842
 32
0.0
 13
80844.45873594572
 23
32422.52739851842
 33
0.0
  0
SOLID
  5
DD
330
D7
100
AcDbEntity
  8
1
 62
     2
100
AcDbTrace
 10
80843.99795220417
 20
32362.52739851842
 30
0.0
 11
80844.91951968728
 21
32362.52739851842
 31
0.0
 12
80844.45873594572
 22
32359.02739851842
 32
0.0
 13
80844.45873594572
 23
32359.02739851842
 33
0.0
  0
MTEXT
  5
DE
330
D7
100
AcDbEntity
  8
1
 62
     2
100
AcDbMText
 10
80842.45873594572
 20
32383.63624344752
 30
0.0
 40
3.5
 41
0.0
 71
     7
 72
     1
  1
63.5
  7
CONVERTER_11
 11
0.0
 21
1.0
 31
0.0
 73
     1
 44
0.60024009603842
  0
ENDBLK
  5
E0
330
D7
100
AcDbEntity
  8
0
100
AcDbBlockEnd
  0
BLOCK
  5
EA
330
E3
100
AcDbEntity
  8
0
100
AcDbBlockBegin
  2
*D5
 70
     1
 71
     0
 10
0.0
 20
0.0
 30
0.0
  3
*D5
  1

  0
LINE
  5
E4
330
E3
100
AcDbEntity
  8
1
  6
Continuous
 62
     2
100
AcDbLine
 10
80854.83197659232
 20
32442.02739851842
 30
0.0
 11
80854.83197659232
 21
32403.02739851842
 31
0.0
  0
LINE
  5
E5
330
E3
100
AcDbEntity
  8
1
  6
Continuous
 62
     2
100
AcDbLine
 10
80870.31849224652
 20
32442.02739851842
 30
0.0
 11
80852.83197659232
 21
32442.02739851842
 31
0.0
  0
LINE
  5
E6
330
E3
100
AcDbEntity
  8
1
  6
Continuous
 62
     2
100
AcDbLine
 10
80870.31849224652
 20
32403.02739851842
 30
0.0
 11
80852.83197659232
 21
32403.02739851842
 31
0.0
  0
SOLID
  5
E7
330
E3
100
AcDbEntity
  8
1
 62
     2
100
AcDbTrace
 10
80855.29276033388
 20
32438.52739851842
 30
0.0
 11
80854.37119285077
 21
32438.52739851842
 31
0.0
 12
80854.83197659232
 22
32442.02739851842
 32
0.0
 13
80854.83197659232
 23
32442.02739851842
 33
0.0
  0
SOLID
  5
E8
330
E3
100
AcDbEntity
  8
1
 62
     2
100
AcDbTrace
 10
80854.37119285077
 20
32406.52739851842
 30
0.0
 11
80855.29276033388
 21
32406.52739851842
 31
0.0
 12
80854.83197659232
 22
32403.02739851842
 32
0.0
 13
80854.83197659232
 23
32403.02739851842
 33
0.0
  0
MTEXT
  5
E9
330
E3
100
AcDbEntity
  8
1
 62
     2
100
AcDbMText
 10
80852.83197659232
 20
32419.98831962182
 30
0.0
 40
3.5
 41
0.0
 71
     7
 72
     1
  1
39
  7
CONVERTER_11
 11
0.0
 21
1.0
 31
0.0
 73
     1
 44
0.60024009603842
  0
ENDBLK
  5
EB
330
E3
100
AcDbEntity
  8
0
100
AcDbBlockEnd
  0
BLOCK
  5
F5
330
EE
100
AcDbEntity
  8
0
100
AcDbBlockBegin
  2
*D6
 70
     1
 71
     0
 10
0.0
 20
0.0
 30
0.0
  3
*D6
  1

  0
LINE
  5
EF
330
EE
100
AcDbEntity
  8
1
  6
Continuous
 62
     2
100
AcDbLine
 10
80920.2289049739
 20
32433.52739851842
 30
0.0
 11
80920.2289049739
 21
32411.52739851842
 31
0.0
  0
LINE
  5
F0
330
EE
100
AcDbEntity
  8
1
  6
Continuous
 62
     2
100
AcDbLine
 10
80916.04432501142
 20
32411.52739851842
 30
0.0
 11
80922.2289049739
 21
32411.52739851842
 31
0.0
  0
LINE
  5
F1
330
EE
100
AcDbEntity
  8
1
  6
Continuous
 62
     2
100
AcDbLine
 10
80916.04432501142
 20
32433.52739851842
 30
0.0
 11
80922.2289049739
 21
32433.52739851842
 31
0.0
  0
SOLID
  5
F2
330
EE
100
AcDbEntity
  8
1
 62
     2
100
AcDbTrace
 10
80920.68968871546
 20
32430.02739851842
 30
0.0
 11
80919.76812123235
 21
32430.02739851842
 31
0.0
 12
80920.2289049739
 22
32433.52739851842
 32
0.0
 13
80920.2289049739
 23
32433.52739851842
 33
0.0
  0
SOLID
  5
F3
330
EE
100
AcDbEntity
  8
1
 62
     2
100
AcDbTrace
 10
80919.76812123235
 20
32415.02739851842
 30
0.0
 11
80920.68968871546
 21
32415.02739851842
 31
0.0
 12
80920.2289049739
 22
32411.52739851842
 32
0.0
 13
80920.2289049739
 23
32411.52739851842
 33
0.0
  0
MTEXT
  5
F4
330
EE
100
AcDbEntity
  8
1
 62
     2
100
AcDbMText
 10
80918.2289049739
 20
32420.7740054547
 30
0.0
 40
3.5
 41
0.0
 71
     7
 72
     1
  1
22
  7
CONVERTER_11
 11
0.0
 21
1.0
 31
0.0
 73
     1
 44
0.60024009603842
  0
ENDBLK
  5
F6
330
EE
100
AcDbEntity
  8
0
100
AcDbBlockEnd
  0
BLOCK
  5
100
330
F9
100
AcDbEntity
  8
0
100
AcDbBlockBegin
  2
*D7
 70
     1
 71
     0
 10
0.0
 20
0.0
 30
0.0
  3
*D7
  1

  0
LINE
  5
FA
330
F9
100
AcDbEntity
  8
1
  6
Continuous
 62
     2
100
AcDbLine
 10
80929.7432179161
 20
32434.02739851842
 30
0.0
 11
80929.7432179161
 21
32411.02739851842
 31
0.0
  0
LINE
  5
FB
330
F9
100
AcDbEntity
  8
1
  6
Continuous
 62
     2
100
AcDbLine
 10
80954.36849224652
 20
32434.02739851842
 30
0.0
 11
80927.7432179161
 21
32434.02739851842
 31
0.0
  0
LINE
  5
FC
330
F9
100
AcDbEntity
  8
1
  6
Continuous
 62
     2
100
AcDbLine
 10
80954.36849224652
 20
32411.02739851842
 30
0.0
 11
80927.7432179161
 21
32411.02739851842
 31
0.0
  0
SOLID
  5
FD
330
F9
100
AcDbEntity
  8
1
 62
     2
100
AcDbTrace
 10
80930.20400165765
 20
32430.52739851842
 30
0.0
 11
80929.28243417454
 21
32430.52739851842
 31
0.0
 12
80929.7432179161
 22
32434.02739851842
 32
0.0
 13
80929.7432179161
 23
32434.02739851842
 33
0.0
  0
SOLID
  5
FE
330
F9
100
AcDbEntity
  8
1
 62
     2
100
AcDbTrace
 10
80929.28243417454
 20
32414.52739851842
 30
0.0
 11
80930.20400165765
 21
32414.52739851842
 31
0.0
 12
80929.7432179161
 22
32411.02739851842
 32
0.0
 13
80929.7432179161
 23
32411.02739851842
 33
0.0
  0
MTEXT
  5
FF
330
F9
100
AcDbEntity
  8
1
 62
     2
100
AcDbMText
 10
80927.7432179161
 20
32419.596124392
 30
0.0
 40
3.5
 41
0.0
 71
     7
 72
     1
  1
23
  7
CONVERTER_11
 11
0.0
 21
1.0
 31
0.0
 73
     1
 44
0.60024009603842
  0
ENDBLK
  5
101
330
F9
100
AcDbEntity
  8
0
100
AcDbBlockEnd
  0
BLOCK
  5
10B
330
104
100
AcDbEntity
  8
0
100
AcDbBlockBegin
  2
*D8
 70
     1
 71
     0
 10
0.0
 20
0.0
 30
0.0
  3
*D8
  1

  0
LINE
  5
105
330
104
100
AcDbEntity
  8
1
  6
Continuous
 62
     2
100
AcDbLine
 10
80969.6999096052
 20
32440.02739851842
 30
0.0
 11
80969.6999096052
 21
32405.02739851842
 31
0.0
  0
LINE
  5
106
330
104
100
AcDbEntity
  8
1
  6
Continuous
 62
     2
100
AcDbLine
 10
80963.86849224652
 20
32405.02739851842
 30
0.0
 11
80971.6999096052
 21
32405.02739851842
 31
0.0
  0
LINE
  5
107
330
104
100
AcDbEntity
  8
1
  6
Continuous
 62
     2
100
AcDbLine
 10
80963.86849224652
 20
32440.02739851842
 30
0.0
 11
80971.6999096052
 21
32440.02739851842
 31
0.0
  0
SOLID
  5
108
330
104
100
AcDbEntity
  8
1
 62
     2
100
AcDbTrace
 10
80970.16069334676
 20
32436.52739851842
 30
0.0
 11
80969.23912586365
 21
32436.52739851842
 31
0.0
 12
80969.6999096052
 22
32440.02739851842
 32
0.0
 13
80969.6999096052
 23
32440.02739851842
 33
0.0
  0
SOLID
  5
109
330
104
100
AcDbEntity
  8
1
 62
     2
100
AcDbTrace
 10
80969.23912586365
 20
32408.52739851842
 30
0.0
 11
80970.16069334676
 21
32408.52739851842
 31
0.0
 12
80969.6999096052
 22
32405.02739851842
 32
0.0
 13
80969.6999096052
 23
32405.02739851842
 33
0.0
  0
MTEXT
  5
10A
330
104
100
AcDbEntity
  8
1
 62
     2
100
AcDbMText
 10
80967.6999096052
 20
32419.596124392
 30
0.0
 40
3.5
 41
0.0
 71
     7
 72
     1
  1
35
  7
CONVERTER_11
 11
0.0
 21
1.0
 31
0.0
 73
     1
 44
0.60024009603842
  0
ENDBLK
  5
10C
330
104
100
AcDbEntity
  8
0
100
AcDbBlockEnd
  0
BLOCK
  5
116
330
10F
100
AcDbEntity
  8
0
100
AcDbBlockBegin
  2
*D9
 70
     1
 71
     0
 10
0.0
 20
0.0
 30
0.0
  3
*D9
  1

  0
LINE
  5
110
330
10F
100
AcDbEntity
  8
1
  6
Continuous
 62
     2
100
AcDbLine
 10
80877.59349224652
 20
32462.5760230568
 30
0.0
 11
80895.59349224652
 21
32462.5760230568
 31
0.0
  0
LINE
  5
111
330
10F
100
AcDbEntity
  8
1
  6
Continuous
 62
     2
100
AcDbLine
 10
80895.59349224652
 20
32446.02739851842
 30
0.0
 11
80895.59349224652
 21
32464.5760230568
 31
0.0
  0
LINE
  5
112
330
10F
100
AcDbEntity
  8
1
  6
Continuous
 62
     2
100
AcDbLine
 10
80877.59349224652
 20
32454.76961654442
 30
0.0
 11
80877.59349224652
 21
32464.5760230568
 31
0.0
  0
SOLID
  5
113
330
10F
100
AcDbEntity
  8
1
 62
     2
100
AcDbTrace
 10
80881.09349224652
 20
32463.03680679836
 30
0.0
 11
80881.09349224652
 21
32462.11523931524
 31
0.0
 12
80877.59349224652
 22
32462.5760230568
 32
0.0
 13
80877.59349224652
 23
32462.5760230568
 33
0.0
  0
SOLID
  5
114
330
10F
100
AcDbEntity
  8
1
 62
     2
100
AcDbTrace
 10
80892.09349224652
 20
32462.11523931524
 30
0.0
 11
80892.09349224652
 21
32463.03680679836
 31
0.0
 12
80895.59349224652
 22
32462.5760230568
 32
0.0
 13
80895.59349224652
 23
32462.5760230568
 33
0.0
  0
MTEXT
  5
115
330
10F
100
AcDbEntity
  8
1
 62
     2
100
AcDbMText
 10
80884.0808568643
 20
32464.5760230568
 30
0.0
 40
3.5
 41
0.0
 71
     7
 72
     1
  1
18
  7
CONVERTER_11
 11
0.9999999999970621
 21
2.424068405545307E-6
 31
0.0
 73
     1
 44
0.60024009603842
  0
ENDBLK
  5
117
330
10F
100
AcDbEntity
  8
0
100
AcDbBlockEnd
  0
BLOCK
  5
121
330
11A
100
AcDbEntity
  8
0
100
AcDbBlockBegin
  2
*D10
 70
     1
 71
     0
 10
0.0
 20
0.0
 30
0.0
  3
*D10
  1

  0
LINE
  5
11B
330
11A
100
AcDbEntity
  8
1
  6
Continuous
 62
     2
100
AcDbLine
 10
80865.59349224652
 20
32329.6720712291
 30
0.0
 11
80889.59349224652
 21
32329.6720712291
 31
0.0
  0
LINE
  5
11C
330
11A
100
AcDbEntity
  8
1
  6
Continuous
 62
     2
100
AcDbLine
 10
80865.59349224652
 20
32343.52739851842
 30
0.0
 11
80865.59349224652
 21
32327.6720712291
 31
0.0
  0
LINE
  5
11D
330
11A
100
AcDbEntity
  8
1
  6
Continuous
 62
     2
100
AcDbLine
 10
80889.59349224652
 20
32343.52739851842
 30
0.0
 11
80889.59349224652
 21
32327.6720712291
 31
0.0
  0
SOLID
  5
11E
330
11A
100
AcDbEntity
  8
1
 62
     2
100
AcDbTrace
 10
80869.09349224652
 20
32330.13285497066
 30
0.0
 11
80869.09349224652
 21
32329.21128748754
 31
0.0
 12
80865.59349224652
 22
32329.6720712291
 32
0.0
 13
80865.59349224652
 23
32329.6720712291
 33
0.0
  0
SOLID
  5
11F
330
11A
100
AcDbEntity
  8
1
 62
     2
100
AcDbTrace
 10
80886.09349224652
 20
32329.21128748754
 30
0.0
 11
80886.09349224652
 21
32330.13285497066
 31
0.0
 12
80889.59349224652
 22
32329.6720712291
 32
0.0
 13
80889.59349224652
 23
32329.6720712291
 33
0.0
  0
MTEXT
  5
120
330
11A
100
AcDbEntity
  8
1
 62
     2
100
AcDbMText
 10
80874.38338419021
 20
32331.67206427202
 30
0.0
 40
3.5
 41
0.0
 71
     7
 72
     1
  1
\C2;ø\C2;24
  7
CONVERTER_11
 11
0.9999999999970621
 21
2.424068405545307E-6
 31
0.0
 73
     1
 44
0.60024009603842
  0
ENDBLK
  5
122
330
11A
100
AcDbEntity
  8
0
100
AcDbBlockEnd
  0
BLOCK
  5
12D
330
125
100
AcDbEntity
  8
0
100
AcDbBlockBegin
  2
*D11
 70
     1
 71
     0
 10
0.0
 20
0.0
 30
0.0
  3
*D11
  1

  0
LINE
  5
126
330
125
100
AcDbEntity
  8
1
  6
Continuous
 62
     2
100
AcDbLine
 10
80889.59349224652
 20
32329.6720712291
 30
0.0
 11
80977.59349224654
 21
32329.6720712291
 31
0.0
  0
LINE
  5
127
330
125
100
AcDbEntity
  8
1
  6
Continuous
 62
     2
100
AcDbLine
 10
80889.59349224652
 20
32343.52739851842
 30
0.0
 11
80889.59349224652
 21
32327.6720712291
 31
0.0
  0
LINE
  5
128
330
125
100
AcDbEntity
  8
1
  6
Continuous
 62
     2
100
AcDbLine
 10
80977.59349224654
 20
32411.52739851842
 30
0.0
 11
80977.59349224654
 21
32346.8207897955
 31
0.0
  0
LINE
  5
129
330
125
100
AcDbEntity
  8
1
  6
Continuous
 62
     2
100
AcDbLine
 10
80977.59349224654
 20
32339.3857667891
 30
0.0
 11
80977.59349224654
 21
32327.6720712291
 31
0.0
  0
SOLID
  5
12A
330
125
100
AcDbEntity
  8
1
 62
     2
100
AcDbTrace
 10
80893.09349224652
 20
32330.13285497066
 30
0.0
 11
80893.09349224652
 21
32329.21128748754
 31
0.0
 12
80889.59349224652
 22
32329.6720712291
 32
0.0
 13
80889.59349224652
 23
32329.6720712291
 33
0.0
  0
SOLID
  5
12B
330
125
100
AcDbEntity
  8
1
 62
     2
100
AcDbTrace
 10
80974.09349224654
 20
32329.21128748754
 30
0.0
 11
80974.09349224654
 21
32330.13285497066
 31
0.0
 12
80977.59349224654
 22
32329.6720712291
 32
0.0
 13
80977.59349224654
 23
32329.6720712291
 33
0.0
  0
MTEXT
  5
12C
330
125
100
AcDbEntity
  8
1
 62
     2
100
AcDbMText
 10
80930.23998738732
 20
32331.6720712291
 30
0.0
 40
3.5
 41
0.0
 71
     7
 72
     1
  1
88
  7
CONVERTER_11
 11
0.9999999999970621
 21
2.424068405545307E-6
 31
0.0
 73
     1
 44
0.60024009603842
  0
ENDBLK
  5
12E
330
125
100
AcDbEntity
  8
0
100
AcDbBlockEnd
  0
ENDSEC
  0
SECTION
  2
ENTITIES
  0
POINT
  5
34
330
1F
100
AcDbEntity
  8
1
 62
     3
 60
     1
100
AcDbPoint
 10
80889.84349224652
 20
32448.52739851842
 30
0.0
  0
POINT
  5
35
330
1F
100
AcDbEntity
  8
1
 62
     3
 60
     1
100
AcDbPoint
 10
80889.84349224652
 20
32396.52739851842
 30
0.0
  0
POINT
  5
36
330
1F
100
AcDbEntity
  8
1
 62
     3
 60
     1
100
AcDbPoint
 10
80889.84349224652
 20
32395.52739851842
 30
0.0
  0
POINT
  5
37
330
1F
100
AcDbEntity
  8
1
 62
     3
 60
     1
100
AcDbPoint
 10
80910.79349224652
 20
32407.66478417542
 30
0.0
  0
POINT
  5
38
330
1F
100
AcDbEntity
  8
1
 62
     3
 60
     1
100
AcDbPoint
 10
80910.79349224652
 20
32414.96001975122
 30
0.0
  0
POINT
  5
39
330
1F
100
AcDbEntity
  8
1
 62
     3
 60
     1
100
AcDbPoint
 10
80910.79349224652
 20
32430.28566968192
 30
0.0
  0
POINT
  5
3A
330
1F
100
AcDbEntity
  8
1
 62
     3
 60
     1
100
AcDbPoint
 10
80910.79349224652
 20
32436.95883090632
 30
0.0
  0
POINT
  5
3B
330
1F
100
AcDbEntity
  8
1
 62
     3
 60
     1
100
AcDbPoint
 10
80877.59349224652
 20
32338.74893127232
 30
0.0
  0
POINT
  5
3C
330
1F
100
AcDbEntity
  8
1
 62
     3
 60
     1
100
AcDbPoint
 10
80877.59349224652
 20
32454.76961654442
 30
0.0
  0
POINT
  5
3D
330
1F
100
AcDbEntity
  8
1
 62
     3
 60
     1
100
AcDbPoint
 10
80877.59349224652
 20
32359.02739851842
 30
0.0
  0
POINT
  5
3E
330
1F
100
AcDbEntity
  8
1
 62
     7
100
AcDbPoint
 10
80916.04432501142
 20
32433.52739851842
 30
0.0
  0
POINT
  5
3F
330
1F
100
AcDbEntity
  8
1
 62
     7
100
AcDbPoint
 10
80916.04432501142
 20
32411.52739851842
 30
0.0
  0
LINE
  5
40
330
1F
100
AcDbEntity
  8
0
  6
Continuous
 62
     7
100
AcDbLine
 10
80889.84349224652
 20
32448.52739851842
 30
0.0
 11
80962.59349224652
 21
32448.52739851843
 31
0.0
  0
LINE
  5
41
330
1F
100
AcDbEntity
  8
1
  6
DASHED
 62
     2
100
AcDbLine
 10
80889.84349224652
 20
32396.52739851842
 30
0.0
 11
80889.84349224652
 21
32448.52739851842
 31
0.0
  0
LINE
  5
42
330
1F
100
AcDbEntity
  8
0
  6
Continuous
 62
     7
100
AcDbLine
 10
80889.84349224652
 20
32396.52739851842
 30
0.0
 11
80962.59349224652
 21
32396.52739851842
 31
0.0
  0
LINE
  5
43
330
1F
100
AcDbEntity
  8
0
  6
Continuous
 62
     7
100
AcDbLine
 10
80889.84349224652
 20
32395.52739851842
 30
0.0
 11
80890.59349224652
 21
32395.52739851842
 31
0.0
  0
LINE
  5
44
330
1F
100
AcDbEntity
  8
1
  6
Continuous
 62
     7
100
AcDbLine
 10
80889.84349224652
 20
32395.52739851842
 30
0.0
 11
80889.84349224652
 21
32396.52739851842
 31
0.0
  0
LINE
  5
45
330
1F
100
AcDbEntity
  8
0
  6
Continuous
 62
     7
100
AcDbLine
 10
80889.59349224652
 20
32343.52739851842
 30
0.0
 11
80865.59349224652
 21
32343.52739851842
 31
0.0
  0
LINE
  5
46
330
1F
100
AcDbEntity
  8
0
  6
Continuous
 62
     7
100
AcDbLine
 10
80865.59349224652
 20
32343.52739851842
 30
0.0
 11
80865.59349224652
 21
32388.02739851843
 31
0.0
  0
LINE
  5
47
330
1F
100
AcDbEntity
  8
1
  6
DOT_CENTER
 62
     2
100
AcDbLine
 10
80910.79349224652
 20
32414.96001975122
 30
0.0
 11
80910.79349224652
 21
32407.66478417542
 31
0.0
  0
LINE
  5
48
330
1F
100
AcDbEntity
  8
1
  6
DOT_CENTER
 62
     2
100
AcDbLine
 10
80910.79349224652
 20
32436.95883090632
 30
0.0
 11
80910.79349224652
 21
32430.28566968192
 31
0.0
  0
LINE
  5
49
330
1F
100
AcDbEntity
  8
1
  6
DOT_CENTER
 62
     2
100
AcDbLine
 10
80877.59349224652
 20
32454.76961654442
 30
0.0
 11
80877.59349224652
 21
32338.74893127232
 31
0.0
  0
LINE
  5
4A
330
1F
100
AcDbEntity
  8
1
  6
DASHED
 62
     2
100
AcDbLine
 10
80910.89281243522
 20
32409.52739851842
 30
0.0
 11
80913.39281243522
 21
32409.52739851842
 31
0.0
  0
LINE
  5
4B
330
1F
100
AcDbEntity
  8
1
  6
DOT_CENTER
 62
     2
100
AcDbLine
 10
80916.04432501142
 20
32411.52739851842
 30
0.0
 11
80905.89242767042
 21
32411.52739851842
 31
0.0
  0
LINE
  5
4C
330
1F
100
AcDbEntity
  8
1
  6
DASHED
 62
     2
100
AcDbLine
 10
80907.99281243513
 20
32409.42739851842
 30
0.0
 11
80911.49281243513
 21
32409.42739851842
 31
0.0
  0
LINE
  5
4D
330
1F
100
AcDbEntity
  8
1
  6
DASHED
 62
     2
100
AcDbLine
 10
80907.99281243513
 20
32413.62739851842
 30
0.0
 11
80911.49281243513
 21
32413.62739851842
 31
0.0
  0
LINE
  5
4E
330
1F
100
AcDbEntity
  8
1
  6
DASHED
 62
     2
100
AcDbLine
 10
80907.99281243513
 20
32413.62739851842
 30
0.0
 11
80907.99281243513
 21
32409.42739851842
 31
0.0
  0
LINE
  5
4F
330
1F
100
AcDbEntity
  8
1
  6
DASHED
 62
     2
100
AcDbLine
 10
80913.39281243522
 20
32409.52739851842
 30
0.0
 11
80913.39281243522
 21
32409.52739851842
 31
0.0
  0
LINE
  5
50
330
1F
100
AcDbEntity
  8
1
  6
DASHED
 62
     2
100
AcDbLine
 10
80910.89281243522
 20
32413.52739851842
 30
0.0
 11
80913.39281243522
 21
32413.52739851842
 31
0.0
  0
LINE
  5
51
330
1F
100
AcDbEntity
  8
1
  6
DASHED
 62
     2
100
AcDbLine
 10
80909.89281243522
 20
32410.27739851842
 30
0.0
 11
80910.89281243522
 21
32409.52739851842
 31
0.0
  0
LINE
  5
52
330
1F
100
AcDbEntity
  8
1
  6
DASHED
 62
     2
100
AcDbLine
 10
80909.89281243522
 20
32412.77739851842
 30
0.0
 11
80910.89281243522
 21
32413.52739851842
 31
0.0
  0
LINE
  5
53
330
1F
100
AcDbEntity
  8
1
  6
DASHED
 62
     2
100
AcDbLine
 10
80911.49281243513
 20
32413.62739851842
 30
0.0
 11
80911.49281243513
 21
32409.42739851842
 31
0.0
  0
LINE
  5
54
330
1F
100
AcDbEntity
  8
1
  6
DASHED
 62
     2
100
AcDbLine
 10
80909.89281243522
 20
32412.77739851842
 30
0.0
 11
80909.89281243522
 21
32410.27739851842
 31
0.0
  0
LINE
  5
55
330
1F
100
AcDbEntity
  8
1
  6
DASHED
 62
     2
100
AcDbLine
 10
80913.39281243522
 20
32435.52739851842
 30
0.0
 11
80910.89281243522
 21
32435.52739851842
 31
0.0
  0
LINE
  5
56
330
1F
100
AcDbEntity
  8
1
  6
DOT_CENTER
 62
     2
100
AcDbLine
 10
80905.89242767042
 20
32433.52739851842
 30
0.0
 11
80916.04432501142
 21
32433.52739851842
 31
0.0
  0
LINE
  5
57
330
1F
100
AcDbEntity
  8
1
  6
DASHED
 62
     2
100
AcDbLine
 10
80911.49281243513
 20
32435.62739851842
 30
0.0
 11
80907.99281243513
 21
32435.62739851842
 31
0.0
  0
LINE
  5
58
330
1F
100
AcDbEntity
  8
1
  6
DASHED
 62
     2
100
AcDbLine
 10
80911.49281243513
 20
32431.42739851842
 30
0.0
 11
80907.99281243513
 21
32431.42739851842
 31
0.0
  0
LINE
  5
59
330
1F
100
AcDbEntity
  8
1
  6
DASHED
 62
     2
100
AcDbLine
 10
80907.99281243513
 20
32435.62739851842
 30
0.0
 11
80907.99281243513
 21
32431.42739851842
 31
0.0
  0
LINE
  5
5A
330
1F
100
AcDbEntity
  8
1
  6
DASHED
 62
     2
100
AcDbLine
 10
80913.39281243522
 20
32435.52739851842
 30
0.0
 11
80913.39281243522
 21
32435.52739851842
 31
0.0
  0
LINE
  5
5B
330
1F
100
AcDbEntity
  8
1
  6
DASHED
 62
     2
100
AcDbLine
 10
80913.39281243522
 20
32431.52739851842
 30
0.0
 11
80910.89281243522
 21
32431.52739851842
 31
0.0
  0
LINE
  5
5C
330
1F
100
AcDbEntity
  8
1
  6
DASHED
 62
     2
100
AcDbLine
 10
80910.89281243522
 20
32435.52739851842
 30
0.0
 11
80909.89281243522
 21
32434.77739851842
 31
0.0
  0
LINE
  5
5D
330
1F
100
AcDbEntity
  8
1
  6
DASHED
 62
     2
100
AcDbLine
 10
80910.89281243522
 20
32431.52739851842
 30
0.0
 11
80909.89281243522
 21
32432.27739851842
 31
0.0
  0
LINE
  5
5E
330
1F
100
AcDbEntity
  8
1
  6
DASHED
 62
     2
100
AcDbLine
 10
80911.49281243513
 20
32435.62739851842
 30
0.0
 11
80911.49281243513
 21
32431.42739851842
 31
0.0
  0
LINE
  5
5F
330
1F
100
AcDbEntity
  8
1
  6
DASHED
 62
     2
100
AcDbLine
 10
80909.89281243522
 20
32434.77739851842
 30
0.0
 11
80909.89281243522
 21
32432.27739851842
 31
0.0
  0
LINE
  5
60
330
1F
100
AcDbEntity
  8
1
  6
DOT_CENTER
 62
     2
100
AcDbLine
 10
80881.84349224652
 20
32422.52739851842
 30
0.0
 11
80873.34349224652
 21
32422.52739851842
 31
0.0
  0
LINE
  5
61
330
1F
100
AcDbEntity
  8
DEFAULT_2
  6
DASHED
 62
     2
100
AcDbLine
 10
80962.59349224652
 20
32446.02739851842
 30
0.0
 11
80895.59349224652
 21
32446.02739851842
 31
0.0
  0
LINE
  5
62
330
1F
100
AcDbEntity
  8
DEFAULT_2
  6
DASHED
 62
     2
100
AcDbLine
 10
80962.59349224652
 20
32399.02739851842
 30
0.0
 11
80962.59349224652
 21
32446.02739851842
 31
0.0
  0
LINE
  5
63
330
1F
100
AcDbEntity
  8
DEFAULT_2
  6
DASHED
 62
     2
100
AcDbLine
 10
80895.59349224652
 20
32399.02739851842
 30
0.0
 11
80962.59349224652
 21
32399.02739851842
 31
0.0
  0
LINE
  5
64
330
1F
100
AcDbEntity
  8
DEFAULT_2
  6
DASHED
 62
     2
100
AcDbLine
 10
80895.59349224652
 20
32399.02739851842
 30
0.0
 11
80895.59349224652
 21
32446.02739851842
 31
0.0
  0
LINE
  5
65
330
1F
100
AcDbEntity
  8
1
  6
DOT_CENTER
 62
     2
100
AcDbLine
 10
80956.59349224652
 20
32412.30239851842
 30
0.0
 11
80956.59349224652
 21
32397.75239851842
 31
0.0
  0
LINE
  5
66
330
1F
100
AcDbEntity
  8
1
  6
DOT_CENTER
 62
     2
100
AcDbLine
 10
80949.31849224652
 20
32405.02739851842
 30
0.0
 11
80963.86849224652
 21
32405.02739851842
 31
0.0
  0
LINE
  5
67
330
1F
100
AcDbEntity
  8
1
  6
DOT_CENTER
 62
     2
100
AcDbLine
 10
80947.09349224652
 20
32418.30239851842
 30
0.0
 11
80947.09349224652
 21
32403.75239851842
 31
0.0
  0
LINE
  5
68
330
1F
100
AcDbEntity
  8
1
  6
DOT_CENTER
 62
     2
100
AcDbLine
 10
80939.81849224652
 20
32411.02739851842
 30
0.0
 11
80954.36849224652
 21
32411.02739851842
 31
0.0
  0
LINE
  5
69
330
1F
100
AcDbEntity
  8
1
  6
DOT_CENTER
 62
     2
100
AcDbLine
 10
80937.59349224652
 20
32412.30239851842
 30
0.0
 11
80937.59349224652
 21
32397.75239851842
 31
0.0
  0
LINE
  5
6A
330
1F
100
AcDbEntity
  8
1
  6
DOT_CENTER
 62
     2
100
AcDbLine
 10
80930.31849224652
 20
32405.02739851842
 30
0.0
 11
80944.86849224652
 21
32405.02739851842
 31
0.0
  0
LINE
  5
6B
330
1F
100
AcDbEntity
  8
1
  6
DOT_CENTER
 62
     2
100
AcDbLine
 10
80884.86849224652
 20
32403.02739851842
 30
0.0
 11
80870.31849224652
 21
32403.02739851842
 31
0.0
  0
LINE
  5
6C
330
1F
100
AcDbEntity
  8
1
  6
DOT_CENTER
 62
     2
100
AcDbLine
 10
80884.86849224652
 20
32442.02739851842
 30
0.0
 11
80870.31849224652
 21
32442.02739851842
 31
0.0
  0
LINE
  5
6D
330
1F
100
AcDbEntity
  8
1
  6
DOT_CENTER
 62
     2
100
AcDbLine
 10
80956.59349224652
 20
32447.30239851842
 30
0.0
 11
80956.59349224652
 21
32432.75239851842
 31
0.0
  0
LINE
  5
6E
330
1F
100
AcDbEntity
  8
1
  6
DOT_CENTER
 62
     2
100
AcDbLine
 10
80963.86849224652
 20
32440.02739851842
 30
0.0
 11
80949.31849224652
 21
32440.02739851842
 31
0.0
  0
LINE
  5
6F
330
1F
100
AcDbEntity
  8
1
  6
DOT_CENTER
 62
     2
100
AcDbLine
 10
80937.59349224652
 20
32447.30239851842
 30
0.0
 11
80937.59349224652
 21
32432.75239851842
 31
0.0
  0
LINE
  5
70
330
1F
100
AcDbEntity
  8
1
  6
DOT_CENTER
 62
     2
100
AcDbLine
 10
80944.86849224652
 20
32440.02739851842
 30
0.0
 11
80930.31849224652
 21
32440.02739851842
 31
0.0
  0
LINE
  5
71
330
1F
100
AcDbEntity
  8
1
  6
DOT_CENTER
 62
     2
100
AcDbLine
 10
80947.09349224652
 20
32441.30239851842
 30
0.0
 11
80947.09349224652
 21
32426.75239851842
 31
0.0
  0
LINE
  5
72
330
1F
100
AcDbEntity
  8
1
  6
DOT_CENTER
 62
     2
100
AcDbLine
 10
80954.36849224652
 20
32434.02739851842
 30
0.0
 11
80939.81849224652
 21
32434.02739851842
 31
0.0
  0
LINE
  5
73
330
1F
100
AcDbEntity
  8
1
  6
DOT_CENTER
 62
     2
100
AcDbLine
 10
80881.84349224652
 20
32359.02739851842
 30
0.0
 11
80873.34349224652
 21
32359.02739851842
 31
0.0
  0
LINE
  5
74
330
1F
100
AcDbEntity
  8
0
  6
Continuous
 62
     7
100
AcDbLine
 10
80867.56852195523
 20
32451.52739851842
 30
0.0
 11
80888.31846253792
 21
32451.52739851842
 31
0.0
  0
LINE
  5
75
330
1F
100
AcDbEntity
  8
0
  6
Continuous
 62
     7
100
AcDbLine
 10
80889.81849224652
 20
32449.52739851842
 30
0.0
 11
80889.84349224652
 21
32449.52739851842
 31
0.0
  0
LINE
  5
76
330
1F
100
AcDbEntity
  8
0
  6
Continuous
 62
     7
100
AcDbLine
 10
80865.94364184693
 20
32448.52739851842
 30
0.0
 11
80889.84349224652
 21
32448.52739851842
 31
0.0
  0
LINE
  5
77
330
1F
100
AcDbEntity
  8
0
  6
Continuous
 62
     7
100
AcDbLine
 10
80977.59349224654
 20
32411.52739851842
 30
0.0
 11
80977.59349224652
 21
32433.52739851843
 31
0.0
  0
LINE
  5
78
330
1F
100
AcDbEntity
  8
0
  6
Continuous
 62
     7
100
AcDbLine
 10
80865.84349224652
 20
32396.52739851842
 30
0.0
 11
80889.84349224652
 21
32396.52739851842
 31
0.0
  0
LINE
  5
79
330
1F
100
AcDbEntity
  8
0
  6
Continuous
 62
     7
100
AcDbLine
 10
80864.59349224652
 20
32395.52739851842
 30
0.0
 11
80889.84349224652
 21
32395.52739851842
 31
0.0
  0
LINE
  5
7A
330
1F
100
AcDbEntity
  8
0
  6
Continuous
 62
     7
100
AcDbLine
 10
80890.59349224652
 20
32388.02739851842
 30
0.0
 11
80864.59349224652
 21
32388.02739851842
 31
0.0
  0
LINE
  5
7B
330
1F
100
AcDbEntity
  8
0
  6
Continuous
 62
     7
100
AcDbLine
 10
80887.96842442542
 20
32340.52739851842
 30
0.0
 11
80867.21856006772
 21
32340.52739851842
 31
0.0
  0
LINE
  5
7C
330
1F
100
AcDbEntity
  8
0
  6
Continuous
 62
     7
100
AcDbLine
 10
80890.59349224652
 20
32395.52739851842
 30
0.0
 11
80890.59349224652
 21
32388.02739851842
 31
0.0
  0
LINE
  5
7D
330
1F
100
AcDbEntity
  8
0
  6
Continuous
 62
     7
100
AcDbLine
 10
80889.84349224652
 20
32448.52739851842
 30
0.0
 11
80889.84349224652
 21
32449.52739851842
 31
0.0
  0
LINE
  5
7E
330
1F
100
AcDbEntity
  8
0
  6
Continuous
 62
     7
100
AcDbLine
 10
80889.59349224652
 20
32343.52739851842
 30
0.0
 11
80889.59349224652
 21
32388.02739851842
 31
0.0
  0
LINE
  5
7F
330
1F
100
AcDbEntity
  8
0
  6
Continuous
 62
     7
100
AcDbLine
 10
80889.81849224652
 20
32448.52739851842
 30
0.0
 11
80889.81849224652
 21
32450.02739851842
 31
0.0
  0
LINE
  5
80
330
1F
100
AcDbEntity
  8
0
  6
Continuous
 62
     7
100
AcDbLine
 10
80889.46849224652
 20
32343.52739851842
 30
0.0
 11
80889.46849224652
 21
32342.02739851842
 31
0.0
  0
LINE
  5
81
330
1F
100
AcDbEntity
  8
DEFAULT_2
  6
HIDDEN_1
 62
   252
420
  8685188
100
AcDbLine
 10
80886.95301926642
 20
32396.52739851842
 30
0.0
 11
80886.95301926642
 21
32401.02739851842
 31
0.0
  0
LINE
  5
82
330
1F
100
AcDbEntity
  8
DEFAULT_2
  6
HIDDEN_1
 62
   252
420
  8685188
100
AcDbLine
 10
80886.95301926642
 20
32448.52739851842
 30
0.0
 11
80886.95301926642
 21
32444.02739851842
 31
0.0
  0
LINE
  5
83
330
1F
100
AcDbEntity
  8
0
  6
Continuous
 62
     7
100
AcDbLine
 10
80886.94349224652
 20
32396.52739851842
 30
0.0
 11
80886.94349224652
 21
32448.52739851842
 31
0.0
  0
LINE
  5
84
330
1F
100
AcDbEntity
  8
0
  6
Continuous
 62
     7
100
AcDbLine
 10
80866.06849224652
 20
32448.52739851842
 30
0.0
 11
80866.06849224652
 21
32450.02739851842
 31
0.0
  0
LINE
  5
85
330
1F
100
AcDbEntity
  8
0
  6
Continuous
 62
     7
100
AcDbLine
 10
80865.94349224652
 20
32396.52739851842
 30
0.0
 11
80865.94349224652
 21
32448.52739851842
 31
0.0
  0
LINE
  5
86
330
1F
100
AcDbEntity
  8
0
  6
Continuous
 62
     7
100
AcDbLine
 10
80865.84349224652
 20
32396.52739851842
 30
0.0
 11
80865.84349224652
 21
32395.52739851842
 31
0.0
  0
LINE
  5
87
330
1F
100
AcDbEntity
  8
0
  6
Continuous
 62
     7
100
AcDbLine
 10
80865.71849224652
 20
32343.52739851842
 30
0.0
 11
80865.71849224652
 21
32342.02739851842
 31
0.0
  0
LINE
  5
88
330
1F
100
AcDbEntity
  8
0
  6
Continuous
 62
     7
100
AcDbLine
 10
80864.59349224652
 20
32395.52739851842
 30
0.0
 11
80864.59349224652
 21
32388.02739851842
 31
0.0
  0
ARC
  5
89
330
1F
100
AcDbEntity
  8
0
  6
Continuous
 62
     7
100
AcDbCircle
 10
80962.59349224654
 20
32411.52739851842
 30
0.0
 40
15.0
100
AcDbArc
 50
-90.00000000005558
 51
0.0
  0
ARC
  5
8A
330
1F
100
AcDbEntity
  8
0
  6
Continuous
 62
     7
100
AcDbCircle
 10
80962.59349224652
 20
32433.52739851843
 30
0.0
 40
15.0
100
AcDbArc
 50
0.0
 51
90.0
  0
ARC
  5
8B
330
1F
100
AcDbEntity
  8
0
  6
Continuous
 62
     7
100
AcDbCircle
 10
80867.21849224652
 20
32342.02739851842
 30
0.0
 40
1.5
100
AcDbArc
 50
180.0
 51
-90.0
  0
ARC
  5
8C
330
1F
100
AcDbEntity
  8
0
  6
Continuous
 62
     7
100
AcDbCircle
 10
80887.96849224652
 20
32342.02739851842
 30
0.0
 40
1.5
100
AcDbArc
 50
-90.0
 51
0.0
  0
ARC
  5
8D
330
1F
100
AcDbEntity
  8
0
  6
Continuous
 62
     7
100
AcDbCircle
 10
80888.31849224652
 20
32450.02739851842
 30
0.0
 40
1.5
100
AcDbArc
 50
0.0
 51
90.0
  0
ARC
  5
8E
330
1F
100
AcDbEntity
  8
0
  6
Continuous
 62
     7
100
AcDbCircle
 10
80867.56849224652
 20
32450.02739851842
 30
0.0
 40
1.5
100
AcDbArc
 50
90.0
 51
180.0
  0
ARC
  5
8F
330
1F
100
AcDbEntity
  8
0
  6
Continuous
 62
     7
100
AcDbCircle
 10
80969.45634170894
 20
32422.52739851842
 30
0.0
 40
9.067150537591344
100
AcDbArc
 50
-26.1774655795219
 51
26.1774655795219
  0
CIRCLE
  5
90
330
1F
100
AcDbEntity
  8
DEFAULT_2
  6
DASHED
 62
     2
100
AcDbCircle
 10
80956.59349224652
 20
32405.02739851842
 30
0.0
 40
5.25
  0
CIRCLE
  5
91
330
1F
100
AcDbEntity
  8
DEFAULT_2
  6
DASHED
 62
     2
100
AcDbCircle
 10
80947.09349224652
 20
32411.02739851842
 30
0.0
 40
3.0
  0
CIRCLE
  5
92
330
1F
100
AcDbEntity
  8
DEFAULT_2
  6
DASHED
 62
     2
100
AcDbCircle
 10
80947.09349224652
 20
32411.02739851842
 30
0.0
 40
5.25
  0
CIRCLE
  5
93
330
1F
100
AcDbEntity
  8
DEFAULT_2
  6
DASHED
 62
     2
100
AcDbCircle
 10
80937.59349224652
 20
32405.02739851842
 30
0.0
 40
5.25
  0
CIRCLE
  5
94
330
1F
100
AcDbEntity
  8
DEFAULT_2
  6
DASHED
 62
     2
100
AcDbCircle
 10
80937.59349224652
 20
32405.02739851842
 30
0.0
 40
3.0
  0
CIRCLE
  5
95
330
1F
100
AcDbEntity
  8
DEFAULT_2
  6
DASHED
 62
     2
100
AcDbCircle
 10
80956.59349224652
 20
32405.02739851842
 30
0.0
 40
3.0
  0
CIRCLE
  5
96
330
1F
100
AcDbEntity
  8
DEFAULT_2
  6
DASHED
 62
     2
100
AcDbCircle
 10
80877.59349224652
 20
32403.02739851842
 30
0.0
 40
3.0
  0
CIRCLE
  5
97
330
1F
100
AcDbEntity
  8
DEFAULT_2
  6
DASHED
 62
     2
100
AcDbCircle
 10
80877.59349224652
 20
32403.02739851842
 30
0.0
 40
5.25
  0
CIRCLE
  5
98
330
1F
100
AcDbEntity
  8
DEFAULT_2
  6
DASHED
 62
     2
100
AcDbCircle
 10
80877.59349224652
 20
32442.02739851842
 30
0.0
 40
3.0
  0
CIRCLE
  5
99
330
1F
100
AcDbEntity
  8
DEFAULT_2
  6
DASHED
 62
     2
100
AcDbCircle
 10
80877.59349224652
 20
32442.02739851842
 30
0.0
 40
5.25
  0
CIRCLE
  5
9A
330
1F
100
AcDbEntity
  8
DEFAULT_2
  6
DASHED
 62
     2
100
AcDbCircle
 10
80956.59349224652
 20
32440.02739851842
 30
0.0
 40
3.0
  0
CIRCLE
  5
9B
330
1F
100
AcDbEntity
  8
DEFAULT_2
  6
DASHED
 62
     2
100
AcDbCircle
 10
80956.59349224652
 20
32440.02739851842
 30
0.0
 40
5.25
  0
CIRCLE
  5
9C
330
1F
100
AcDbEntity
  8
DEFAULT_2
  6
DASHED
 62
     2
100
AcDbCircle
 10
80937.59349224652
 20
32440.02739851842
 30
0.0
 40
3.0
  0
CIRCLE
  5
9D
330
1F
100
AcDbEntity
  8
DEFAULT_2
  6
DASHED
 62
     2
100
AcDbCircle
 10
80937.59349224652
 20
32440.02739851842
 30
0.0
 40
5.25
  0
CIRCLE
  5
9E
330
1F
100
AcDbEntity
  8
DEFAULT_2
  6
DASHED
 62
     2
100
AcDbCircle
 10
80947.09349224652
 20
32434.02739851842
 30
0.0
 40
5.25
  0
CIRCLE
  5
9F
330
1F
100
AcDbEntity
  8
DEFAULT_2
  6
DASHED
 62
     2
100
AcDbCircle
 10
80947.09349224652
 20
32434.02739851842
 30
0.0
 40
3.0
  0
CIRCLE
  5
A0
330
1F
100
AcDbEntity
  8
DEFAULT_2
  6
DASHED
 62
     2
100
AcDbCircle
 10
80877.59349224652
 20
32359.02739851842
 30
0.0
 40
2.5
  0
CIRCLE
  5
A1
330
1F
100
AcDbEntity
  8
DEFAULT_2
  6
DASHED
 62
     2
100
AcDbCircle
 10
80877.59349224652
 20
32422.52739851842
 30
0.0
 40
2.5
  0
SPLINE
  5
A2
330
1F
100
AcDbEntity
  8
0
  6
Continuous
 62
     7
100
AcDbSpline
210
0.0
220
0.0
230
1.0
 70
     8
 71
     3
 72
   247
 73
   243
 74
   241
 42
0.0000000001
 43
0.0000000001
 44
0.00000001
 40
0.0
 40
0.0
 40
0.0
 40
0.0
 40
0.0197840161528638
 40
0.0395680282076256
 40
0.0466553561632789
 40
0.05374269156277
 40
0.060586648252276
 40
0.0674305997063539
 40
0.0721067409424204
 40
0.0767828794332997
 40
0.0814876025883054
 40
0.0861923272292192
 40
0.0910903265991215
 40
0.0959883268196242
 40
0.1010341681437254
 40
0.106080008748572
 40
0.1110966105931002
 40
0.116113212616028
 40
0.1211248913136437
 40
0.1261365701545838
 40
0.1310561063300348
 40
0.1359756421306125
 40
0.1408696652953652
 40
0.1457636889537686
 40
0.1505873330891137
 40
0.1554109765996505
 40
0.1602331202585122
 40
0.1650552633983485
 40
0.1701457011372843
 40
0.1752361408217929
 40
0.1803401967859486
 40
0.1854442525303869
 40
0.1908415970435108
 40
0.1962389417676324
 40
0.2016559346020518
 40
0.2070729289462868
 40
0.2129786367426342
 40
0.2188843450173884
 40
0.2247992316901299
 40
0.2307141179034717
 40
0.2368374998632084
 40
0.2429608822759729
 40
0.2490777097014595
 40
0.2551945378389536
 40
0.2616441644162596
 40
0.2680937921801703
 40
0.2745563391250746
 40
0.2810188858022885
 40
0.2876260057749587
 40
0.2942331260351069
 40
0.3008400494798913
 40
0.3074469733569897
 40
0.3141344745945453
 40
0.3208219758796373
 40
0.3275054681921798
 40
0.3341889606121484
 40
0.3407656506015875
 40
0.3473423399073499
 40
0.353900295837249
 40
0.3604582515707292
 40
0.3668808691940987
 40
0.37330348626674
 40
0.3797162432933439
 40
0.3861290011929636
 40
0.3924823039617289
 40
0.3988356056340919
 40
0.4051909319219457
 40
0.4115462584159337
 40
0.417938857291961
 40
0.4243314569656944
 40
0.4307239641651212
 40
0.437116469343985
 40
0.4435749710659608
 40
0.4500334748141553
 40
0.4565000011501202
 40
0.4629665279184202
 40
0.4696104831443934
 40
0.476254439604709
 40
0.4828957758970731
 40
0.4895371114601218
 40
0.4962569180743405
 40
0.5029767248184134
 40
0.5096980122350292
 40
0.5164193008117504
 40
0.5233942214336564
 40
0.5303691431715039
 40
0.5373510451130753
 40
0.5443329478868904
 40
0.5514432057135801
 40
0.5585534623771377
 40
0.5656670784793422
 40
0.5727806960086718
 40
0.5801137052384536
 40
0.5874467155648235
 40
0.5947779596757837
 40
0.6021092029738353
 40
0.6094766928242609
 40
0.6168441825875205
 40
0.6242049274250604
 40
0.6315656729972908
 40
0.63908560636467
 40
0.6466055408284095
 40
0.6541284924231818
 40
0.6616514437356249
 40
0.6692468716064184
 40
0.6768422994251966
 40
0.6844393767156901
 40
0.6920364548873373
 40
0.6997826849705077
 40
0.7075289157803811
 40
0.7152756275102601
 40
0.72302233911155
 40
0.7308042048088582
 40
0.7385860701673397
 40
0.7463640389871031
 40
0.7541420083865293
 40
0.7620266321496089
 40
0.7699112565651214
 40
0.7777992543980023
 40
0.7856872521075781
 40
0.7936287975155529
 40
0.8015703430277239
 40
0.8095128635385503
 40
0.8174553843386382
 40
0.8254723971205777
 40
0.8334894101663527
 40
0.8415178068911991
 40
0.8495462040949675
 40
0.8575982677574081
 40
0.8656503314025786
 40
0.8736987656544389
 40
0.8817471994654097
 40
0.8896669996069615
 40
0.8975867988217495
 40
0.9055047064046658
 40
0.9134226141588605
 40
0.921224879627178
 40
0.9290271451243008
 40
0.9368187547400479
 40
0.9446103626863269
 40
0.9521542017908842
 40
0.9596980396207629
 40
0.9672527526755014
 40
0.974807466212888
 40
0.9822879789807983
 40
0.989768492646309
 40
0.9972480474321106
 40
1.004727600179721
 40
1.011838796438769
 40
1.018949990542236
 40
1.026053326393498
 40
1.033156662224097
 40
1.040056641446629
 40
1.0469566211815
 40
1.05384570713465
 40
1.060734790484547
 40
1.067265302819844
 40
1.07379581337898
 40
1.080340573325199
 40
1.086885334376431
 40
1.093374635669701
 40
1.09986393780792
 40
1.106360664778685
 40
1.11285738996317
 40
1.118954605925583
 40
1.12505181947533
 40
1.131141285342072
 40
1.137230752391321
 40
1.14308181616005
 40
1.148932879291717
 40
1.154769135833183
 40
1.160605389972869
 40
1.166016479424701
 40
1.171427566680044
 40
1.176839169234621
 40
1.182250772249578
 40
1.187560058574981
 40
1.192869345843882
 40
1.198185868152229
 40
1.203502388519711
 40
1.208547330062797
 40
1.213592270304476
 40
1.218625799667697
 40
1.223659326936167
 40
1.228585203044425
 40
1.233511081130904
 40
1.238436928636355
 40
1.243362774806757
 40
1.248207021693176
 40
1.253051268212577
 40
1.257895598262104
 40
1.262739929319349
 40
1.267646340044146
 40
1.272552750394242
 40
1.27747248582856
 40
1.282392221886614
 40
1.287416670901911
 40
1.29244112010103
 40
1.297468565903384
 40
1.302496012273137
 40
1.30757678901725
 40
1.312657565205492
 40
1.317743025970607
 40
1.322828487296136
 40
1.327992413761531
 40
1.333156340756674
 40
1.338326105570779
 40
1.343495869801212
 40
1.348632200948133
 40
1.353768532078167
 40
1.358899451042526
 40
1.364030370296604
 40
1.369054421875796
 40
1.374078473753061
 40
1.379031187453549
 40
1.383983898304725
 40
1.388715912043528
 40
1.393447922519617
 40
1.398164348077169
 40
1.402880778800245
 40
1.408361470496753
 40
1.413842167196901
 40
1.419458213042343
 40
1.425074263402331
 40
1.431683031607702
 40
1.438291808616613
 40
1.444982125108224
 40
1.451672431240673
 40
1.458314781439439
 40
1.464957144660582
 40
1.471355371045298
 40
1.477753580842157
 40
1.483119577395895
 40
1.488485564769972
 40
1.493744119877598
 40
1.499002688619416
 40
1.505461462540348
 40
1.511920240627884
 40
1.518552372254763
 40
1.525184484731732
 40
1.544068722466762
 40
1.562952973337392
 40
1.562952973337392
 40
1.562952973337392
 40
1.562952973337392
 10
80886.94349224652
 20
32446.80351777992
 30
0.0
 10
80886.9434794154
 20
32446.81011246597
 30
0.0
 10
80886.94345375313
 20
32446.8233018367
 30
0.0
 10
80886.94358057385
 20
32446.83885345379
 30
0.0
 10
80886.94374934935
 20
32446.85017176537
 30
0.0
 10
80886.94387949785
 20
32446.85717678007
 30
0.0
 10
80886.94403123096
 20
32446.86410021057
 30
0.0
 10
80886.94418664314
 20
32446.87021960121
 30
0.0
 10
80886.94434030591
 20
32446.87561616332
 30
0.0
 10
80886.94448683987
 20
32446.88029954633
 30
0.0
 10
80886.94464837917
 20
32446.88499196974
 30
0.0
 10
80886.9448269968
 20
32446.88975777987
 30
0.0
 10
80886.9450225937
 20
32446.89458740276
 30
0.0
 10
80886.94523706757
 20
32446.89953003823
 30
0.0
 10
80886.94546735667
 20
32446.90452129562
 30
0.0
 10
80886.94571360752
 20
32446.90955137285
 30
0.0
 10
80886.94597359998
 20
32446.91457099906
 30
0.0
 10
80886.94624716624
 20
32446.91957849951
 30
0.0
 10
80886.94653481251
 20
32446.92458356724
 30
0.0
 10
80886.94683468963
 20
32446.92955550328
 30
0.0
 10
80886.94714660509
 20
32446.93449592341
 30
0.0
 10
80886.94747008056
 20
32446.93939629726
 30
0.0
 10
80886.94780734571
 20
32446.94428721737
 30
0.0
 10
80886.94815712237
 20
32446.94914521294
 30
0.0
 10
80886.94852023345
 20
32446.95397870492
 30
0.0
 10
80886.9488975815
 20
32446.95878707447
 30
0.0
 10
80886.94929211179
 20
32446.96359356385
 30
0.0
 10
80886.9497123387
 20
32446.96848714097
 30
0.0
 10
80886.95016042104
 20
32446.97346804813
 30
0.0
 10
80886.95063754175
 20
32446.9785406503
 30
0.0
 10
80886.95113522983
 20
32446.98361583668
 30
0.0
 10
80886.95166323346
 20
32446.98879080208
 30
0.0
 10
80886.95222221503
 20
32446.99406083646
 30
0.0
 10
80886.95281390169
 20
32446.99943225464
 30
0.0
 10
80886.95342770714
 20
32447.0048077824
 30
0.0
 10
80886.9540821312
 20
32447.01034918476
 30
0.0
 10
80886.95477790256
 20
32447.01604970042
 30
0.0
 10
80886.95551780307
 20
32447.02191197615
 30
0.0
 10
80886.95628228929
 20
32447.02777418256
 30
0.0
 10
80886.95708137393
 20
32447.03370499601
 30
0.0
 10
80886.95791641288
 20
32447.03970103389
 30
0.0
 10
80886.95878838627
 20
32447.04575982756
 30
0.0
 10
80886.95968788445
 20
32447.05181238748
 30
0.0
 10
80886.96063141758
 20
32447.05796827996
 30
0.0
 10
80886.96162080456
 20
32447.06422930702
 30
0.0
 10
80886.96265810679
 20
32447.07059935926
 30
0.0
 10
80886.96372564911
 20
32447.07696878007
 30
0.0
 10
80886.964831561
 20
32447.08338492899
 30
0.0
 10
80886.96597577655
 20
32447.08984330635
 30
0.0
 10
80886.96715886767
 20
32447.09634359735
 30
0.0
 10
80886.96837223248
 20
32447.10283823864
 30
0.0
 10
80886.96962056682
 20
32447.10935353168
 30
0.0
 10
80886.97090394892
 20
32447.11588938648
 30
0.0
 10
80886.97222239852
 20
32447.12244429348
 30
0.0
 10
80886.97357057864
 20
32447.12899178592
 30
0.0
 10
80886.97494117578
 20
32447.13549687907
 30
0.0
 10
80886.97633394825
 20
32447.14196084641
 30
0.0
 10
80886.97774751911
 20
32447.14837745599
 30
0.0
 10
80886.97918980558
 20
32447.15478127171
 30
0.0
 10
80886.98065107796
 20
32447.16112809269
 30
0.0
 10
80886.98213245717
 20
32447.16742391407
 30
0.0
 10
80886.98363282546
 20
32447.17366547022
 30
0.0
 10
80886.98516284494
 20
32447.17989644055
 30
0.0
 10
80886.98671796494
 20
32447.18609737663
 30
0.0
 10
80886.98829895825
 20
32447.19227131129
 30
0.0
 10
80886.98990667408
 20
32447.1984185576
 30
0.0
 10
80886.99154704867
 20
32447.20455786982
 30
0.0
 10
80886.99322429836
 20
32447.21070079203
 30
0.0
 10
80886.99493941216
 20
32447.21684615301
 30
0.0
 10
80886.99669347181
 20
32447.22299340246
 30
0.0
 10
80886.99848398639
 20
32447.22913010222
 30
0.0
 10
80887.00031821268
 20
32447.2352768097
 30
0.0
 10
80887.0021975841
 20
32447.24143287141
 30
0.0
 10
80887.00412294538
 20
32447.24760055649
 30
0.0
 10
80887.00608751355
 20
32447.25375867256
 30
0.0
 10
80887.00810900888
 20
32447.25996338383
 30
0.0
 10
80887.01018716495
 20
32447.2662117101
 30
0.0
 10
80887.01232235167
 20
32447.2725023436
 30
0.0
 10
80887.01449532819
 20
32447.27877909891
 30
0.0
 10
80887.01671462975
 20
32447.28506644346
 30
0.0
 10
80887.01898091109
 20
32447.2913648137
 30
0.0
 10
80887.02129440512
 20
32447.29767438787
 30
0.0
 10
80887.02364580659
 20
32447.30397045942
 30
0.0
 10
80887.02606425292
 20
32447.31033214025
 30
0.0
 10
80887.0285502617
 20
32447.31675846149
 30
0.0
 10
80887.03110527669
 20
32447.32325110486
 30
0.0
 10
80887.03369781334
 20
32447.32973136253
 30
0.0
 10
80887.03634340805
 20
32447.33623886304
 30
0.0
 10
80887.03904134552
 20
32447.34277115377
 30
0.0
 10
80887.04179294687
 20
32447.34932866149
 30
0.0
 10
80887.04458201543
 20
32447.35587153898
 30
0.0
 10
80887.04743738123
 20
32447.36246674686
 30
0.0
 10
80887.05035968847
 20
32447.36911253907
 30
0.0
 10
80887.05334991592
 20
32447.37580757723
 30
0.0
 10
80887.05637849128
 20
32447.38248470999
 30
0.0
 10
80887.05945078182
 20
32447.38915449886
 30
0.0
 10
80887.06256757671
 20
32447.39581694951
 30
0.0
 10
80887.06572824354
 20
32447.40246958916
 30
0.0
 10
80887.06892772354
 20
32447.40910115352
 30
0.0
 10
80887.0721890185
 20
32447.41575916738
 30
0.0
 10
80887.07551380395
 20
32447.42244502163
 30
0.0
 10
80887.0789031029
 20
32447.4291590266
 30
0.0
 10
80887.08233287715
 20
32447.43585357576
 30
0.0
 10
80887.08581414873
 20
32447.44254986554
 30
0.0
 10
80887.08934676694
 20
32447.44924653754
 30
0.0
 10
80887.09293125806
 20
32447.45594362612
 30
0.0
 10
80887.09655617786
 20
32447.46261954411
 30
0.0
 10
80887.10024507214
 20
32447.46931776918
 30
0.0
 10
80887.1039981389
 20
32447.47603725715
 30
0.0
 10
80887.10781596546
 20
32447.48277754519
 30
0.0
 10
80887.11167391055
 20
32447.48949513597
 30
0.0
 10
80887.11557775785
 20
32447.4961999043
 30
0.0
 10
80887.11952752268
 20
32447.50289133716
 30
0.0
 10
80887.12352274025
 20
32447.50956787701
 30
0.0
 10
80887.12755741956
 20
32447.51621912514
 30
0.0
 10
80887.13164991622
 20
32447.52287519809
 30
0.0
 10
80887.13580130009
 20
32447.52953663249
 30
0.0
 10
80887.14001249158
 20
32447.53620383977
 30
0.0
 10
80887.14426438966
 20
32447.54284649631
 30
0.0
 10
80887.14856655576
 20
32447.54947933421
 30
0.0
 10
80887.15291852783
 20
32447.55610097072
 30
0.0
 10
80887.15732059944
 20
32447.56271125386
 30
0.0
 10
80887.16176277037
 20
32447.56929504881
 30
0.0
 10
80887.16625874964
 20
32447.57587270976
 30
0.0
 10
80887.17080848021
 20
32447.58244353227
 30
0.0
 10
80887.17541419761
 20
32447.58901022823
 30
0.0
 10
80887.18006145835
 20
32447.59555224486
 30
0.0
 10
80887.18475454474
 20
32447.60207586294
 30
0.0
 10
80887.18949100569
 20
32447.60857782056
 30
0.0
 10
80887.19427016142
 20
32447.6150567626
 30
0.0
 10
80887.1990872504
 20
32447.62150604132
 30
0.0
 10
80887.20391647908
 20
32447.62789104408
 30
0.0
 10
80887.20875793822
 20
32447.6342128528
 30
0.0
 10
80887.21361071819
 20
32447.64047101
 30
0.0
 10
80887.21850106481
 20
32447.64669905404
 30
0.0
 10
80887.22340494634
 20
32447.65286647156
 30
0.0
 10
80887.22832207641
 20
32447.6589739203
 30
0.0
 10
80887.23324970694
 20
32447.66501868234
 30
0.0
 10
80887.23821208216
 20
32447.67103034927
 30
0.0
 10
80887.24315661134
 20
32447.6769448563
 30
0.0
 10
80887.24808459394
 20
32447.68276534866
 30
0.0
 10
80887.25299722885
 20
32447.68849517974
 30
0.0
 10
80887.25794814565
 20
32447.69419676775
 30
0.0
 10
80887.26292073961
 20
32447.69985138038
 30
0.0
 10
80887.26791190146
 20
32447.70545653372
 30
0.0
 10
80887.2729206655
 20
32447.71101227684
 30
0.0
 10
80887.27796312777
 20
32447.71653702017
 30
0.0
 10
80887.28295622232
 20
32447.72193995938
 30
0.0
 10
80887.28789847641
 20
32447.72722249993
 30
0.0
 10
80887.29278662805
 20
32447.73238374601
 30
0.0
 10
80887.29770495724
 20
32447.73751261443
 30
0.0
 10
80887.30260613993
 20
32447.74256019048
 30
0.0
 10
80887.3074908703
 20
32447.74752906917
 30
0.0
 10
80887.31235541054
 20
32447.75241746935
 30
0.0
 10
80887.31724708981
 20
32447.75727355904
 30
0.0
 10
80887.32208086453
 20
32447.76201298709
 30
0.0
 10
80887.32685783786
 20
32447.7666394355
 30
0.0
 10
80887.331579727
 20
32447.77115761265
 30
0.0
 10
80887.33633251351
 20
32447.77565019357
 30
0.0
 10
80887.34110214876
 20
32447.78010477955
 30
0.0
 10
80887.34588432295
 20
32447.78451868873
 30
0.0
 10
80887.35068006143
 20
32447.78889413346
 30
0.0
 10
80887.35550244524
 20
32447.79324388898
 30
0.0
 10
80887.36025222708
 20
32447.79747884758
 30
0.0
 10
80887.36492591182
 20
32447.80159889073
 30
0.0
 10
80887.36952017606
 20
32447.80560359661
 30
0.0
 10
80887.37413521325
 20
32447.80958039095
 30
0.0
 10
80887.37871038135
 20
32447.81347760987
 30
0.0
 10
80887.38324650831
 20
32447.81729796489
 30
0.0
 10
80887.38773923802
 20
32447.82103868164
 30
0.0
 10
80887.39224971083
 20
32447.82475022372
 30
0.0
 10
80887.39666877256
 20
32447.82834188428
 30
0.0
 10
80887.40099916005
 20
32447.83181777418
 30
0.0
 10
80887.40523978979
 20
32447.83517919856
 30
0.0
 10
80887.4095018183
 20
32447.83851372964
 30
0.0
 10
80887.41375831913
 20
32447.84180007734
 30
0.0
 10
80887.41800874863
 20
32447.84503829872
 30
0.0
 10
80887.42225450272
 20
32447.84823017918
 30
0.0
 10
80887.42652267466
 20
32447.85139607128
 30
0.0
 10
80887.4307406157
 20
32447.85448158727
 30
0.0
 10
80887.4349055051
 20
32447.85748609997
 30
0.0
 10
80887.43901352011
 20
32447.86040802899
 30
0.0
 10
80887.44313849951
 20
32447.86329933869
 30
0.0
 10
80887.44725107051
 20
32447.86613899245
 30
0.0
 10
80887.45135403558
 20
32447.86892917962
 30
0.0
 10
80887.45544633386
 20
32447.87167101108
 30
0.0
 10
80887.45955709896
 20
32447.87438505714
 30
0.0
 10
80887.46366313621
 20
32447.87705667747
 30
0.0
 10
80887.46776372376
 20
32447.87968660174
 30
0.0
 10
80887.47185808556
 20
32447.88227571582
 30
0.0
 10
80887.475968664
 20
32447.88483905633
 30
0.0
 10
80887.48011253434
 20
32447.88738799423
 30
0.0
 10
80887.4842893613
 20
32447.88992268134
 30
0.0
 10
80887.48850280249
 20
32447.89244531163
 30
0.0
 10
80887.49273484037
 20
32447.89494536087
 30
0.0
 10
80887.49701531405
 20
32447.8974406113
 30
0.0
 10
80887.50134039635
 20
32447.8999284821
 30
0.0
 10
80887.50571101061
 20
32447.90240903367
 30
0.0
 10
80887.51009661563
 20
32447.90486502917
 30
0.0
 10
80887.51451255861
 20
32447.90730510993
 30
0.0
 10
80887.51895791889
 20
32447.90972854141
 30
0.0
 10
80887.52343419267
 20
32447.91213549369
 30
0.0
 10
80887.52792573399
 20
32447.9145171698
 30
0.0
 10
80887.53245559779
 20
32447.91688555471
 30
0.0
 10
80887.53702251293
 20
32447.919239337
 30
0.0
 10
80887.54162832287
 20
32447.92157879575
 30
0.0
 10
80887.54624965726
 20
32447.92389178798
 30
0.0
 10
80887.55087646884
 20
32447.92617308041
 30
0.0
 10
80887.55550684065
 20
32447.92842174129
 30
0.0
 10
80887.56013889608
 20
32447.93063708465
 30
0.0
 10
80887.56478249602
 20
32447.93282389519
 30
0.0
 10
80887.56940513695
 20
32447.93496715138
 30
0.0
 10
80887.57400797262
 20
32447.93706822378
 30
0.0
 10
80887.57856917822
 20
32447.93911723239
 30
0.0
 10
80887.58312111007
 20
32447.94112862778
 30
0.0
 10
80887.5875966722
 20
32447.94307176131
 30
0.0
 10
80887.59201747793
 20
32447.94495601155
 30
0.0
 10
80887.59637826594
 20
32447.94677993009
 30
0.0
 10
80887.60074684795
 20
32447.94857145577
 30
0.0
 10
80887.6053590047
 20
32447.95042645587
 30
0.0
 10
80887.61022132142
 20
32447.95234188034
 30
0.0
 10
80887.61537732031
 20
32447.95432953652
 30
0.0
 10
80887.62058942013
 20
32447.95629671681
 30
0.0
 10
80887.62616748198
 20
32447.95835875354
 30
0.0
 10
80887.63207114048
 20
32447.96049397723
 30
0.0
 10
80887.63832835841
 20
32447.96270393618
 30
0.0
 10
80887.64462764273
 20
32447.96487585063
 30
0.0
 10
80887.65095404004
 20
32447.96700286878
 30
0.0
 10
80887.65728165838
 20
32447.96907545525
 30
0.0
 10
80887.66353203068
 20
32447.97107047315
 30
0.0
 10
80887.66971894947
 20
32447.97299608133
 30
0.0
 10
80887.67551296132
 20
32447.97475188498
 30
0.0
 10
80887.68098953832
 20
32447.97636817965
 30
0.0
 10
80887.68611176248
 20
32447.97784265524
 30
0.0
 10
80887.69120928404
 20
32447.97927304522
 30
0.0
 10
80887.69666651744
 20
32447.98076938571
 30
0.0
 10
80887.70251888785
 20
32447.98233725737
 30
0.0
 10
80887.70882435233
 20
32447.98398262797
 30
0.0
 10
80887.71519654192
 20
32447.98560063568
 30
0.0
 10
80887.72560166591
 20
32447.98816392306
 30
0.0
 10
80887.74001911728
 20
32447.99151348928
 30
0.0
 10
80887.75233453534
 20
32447.99412697473
 30
0.0
 10
80887.75849224652
 20
32447.99543371792
 30
0.0
 11
80886.94349224652
 21
32446.80351777992
 31
0.0
 11
80886.94348705761
 21
32446.82330179539
 31
0.0
 11
80886.94364788593
 21
32446.84308515373
 31
0.0
 11
80886.94375367978
 21
32446.85017169204
 31
0.0
 11
80886.94388501244
 21
32446.8572578105
 31
0.0
 11
80886.94403519807
 21
32446.86410011914
 31
0.0
 11
80886.9442091554
 21
32446.87094185944
 31
0.0
 11
80886.94434249602
 21
32446.87561609918
 31
0.0
 11
80886.94448897574
 21
32446.88028994287
 31
0.0
 11
80886.94465076875
 21
32446.88499188321
 31
0.0
 11
80886.94482689936
 21
32446.8896933098
 31
0.0
 11
80886.94502494928
 21
32446.89458730347
 31
0.0
 11
80886.94523713278
 21
32446.89948070559
 31
0.0
 11
80886.94546971786
 21
32446.90452118363
 31
0.0
 11
80886.9457164699
 21
32446.90956098728
 31
0.0
 11
80886.94597596121
 21
32446.91457087334
 31
0.0
 11
80886.94624962007
 21
32446.91958000567
 31
0.0
 11
80886.94653717487
 21
32446.92458342806
 31
0.0
 11
80886.94683890381
 21
32446.92958601583
 31
0.0
 11
80886.94714894767
 21
32446.93449577234
 31
0.0
 11
80886.94747304688
 21
32446.9394046207
 31
0.0
 11
80886.94780980924
 21
32446.94428704365
 31
0.0
 11
80886.94816135286
 21
32446.94916842508
 31
0.0
 11
80886.94852290573
 21
32446.95397850016
 31
0.0
 11
80886.94890049189
 21
32446.95878734258
 31
0.0
 11
80886.94929512612
 21
32446.96359331108
 31
0.0
 11
80886.94970784604
 21
32446.96839775972
 31
0.0
 11
80886.95016385437
 21
32446.9734677314
 31
0.0
 11
80886.9506404633
 21
32446.97853580994
 31
0.0
 11
80886.95113855472
 21
32446.98361550405
 31
0.0
 11
80886.95165659541
 21
32446.98869320223
 31
0.0
 11
80886.95222582774
 21
32446.99406044569
 31
0.0
 11
80886.95281673642
 21
32446.99942534616
 31
0.0
 11
80886.9534311687
 21
32447.00480737964
 31
0.0
 11
80886.95406637104
 21
32447.01018700283
 31
0.0
 11
80886.95478190409
 21
32447.01604920353
 31
0.0
 11
80886.95552144642
 21
32447.02190842424
 31
0.0
 11
80886.9562864431
 21
32447.0277736322
 31
0.0
 11
80886.95707636232
 21
32447.03363553518
 31
0.0
 11
80886.95792102277
 21
32447.03970038105
 31
0.0
 11
80886.95879334265
 21
32447.04576131086
 31
0.0
 11
80886.95969247597
 21
32447.05181169407
 31
0.0
 11
80886.96061915874
 21
32447.0578579198
 31
0.0
 11
80886.96162578913
 21
32447.06422850676
 31
0.0
 11
80886.9626623278
 21
32447.07059429704
 31
0.0
 11
80886.96373056114
 21
32447.07696794517
 31
0.0
 11
80886.96482826646
 21
32447.08333658338
 31
0.0
 11
80886.96598085658
 21
32447.08984239389
 31
0.0
 11
80886.96716392717
 21
32447.09634273096
 31
0.0
 11
80886.96837722033
 21
32447.10283729462
 31
0.0
 11
80886.96962044106
 21
32447.10932619633
 31
0.0
 11
80886.97090897488
 21
32447.11588838753
 31
0.0
 11
80886.97222766453
 21
32447.12244458544
 31
0.0
 11
80886.97357558302
 21
32447.12899074349
 31
0.0
 11
80886.97495352782
 21
32447.13553064709
 31
0.0
 11
80886.9763388884
 21
32447.14195977046
 31
0.0
 11
80886.97775388909
 21
32447.14838243464
 31
0.0
 11
80886.97919488556
 21
32447.1547801151
 31
0.0
 11
80886.98066636147
 21
32447.16117085387
 31
0.0
 11
80886.9821374722
 21
32447.16742272162
 31
0.0
 11
80886.98363867264
 21
32447.17366743196
 31
0.0
 11
80886.9851679624
 21
32447.17989517036
 31
0.0
 11
80886.98672795738
 21
32447.18611528929
 31
0.0
 11
80886.98830420304
 21
32447.19226995465
 31
0.0
 11
80886.98991191598
 21
32447.19841647409
 31
0.0
 11
80886.99155262005
 21
32447.20455636516
 31
0.0
 11
80886.99322675189
 21
32447.21068722623
 31
0.0
 11
80886.99494534783
 21
32447.21684447792
 31
0.0
 11
80886.99669955763
 21
32447.22299167879
 31
0.0
 11
80886.99849022491
 21
32447.22912826245
 31
0.0
 11
80887.00031832058
 21
32447.23525379824
 31
0.0
 11
80887.00220404548
 21
32447.24143087571
 31
0.0
 11
80887.00412854085
 21
32447.24759598627
 31
0.0
 11
80887.0060938124
 21
32447.25375664132
 31
0.0
 11
80887.00809687808
 21
32447.25990511237
 31
0.0
 11
80887.01019360579
 21
32447.26620954525
 31
0.0
 11
80887.01232898039
 21
32447.27250099443
 31
0.0
 11
80887.01450164565
 21
32447.27877689066
 31
0.0
 11
80887.01671221516
 21
32447.28503953551
 31
0.0
 11
80887.01898727553
 21
32447.29136250168
 31
0.0
 11
80887.02130052316
 21
32447.29767159734
 31
0.0
 11
80887.02365194469
 21
32447.30396814571
 31
0.0
 11
80887.02604019713
 21
32447.31025081794
 31
0.0
 11
80887.02855653674
 21
32447.31675601223
 31
0.0
 11
80887.03111052909
 21
32447.32324651732
 31
0.0
 11
80887.03370382662
 21
32447.32972893682
 31
0.0
 11
80887.03633320541
 21
32447.33619680614
 31
0.0
 11
80887.03904749533
 21
32447.34276859407
 31
0.0
 11
80887.04179868249
 21
32447.34932501985
 31
0.0
 11
80887.04458814897
 21
32447.35586890332
 31
0.0
 11
80887.04741441883
 21
32447.36239697754
 31
0.0
 11
80887.05036614214
 21
32447.36910967848
 31
0.0
 11
80887.05335658914
 21
32447.37580521932
 31
0.0
 11
80887.05638497532
 21
32447.38248174666
 31
0.0
 11
80887.05945226405
 21
32447.3891404904
 31
0.0
 11
80887.06257419623
 21
32447.39581382885
 31
0.0
 11
80887.0657358451
 21
32447.40246844243
 31
0.0
 11
80887.06893429841
 21
32447.40909795681
 31
0.0
 11
80887.07217220224
 21
32447.41570829373
 31
0.0
 11
80887.07552054258
 21
32447.42244164467
 31
0.0
 11
80887.07890931689
 21
32447.42915473807
 31
0.0
 11
80887.08233952636
 21
32447.43585014423
 31
0.0
 11
80887.08580963072
 21
32447.4425249605
 31
0.0
 11
80887.0893534905
 21
32447.44924296484
 31
0.0
 11
80887.09293769175
 21
32447.45593953301
 31
0.0
 11
80887.09656279902
 21
32447.4626159228
 31
0.0
 11
80887.10022763521
 21
32447.46927058826
 31
0.0
 11
80887.10400487827
 21
32447.476033466
 31
0.0
 11
80887.1078225592
 21
32447.48277359983
 31
0.0
 11
80887.11168056494
 21
32447.48949128801
 31
0.0
 11
80887.11557849668
 21
32447.49618588798
 31
0.0
 11
80887.11953421659
 21
32447.50288735899
 31
0.0
 11
80887.1235300992
 21
32447.50956495966
 31
0.0
 11
80887.12756406447
 21
32447.51621506665
 31
0.0
 11
80887.13163790034
 21
32447.52284082467
 31
0.0
 11
80887.13580803394
 21
32447.52953240727
 31
0.0
 11
80887.14001857207
 21
32447.5361986409
 31
0.0
 11
80887.1442710478
 21
32447.54284220621
 31
0.0
 11
80887.14856347219
 21
32447.54946003068
 31
0.0
 11
80887.15292521381
 21
32447.55609654735
 31
0.0
 11
80887.15732707152
 21
32447.56270652419
 31
0.0
 11
80887.16176937275
 21
32447.56929056488
 31
0.0
 11
80887.16625128902
 21
32447.57584770322
 31
0.0
 11
80887.17081509223
 21
32447.58243892421
 31
0.0
 11
80887.17541856856
 21
32447.58900249823
 31
0.0
 11
80887.18006796177
 21
32447.59554759538
 31
0.0
 11
80887.18475637687
 21
32447.60206479766
 31
0.0
 11
80887.18949746703
 21
32447.60857308417
 31
0.0
 11
80887.19427732487
 21
32447.61505295207
 31
0.0
 11
80887.19909370535
 21
32447.62150119005
 31
0.0
 11
80887.20394881394
 21
32447.62792031829
 31
0.0
 11
80887.20876423475
 21
32447.63420800123
 31
0.0
 11
80887.21361743187
 21
32447.64046657113
 31
0.0
 11
80887.21850738395
 21
32447.64669406093
 31
0.0
 11
80887.22343525081
 21
32447.652891592
 31
0.0
 11
80887.22832822951
 21
32447.65896893566
 31
0.0
 11
80887.23325812598
 21
32447.66501637045
 31
0.0
 11
80887.23821831385
 21
32447.67102517372
 31
0.0
 11
80887.24321588675
 21
32447.67700291741
 31
0.0
 11
80887.24809053756
 21
32447.68276028555
 31
0.0
 11
80887.25300084632
 21
32447.68848727053
 31
0.0
 11
80887.25795408447
 21
32447.69419157778
 31
0.0
 11
80887.26294295707
 21
32447.69986474681
 31
0.0
 11
80887.267917612
 21
32447.70545141662
 31
0.0
 11
80887.27292653245
 21
32447.71100738645
 31
0.0
 11
80887.27796882551
 21
32447.71653178872
 31
0.0
 11
80887.28304529899
 21
32447.72202479576
 31
0.0
 11
80887.28790374128
 21
32447.72721754558
 31
0.0
 11
80887.29279376603
 21
32447.73238056209
 31
0.0
 11
80887.29771027192
 21
32447.73750748613
 31
0.0
 11
80887.30265866531
 21
32447.74260363985
 31
0.0
 11
80887.30749585216
 21
32447.74752414152
 31
0.0
 11
80887.31236293125
 21
32447.75241507819
 31
0.0
 11
80887.3172520935
 21
32447.75726848912
 31
0.0
 11
80887.32217127008
 21
32447.76209147277
 31
0.0
 11
80887.3268623954
 21
32447.76663470229
 31
0.0
 11
80887.33158086115
 21
32447.77114952778
 31
0.0
 11
80887.33633699779
 21
32447.77564542002
 31
0.0
 11
80887.34112004418
 21
32447.78011267471
 31
0.0
 11
80887.3458885428
 21
32447.7845140895
 31
0.0
 11
80887.35068236379
 21
32447.78888791192
 31
0.0
 11
80887.35550660553
 21
32447.79323925114
 31
0.0
 11
80887.3603558037
 21
32447.79756275842
 31
0.0
 11
80887.36492964964
 21
32447.80159462842
 31
0.0
 11
80887.36952591514
 21
32447.80560091805
 31
0.0
 11
80887.37413897671
 21
32447.80957599761
 31
0.0
 11
80887.37877462179
 21
32447.81352471939
 31
0.0
 11
80887.3832500383
 21
32447.81729375033
 31
0.0
 11
80887.38774663107
 21
32447.82103749087
 31
0.0
 11
80887.39225344131
 21
32447.82474566452
 31
0.0
 11
80887.39678262433
 21
32447.8284264747
 31
0.0
 11
80887.40100259903
 21
32447.8318134649
 31
0.0
 11
80887.40524319888
 21
32447.83517459242
 31
0.0
 11
80887.40950537364
 21
32447.83850915514
 31
0.0
 11
80887.41378888061
 21
32447.84181627098
 31
0.0
 11
80887.4180121694
 21
32447.84503377827
 31
0.0
 11
80887.42225598467
 21
32447.84822416433
 31
0.0
 11
80887.42652615803
 21
32447.85139134429
 31
0.0
 11
80887.43081722388
 21
32447.8545301566
 31
0.0
 11
80887.43490877924
 21
32447.85748153085
 31
0.0
 11
80887.43901997268
 21
32447.86040548545
 31
0.0
 11
80887.44314187269
 21
32447.86329449188
 31
0.0
 11
80887.4472840042
 21
32447.86615441204
 31
0.0
 11
80887.45135720403
 21
32447.86892448398
 31
0.0
 11
80887.45544942154
 21
32447.87166638675
 31
0.0
 11
80887.45956011263
 21
32447.87438045977
 31
0.0
 11
80887.4636888833
 21
32447.87706694693
 31
0.0
 11
80887.46776649827
 21
32447.87968224501
 31
0.0
 11
80887.4718607608
 21
32447.88227140293
 31
0.0
 11
80887.47597127073
 21
32447.88483484626
 31
0.0
 11
80887.48009742584
 21
32447.88737303211
 31
0.0
 11
80887.48429188017
 21
32447.88991850241
 31
0.0
 11
80887.48850144808
 21
32447.89243889931
 31
0.0
 11
80887.49273724959
 21
32447.89494125467
 31
0.0
 11
80887.49698750926
 21
32447.8974189745
 31
0.0
 11
80887.50134279748
 21
32447.89992427937
 31
0.0
 11
80887.5057124939
 21
32447.90240436866
 31
0.0
 11
80887.51009893326
 21
32447.90486086232
 31
0.0
 11
80887.5144992804
 21
32447.90729235611
 31
0.0
 11
80887.51896024073
 21
32447.90972425356
 31
0.0
 11
80887.52343513022
 21
32447.91213042287
 31
0.0
 11
80887.52792802788
 21
32447.91451281281
 31
0.0
 11
80887.5324346905
 21
32447.91686906173
 31
0.0
 11
80887.53702483124
 21
32447.91923480569
 31
0.0
 11
80887.54162888313
 21
32447.92157336255
 31
0.0
 11
80887.54625194622
 21
32447.92388718103
 31
0.0
 11
80887.55088874076
 21
32447.92617335655
 31
0.0
 11
80887.55550906333
 21
32447.9284171295
 31
0.0
 11
80887.5601427216
 21
32447.93063323159
 31
0.0
 11
80887.56478466112
 21
32447.93281926153
 31
0.0
 11
80887.56943959212
 21
32447.93497748993
 31
0.0
 11
80887.57401005043
 21
32447.93706363591
 31
0.0
 11
80887.57859297404
 21
32447.93912225402
 31
0.0
 11
80887.58312325468
 21
32447.94112373605
 31
0.0
 11
80887.58766638862
 21
32447.9430958615
 31
0.0
 11
80887.59201955417
 21
32447.94495109833
 31
0.0
 11
80887.59638516439
 21
32447.94677685038
 31
0.0
 11
80887.60074885047
 21
32447.94856651902
 31
0.0
 11
80887.60512457017
 21
32447.95032657467
 31
0.0
 11
80887.61022374583
 21
32447.95233565134
 31
0.0
 11
80887.61533749102
 21
32447.95430736288
 31
0.0
 11
80887.62059164715
 21
32447.95629074744
 31
0.0
 11
80887.62585918632
 21
32447.95823832357
 31
0.0
 11
80887.6320739288
 21
32447.96048616542
 31
0.0
 11
80887.63830543053
 21
32447.96268714697
 31
0.0
 11
80887.64463040812
 21
32447.96486774168
 31
0.0
 11
80887.65097194372
 21
32447.96699967095
 31
0.0
 11
80887.65728423218
 21
32447.9690674791
 31
0.0
 11
80887.66361200661
 21
32447.97108744442
 31
0.0
 11
80887.66972130285
 21
32447.97298844423
 31
0.0
 11
80887.67584465779
 21
32447.9748436027
 31
0.0
 11
80887.68099121885
 21
32447.97636242734
 31
0.0
 11
80887.68614783284
 21
32447.97784672942
 31
0.0
 11
80887.69121067256
 21
32447.97926801605
 31
0.0
 11
80887.69628189583
 21
32447.98065914503
 31
0.0
 11
80887.70252067593
 21
32447.98233048683
 31
0.0
 11
80887.70877018741
 21
32447.98396125984
 31
0.0
 11
80887.71519845318
 21
32447.98559299791
 31
0.0
 11
80887.72163798148
 21
32447.98717962679
 31
0.0
 11
80887.74003198792
 21
32447.99145454921
 31
0.0
 11
80887.75849224652
 21
32447.99543371792
 31
0.0
  0
SPLINE
  5
A3
330
1F
100
AcDbEntity
  8
1
  6
DASHED
 62
     2
100
AcDbSpline
210
0.0
220
0.0
230
1.0
 70
     8
 71
     3
 72
    85
 73
    81
 74
    79
 42
0.0000000001
 43
0.0000000001
 44
0.00000001
 40
0.0
 40
0.0
 40
0.0
 40
0.0
 40
0.054310926310712
 40
0.1086124327790301
 40
0.1576482056501728
 40
0.2067079073720104
 40
0.2667263144319221
 40
0.3267436165150455
 40
0.3929004319014721
 40
0.4590546229281419
 40
0.5292842250483928
 40
0.599514061352741
 40
0.6693810107688735
 40
0.7392453515664813
 40
0.8098664738576421
 40
0.8804807532930532
 40
0.9526299251508181
 40
1.0247776394999
 40
1.098459118290421
 40
1.172135965205876
 40
1.24738460807575
 40
1.322631595298115
 40
1.399445798999662
 40
1.476256330450874
 40
1.554490297513652
 40
1.632723035235044
 40
1.712374040318248
 40
1.792022335225238
 40
1.872796167496413
 40
1.953569181019303
 40
2.0354627299077
 40
2.117354518924742
 40
2.19996578742319
 40
2.282576590939597
 40
2.365902210801897
 40
2.449226969550759
 40
2.532800212526327
 40
2.616373304988652
 40
2.700190444956358
 40
2.784007584916789
 40
2.867580677382748
 40
2.951153920354691
 40
3.034478679092872
 40
3.117804298907584
 40
3.200415102403403
 40
3.283026370929902
 40
3.364918159989737
 40
3.446811708889307
 40
3.527584722390628
 40
3.608358554573915
 40
3.688006849573243
 40
3.767657855050521
 40
3.845890592379147
 40
3.924124557388818
 40
4.00093509074604
 40
4.077749304691524
 40
4.152996283168543
 40
4.228244878485615
 40
4.301921767337191
 40
4.375603460016215
 40
4.447751004076592
 40
4.519899336329932
 40
4.590514262974837
 40
4.661138062148648
 40
4.731623285443115
 40
4.802112512203829
 40
4.874855118254164
 40
4.947589198367886
 40
5.012041813885304
 40
5.076495275661084
 40
5.127102091482157
 40
5.177717574040608
 40
5.211792083629841
 40
5.245841029322625
 40
5.26513540365291
 40
5.284430493966809
 40
5.303623410074912
 40
5.322818925687887
 40
5.361692631867153
 40
5.400575542338344
 40
5.400575542338344
 40
5.400575542338344
 40
5.400575542338344
 10
80910.79281243522
 20
32413.45239851842
 30
0.0
 10
80910.81091519585
 20
32413.45205496455
 30
0.0
 10
80910.8471175773
 20
32413.45136791638
 30
0.0
 10
80910.8995606877
 20
32413.4476891243
 30
0.0
 10
80910.95007586636
 20
32413.442234075
 30
0.0
 10
80911.00222198114
 20
32413.43448377277
 30
0.0
 10
80911.05754507321
 20
32413.42352329252
 30
0.0
 10
80911.11760379665
 20
32413.40773800242
 30
0.0
 10
80911.17867628549
 20
32413.38815130103
 30
0.0
 10
80911.24193091565
 20
32413.36447866382
 30
0.0
 10
80911.30514254564
 20
32413.33705540099
 30
0.0
 10
80911.3679397545
 20
32413.3058121441
 30
0.0
 10
80911.42892816625
 20
32413.27141603935
 30
0.0
 10
80911.48813711177
 20
32413.23379861556
 30
0.0
 10
80911.54560090313
 20
32413.19313753679
 30
0.0
 10
80911.60163786559
 20
32413.14928719448
 30
0.0
 10
80911.6559342946
 20
32413.10251616235
 30
0.0
 10
80911.70876371584
 20
32413.052595876
 30
0.0
 10
80911.75964471728
 20
32412.99998023524
 30
0.0
 10
80911.80882861913
 20
32412.94438895585
 30
0.0
 10
80911.85589702001
 20
32412.88632262661
 30
0.0
 10
80911.90109945554
 20
32412.82548592447
 30
0.0
 10
80911.94404358361
 20
32412.76240381037
 30
0.0
 10
80911.98492214514
 20
32412.69678929029
 30
0.0
 10
80912.02339791867
 20
32412.62919308869
 30
0.0
 10
80912.05964858855
 20
32412.55931074116
 30
0.0
 10
80912.09340177239
 20
32412.48766708966
 30
0.0
 10
80912.12477321702
 20
32412.4140283403
 30
0.0
 10
80912.15353167486
 20
32412.33892978743
 30
0.0
 10
80912.17977304204
 20
32412.2621245314
 30
0.0
 10
80912.2033423673
 20
32412.18406841863
 30
0.0
 10
80912.22428681987
 20
32412.10463412473
 30
0.0
 10
80912.24247851453
 20
32412.02427938621
 30
0.0
 10
80912.25794767417
 20
32411.9428702934
 30
0.0
 10
80912.27063196317
 20
32411.86074052341
 30
0.0
 10
80912.28053840762
 20
32411.77790676564
 30
0.0
 10
80912.28761845455
 20
32411.69470085231
 30
0.0
 10
80912.29187002932
 20
32411.61113835614
 30
0.0
 10
80912.29328504081
 20
32411.52739851842
 30
0.0
 10
80912.29187002935
 20
32411.44365868069
 30
0.0
 10
80912.28761845453
 20
32411.36009618453
 30
0.0
 10
80912.28053840762
 20
32411.27689027121
 30
0.0
 10
80912.27063196324
 20
32411.19405651346
 30
0.0
 10
80912.25794767421
 20
32411.11192674348
 30
0.0
 10
80912.24247851461
 20
32411.03051765069
 30
0.0
 10
80912.22428681995
 20
32410.95016291214
 30
0.0
 10
80912.20334236733
 20
32410.87072861823
 30
0.0
 10
80912.17977304204
 20
32410.79267250548
 30
0.0
 10
80912.15353167488
 20
32410.71586724945
 30
0.0
 10
80912.12477321687
 20
32410.64076869664
 30
0.0
 10
80912.0934017722
 20
32410.56712994719
 30
0.0
 10
80912.05964858904
 20
32410.49548629533
 30
0.0
 10
80912.02339791968
 20
32410.42560394824
 30
0.0
 10
80911.98492214209
 20
32410.35800774911
 30
0.0
 10
80911.94404357801
 20
32410.29239322692
 30
0.0
 10
80911.90109947296
 20
32410.22931109625
 30
0.0
 10
80911.85589705089
 20
32410.16847440143
 30
0.0
 10
80911.80882852343
 20
32410.11040817754
 30
0.0
 10
80911.7596445553
 20
32410.05481687772
 30
0.0
 10
80911.70876425105
 20
32410.00220054044
 30
0.0
 10
80911.65593510191
 20
32409.95228027887
 30
0.0
 10
80911.60163514441
 20
32409.90551336901
 30
0.0
 10
80911.54559680595
 20
32409.86166405558
 30
0.0
 10
80911.48798373029
 20
32409.82085449185
 30
0.0
 10
80911.42841195033
 20
32409.78302794628
 30
0.0
 10
80911.36622584998
 20
32409.74820190648
 30
0.0
 10
80911.30162141996
 20
32409.71636892474
 30
0.0
 10
80911.23728562501
 20
32409.68875905637
 30
0.0
 10
80911.17429413417
 20
32409.66526372224
 30
0.0
 10
80911.11745598524
 20
32409.64649393965
 30
0.0
 10
80911.06418380424
 20
32409.63182700396
 30
0.0
 10
80911.02000245688
 20
32409.62263324917
 30
0.0
 10
80910.98092003763
 20
32409.61632396472
 30
0.0
 10
80910.95198380976
 20
32409.61284373901
 30
0.0
 10
80910.92790218507
 20
32409.61032506534
 30
0.0
 10
80910.90878375304
 20
32409.60798702115
 30
0.0
 10
80910.88967192653
 20
32409.60585681197
 30
0.0
 10
80910.86399102156
 20
32409.60388120368
 30
0.0
 10
80910.83169674163
 20
32409.60234945767
 30
0.0
 10
80910.80577489351
 20
32409.60238216354
 30
0.0
 10
80910.79281243522
 20
32409.60239851842
 30
0.0
 11
80910.79281243522
 21
32413.45239851842
 31
0.0
 11
80910.8471028472
 21
32413.45090590868
 31
0.0
 11
80910.9012784801
 21
32413.44721072205
 31
0.0
 11
80910.9500269997
 21
32413.44191082973
 31
0.0
 11
80910.99854975447
 21
32413.43467228001
 31
0.0
 11
80911.05740713961
 21
32413.42292419931
 31
0.0
 11
80911.11548011855
 21
32413.40777145477
 31
0.0
 11
80911.17850388428
 21
32413.3876535728
 31
0.0
 11
80911.24045390658
 21
32413.3644464246
 31
0.0
 11
80911.30488364468
 21
32413.3364999425
 31
0.0
 11
80911.36776309248
 21
32413.30522047716
 31
0.0
 11
80911.42861452462
 21
32413.27089127927
 31
0.0
 11
80911.48760224794
 21
32413.23345500526
 31
0.0
 11
80911.54526371931
 21
32413.1926812682
 31
0.0
 11
80911.60088675987
 21
32413.14917892552
 31
0.0
 11
80911.65556362936
 21
32413.10210512238
 31
0.0
 11
80911.7080149467
 21
32413.05256572396
 31
0.0
 11
80911.7592459567
 21
32412.99960966735
 31
0.0
 11
80911.80808112529
 21
32412.94444261124
 31
0.0
 11
80911.85547947459
 21
32412.88599815267
 31
0.0
 11
80911.90036986038
 21
32412.82560806781
 31
0.0
 11
80911.94360926442
 21
32412.76211967652
 31
0.0
 11
80911.98423843744
 21
32412.69693434043
 31
0.0
 11
80912.02295187657
 21
32412.62895034795
 31
0.0
 11
80912.05898782084
 21
32412.55951136775
 31
0.0
 11
80912.09294714475
 21
32412.48746244735
 31
0.0
 11
80912.12417369167
 21
32412.414190668
 31
0.0
 11
80912.15306977017
 21
32412.33876236677
 31
0.0
 11
80912.17919426857
 21
32412.26233076141
 31
0.0
 11
80912.20287688312
 21
32412.18393632846
 31
0.0
 11
80912.22376147649
 21
32412.10475237259
 31
0.0
 11
80912.24200855312
 21
32412.02418149772
 31
0.0
 11
80912.25743636172
 21
32411.94302407304
 31
0.0
 11
80912.2701613324
 21
32411.86067582445
 31
0.0
 11
80912.28005751086
 21
32411.77794081933
 31
0.0
 11
80912.28714518677
 21
32411.69466866437
 31
0.0
 11
80912.29139405457
 21
32411.61120364831
 31
0.0
 11
80912.2928129121
 21
32411.52739851842
 31
0.0
 11
80912.29139405457
 21
32411.44359338854
 31
0.0
 11
80912.28714518677
 21
32411.36012837247
 31
0.0
 11
80912.28005751086
 21
32411.27685621752
 31
0.0
 11
80912.27016133243
 21
32411.1941212124
 31
0.0
 11
80912.25743636178
 21
32411.11177296385
 31
0.0
 11
80912.24200855319
 21
32411.0306155392
 31
0.0
 11
80912.22376147655
 21
32410.9500446643
 31
0.0
 11
80912.20287688314
 21
32410.87086070839
 31
0.0
 11
80912.17919426857
 21
32410.79246627543
 31
0.0
 11
80912.15306977014
 21
32410.71603467011
 31
0.0
 11
80912.12417369158
 21
32410.64060636899
 31
0.0
 11
80912.09294714469
 21
32410.56733458953
 31
0.0
 11
80912.05898782113
 21
32410.49528566853
 31
0.0
 11
80912.0229518766
 21
32410.42584668891
 31
0.0
 11
80911.9842384356
 21
32410.35786269986
 31
0.0
 11
80911.9436092644
 21
32410.29267736038
 31
0.0
 11
80911.90036987101
 21
32410.22918894944
 31
0.0
 11
80911.85547947523
 21
32410.16879888291
 31
0.0
 11
80911.8080810665
 21
32410.11035453376
 31
0.0
 11
80911.75924595664
 21
32410.05518736966
 31
0.0
 11
80911.70801528759
 21
32410.00223068562
 31
0.0
 11
80911.65556365286
 21
32409.95269187125
 31
0.0
 11
80911.60088488703
 21
32409.90562155774
 31
0.0
 11
80911.54526371705
 21
32409.86211577289
 31
0.0
 11
80911.48761311494
 21
32409.82132203458
 31
0.0
 11
80911.42808034412
 21
32409.78358589935
 31
0.0
 11
80911.36659818192
 21
32409.7491087356
 31
0.0
 11
80911.3013525319
 21
32409.71694521763
 31
0.0
 11
80911.23451892205
 21
32409.68824826649
 31
0.0
 11
80911.17415812204
 21
32409.66564929595
 31
0.0
 11
80911.1128941463
 21
32409.64562496049
 31
0.0
 11
80911.0640599208
 21
32409.63234835597
 31
0.0
 11
80911.0145224961
 21
32409.62195746433
 31
0.0
 11
80910.98087983995
 21
32409.61654970226
 31
0.0
 11
80910.947088658
 21
32409.61236798908
 31
0.0
 11
80910.92790876862
 21
32409.6102692456
 31
0.0
 11
80910.90874556926
 21
32409.60801706869
 31
0.0
 11
80910.8896625725
 21
32409.60596590723
 31
0.0
 11
80910.87052729467
 21
32409.60444638038
 31
0.0
 11
80910.83169443373
 21
32409.60266482396
 31
0.0
 11
80910.79281243522
 21
32409.60239851842
 31
0.0
  0
SPLINE
  5
A4
330
1F
100
AcDbEntity
  8
1
  6
DASHED
 62
     2
100
AcDbSpline
210
0.0
220
0.0
230
1.0
 70
     8
 71
     3
 72
    45
 73
    41
 74
    39
 42
0.0000000001
 43
0.0000000001
 44
0.00000001
 40
0.0
 40
0.0
 40
0.0
 40
0.0
 40
0.0721259350219138
 40
0.1442476469757599
 40
0.20862949141527
 40
0.2730237818277619
 40
0.3513120942090113
 40
0.4296012375652046
 40
0.5141987864079656
 40
0.5987966758319689
 40
0.6869530432322165
 40
0.7751139991019452
 40
0.8600383713181472
 40
0.9449633548471243
 40
1.028103640856194
 40
1.111245312875404
 40
1.193044585597674
 40
1.274845474473092
 40
1.355300206321526
 40
1.43575837122666
 40
1.514739567166565
 40
1.593722376521468
 40
1.671224089598541
 40
1.74873017783085
 40
1.824796921177791
 40
1.900864963789898
 40
1.975492929400304
 40
2.050127421524615
 40
2.124125973442652
 40
2.198126917163448
 40
2.272684088433056
 40
2.347240498920949
 40
2.417569965009897
 40
2.487901790913425
 40
2.551804852837243
 40
2.615708838266615
 40
2.667971186825288
 40
2.720209296156755
 40
2.778111714768663
 40
2.836023563725183
 40
2.836023563725183
 40
2.836023563725183
 40
2.836023563725183
 10
80914.99281243513
 20
32411.52739851842
 30
0.0
 10
80914.99252912194
 20
32411.55143999026
 30
0.0
 10
80914.99196251214
 20
32411.59952152628
 30
0.0
 10
80914.98897631787
 20
32411.66901188232
 30
0.0
 10
80914.9845293917
 20
32411.73583532186
 30
0.0
 10
80914.97818578494
 20
32411.80457246765
 30
0.0
 10
80914.96917946845
 20
32411.87769409507
 30
0.0
 10
80914.95629589717
 20
32411.95706496002
 30
0.0
 10
80914.94026099148
 20
32412.03800177821
 30
0.0
 10
80914.92090724512
 20
32412.12158958328
 30
0.0
 10
80914.89834356347
 20
32412.20560278311
 30
0.0
 10
80914.87275974301
 20
32412.28886059812
 30
0.0
 10
80914.84444578415
 20
32412.37009165747
 30
0.0
 10
80914.81358905102
 20
32412.44859673185
 30
0.0
 10
80914.77999309899
 20
32412.52531868516
 30
0.0
 10
80914.74396686524
 20
32412.59977506539
 30
0.0
 10
80914.70528803785
 20
32412.67238353818
 30
0.0
 10
80914.66422128494
 20
32412.74263420993
 30
0.0
 10
80914.6206049506
 20
32412.810801072
 30
0.0
 10
80914.57476939465
 20
32412.87635370579
 30
0.0
 10
80914.52654098874
 20
32412.93955032338
 30
0.0
 10
80914.47630631574
 20
32412.99988897228
 30
0.0
 10
80914.42383577478
 20
32413.05763161161
 30
0.0
 10
80914.36953605863
 20
32413.11229777511
 30
0.0
 10
80914.31318194862
 20
32413.16414006203
 30
0.0
 10
80914.25524380096
 20
32413.21272813483
 30
0.0
 10
80914.19547448578
 20
32413.25826194113
 30
0.0
 10
80914.13416360413
 20
32413.30049582718
 30
0.0
 10
80914.0710213441
 20
32413.339548386
 30
0.0
 10
80914.00596228031
 20
32413.37526558946
 30
0.0
 10
80913.93899820745
 20
32413.40769575198
 30
0.0
 10
80913.87158280649
 20
32413.43616734919
 30
0.0
 10
80913.80415246806
 20
32413.46073220044
 30
0.0
 10
80913.73903570493
 20
32413.48105906858
 30
0.0
 10
80913.67501627833
 20
32413.4974366059
 30
0.0
 10
80913.61604698273
 20
32413.50881351302
 30
0.0
 10
80913.56047653701
 20
32413.51685547826
 30
0.0
 10
80913.50662871165
 20
32413.52251393737
 30
0.0
 10
80913.45071844183
 20
32413.52632854579
 30
0.0
 10
80913.4121154852
 20
32413.52704184152
 30
0.0
 10
80913.39281243522
 20
32413.52739851842
 30
0.0
 11
80914.99281243513
 21
32411.52739851842
 31
0.0
 11
80914.99158795804
 21
32411.59951405876
 31
0.0
 11
80914.9885674774
 21
32411.6715724936
 31
0.0
 11
80914.98425605005
 21
32411.73580981521
 31
0.0
 11
80914.97831728036
 21
32411.79992966902
 31
0.0
 11
80914.96868385239
 21
32411.87762302087
 31
0.0
 11
80914.95620499832
 21
32411.95491123581
 31
0.0
 11
80914.93982060271
 21
32412.03790699986
 31
0.0
 11
80914.92070773667
 21
32412.120317565
 31
0.0
 11
80914.89783916222
 21
32412.20545611923
 31
0.0
 11
80914.87191254256
 21
32412.28971859327
 31
0.0
 11
80914.84392659471
 21
32412.36989923757
 31
0.0
 11
80914.8128662928
 21
32412.44894043235
 31
0.0
 11
80914.77951600679
 21
32412.52509859397
 31
0.0
 11
80914.74328834192
 21
32412.59993236926
 31
0.0
 11
80914.704817532
 21
32412.67212044169
 31
0.0
 11
80914.66352322361
 21
32412.74273322747
 31
0.0
 11
80914.62014847177
 21
32412.81049453487
 31
0.0
 11
80914.57403181729
 21
32412.87642457718
 31
0.0
 11
80914.52610454484
 21
32412.93920200838
 31
0.0
 11
80914.47555579321
 21
32412.99989062248
 31
0.0
 11
80914.42342035883
 21
32413.05723529976
 31
0.0
 11
80914.3687905059
 21
32413.11221504951
 31
0.0
 11
80914.31279812896
 21
32413.16370294291
 31
0.0
 11
80914.25450146082
 21
32413.21256852989
 31
0.0
 11
80914.19512684307
 21
32413.2577790156
 31
0.0
 11
80914.13365169623
 21
32413.30010056727
 31
0.0
 11
80914.07069972
 21
32413.33899573889
 31
0.0
 11
80914.00583708606
 21
32413.37461846183
 31
0.0
 11
80913.93873411271
 21
32413.40711404238
 31
0.0
 11
80913.87005017712
 21
32413.43611706527
 31
0.0
 11
80913.80397714135
 21
32413.4602124537
 31
0.0
 11
80913.7368129926
 21
32413.48108211729
 31
0.0
 11
80913.6748767219
 21
32413.49681424029
 31
0.0
 11
80913.61214664395
 21
32413.50900672465
 31
0.0
 11
80913.56042704976
 21
32413.5165191579
 31
0.0
 11
80913.50847892341
 21
32413.52201572369
 31
0.0
 11
80913.45070356451
 21
32413.52584951878
 31
0.0
 11
80913.39281243522
 21
32413.52739851842
 31
0.0
  0
SPLINE
  5
A5
330
1F
100
AcDbEntity
  8
1
  6
DASHED
 62
     2
100
AcDbSpline
210
0.0
220
0.0
230
1.0
 70
     8
 71
     3
 72
    45
 73
    41
 74
    39
 42
0.0000000001
 43
0.0000000001
 44
0.00000001
 40
0.0
 40
0.0
 40
0.0
 40
0.0
 40
0.0721259350289417
 40
0.1442476469779341
 40
0.2086294914154952
 40
0.2730237818293292
 40
0.3513120942141307
 40
0.4296012375726435
 40
0.5141987864125862
 40
0.5987966758401335
 40
0.6869530432403811
 40
0.7751139991101098
 40
0.8600383713311072
 40
0.9449633548513762
 40
1.028103640847944
 40
1.111245312880043
 40
1.193044585608734
 40
1.274845474491499
 40
1.355300206327306
 40
1.435758371234819
 40
1.514739567169097
 40
1.593722376523986
 40
1.671224089582216
 40
1.748730177827494
 40
1.824796921172711
 40
1.900864963774198
 40
1.975492929393978
 40
2.050127421508366
 40
2.12412597344925
 40
2.198126917159042
 40
2.272684088427065
 40
2.347240498917788
 40
2.417569964994311
 40
2.487901790881784
 40
2.55180485277829
 40
2.615708838291981
 40
2.667971186908257
 40
2.720209296197076
 40
2.778111714780186
 40
2.836023563721866
 40
2.836023563721866
 40
2.836023563721866
 40
2.836023563721866
 10
80914.99281243513
 20
32411.52739851842
 30
0.0
 10
80914.99252912196
 20
32411.50335704658
 30
0.0
 10
80914.99196251217
 20
32411.45527551057
 30
0.0
 10
80914.98897631787
 20
32411.3857851545
 30
0.0
 10
80914.9845293918
 20
32411.318961715
 30
0.0
 10
80914.978185785
 20
32411.25022456918
 30
0.0
 10
80914.96917946845
 20
32411.17710294178
 30
0.0
 10
80914.95629589715
 20
32411.09773207683
 30
0.0
 10
80914.9402609915
 20
32411.01679525863
 30
0.0
 10
80914.92090724513
 20
32410.93320745356
 30
0.0
 10
80914.89834356346
 20
32410.84919425372
 30
0.0
 10
80914.87275974303
 20
32410.76593643871
 30
0.0
 10
80914.84444578414
 20
32410.68470537938
 30
0.0
 10
80914.81358905105
 20
32410.60620030499
 30
0.0
 10
80914.779993099
 20
32410.52947835168
 30
0.0
 10
80914.74396686524
 20
32410.45502197147
 30
0.0
 10
80914.70528803782
 20
32410.38241349865
 30
0.0
 10
80914.66422128493
 20
32410.31216282692
 30
0.0
 10
80914.62060495061
 20
32410.24399596482
 30
0.0
 10
80914.57476939469
 20
32410.17844333105
 30
0.0
 10
80914.52654098874
 20
32410.1152467135
 30
0.0
 10
80914.47630631569
 20
32410.05490806461
 30
0.0
 10
80914.42383577472
 20
32409.99716542532
 30
0.0
 10
80914.36953605854
 20
32409.94249926178
 30
0.0
 10
80914.3131819486
 20
32409.89065697483
 30
0.0
 10
80914.25524380099
 20
32409.84206890199
 30
0.0
 10
80914.19547448578
 20
32409.79653509572
 30
0.0
 10
80914.13416360415
 20
32409.75430120965
 30
0.0
 10
80914.0710213441
 20
32409.71524865085
 30
0.0
 10
80914.00596228034
 20
32409.67953144738
 30
0.0
 10
80913.93899820742
 20
32409.64710128486
 30
0.0
 10
80913.87158280647
 20
32409.61862968765
 30
0.0
 10
80913.80415246807
 20
32409.59406483638
 30
0.0
 10
80913.73903570497
 20
32409.57373796827
 30
0.0
 10
80913.67501627833
 20
32409.55736043093
 30
0.0
 10
80913.61604698273
 20
32409.54598352384
 30
0.0
 10
80913.56047653696
 20
32409.53794155858
 30
0.0
 10
80913.50662871159
 20
32409.53228309947
 30
0.0
 10
80913.45071844183
 20
32409.52846849103
 30
0.0
 10
80913.41211548519
 20
32409.52775519532
 30
0.0
 10
80913.39281243522
 20
32409.52739851842
 30
0.0
 11
80914.99281243513
 21
32411.52739851842
 31
0.0
 11
80914.99158795805
 21
32411.45528297807
 31
0.0
 11
80914.98856747744
 21
32411.38322454323
 31
0.0
 11
80914.98425605013
 21
32411.31898722162
 31
0.0
 11
80914.97831728042
 21
32411.25486736782
 31
0.0
 11
80914.96868385239
 21
32411.17717401597
 31
0.0
 11
80914.9562049983
 21
32411.09988580104
 31
0.0
 11
80914.93982060271
 21
32411.01689003698
 31
0.0
 11
80914.92070773667
 21
32410.93447947184
 31
0.0
 11
80914.89783916222
 21
32410.84934091761
 31
0.0
 11
80914.87191254256
 21
32410.76507844356
 31
0.0
 11
80914.8439265947
 21
32410.68489779927
 31
0.0
 11
80914.8128662928
 21
32410.60585660449
 31
0.0
 11
80914.7795160068
 21
32410.52969844288
 31
0.0
 11
80914.74328834192
 21
32410.45486466758
 31
0.0
 11
80914.704817532
 21
32410.38267659515
 31
0.0
 11
80914.6635232236
 21
32410.31206380936
 31
0.0
 11
80914.62014847179
 21
32410.24430250196
 31
0.0
 11
80914.57403181729
 21
32410.17837245966
 31
0.0
 11
80914.52610454483
 21
32410.11559502848
 31
0.0
 11
80914.47555579315
 21
32410.05490641441
 31
0.0
 11
80914.42342035877
 21
32409.99756173716
 31
0.0
 11
80914.36879050586
 21
32409.94258198738
 31
0.0
 11
80914.31279812894
 21
32409.89109409395
 31
0.0
 11
80914.25450146083
 21
32409.84222850695
 31
0.0
 11
80914.19512684307
 21
32409.79701802124
 31
0.0
 11
80914.13365169625
 21
32409.75469646956
 31
0.0
 11
80914.07069971999
 21
32409.71580129796
 31
0.0
 11
80914.00583708606
 21
32409.68017857501
 31
0.0
 11
80913.93873411271
 21
32409.64768299446
 31
0.0
 11
80913.87005017712
 21
32409.61867997157
 31
0.0
 11
80913.80397714136
 21
32409.59458458313
 31
0.0
 11
80913.73681299263
 21
32409.57371491954
 31
0.0
 11
80913.67487672195
 21
32409.55798279654
 31
0.0
 11
80913.61214664392
 21
32409.54579031219
 31
0.0
 11
80913.56042704967
 21
32409.53827787895
 31
0.0
 11
80913.50847892337
 21
32409.53278131314
 31
0.0
 11
80913.4507035645
 21
32409.52894751805
 31
0.0
 11
80913.39281243522
 21
32409.52739851842
 31
0.0
  0
SPLINE
  5
A6
330
1F
100
AcDbEntity
  8
1
  6
DASHED
 62
     2
100
AcDbSpline
210
0.0
220
0.0
230
1.0
 70
     8
 71
     3
 72
     9
 73
     5
 74
     3
 42
0.0000000001
 43
0.0000000001
 44
0.00000001
 40
0.0
 40
0.0
 40
0.0
 40
0.0
 40
0.065650148680176
 40
0.131300463456206
 40
0.131300463456206
 40
0.131300463456206
 40
0.131300463456206
 10
80910.79281243522
 20
32435.45239851842
 30
0.0
 10
80910.81470445424
 20
32435.45208677983
 30
0.0
 10
80910.85848854767
 20
32435.45146330187
 30
0.0
 10
80910.90206374641
 20
32435.44714617019
 30
0.0
 10
80910.92385137333
 20
32435.44498760162
 30
0.0
 11
80910.79281243522
 21
32435.45239851842
 31
0.0
 11
80910.85843626875
 21
32435.45053989157
 31
0.0
 11
80910.92385137333
 21
32435.44498760162
 31
0.0
  0
SPLINE
  5
A7
330
1F
100
AcDbEntity
  8
1
  6
DASHED
 62
     2
100
AcDbSpline
210
0.0
220
0.0
230
1.0
 70
     8
 71
     3
 72
    77
 73
    73
 74
    71
 42
0.0000000001
 43
0.0000000001
 44
0.00000001
 40
0.0
 40
0.0
 40
0.0
 40
0.0
 40
0.0995186299037866
 40
0.1989356431249242
 40
0.2661050978898585
 40
0.3332622150288592
 40
0.4012479224900309
 40
0.4692312019926779
 40
0.5385437087465199
 40
0.6078535853842707
 40
0.6784718819480571
 40
0.7490854884164238
 40
0.8212355254131869
 40
0.893383414115712
 40
0.9670646748425333
 40
1.040741479104087
 40
1.115990170184829
 40
1.191237166320487
 40
1.268051359712572
 40
1.344861889237768
 40
1.423095858368056
 40
1.501328596441996
 40
1.580979601108467
 40
1.66062789590205
 40
1.741401728227141
 40
1.822174741775392
 40
1.904068290679896
 40
1.985960079708265
 40
2.068571348206045
 40
2.151182151738609
 40
2.234507771592869
 40
2.317832530340159
 40
2.401405773309634
 40
2.48497886577122
 40
2.568796005731651
 40
2.652613145703241
 40
2.736186238161193
 40
2.819759481136761
 40
2.90308423987667
 40
2.98640985968916
 40
3.069020663187696
 40
3.151631931710981
 40
3.233523720771009
 40
3.315417269673336
 40
3.396190283182456
 40
3.476964115419659
 40
3.556612410308928
 40
3.636263415421748
 40
3.714496153168727
 40
3.79273012024099
 40
3.869540651669067
 40
3.946354855348737
 40
4.021601842550664
 40
4.096850485443143
 40
4.170527332381641
 40
4.244208811184896
 40
4.316356525547055
 40
4.388505697391418
 40
4.459119976817608
 40
4.529741099118549
 40
4.599605439928443
 40
4.669472389371712
 40
4.739702225726555
 40
4.809931827845358
 40
4.876086018828595
 40
4.942242834148507
 40
5.002260136168879
 40
5.062278543262316
 40
5.111338245003914
 40
5.160374017891096
 40
5.214675524373932
 40
5.268986450670098
 40
5.268986450670098
 40
5.268986450670098
 40
5.268986450670098
 10
80910.92385137333
 20
32435.44498760162
 30
0.0
 10
80910.95673700084
 20
32435.4404870935
 30
0.0
 10
80911.02247467692
 20
32435.43149067266
 30
0.0
 10
80911.10873387294
 20
32435.41012356646
 30
0.0
 10
80911.18306723145
 20
32435.38671068868
 30
0.0
 10
80911.24622524649
 20
32435.36296641973
 30
0.0
 10
80911.30829184689
 20
32435.3358308454
 30
0.0
 10
80911.36947290896
 20
32435.30511548033
 30
0.0
 10
80911.42938724102
 20
32435.271098013
 30
0.0
 10
80911.48827278375
 20
32435.23366773166
 30
0.0
 10
80911.54560499094
 20
32435.19314203252
 30
0.0
 10
80911.60164057143
 20
32435.14929071118
 30
0.0
 10
80911.65593348387
 20
32435.10251557465
 30
0.0
 10
80911.70876318582
 20
32435.05259525817
 30
0.0
 10
80911.75964487909
 20
32434.99998030971
 30
0.0
 10
80911.80882871388
 20
32434.9443890519
 30
0.0
 10
80911.85589698906
 20
32434.88632261797
 30
0.0
 10
80911.90109943821
 20
32434.82548590833
 30
0.0
 10
80911.94404358922
 20
32434.76240381072
 30
0.0
 10
80911.98492214816
 20
32434.69678929272
 30
0.0
 10
80912.02339791768
 20
32434.62919308873
 30
0.0
 10
80912.05964858798
 20
32434.55931074069
 30
0.0
 10
80912.09340177252
 20
32434.48766708959
 30
0.0
 10
80912.12477321705
 20
32434.41402834035
 30
0.0
 10
80912.15353167482
 20
32434.33892978746
 30
0.0
 10
80912.17977304198
 20
32434.26212453139
 30
0.0
 10
80912.20334236728
 20
32434.18406841862
 30
0.0
 10
80912.22428681995
 20
32434.10463412475
 30
0.0
 10
80912.2424785146
 20
32434.0242793862
 30
0.0
 10
80912.25794767431
 20
32433.94287029342
 30
0.0
 10
80912.27063196327
 20
32433.86074052339
 30
0.0
 10
80912.2805384077
 20
32433.77790676564
 30
0.0
 10
80912.28761845452
 20
32433.69470085231
 30
0.0
 10
80912.29187002934
 20
32433.61113835615
 30
0.0
 10
80912.29328504083
 20
32433.52739851843
 30
0.0
 10
80912.29187002931
 20
32433.44365868068
 30
0.0
 10
80912.28761845455
 20
32433.36009618453
 30
0.0
 10
80912.28053840762
 20
32433.27689027121
 30
0.0
 10
80912.27063196321
 20
32433.19405651345
 30
0.0
 10
80912.25794767425
 20
32433.11192674349
 30
0.0
 10
80912.24247851457
 20
32433.03051765069
 30
0.0
 10
80912.22428681997
 20
32432.95016291213
 30
0.0
 10
80912.20334236728
 20
32432.87072861824
 30
0.0
 10
80912.17977304202
 20
32432.79267250546
 30
0.0
 10
80912.1535316749
 20
32432.71586724944
 30
0.0
 10
80912.124773217
 20
32432.64076869659
 30
0.0
 10
80912.09340177239
 20
32432.56712994724
 30
0.0
 10
80912.0596485885
 20
32432.49548629572
 30
0.0
 10
80912.0233979187
 20
32432.42560394818
 30
0.0
 10
80911.98492214514
 20
32432.35800774655
 30
0.0
 10
80911.94404358361
 20
32432.29239322647
 30
0.0
 10
80911.90109945553
 20
32432.22931111242
 30
0.0
 10
80911.85589702001
 20
32432.1684744103
 30
0.0
 10
80911.80882861912
 20
32432.11040808105
 30
0.0
 10
80911.7596447173
 20
32432.0548168016
 30
0.0
 10
80911.70876371587
 20
32432.00220116084
 30
0.0
 10
80911.65593429457
 20
32431.95228087451
 30
0.0
 10
80911.60163786559
 20
32431.90550984236
 30
0.0
 10
80911.54560090316
 20
32431.86165950004
 30
0.0
 10
80911.48813711177
 20
32431.82099842128
 30
0.0
 10
80911.42892816622
 20
32431.78338099748
 30
0.0
 10
80911.36793975448
 20
32431.74898489274
 30
0.0
 10
80911.30514254552
 20
32431.71774163586
 30
0.0
 10
80911.24193091557
 20
32431.69031837304
 30
0.0
 10
80911.17867628542
 20
32431.66664573581
 30
0.0
 10
80911.11760379659
 20
32431.64705903447
 30
0.0
 10
80911.05754507326
 20
32431.63127374438
 30
0.0
 10
80911.00222198118
 20
32431.62031326413
 30
0.0
 10
80910.95007586638
 20
32431.61256296185
 30
0.0
 10
80910.89956068769
 20
32431.60710791254
 30
0.0
 10
80910.8471175773
 20
32431.60342912046
 30
0.0
 10
80910.81091519585
 20
32431.6027420723
 30
0.0
 10
80910.79281243522
 20
32431.60239851842
 30
0.0
 11
80910.92385137333
 21
32435.44498760162
 31
0.0
 11
80911.02219499384
 21
32435.42973997878
 31
0.0
 11
80911.11882264403
 21
32435.40635537407
 31
0.0
 11
80911.18287528526
 21
32435.3861317541
 31
0.0
 11
80911.24574552113
 21
32435.36252218349
 31
0.0
 11
80911.30803688908
 21
32435.33528540876
 31
0.0
 11
80911.368806062
 21
32435.30480863213
 31
0.0
 11
80911.4290910379
 21
32435.27060416936
 31
0.0
 11
80911.48759156899
 21
32435.23343500389
 31
0.0
 11
80911.54526372153
 21
32435.19268127239
 31
0.0
 11
80911.60088860033
 21
32435.14918237266
 31
0.0
 11
80911.65556360627
 21
32435.10210507916
 31
0.0
 11
80911.70801461165
 21
32435.05256509653
 31
0.0
 11
80911.75924595671
 21
32434.99960966748
 31
0.0
 11
80911.80808118294
 21
32434.94444271936
 31
0.0
 11
80911.85547947382
 21
32434.88599815133
 31
0.0
 11
80911.90036984987
 21
32434.82560804813
 31
0.0
 11
80911.94360926445
 21
32434.76211967649
 31
0.0
 11
80911.98423843924
 21
32434.69693434377
 31
0.0
 11
80912.02295187654
 21
32434.62895034787
 31
0.0
 11
80912.05898782046
 21
32434.55951136709
 31
0.0
 11
80912.0929471447
 21
32434.48746244731
 31
0.0
 11
80912.12417369167
 21
32434.4141906681
 31
0.0
 11
80912.15306977011
 21
32434.33876236679
 31
0.0
 11
80912.17919426852
 21
32434.26233076141
 31
0.0
 11
80912.20287688312
 21
32434.18393632846
 31
0.0
 11
80912.22376147655
 21
32434.10475237259
 31
0.0
 11
80912.2420085532
 21
32434.02418149772
 31
0.0
 11
80912.25743636183
 21
32433.94302407304
 31
0.0
 11
80912.27016133249
 21
32433.86067582445
 31
0.0
 11
80912.2800575109
 21
32433.77794081932
 31
0.0
 11
80912.28714518678
 21
32433.69466866437
 31
0.0
 11
80912.29139405457
 21
32433.61120364831
 31
0.0
 11
80912.2928129121
 21
32433.52739851842
 31
0.0
 11
80912.29139405455
 21
32433.44359338853
 31
0.0
 11
80912.28714518677
 21
32433.36012837247
 31
0.0
 11
80912.28005751086
 21
32433.27685621752
 31
0.0
 11
80912.27016133242
 21
32433.1941212124
 31
0.0
 11
80912.25743636178
 21
32433.11177296385
 31
0.0
 11
80912.24200855318
 21
32433.0306155392
 31
0.0
 11
80912.22376147655
 21
32432.9500446643
 31
0.0
 11
80912.20287688312
 21
32432.87086070839
 31
0.0
 11
80912.17919426857
 21
32432.79246627543
 31
0.0
 11
80912.15306977017
 21
32432.71603467009
 31
0.0
 11
80912.12417369167
 21
32432.64060636889
 31
0.0
 11
80912.09294714473
 21
32432.56733458957
 31
0.0
 11
80912.05898782083
 21
32432.49528566914
 31
0.0
 11
80912.02295187657
 21
32432.4258466889
 31
0.0
 11
80911.98423843744
 21
32432.35786269641
 31
0.0
 11
80911.94360926443
 21
32432.29267736034
 31
0.0
 11
80911.90036986038
 21
32432.22918896908
 31
0.0
 11
80911.85547947459
 21
32432.16879888425
 31
0.0
 11
80911.80808112529
 21
32432.11035442565
 31
0.0
 11
80911.75924595671
 21
32432.05518736949
 31
0.0
 11
80911.7080149467
 21
32432.00223131289
 31
0.0
 11
80911.65556362935
 21
32431.95269191446
 31
0.0
 11
80911.60088675987
 21
32431.90561811132
 31
0.0
 11
80911.54526371932
 21
32431.86211576864
 31
0.0
 11
80911.48760224794
 21
32431.82134203158
 31
0.0
 11
80911.4286145246
 21
32431.78390575757
 31
0.0
 11
80911.36776309244
 21
32431.74957655968
 31
0.0
 11
80911.30488364458
 21
32431.71829709434
 31
0.0
 11
80911.24045390647
 21
32431.69035061225
 31
0.0
 11
80911.17850388422
 21
32431.66714346405
 31
0.0
 11
80911.11548011855
 21
32431.64702558212
 31
0.0
 11
80911.05740713967
 21
32431.63187283761
 31
0.0
 11
80910.9985497545
 21
32431.62012475688
 31
0.0
 11
80910.95002699971
 21
32431.61288620713
 31
0.0
 11
80910.9012784801
 21
32431.60758631479
 31
0.0
 11
80910.84710284718
 21
32431.60389112816
 31
0.0
 11
80910.79281243522
 21
32431.60239851842
 31
0.0
  0
SPLINE
  5
A8
330
1F
100
AcDbEntity
  8
1
  6
DASHED
 62
     2
100
AcDbSpline
210
0.0
220
0.0
230
1.0
 70
     8
 71
     3
 72
    45
 73
    41
 74
    39
 42
0.0000000001
 43
0.0000000001
 44
0.00000001
 40
0.0
 40
0.0
 40
0.0
 40
0.0
 40
0.0721259350289417
 40
0.1442476469779341
 40
0.2086294914154952
 40
0.2730237818293292
 40
0.3513120942213514
 40
0.4296012375726812
 40
0.5141987864154423
 40
0.5987966758531088
 40
0.6869530432573927
 40
0.7751139991185625
 40
0.8600383713217388
 40
0.9449633548420078
 40
1.028103640847745
 40
1.111245312876778
 40
1.193044585602258
 40
1.274845474470331
 40
1.355300206318764
 40
1.4357583712376
 40
1.514739567183444
 40
1.593722376556973
 40
1.671224089646526
 40
1.748730177855741
 40
1.824796921191971
 40
1.900864963806414
 40
1.975492929439975
 40
2.050127421540314
 40
2.124125973445972
 40
2.198126917154012
 40
2.27268408842362
 40
2.347240498912929
 40
2.417569964988206
 40
2.487901790876758
 40
2.551804852758264
 40
2.615708838231184
 40
2.667971186818135
 40
2.720209296149985
 40
2.778111714747133
 40
2.836023563718101
 40
2.836023563718101
 40
2.836023563718101
 40
2.836023563718101
 10
80914.99281243513
 20
32433.52739851842
 30
0.0
 10
80914.99252912196
 20
32433.50335704659
 30
0.0
 10
80914.99196251217
 20
32433.45527551057
 30
0.0
 10
80914.98897631787
 20
32433.3857851545
 30
0.0
 10
80914.9845293918
 20
32433.31896171499
 30
0.0
 10
80914.97818578499
 20
32433.25022456917
 30
0.0
 10
80914.96917946848
 20
32433.17710294178
 30
0.0
 10
80914.95629589714
 20
32433.09773207683
 30
0.0
 10
80914.9402609915
 20
32433.01679525863
 30
0.0
 10
80914.92090724506
 20
32432.93320745354
 30
0.0
 10
80914.89834356343
 20
32432.84919425374
 30
0.0
 10
80914.87275974297
 20
32432.76593643871
 30
0.0
 10
80914.84444578414
 20
32432.68470537936
 30
0.0
 10
80914.81358905103
 20
32432.606200305
 30
0.0
 10
80914.779993099
 20
32432.52947835169
 30
0.0
 10
80914.74396686524
 20
32432.45502197145
 30
0.0
 10
80914.7052880378
 20
32432.38241349866
 30
0.0
 10
80914.66422128498
 20
32432.31216282691
 30
0.0
 10
80914.62060495059
 20
32432.24399596483
 30
0.0
 10
80914.57476939465
 20
32432.17844333104
 30
0.0
 10
80914.5265409887
 20
32432.11524671347
 30
0.0
 10
80914.47630631567
 20
32432.05490806454
 30
0.0
 10
80914.42383577471
 20
32431.99716542525
 30
0.0
 10
80914.36953605858
 20
32431.94249926174
 30
0.0
 10
80914.31318194856
 20
32431.8906569748
 30
0.0
 10
80914.25524380092
 20
32431.84206890199
 30
0.0
 10
80914.19547448575
 20
32431.79653509572
 30
0.0
 10
80914.13416360409
 20
32431.75430120965
 30
0.0
 10
80914.07102134409
 20
32431.71524865082
 30
0.0
 10
80914.00596228032
 20
32431.67953144738
 30
0.0
 10
80913.93899820745
 20
32431.64710128487
 30
0.0
 10
80913.87158280649
 20
32431.61862968765
 30
0.0
 10
80913.80415246807
 20
32431.59406483638
 30
0.0
 10
80913.73903570499
 20
32431.57373796827
 30
0.0
 10
80913.67501627834
 20
32431.55736043094
 30
0.0
 10
80913.61604698276
 20
32431.54598352381
 30
0.0
 10
80913.56047653705
 20
32431.53794155858
 30
0.0
 10
80913.50662871164
 20
32431.53228309947
 30
0.0
 10
80913.45071844186
 20
32431.52846849106
 30
0.0
 10
80913.4121154852
 20
32431.52775519533
 30
0.0
 10
80913.39281243522
 20
32431.52739851842
 30
0.0
 11
80914.99281243513
 21
32433.52739851842
 31
0.0
 11
80914.99158795805
 21
32433.45528297807
 31
0.0
 11
80914.98856747744
 21
32433.38322454323
 31
0.0
 11
80914.98425605013
 21
32433.31898722162
 31
0.0
 11
80914.97831728042
 21
32433.25486736782
 31
0.0
 11
80914.96868385239
 21
32433.17717401597
 31
0.0
 11
80914.9562049983
 21
32433.09988580104
 31
0.0
 11
80914.9398206027
 21
32433.01689003698
 31
0.0
 11
80914.92070773663
 21
32432.93447947183
 31
0.0
 11
80914.89783916215
 21
32432.84934091761
 31
0.0
 11
80914.87191254251
 21
32432.76507844356
 31
0.0
 11
80914.8439265947
 21
32432.68489779927
 31
0.0
 11
80914.8128662928
 21
32432.60585660449
 31
0.0
 11
80914.77951600679
 21
32432.52969844288
 31
0.0
 11
80914.74328834192
 21
32432.45486466758
 31
0.0
 11
80914.704817532
 21
32432.38267659515
 31
0.0
 11
80914.66352322363
 21
32432.31206380936
 31
0.0
 11
80914.62014847179
 21
32432.24430250197
 31
0.0
 11
80914.57403181728
 21
32432.17837245966
 31
0.0
 11
80914.52610454481
 21
32432.11559502847
 31
0.0
 11
80914.47555579315
 21
32432.05490641436
 31
0.0
 11
80914.42342035875
 21
32431.99756173708
 31
0.0
 11
80914.36879050586
 21
32431.94258198734
 31
0.0
 11
80914.31279812893
 21
32431.89109409393
 31
0.0
 11
80914.25450146079
 21
32431.84222850695
 31
0.0
 11
80914.19512684301
 21
32431.79701802124
 31
0.0
 11
80914.1336516962
 21
32431.75469646956
 31
0.0
 11
80914.07069971999
 21
32431.71580129795
 31
0.0
 11
80914.00583708606
 21
32431.68017857501
 31
0.0
 11
80913.93873411271
 21
32431.64768299445
 31
0.0
 11
80913.87005017712
 21
32431.61867997157
 31
0.0
 11
80913.80397714136
 21
32431.59458458314
 31
0.0
 11
80913.73681299263
 21
32431.57371491954
 31
0.0
 11
80913.67487672197
 21
32431.55798279654
 31
0.0
 11
80913.61214664398
 21
32431.54579031219
 31
0.0
 11
80913.56042704976
 21
32431.53827787894
 31
0.0
 11
80913.50847892341
 21
32431.53278131314
 31
0.0
 11
80913.45070356452
 21
32431.52894751805
 31
0.0
 11
80913.39281243522
 21
32431.52739851842
 31
0.0
  0
SPLINE
  5
A9
330
1F
100
AcDbEntity
  8
1
  6
DASHED
 62
     2
100
AcDbSpline
210
0.0
220
0.0
230
1.0
 70
     8
 71
     3
 72
    45
 73
    41
 74
    39
 42
0.0000000001
 43
0.0000000001
 44
0.00000001
 40
0.0
 40
0.0
 40
0.0
 40
0.0
 40
0.0721259350216668
 40
0.144247646974294
 40
0.2086294914128296
 40
0.273023781821699
 40
0.3513120942065006
 40
0.4296012375662853
 40
0.5141987864197537
 40
0.5987966758824839
 40
0.6869530433035506
 40
0.7751139991489395
 40
0.8600383713458936
 40
0.94496335489325
 40
1.028103640926475
 40
1.111245312929104
 40
1.193044585622479
 40
1.274845474489542
 40
1.355300206333194
 40
1.435758371238329
 40
1.514739567181281
 40
1.593722376536184
 40
1.671224089606159
 40
1.748730177828211
 40
1.824796921185864
 40
1.900864963778003
 40
1.97549292940936
 40
2.050127421535735
 40
2.124125973464239
 40
2.198126917172279
 40
2.272684088454985
 40
2.347240498929472
 40
2.417569965019666
 40
2.487901790922115
 40
2.551804852845933
 40
2.615708838288896
 40
2.667971186847568
 40
2.720209296164947
 40
2.778111714762336
 40
2.836023563733402
 40
2.836023563733402
 40
2.836023563733402
 40
2.836023563733402
 10
80914.99281243513
 20
32433.52739851842
 30
0.0
 10
80914.99252912194
 20
32433.55143999026
 30
0.0
 10
80914.99196251215
 20
32433.59952152627
 30
0.0
 10
80914.98897631791
 20
32433.66901188233
 30
0.0
 10
80914.98452939176
 20
32433.73583532185
 30
0.0
 10
80914.97818578503
 20
32433.80457246765
 30
0.0
 10
80914.9691794684
 20
32433.87769409506
 30
0.0
 10
80914.9562958972
 20
32433.95706496001
 30
0.0
 10
80914.94026099148
 20
32434.03800177823
 30
0.0
 10
80914.92090724508
 20
32434.12158958332
 30
0.0
 10
80914.89834356352
 20
32434.20560278317
 30
0.0
 10
80914.872759743
 20
32434.28886059816
 30
0.0
 10
80914.84444578414
 20
32434.3700916575
 30
0.0
 10
80914.81358905103
 20
32434.4485967319
 30
0.0
 10
80914.77999309901
 20
32434.52531868522
 30
0.0
 10
80914.74396686524
 20
32434.59977506544
 30
0.0
 10
80914.70528803783
 20
32434.6723835382
 30
0.0
 10
80914.66422128491
 20
32434.74263420992
 30
0.0
 10
80914.62060495061
 20
32434.81080107201
 30
0.0
 10
80914.57476939465
 20
32434.8763537058
 30
0.0
 10
80914.52654098872
 20
32434.93955032336
 30
0.0
 10
80914.47630631573
 20
32434.99988897228
 30
0.0
 10
80914.42383577477
 20
32435.05763161161
 30
0.0
 10
80914.36953605866
 20
32435.11229777511
 30
0.0
 10
80914.3131819486
 20
32435.16414006201
 30
0.0
 10
80914.25524380097
 20
32435.21272813485
 30
0.0
 10
80914.19547448581
 20
32435.25826194113
 30
0.0
 10
80914.13416360412
 20
32435.30049582717
 30
0.0
 10
80914.07102134412
 20
32435.33954838601
 30
0.0
 10
80914.00596228031
 20
32435.37526558946
 30
0.0
 10
80913.93899820744
 20
32435.40769575197
 30
0.0
 10
80913.87158280647
 20
32435.43616734919
 30
0.0
 10
80913.80415246807
 20
32435.46073220046
 30
0.0
 10
80913.73903570493
 20
32435.48105906858
 30
0.0
 10
80913.67501627831
 20
32435.4974366059
 30
0.0
 10
80913.61604698272
 20
32435.508813513
 30
0.0
 10
80913.56047653701
 20
32435.51685547826
 30
0.0
 10
80913.50662871165
 20
32435.52251393736
 30
0.0
 10
80913.45071844186
 20
32435.5263285458
 30
0.0
 10
80913.4121154852
 20
32435.52704184152
 30
0.0
 10
80913.39281243522
 20
32435.52739851842
 30
0.0
 11
80914.99281243513
 21
32433.52739851842
 31
0.0
 11
80914.99158795805
 21
32433.59951405876
 31
0.0
 11
80914.98856747744
 21
32433.6715724936
 31
0.0
 11
80914.98425605011
 21
32433.73580981521
 31
0.0
 11
80914.97831728042
 21
32433.79992966902
 31
0.0
 11
80914.96868385239
 21
32433.87762302086
 31
0.0
 11
80914.95620499832
 21
32433.9549112358
 31
0.0
 11
80914.93982060271
 21
32434.03790699987
 31
0.0
 11
80914.92070773666
 21
32434.12031756504
 31
0.0
 11
80914.89783916222
 21
32434.2054561193
 31
0.0
 11
80914.87191254256
 21
32434.28971859332
 31
0.0
 11
80914.8439265947
 21
32434.36989923759
 31
0.0
 11
80914.8128662928
 21
32434.4489404324
 31
0.0
 11
80914.7795160068
 21
32434.52509859404
 31
0.0
 11
80914.74328834192
 21
32434.59993236931
 31
0.0
 11
80914.704817532
 21
32434.67212044171
 31
0.0
 11
80914.6635232236
 21
32434.74273322747
 31
0.0
 11
80914.62014847177
 21
32434.81049453487
 31
0.0
 11
80914.57403181729
 21
32434.87642457718
 31
0.0
 11
80914.52610454483
 21
32434.93920200837
 31
0.0
 11
80914.4755557932
 21
32434.99989062248
 31
0.0
 11
80914.42342035883
 21
32435.05723529976
 31
0.0
 11
80914.36879050592
 21
32435.11221504951
 31
0.0
 11
80914.31279812896
 21
32435.16370294291
 31
0.0
 11
80914.25450146085
 21
32435.21256852989
 31
0.0
 11
80914.19512684307
 21
32435.2577790156
 31
0.0
 11
80914.13365169623
 21
32435.30010056728
 31
0.0
 11
80914.07069971999
 21
32435.33899573889
 31
0.0
 11
80914.00583708606
 21
32435.37461846183
 31
0.0
 11
80913.9387341127
 21
32435.40711404238
 31
0.0
 11
80913.87005017712
 21
32435.43611706527
 31
0.0
 11
80913.80397714135
 21
32435.4602124537
 31
0.0
 11
80913.7368129926
 21
32435.48108211729
 31
0.0
 11
80913.6748767219
 21
32435.49681424029
 31
0.0
 11
80913.61214664394
 21
32435.50900672465
 31
0.0
 11
80913.56042704974
 21
32435.51651915789
 31
0.0
 11
80913.50847892341
 21
32435.52201572369
 31
0.0
 11
80913.45070356452
 21
32435.52584951878
 31
0.0
 11
80913.39281243522
 21
32435.52739851842
 31
0.0
  0
SPLINE
  5
AA
330
1F
100
AcDbEntity
  8
0
  6
Continuous
 62
     7
100
AcDbSpline
210
0.0
220
0.0
230
1.0
 70
     8
 71
     3
 72
     9
 73
     5
 74
     3
 42
0.0000000001
 43
0.0000000001
 44
0.00000001
 40
0.0
 40
0.0
 40
0.0
 40
0.0
 40
0.0861349529247603
 40
0.17226990599052
 40
0.17226990599052
 40
0.17226990599052
 40
0.17226990599052
 10
80887.88665473362
 20
32396.94436860712
 30
0.0
 10
80887.86441636804
 20
32396.962555804
 30
0.0
 10
80887.81993963687
 20
32396.99893019779
 30
0.0
 10
80887.77897471
 20
32397.03921854481
 30
0.0
 10
80887.75849224652
 20
32397.05936271832
 30
0.0
 11
80887.88665473362
 21
32396.94436860712
 31
0.0
 11
80887.82081758798
 21
32396.99990868607
 31
0.0
 11
80887.75849224652
 21
32397.05936271832
 31
0.0
  0
SPLINE
  5
AB
330
1F
100
AcDbEntity
  8
0
  6
Continuous
 62
     7
100
AcDbSpline
210
0.0
220
0.0
230
1.0
 70
     8
 71
     3
 72
   247
 73
   243
 74
   241
 42
0.0000000001
 43
0.0000000001
 44
0.00000001
 40
0.0
 40
0.0
 40
0.0
 40
0.0
 40
0.0188842844200895
 40
0.0377685556754134
 40
0.0444006799229635
 40
0.051032823329538
 40
0.0574916129193224
 40
0.0639503982607514
 40
0.0692089763432002
 40
0.0744675407922898
 40
0.0798335376966686
 40
0.0851995437842183
 40
0.0915977649889258
 40
0.0979960027651293
 40
0.1046383777821688
 40
0.1112807398083908
 40
0.1179710578727289
 40
0.1246613863558068
 40
0.1312701751783926
 40
0.1378789551941051
 40
0.1434950156201674
 40
0.1491110715149586
 40
0.1545917780373433
 40
0.1600724795772056
 40
0.1647889189059531
 40
0.1695053530871881
 40
0.1742373722031021
 40
0.1789693945425405
 40
0.1839221144147787
 40
0.1888748371703655
 40
0.1938988981171688
 40
0.1989229588223841
 40
0.2040538875212508
 40
0.2091848159639338
 40
0.2143211565449704
 40
0.2194574971333565
 40
0.2246272709235831
 40
0.2297970453071217
 40
0.2349609818432314
 40
0.2401249179001624
 40
0.2452103887740178
 40
0.2502958591163351
 40
0.2553766449090747
 40
0.2604574312787183
 40
0.2654848872407038
 40
0.2705123426627853
 40
0.2755368014576673
 40
0.2805612600766937
 40
0.2854810059346546
 40
0.2904007511463316
 40
0.2953071712861178
 40
0.3002135918306561
 40
0.3050579327710221
 40
0.3099022727366782
 40
0.3147465291851906
 40
0.3195907859793706
 40
0.3245166420024483
 40
0.3294424993610176
 40
0.3343683872789188
 40
0.3392942732151094
 40
0.3443278101510122
 40
0.3493613491786804
 40
0.354406299110436
 40
0.3594512503422392
 40
0.3647677800200463
 40
0.3700843116330246
 40
0.3753936082172902
 40
0.3807029038280196
 40
0.3861145160210954
 40
0.3915261277654878
 40
0.3969372242429878
 40
0.4023483228828942
 40
0.4081845854014586
 40
0.4140208503299241
 40
0.4198719217767971
 40
0.4257229938768544
 40
0.4318124687985702
 40
0.4379019424974617
 40
0.4439991638771585
 40
0.4500963876570791
 40
0.4565931198863596
 40
0.4630898538639927
 40
0.4695791630207126
 40
0.4760684713463695
 40
0.4826132393586083
 40
0.4891580062475692
 40
0.4956885237734381
 40
0.5022190430548891
 40
0.5091081325417735
 40
0.5159972246216505
 40
0.5228972103961176
 40
0.5297971956282845
 40
0.5369005369232983
 40
0.544003878267254
 40
0.5511150777840406
 40
0.5582262794716811
 40
0.565705836651076
 40
0.5731853958657331
 40
0.5806659139811465
 40
0.5881464311507031
 40
0.5957011489381027
 40
0.6032558662184295
 40
0.6107997083149255
 40
0.6183435516801107
 40
0.6261351633982863
 40
0.6339267767867608
 40
0.6417290460064069
 40
0.6495313152203462
 40
0.6574492265041777
 40
0.6653671376363015
 40
0.6732869404207205
 40
0.6812067441185358
 40
0.6892551814410821
 40
0.6973036192304941
 40
0.7053556864228837
 40
0.7134077536856006
 40
0.7214361548322396
 40
0.7294645555024467
 40
0.7374815724905259
 40
0.745498589230375
 40
0.7534411137806737
 40
0.7613836380228616
 40
0.7693251873068078
 40
0.7772667364661068
 40
0.7851547375584439
 40
0.7930427388123652
 40
0.8009273665689821
 40
0.8088119936762705
 40
0.8165899655057739
 40
0.8243679367727049
 40
0.83214980462218
 40
0.8399316728533341
 40
0.8476783866781519
 40
0.855425100636827
 40
0.8631713336776389
 40
0.8709175659568829
 40
0.878514644745314
 40
0.8861117226637439
 40
0.8937071510972773
 40
0.9013025795992307
 40
0.9088255306304135
 40
0.9163484819242758
 40
0.9238684160205513
 40
0.9313883490215711
 40
0.9387490927509357
 40
0.9461098357664743
 40
0.9534773237798498
 40
0.9608448118558943
 40
0.9681760531917871
 40
0.9755072953294637
 40
0.9828403037364486
 40
0.990173311087667
 40
0.9972869253518668
 40
1.004400538182492
 40
1.011510791512788
 40
1.018621046015677
 40
1.025602944631407
 40
1.032584842420603
 40
1.039559759978299
 40
1.046534676416731
 40
1.053255959464115
 40
1.059977241338069
 40
1.066697042491346
 40
1.073416843527557
 40
1.080058173246473
 40
1.086699503710391
 40
1.093343454367145
 40
1.099987403803183
 40
1.106453924119329
 40
1.112920444014643
 40
1.119378941301831
 40
1.125837436581506
 40
1.132229935074782
 40
1.138622435584296
 40
1.145015028551087
 40
1.151407620730332
 40
1.157762940513977
 40
1.164118260089449
 40
1.170471555059689
 40
1.17682485111534
 40
1.183237602538998
 40
1.189650353098536
 40
1.196072963742931
 40
1.202495574939266
 40
1.209053524637911
 40
1.215611474529451
 40
1.222188157780787
 40
1.228764841728743
 40
1.235448328237999
 40
1.242131814630669
 40
1.248819309997136
 40
1.25550680532025
 40
1.262113723650253
 40
1.268720641560114
 40
1.275327756314388
 40
1.281934870784782
 40
1.288397412096168
 40
1.29485995365279
 40
1.301309576005224
 40
1.307759197167901
 40
1.313876020313314
 40
1.319992842743679
 40
1.326116220179496
 40
1.332239597165892
 40
1.338154478603753
 40
1.344069360490227
 40
1.349975063988421
 40
1.355880767009262
 40
1.361297757036821
 40
1.366714745562235
 40
1.372112085994619
 40
1.377509426240618
 40
1.382613477971201
 40
1.387717529908477
 40
1.392807965566262
 40
1.397898399283749
 40
1.402720538714617
 40
1.407542678666527
 40
1.412366318424434
 40
1.417189958786243
 40
1.422083978666759
 40
1.426977998072401
 40
1.431897530078893
 40
1.436817062467677
 40
1.441828737456879
 40
1.446840412313068
 40
1.451857010506854
 40
1.45687360854465
 40
1.46191944530404
 40
1.466965282779409
 40
1.471863279262482
 40
1.476761274899134
 40
1.481465995979359
 40
1.48617071556618
 40
1.490846850477167
 40
1.495522988126612
 40
1.502366934369169
 40
1.509210885846149
 40
1.516298215888073
 40
1.523385538494843
 40
1.543169535605311
 40
1.562953536781146
 40
1.562953536781146
 40
1.562953536781146
 40
1.562953536781146
 10
80887.75849224652
 20
32397.05936271832
 30
0.0
 10
80887.75233452399
 20
32397.06066946191
 30
0.0
 10
80887.74001908327
 20
32397.0632829482
 30
0.0
 10
80887.72560160523
 20
32397.06663251575
 30
0.0
 10
80887.71519646193
 20
32397.06919580438
 30
0.0
 10
80887.70882426051
 20
32397.07081381295
 30
0.0
 10
80887.70251878434
 20
32397.07245918448
 30
0.0
 10
80887.69666640303
 20
32397.07402705709
 30
0.0
 10
80887.6912091595
 20
32397.07552339855
 30
0.0
 10
80887.68611162841
 20
32397.07695378943
 30
0.0
 10
80887.68098939472
 20
32397.07842826606
 30
0.0
 10
80887.67551280741
 20
32397.08004456194
 30
0.0
 10
80887.6697187848
 20
32397.08180036702
 30
0.0
 10
80887.66353185443
 20
32397.08372597679
 30
0.0
 10
80887.65728147046
 20
32397.0857209964
 30
0.0
 10
80887.65095384019
 20
32397.08779358471
 30
0.0
 10
80887.644627431
 20
32397.08992060479
 30
0.0
 10
80887.63832813477
 20
32397.09209252134
 30
0.0
 10
80887.63207090502
 20
32397.0943024825
 30
0.0
 10
80887.6261672354
 20
32397.09643770834
 30
0.0
 10
80887.62058916298
 20
32397.09849974725
 30
0.0
 10
80887.61537705331
 20
32397.10046692971
 30
0.0
 10
80887.61022104463
 20
32397.10245458809
 30
0.0
 10
80887.60535871872
 20
32397.10437001481
 30
0.0
 10
80887.6007465531
 20
32397.10622501713
 30
0.0
 10
80887.59637796265
 20
32397.10801654497
 30
0.0
 10
80887.59201716626
 20
32397.1098404658
 30
0.0
 10
80887.58759635207
 20
32397.11172471843
 30
0.0
 10
80887.5831207813
 20
32397.11366785458
 30
0.0
 10
80887.57856884082
 20
32397.11567925264
 30
0.0
 10
80887.57400762652
 20
32397.11772826408
 30
0.0
 10
80887.56940478201
 20
32397.11982933936
 30
0.0
 10
80887.56478213222
 20
32397.12197259862
 30
0.0
 10
80887.56013852329
 20
32397.12415941236
 30
0.0
 10
80887.555506459
 20
32397.12637475903
 30
0.0
 10
80887.55087607828
 20
32397.12862342335
 30
0.0
 10
80887.54624925784
 20
32397.13090471923
 30
0.0
 10
80887.54162791451
 20
32397.13321771504
 30
0.0
 10
80887.53702209577
 20
32397.1355571775
 30
0.0
 10
80887.53245517176
 20
32397.13791096356
 30
0.0
 10
80887.52792529925
 20
32397.14027935243
 30
0.0
 10
80887.52343374924
 20
32397.14266103261
 30
0.0
 10
80887.51895746679
 20
32397.14506798905
 30
0.0
 10
80887.5145120979
 20
32397.14749142472
 30
0.0
 10
80887.51009614629
 20
32397.14993150983
 30
0.0
 10
80887.50571053276
 20
32397.15238750973
 30
0.0
 10
80887.50133991
 20
32397.15486806585
 30
0.0
 10
80887.4970148193
 20
32397.15735594139
 30
0.0
 10
80887.49273433711
 20
32397.15985119654
 30
0.0
 10
80887.4885022908
 20
32397.16235125069
 30
0.0
 10
80887.48428884117
 20
32397.1648738861
 30
0.0
 10
80887.48011200593
 20
32397.1674085784
 30
0.0
 10
80887.4759681272
 20
32397.16995752158
 30
0.0
 10
80887.47185754051
 20
32397.17252086753
 30
0.0
 10
80887.46776317048
 20
32397.17510998719
 30
0.0
 10
80887.46366257487
 20
32397.17773991721
 30
0.0
 10
80887.45955652963
 20
32397.18041154336
 30
0.0
 10
80887.45544575667
 20
32397.18312559537
 30
0.0
 10
80887.45135345064
 20
32397.18586743294
 30
0.0
 10
80887.44725047797
 20
32397.18865762634
 30
0.0
 10
80887.44313789954
 20
32397.19149728643
 30
0.0
 10
80887.43901291284
 20
32397.19438860257
 30
0.0
 10
80887.43490489062
 20
32397.19731053822
 30
0.0
 10
80887.43073999436
 20
32397.20031505771
 30
0.0
 10
80887.42652204665
 20
32397.20340058055
 30
0.0
 10
80887.42225386832
 20
32397.20656647963
 30
0.0
 10
80887.41800810787
 20
32397.20975836716
 30
0.0
 10
80887.41375767229
 20
32397.2129965958
 30
0.0
 10
80887.4095011655
 20
32397.21628295092
 30
0.0
 10
80887.40523913124
 20
32397.21961748956
 30
0.0
 10
80887.40099849587
 20
32397.22297892168
 30
0.0
 10
80887.39666810323
 20
32397.22645481934
 30
0.0
 10
80887.39224903673
 20
32397.23004648781
 30
0.0
 10
80887.3877385596
 20
32397.23375803774
 30
0.0
 10
80887.3832458257
 20
32397.23749876253
 30
0.0
 10
80887.37870969491
 20
32397.24131912567
 30
0.0
 10
80887.37413452324
 20
32397.24521635279
 30
0.0
 10
80887.36951948293
 20
32397.24919315551
 30
0.0
 10
80887.36492521568
 20
32397.25319786992
 30
0.0
 10
80887.36025152855
 20
32397.25731792169
 30
0.0
 10
80887.35550174459
 20
32397.26155288893
 30
0.0
 10
80887.3506793593
 20
32397.26590265324
 30
0.0
 10
80887.34588361942
 20
32397.27027810692
 30
0.0
 10
80887.34110144414
 20
32397.27469202521
 30
0.0
 10
80887.33633180808
 20
32397.27914662057
 30
0.0
 10
80887.33157902108
 20
32397.28363921106
 30
0.0
 10
80887.32685713156
 20
32397.28815739794
 30
0.0
 10
80887.3220801585
 20
32397.29278385621
 30
0.0
 10
80887.31724638448
 20
32397.29752329411
 30
0.0
 10
80887.31235470652
 20
32397.30237939373
 30
0.0
 10
80887.30749016776
 20
32397.30726780401
 30
0.0
 10
80887.30260543944
 20
32397.31223669284
 30
0.0
 10
80887.29770425911
 20
32397.31728427912
 30
0.0
 10
80887.2927859328
 20
32397.32241315781
 30
0.0
 10
80887.28789778422
 20
32397.32757441434
 30
0.0
 10
80887.28295553387
 20
32397.33285696535
 30
0.0
 10
80887.27796244365
 20
32397.33825991501
 30
0.0
 10
80887.27291998616
 20
32397.34378466877
 30
0.0
 10
80887.2679112272
 20
32397.34934042238
 30
0.0
 10
80887.26292007067
 20
32397.35494558632
 30
0.0
 10
80887.25794748231
 20
32397.3606002096
 30
0.0
 10
80887.25299657139
 20
32397.36630180834
 30
0.0
 10
80887.24808394254
 20
32397.37203165022
 30
0.0
 10
80887.2431559665
 20
32397.37785215349
 30
0.0
 10
80887.23821144416
 20
32397.38376667138
 30
0.0
 10
80887.23324907626
 20
32397.38977834922
 30
0.0
 10
80887.22832145324
 20
32397.39582312221
 30
0.0
 10
80887.22340433093
 20
32397.40193058189
 30
0.0
 10
80887.2185004575
 20
32397.40809801048
 30
0.0
 10
80887.21361011914
 20
32397.41432606555
 30
0.0
 10
80887.20875734775
 20
32397.42058423384
 30
0.0
 10
80887.20391589725
 20
32397.42690605369
 30
0.0
 10
80887.19908667759
 20
32397.43329106767
 30
0.0
 10
80887.19426959766
 20
32397.43974035761
 30
0.0
 10
80887.18949045133
 20
32397.44621931095
 30
0.0
 10
80887.18475399961
 20
32397.45272127989
 30
0.0
 10
80887.18006092262
 20
32397.45924490945
 30
0.0
 10
80887.17541367124
 20
32397.46578693756
 30
0.0
 10
80887.17080796338
 20
32397.47235364505
 30
0.0
 10
80887.16625824245
 20
32397.47892447895
 30
0.0
 10
80887.16176227291
 20
32397.48550215116
 30
0.0
 10
80887.15732011177
 20
32397.49208595727
 30
0.0
 10
80887.15291805007
 20
32397.49869625148
 30
0.0
 10
80887.14856608797
 20
32397.50531789891
 30
0.0
 10
80887.14426393216
 20
32397.51195074768
 30
0.0
 10
80887.14001204428
 20
32397.51859341481
 30
0.0
 10
80887.13580086315
 20
32397.52526063256
 30
0.0
 10
80887.13164948963
 20
32397.53192207703
 30
0.0
 10
80887.12755700373
 20
32397.53857815978
 30
0.0
 10
80887.12352233523
 20
32397.54522941737
 30
0.0
 10
80887.11952712847
 20
32397.55190596657
 30
0.0
 10
80887.11557737441
 20
32397.5585974086
 30
0.0
 10
80887.11167353802
 20
32397.56530218595
 30
0.0
 10
80887.10781560387
 20
32397.5720197856
 30
0.0
 10
80887.10399778825
 20
32397.57876008238
 30
0.0
 10
80887.10024473257
 20
32397.58547957846
 30
0.0
 10
80887.09655584954
 20
32397.59217781105
 30
0.0
 10
80887.09293094114
 20
32397.59885373593
 30
0.0
 10
80887.08934646138
 20
32397.60555083129
 30
0.0
 10
80887.0858138547
 20
32397.61224750975
 30
0.0
 10
80887.08233259451
 20
32397.61894380546
 30
0.0
 10
80887.0789028318
 20
32397.62563836017
 30
0.0
 10
80887.0755135443
 20
32397.63235237057
 30
0.0
 10
80887.07218877035
 20
32397.63903822956
 30
0.0
 10
80887.0689274871
 20
32397.64569624765
 30
0.0
 10
80887.06572801864
 20
32397.65232781559
 30
0.0
 10
80887.06256736332
 20
32397.65898045871
 30
0.0
 10
80887.05945057979
 20
32397.66564291269
 30
0.0
 10
80887.05637830056
 20
32397.67231270464
 30
0.0
 10
80887.05334973632
 20
32397.67898984032
 30
0.0
 10
80887.05035951987
 20
32397.68568488129
 30
0.0
 10
80887.04743722352
 20
32397.69233067569
 30
0.0
 10
80887.04458186858
 20
32397.69892588523
 30
0.0
 10
80887.04179281087
 20
32397.70546876376
 30
0.0
 10
80887.03904122017
 20
32397.71202627236
 30
0.0
 10
80887.03634329324
 20
32397.71855856354
 30
0.0
 10
80887.03369770893
 20
32397.7250660641
 30
0.0
 10
80887.03110518263
 20
32397.73154632143
 30
0.0
 10
80887.02855017787
 20
32397.73803896434
 30
0.0
 10
80887.02606417915
 20
32397.7444652845
 30
0.0
 10
80887.02364574267
 20
32397.75082696364
 30
0.0
 10
80887.02129435095
 20
32397.75712303289
 30
0.0
 10
80887.01898086657
 20
32397.76343260468
 30
0.0
 10
80887.01671459475
 20
32397.76973097229
 30
0.0
 10
80887.01449530238
 20
32397.77601831403
 30
0.0
 10
80887.01232233483
 20
32397.78229506625
 30
0.0
 10
80887.0101871569
 20
32397.78858569662
 30
0.0
 10
80887.00810900939
 20
32397.79483401938
 30
0.0
 10
80887.0060875224
 20
32397.80103872683
 30
0.0
 10
80887.00412296233
 20
32397.80719683872
 30
0.0
 10
80887.00219760902
 20
32397.81336451951
 30
0.0
 10
80887.00031824526
 20
32397.81952057673
 30
0.0
 10
80886.99848402641
 20
32397.82566727955
 30
0.0
 10
80886.99669351897
 20
32397.83180397441
 30
0.0
 10
80886.99493946639
 20
32397.83795121891
 30
0.0
 10
80886.99322435935
 20
32397.84409657482
 30
0.0
 10
80886.99154711611
 20
32397.85023949183
 30
0.0
 10
80886.98990674781
 20
32397.8563787988
 30
0.0
 10
80886.98829903803
 20
32397.86252603977
 30
0.0
 10
80886.98671805061
 20
32397.86869996907
 30
0.0
 10
80886.98516293621
 20
32397.8749008998
 30
0.0
 10
80886.98363292209
 20
32397.8811318648
 30
0.0
 10
80886.98213255891
 20
32397.88737341557
 30
0.0
 10
80886.98065118476
 20
32397.89366923165
 30
0.0
 10
80886.9791899171
 20
32397.9000160474
 30
0.0
 10
80886.9777476351
 20
32397.90641985791
 30
0.0
 10
80886.97633406868
 20
32397.9128364623
 30
0.0
 10
80886.97494130033
 20
32397.91930042438
 30
0.0
 10
80886.97357070712
 20
32397.92580551228
 30
0.0
 10
80886.97222253069
 20
32397.93235299943
 30
0.0
 10
80886.97090408456
 20
32397.93890790108
 30
0.0
 10
80886.96962070561
 20
32397.94544375061
 30
0.0
 10
80886.96837237422
 20
32397.95195903844
 30
0.0
 10
80886.96715901204
 20
32397.95845367459
 30
0.0
 10
80886.9659759234
 20
32397.96495396045
 30
0.0
 10
80886.96483170999
 20
32397.97141233264
 30
0.0
 10
80886.96372580013
 20
32397.9778284764
 30
0.0
 10
80886.96265825945
 20
32397.98419789204
 30
0.0
 10
80886.96162095881
 20
32397.99056793906
 30
0.0
 10
80886.96063157289
 20
32397.99682896096
 30
0.0
 10
80886.9596880408
 20
32398.00298484838
 30
0.0
 10
80886.95878854328
 20
32398.00903740338
 30
0.0
 10
80886.95791657042
 20
32398.01509619207
 30
0.0
 10
80886.95708153184
 20
32398.02109222504
 30
0.0
 10
80886.95628244715
 20
32398.02702303361
 30
0.0
 10
80886.95551796079
 20
32398.03288523517
 30
0.0
 10
80886.95477805998
 20
32398.03874750605
 30
0.0
 10
80886.95408228808
 20
32398.044448017
 30
0.0
 10
80886.95342786335
 20
32398.04998941477
 30
0.0
 10
80886.95281405697
 20
32398.05536493809
 30
0.0
 10
80886.95222236929
 20
32398.06073635186
 30
0.0
 10
80886.95166338646
 20
32398.06600638189
 30
0.0
 10
80886.95113538147
 20
32398.071181343
 30
0.0
 10
80886.95063769184
 20
32398.07625652523
 30
0.0
 10
80886.95016056951
 20
32398.08132912315
 30
0.0
 10
80886.94971248524
 20
32398.08631002624
 30
0.0
 10
80886.94929225635
 20
32398.09120359935
 30
0.0
 10
80886.94889772388
 20
32398.09601008481
 30
0.0
 10
80886.94852037358
 20
32398.10081845042
 30
0.0
 10
80886.94815725999
 20
32398.10565193844
 30
0.0
 10
80886.94780748076
 20
32398.11050993005
 30
0.0
 10
80886.94747021275
 20
32398.11540084617
 30
0.0
 10
80886.94714673444
 20
32398.12030121604
 30
0.0
 10
80886.94683481575
 20
32398.12524163215
 30
0.0
 10
80886.94653493552
 20
32398.13021356419
 30
0.0
 10
80886.94624728587
 20
32398.13521862785
 30
0.0
 10
80886.94597371604
 20
32398.14022612431
 30
0.0
 10
80886.94571371998
 20
32398.14524574647
 30
0.0
 10
80886.94546746524
 20
32398.15027581967
 30
0.0
 10
80886.94523717217
 20
32398.15526707307
 30
0.0
 10
80886.94502269426
 20
32398.16020970458
 30
0.0
 10
80886.9448270933
 20
32398.16503932365
 30
0.0
 10
80886.94464847146
 20
32398.16980512998
 30
0.0
 10
80886.9444869279
 20
32398.17449754968
 30
0.0
 10
80886.94434038957
 20
32398.17918092896
 30
0.0
 10
80886.94418672152
 20
32398.1845774868
 30
0.0
 10
80886.9440313032
 20
32398.19069687261
 30
0.0
 10
80886.94387956292
 20
32398.1976202977
 30
0.0
 10
80886.94374940683
 20
32398.20462530695
 30
0.0
 10
80886.9435806187
 20
32398.2159436098
 30
0.0
 10
80886.94345377933
 20
32398.23149521493
 30
0.0
 10
80886.94347942414
 20
32398.24468457575
 30
0.0
 10
80886.94349224652
 20
32398.25127925682
 30
0.0
 11
80887.75849224652
 21
32397.05936271832
 31
0.0
 11
80887.74003195389
 21
32397.06334188834
 31
0.0
 11
80887.72163791343
 21
32397.06761681251
 31
0.0
 11
80887.7151983732
 21
32397.06920344216
 31
0.0
 11
80887.7087700955
 21
32397.0708351811
 31
0.0
 11
80887.70252057238
 21
32397.07246595505
 31
0.0
 11
80887.69628178072
 21
32397.07413729785
 31
0.0
 11
80887.69121054802
 21
32397.07552842771
 31
0.0
 11
80887.68614769884
 21
32397.07694971527
 31
0.0
 11
80887.68099107523
 21
32397.07843401839
 31
0.0
 11
80887.67584450457
 21
32397.07995284416
 31
0.0
 11
80887.66972113817
 21
32397.08180800412
 31
0.0
 11
80887.66361183049
 21
32397.08370900552
 31
0.0
 11
80887.65728404422
 21
32397.08572897256
 31
0.0
 11
80887.65097174392
 21
32397.08779678255
 31
0.0
 11
80887.64463019639
 21
32397.08992871377
 31
0.0
 11
80887.63830520684
 21
32397.09210931058
 31
0.0
 11
80887.63207369336
 21
32397.09431029431
 31
0.0
 11
80887.62585893914
 21
32397.09655813845
 31
0.0
 11
80887.62059139
 21
32397.09850571665
 31
0.0
 11
80887.61533722395
 21
32397.10048910337
 31
0.0
 11
80887.61022346908
 21
32397.10246081712
 31
0.0
 11
80887.60512428376
 21
32397.10446989612
 31
0.0
 11
80887.60074855563
 21
32397.10622995388
 31
0.0
 11
80887.59638486113
 21
32397.10801962471
 31
0.0
 11
80887.5920192425
 21
32397.10984537904
 31
0.0
 11
80887.5876660686
 21
32397.11170061824
 31
0.0
 11
80887.58312292596
 21
32397.11367274629
 31
0.0
 11
80887.57859263662
 21
32397.11567423104
 31
0.0
 11
80887.57400970433
 21
32397.11773285194
 31
0.0
 11
80887.5694392373
 21
32397.1198190008
 31
0.0
 11
80887.56478429733
 21
32397.12197723229
 31
0.0
 11
80887.56014234884
 21
32397.12416326544
 31
0.0
 11
80887.55550868167
 21
32397.12637937085
 31
0.0
 11
80887.55088835026
 21
32397.12862314719
 31
0.0
 11
80887.54625154678
 21
32397.13090932621
 31
0.0
 11
80887.54162847479
 21
32397.13322314828
 31
0.0
 11
80887.53702441406
 21
32397.13556170881
 31
0.0
 11
80887.53243426449
 21
32397.13792745657
 31
0.0
 11
80887.52792759315
 21
32397.14028370942
 31
0.0
 11
80887.52343468681
 21
32397.14266610342
 31
0.0
 11
80887.51895978865
 21
32397.14507227689
 31
0.0
 11
80887.51449881966
 21
32397.14750417856
 31
0.0
 11
80887.51009846394
 21
32397.14993567667
 31
0.0
 11
80887.50571201605
 21
32397.15239217477
 31
0.0
 11
80887.50134231117
 21
32397.1548722686
 31
0.0
 11
80887.49698701456
 21
32397.15737757814
 31
0.0
 11
80887.49273674634
 21
32397.15985530277
 31
0.0
 11
80887.48850093638
 21
32397.16235766304
 31
0.0
 11
80887.4842913601
 21
32397.16487806503
 31
0.0
 11
80887.48009689743
 21
32397.16742354052
 31
0.0
 11
80887.47597073398
 21
32397.16996173167
 31
0.0
 11
80887.47186021575
 21
32397.17252518044
 31
0.0
 11
80887.46776594502
 21
32397.17511434396
 31
0.0
 11
80887.46368832196
 21
32397.17772964778
 31
0.0
 11
80887.45955954332
 21
32397.18041614075
 31
0.0
 11
80887.45544884435
 21
32397.18313021973
 31
0.0
 11
80887.4513566191
 21
32397.1858721286
 31
0.0
 11
80887.44728341163
 21
32397.18864220679
 31
0.0
 11
80887.44314127273
 21
32397.19150213326
 31
0.0
 11
80887.43901936544
 21
32397.19439114614
 31
0.0
 11
80887.43490816483
 21
32397.19731510738
 31
0.0
 11
80887.43081660244
 21
32397.20026648845
 31
0.0
 11
80887.42652553004
 21
32397.20340530757
 31
0.0
 11
80887.42225535026
 21
32397.2065724945
 31
0.0
 11
80887.41801152867
 21
32397.20976288766
 31
0.0
 11
80887.41378823375
 21
32397.21298040221
 31
0.0
 11
80887.40950472088
 21
32397.21628752544
 31
0.0
 11
80887.40524254038
 21
32397.21962209573
 31
0.0
 11
80887.4010019349
 21
32397.22298323098
 31
0.0
 11
80887.39678195475
 21
32397.22637022908
 31
0.0
 11
80887.39225276724
 21
32397.23005104701
 31
0.0
 11
80887.38774595263
 21
32397.23375922855
 31
0.0
 11
80887.38324935571
 21
32397.23750297711
 31
0.0
 11
80887.3787739352
 21
32397.24127201624
 31
0.0
 11
80887.37413828673
 21
32397.24522074618
 31
0.0
 11
80887.36952522204
 21
32397.24919583411
 31
0.0
 11
80887.36492895358
 21
32397.25320213225
 31
0.0
 11
80887.36035510489
 21
32397.25723401097
 31
0.0
 11
80887.35550590492
 21
32397.26155752682
 31
0.0
 11
80887.35068166166
 21
32397.26590887481
 31
0.0
 11
80887.34588783933
 21
32397.27028270617
 31
0.0
 11
80887.34111933957
 21
32397.27468413011
 31
0.0
 11
80887.3363362924
 21
32397.27915139415
 31
0.0
 11
80887.33158015525
 21
32397.28364729596
 31
0.0
 11
80887.32686168919
 21
32397.28816213119
 31
0.0
 11
80887.3221705638
 21
32397.29270537064
 31
0.0
 11
80887.31725138822
 21
32397.29752836406
 31
0.0
 11
80887.31236222721
 21
32397.30238178495
 31
0.0
 11
80887.30749514968
 21
32397.30727273169
 31
0.0
 11
80887.30265796465
 21
32397.31219324358
 31
0.0
 11
80887.29770957385
 21
32397.31728940742
 31
0.0
 11
80887.29279307078
 21
32397.32241634178
 31
0.0
 11
80887.28790304916
 21
32397.32757936871
 31
0.0
 11
80887.28304461023
 21
32397.33277212911
 31
0.0
 11
80887.2779681414
 21
32397.33826514648
 31
0.0
 11
80887.27292585318
 21
32397.34378955917
 31
0.0
 11
80887.26791693775
 21
32397.34934553951
 31
0.0
 11
80887.2629422881
 21
32397.35493221991
 31
0.0
 11
80887.25795342117
 21
32397.36060539959
 31
0.0
 11
80887.25300018891
 21
32397.36630971754
 31
0.0
 11
80887.24808988621
 21
32397.37203671335
 31
0.0
 11
80887.2432152417
 21
32397.37779409241
 31
0.0
 11
80887.2382176759
 21
32397.38377184694
 31
0.0
 11
80887.23325749532
 21
32397.38978066112
 31
0.0
 11
80887.22832760637
 21
32397.39582810685
 31
0.0
 11
80887.22343463534
 21
32397.40190546149
 31
0.0
 11
80887.21850677665
 21
32397.40810300357
 31
0.0
 11
80887.2136168329
 21
32397.41433050442
 31
0.0
 11
80887.20876364426
 21
32397.42058908542
 31
0.0
 11
80887.20394823211
 21
32397.42687677947
 31
0.0
 11
80887.19909313254
 21
32397.43329591894
 31
0.0
 11
80887.19427676119
 21
32397.43974416815
 31
0.0
 11
80887.18949691266
 21
32397.44622404732
 31
0.0
 11
80887.18475583185
 21
32397.4527323451
 31
0.0
 11
80887.18006742604
 21
32397.45924955892
 31
0.0
 11
80887.17541804221
 21
32397.46579466757
 31
0.0
 11
80887.17081457544
 21
32397.4723582531
 31
0.0
 11
80887.16625078184
 21
32397.47894948557
 31
0.0
 11
80887.16176887529
 21
32397.48550663509
 31
0.0
 11
80887.15732658388
 21
32397.49209068692
 31
0.0
 11
80887.15292473603
 21
32397.49870067485
 31
0.0
 11
80887.1485630044
 21
32397.50533720258
 31
0.0
 11
80887.14427059029
 21
32397.51195503775
 31
0.0
 11
80887.1400181248
 21
32397.51859861367
 31
0.0
 11
80887.13580759698
 21
32397.52526485776
 31
0.0
 11
80887.1316374737
 21
32397.53195645074
 31
0.0
 11
80887.12756364864
 21
32397.53858221825
 31
0.0
 11
80887.12352969419
 21
32397.54523233468
 31
0.0
 11
80887.11953382238
 21
32397.5519099447
 31
0.0
 11
80887.11557811324
 21
32397.55861142502
 31
0.0
 11
80887.1116801924
 21
32397.56530603391
 31
0.0
 11
80887.10782219762
 21
32397.57202373094
 31
0.0
 11
80887.1040045276
 21
32397.57876387352
 31
0.0
 11
80887.10022729545
 21
32397.58552675987
 31
0.0
 11
80887.0965624707
 21
32397.59218143234
 31
0.0
 11
80887.09293737482
 21
32397.59885782903
 31
0.0
 11
80887.08935318497
 21
32397.60555440399
 31
0.0
 11
80887.08580933654
 21
32397.61227241504
 31
0.0
 11
80887.08233924373
 21
32397.61894723699
 31
0.0
 11
80887.07890904575
 21
32397.62564264871
 31
0.0
 11
80887.07552028293
 21
32397.63235574749
 31
0.0
 11
80887.07217195399
 21
32397.63908910369
 31
0.0
 11
80887.06893406193
 21
32397.64569944432
 31
0.0
 11
80887.06573562021
 21
32397.65232896227
 31
0.0
 11
80887.06257398281
 21
32397.65898357936
 31
0.0
 11
80887.05945206199
 21
32397.66565692117
 31
0.0
 11
80887.05638478456
 21
32397.67231566795
 31
0.0
 11
80887.05335640954
 21
32397.67899219819
 31
0.0
 11
80887.05036597353
 21
32397.68568774184
 31
0.0
 11
80887.04741426102
 21
32397.69240044547
 31
0.0
 11
80887.04458800211
 21
32397.69892852088
 31
0.0
 11
80887.04179854646
 21
32397.7054724054
 31
0.0
 11
80887.03904736995
 21
32397.71202883204
 31
0.0
 11
80887.03633309051
 21
32397.7186006207
 31
0.0
 11
80887.03370372219
 21
32397.72506848979
 31
0.0
 11
80887.03111043503
 21
32397.73155090897
 31
0.0
 11
80887.02855645286
 21
32397.73804141357
 31
0.0
 11
80887.02604012325
 21
32397.74454660724
 31
0.0
 11
80887.02365188074
 21
32397.75082927733
 31
0.0
 11
80887.02130046897
 21
32397.75712582343
 31
0.0
 11
80887.018987231
 21
32397.76343491668
 31
0.0
 11
80887.01671218009
 21
32397.76975788033
 31
0.0
 11
80887.01450161982
 21
32397.77602052224
 31
0.0
 11
80887.01232896354
 21
32397.7822964154
 31
0.0
 11
80887.01019359771
 21
32397.78858786143
 31
0.0
 11
80887.00809687852
 21
32397.79489229104
 31
0.0
 11
80887.0060938212
 21
32397.80104075804
 31
0.0
 11
80887.00412855779
 21
32397.80720140892
 31
0.0
 11
80887.00220407035
 21
32397.81336651519
 31
0.0
 11
80887.00031835312
 21
32397.81954358827
 31
0.0
 11
80886.99849026487
 21
32397.82566911929
 31
0.0
 11
80886.99669960477
 21
32397.83180569808
 31
0.0
 11
80886.994945402
 21
32397.83795289398
 31
0.0
 11
80886.99322681282
 21
32397.8441101406
 31
0.0
 11
80886.99155268745
 21
32397.85024099648
 31
0.0
 11
80886.98991198969
 21
32397.85638088229
 31
0.0
 11
80886.9883042828
 21
32397.86252739639
 31
0.0
 11
80886.986728043
 21
32397.86868205632
 31
0.0
 11
80886.98516805362
 21
32397.87490216998
 31
0.0
 11
80886.98363876922
 21
32397.88112990303
 31
0.0
 11
80886.98213757396
 21
32397.88737460801
 31
0.0
 11
80886.98066646821
 21
32397.89362647033
 31
0.0
 11
80886.97919499704
 21
32397.900017204
 31
0.0
 11
80886.97775400507
 21
32397.90641487927
 31
0.0
 11
80886.97633900878
 21
32397.91283753823
 31
0.0
 11
80886.97495365233
 21
32397.91926665631
 31
0.0
 11
80886.97357571147
 21
32397.9258065547
 31
0.0
 11
80886.97222779666
 21
32397.93235270746
 31
0.0
 11
80886.97090911047
 21
32397.93890890003
 31
0.0
 11
80886.96962057985
 21
32397.94547108584
 31
0.0
 11
80886.96837736202
 21
32397.95195998245
 31
0.0
 11
80886.96716407152
 21
32397.95845454097
 31
0.0
 11
80886.96598100338
 21
32397.9649548729
 31
0.0
 11
80886.96482841545
 21
32397.97146067821
 31
0.0
 11
80886.96373071207
 21
32397.9778293113
 31
0.0
 11
80886.96266248047
 21
32397.98420295426
 31
0.0
 11
80886.9616259433
 21
32397.9905687393
 31
0.0
 11
80886.9606193141
 21
32397.99693932097
 31
0.0
 11
80886.95969263226
 21
32398.00298554179
 31
0.0
 11
80886.95879349965
 21
32398.00903592006
 31
0.0
 11
80886.95792118028
 21
32398.01509684492
 31
0.0
 11
80886.95707652015
 21
32398.0211616858
 31
0.0
 11
80886.95628660095
 21
32398.02702358397
 31
0.0
 11
80886.95552160412
 21
32398.03288878708
 31
0.0
 11
80886.95478206145
 21
32398.03874800294
 31
0.0
 11
80886.95406652788
 21
32398.04461019876
 31
0.0
 11
80886.95343132486
 21
32398.04998981753
 31
0.0
 11
80886.95281689169
 21
32398.05537184657
 31
0.0
 11
80886.95222598195
 21
32398.0607367426
 31
0.0
 11
80886.95165674837
 21
32398.06610398163
 31
0.0
 11
80886.95113870632
 21
32398.07118167565
 31
0.0
 11
80886.95064061339
 21
32398.07626136556
 31
0.0
 11
80886.95016400279
 21
32398.0813294399
 31
0.0
 11
80886.94970799255
 21
32398.08639940737
 31
0.0
 11
80886.94929527065
 21
32398.09120385211
 31
0.0
 11
80886.94890063426
 21
32398.09600981672
 31
0.0
 11
80886.94852304582
 21
32398.1008186552
 31
0.0
 11
80886.9481614905
 21
32398.10562872631
 31
0.0
 11
80886.94780994425
 21
32398.11051010376
 31
0.0
 11
80886.94747317908
 21
32398.11539252275
 31
0.0
 11
80886.94714907696
 21
32398.12030136711
 31
0.0
 11
80886.94683902999
 21
32398.12521111963
 31
0.0
 11
80886.94653729783
 21
32398.13021370335
 31
0.0
 11
80886.94624973966
 21
32398.1352171217
 31
0.0
 11
80886.94597607727
 21
32398.14022625
 31
0.0
 11
80886.9457165823
 21
32398.14523613206
 31
0.0
 11
80886.94546982642
 21
32398.15027593167
 31
0.0
 11
80886.94523723732
 21
32398.15531640567
 31
0.0
 11
80886.94502504982
 21
32398.16020980388
 31
0.0
 11
80886.94482699576
 21
32398.16510379365
 31
0.0
 11
80886.94465086103
 21
32398.16980521652
 31
0.0
 11
80886.94448906372
 21
32398.17450715314
 31
0.0
 11
80886.94434257965
 21
32398.17918099312
 31
0.0
 11
80886.94420923447
 21
32398.18385522914
 31
0.0
 11
80886.94403527028
 21
32398.19069696405
 31
0.0
 11
80886.94388507755
 21
32398.19753926732
 31
0.0
 11
80886.94375373721
 21
32398.20462538027
 31
0.0
 11
80886.94364793543
 21
32398.21171191311
 31
0.0
 11
80886.9434870834
 21
32398.23149525632
 31
0.0
 11
80886.94349224652
 21
32398.25127925682
 31
0.0
  0
SPLINE
  5
AC
330
1F
100
AcDbEntity
  8
0
  6
Continuous
 62
     7
100
AcDbSpline
210
0.0
220
0.0
230
1.0
 70
     8
 71
     3
 72
     9
 73
     5
 74
     3
 42
0.0000000001
 43
0.0000000001
 44
0.00000001
 40
0.0
 40
0.0
 40
0.0
 40
0.0
 40
0.0861382853372222
 40
0.17227657062546
 40
0.17227657062546
 40
0.17227657062546
 40
0.17227657062546
 10
80887.75849224652
 20
32447.99543371792
 30
0.0
 10
80887.77897610806
 20
32448.01557802066
 30
0.0
 10
80887.81994383119
 20
32448.05586662614
 30
0.0
 10
80887.86442098209
 20
32448.09224394213
 30
0.0
 10
80887.88665955752
 20
32448.11043260012
 30
0.0
 11
80887.75849224652
 21
32447.99543371792
 31
0.0
 11
80887.82082118816
 21
32448.05488880378
 31
0.0
 11
80887.88665955752
 21
32448.11043260012
 31
0.0
  0
SPLINE
  5
AD
330
1F
100
AcDbEntity
  8
0
  6
Continuous
 62
     7
100
AcDbSpline
210
0.0
220
0.0
230
1.0
 70
     8
 71
     3
 72
   115
 73
   111
 74
   109
 42
0.0000000001
 43
0.0000000001
 44
0.00000001
 40
0.0
 40
0.0
 40
0.0
 40
0.0
 40
0.0374258425572106
 40
0.0748516852175388
 40
0.0880591603725929
 40
0.1012666468591259
 40
0.1141243948293868
 40
0.1269821403974439
 40
0.1372531633850866
 40
0.1475241777103429
 40
0.1580176291259019
 40
0.1685110856791561
 40
0.1808148081138548
 40
0.1931185423508052
 40
0.2058785060369253
 40
0.2186384596126778
 40
0.2309510571905996
 40
0.2432636599768036
 40
0.2554257718761523
 40
0.2675878776100255
 40
0.2775513318967253
 40
0.2875147845772795
 40
0.2971901220509786
 40
0.3068654552831791
 40
0.3144569215468948
 40
0.3220483843682378
 40
0.3296540929913775
 40
0.3372598038916172
 40
0.3449715286330003
 40
0.3526832536088348
 40
0.3605150219700325
 40
0.3683467900483813
 40
0.3761160290181108
 40
0.3838852675098899
 40
0.391662801151658
 40
0.3994403353865982
 40
0.4073908932414113
 40
0.4153414512052678
 40
0.4233118947152505
 40
0.4312823384081349
 40
0.4393229675757782
 40
0.447363596416309
 40
0.4554005707369992
 40
0.4634375460641242
 40
0.4715140341954427
 40
0.4795905215326386
 40
0.4876658013458789
 40
0.4957410812110928
 40
0.5038313820209348
 40
0.511921683717875
 40
0.5200111743296387
 40
0.528100661485435
 40
0.5361886546786072
 40
0.5442766512702666
 40
0.5523632534741953
 40
0.5604498547733788
 40
0.568516752950593
 40
0.576583651091449
 40
0.5846477675755812
 40
0.5927118846024431
 40
0.6007560775227841
 40
0.608800269693709
 40
0.616843023510284
 40
0.6248857775764332
 40
0.6329287674289952
 40
0.6409717569642492
 40
0.6490155323189613
 40
0.6570593086987793
 40
0.6651233393705673
 40
0.6731873690370493
 40
0.6812604289238908
 40
0.6893334892177312
 40
0.6974469519024526
 40
0.7055604149141897
 40
0.7136852976961418
 40
0.7218101797026546
 40
0.7298741234922532
 40
0.737938067596009
 40
0.7459963002849191
 40
0.7540545331505195
 40
0.7618891180574003
 40
0.7697237026945194
 40
0.7774510230512007
 40
0.7851783407868477
 40
0.7925446259749994
 40
0.7999109049750439
 40
0.8072539704842386
 40
0.8145970443912746
 40
0.8230019384018633
 40
0.8314068383360498
 40
0.8400105767322109
 40
0.8486143255172459
 40
0.8586613579368765
 40
0.8687084081601761
 40
0.8788766182606508
 40
0.8890448021933522
 40
0.8990712827735329
 40
0.9090977961799162
 40
0.9187555657445288
 40
0.9284132927048128
 40
0.9365081310301152
 40
0.9446029426655634
 40
0.9525391395860706
 40
0.9604753768176924
 40
0.9702155785125831
 40
0.9799557951854514
 40
0.9899574564304173
 40
0.9999590622777486
 40
1.028443558671324
 40
1.056928160273902
 40
1.056928160273902
 40
1.056928160273902
 40
1.056928160273902
 10
80887.88665473362
 20
32396.94436860712
 30
0.0
 10
80887.89657676376
 20
32396.93680642273
 30
0.0
 10
80887.91642082404
 20
32396.92168205392
 30
0.0
 10
80887.93991351439
 20
32396.90408302609
 30
0.0
 10
80887.95702907656
 20
32396.89143752759
 30
0.0
 10
80887.96758581871
 20
32396.88369622801
 30
0.0
 10
80887.97807471786
 20
32396.87605968617
 30
0.0
 10
80887.9877967791
 20
32396.86903300208
 30
0.0
 10
80887.99684083134
 20
32396.86254031551
 30
0.0
 10
80888.00526471982
 20
32396.85653523683
 30
0.0
 10
80888.01377224403
 20
32396.85051987592
 30
0.0
 10
80888.02285793981
 20
32396.84414873664
 30
0.0
 10
80888.0324661255
 20
32396.83747184805
 30
0.0
 10
80888.04272547785
 20
32396.83040830084
 30
0.0
 10
80888.0531398777
 20
32396.82330196621
 30
0.0
 10
80888.0635879912
 20
32396.81624000781
 30
0.0
 10
80888.07394380083
 20
32396.80930800803
 30
0.0
 10
80888.0841636519
 20
32396.80253136018
 30
0.0
 10
80888.09437050301
 20
32396.79582608548
 30
0.0
 10
80888.10394971905
 20
32396.7895917761
 30
0.0
 10
80888.11293753269
 20
32396.78379252497
 30
0.0
 10
80888.12124831401
 20
32396.77847300977
 30
0.0
 10
80888.12949769407
 20
32396.77323584208
 30
0.0
 10
80888.13709814589
 20
32396.76845182985
 30
0.0
 10
80888.14412677143
 20
32396.76406344737
 30
0.0
 10
80888.15058359924
 20
32396.76006194158
 30
0.0
 10
80888.1570583098
 20
32396.75608036478
 30
0.0
 10
80888.16358044156
 20
32396.75209945816
 30
0.0
 10
80888.17014550976
 20
32396.74812114295
 30
0.0
 10
80888.1767874474
 20
32396.74412435547
 30
0.0
 10
80888.18347569795
 20
32396.74012699161
 30
0.0
 10
80888.1901925992
 20
32396.73614026618
 30
0.0
 10
80888.19690373233
 20
32396.73218473094
 30
0.0
 10
80888.20361159823
 20
32396.72825932918
 30
0.0
 10
80888.21033439151
 20
32396.72435403917
 30
0.0
 10
80888.21712215157
 20
32396.72044034244
 30
0.0
 10
80888.22397287627
 20
32396.71652046801
 30
0.0
 10
80888.23089279966
 20
32396.71259214485
 30
0.0
 10
80888.23783203436
 20
32396.70868450731
 30
0.0
 10
80888.24481127718
 20
32396.70478682842
 30
0.0
 10
80888.25182512258
 20
32396.70090323391
 30
0.0
 10
80888.2588729499
 20
32396.69703534457
 30
0.0
 10
80888.26593457854
 20
32396.69319525676
 30
0.0
 10
80888.27302186635
 20
32396.68937746355
 30
0.0
 10
80888.28013623459
 20
32396.68558230597
 30
0.0
 10
80888.28727810533
 20
32396.68181172866
 30
0.0
 10
80888.29443652398
 20
32396.67807352729
 30
0.0
 10
80888.30161658706
 20
32396.6743670148
 30
0.0
 10
80888.30881931967
 20
32396.67069370841
 30
0.0
 10
80888.3160451321
 20
32396.66705546132
 30
0.0
 10
80888.32329014872
 20
32396.66345621125
 30
0.0
 10
80888.33055448037
 20
32396.65989784565
 30
0.0
 10
80888.33783889684
 20
32396.65638192231
 30
0.0
 10
80888.34514243413
 20
32396.65290813539
 30
0.0
 10
80888.35246500996
 20
32396.64947575805
 30
0.0
 10
80888.35980014669
 20
32396.64608704477
 30
0.0
 10
80888.3671477127
 20
32396.64274118728
 30
0.0
 10
80888.37450633393
 20
32396.63943797684
 30
0.0
 10
80888.38188151388
 20
32396.63617419765
 30
0.0
 10
80888.38926670088
 20
32396.63295200832
 30
0.0
 10
80888.39666224738
 20
32396.62977043847
 30
0.0
 10
80888.40406743578
 20
32396.62662956787
 30
0.0
 10
80888.41148813555
 20
32396.62352676596
 30
0.0
 10
80888.41892418319
 20
32396.62046198055
 30
0.0
 10
80888.42637579009
 20
32396.61743501334
 30
0.0
 10
80888.43384295455
 20
32396.61444571534
 30
0.0
 10
80888.44132536271
 20
32396.61149406662
 30
0.0
 10
80888.44882906668
 20
32396.60857756833
 30
0.0
 10
80888.45635362562
 20
32396.60569636901
 30
0.0
 10
80888.46390193587
 20
32396.60285019199
 30
0.0
 10
80888.47146773877
 20
32396.60004218097
 30
0.0
 10
80888.47906368892
 20
32396.59726836046
 30
0.0
 10
80888.48668702705
 20
32396.59453061017
 30
0.0
 10
80888.49434138757
 20
32396.59182848468
 30
0.0
 10
80888.50201407095
 20
32396.58916719245
 30
0.0
 10
80888.50968583344
 20
32396.58655399559
 30
0.0
 10
80888.51735290047
 20
32396.5839904091
 30
0.0
 10
80888.52501316412
 20
32396.58147693707
 30
0.0
 10
80888.53268570254
 20
32396.57900739212
 30
0.0
 10
80888.5402992611
 20
32396.57660455637
 30
0.0
 10
80888.54785505515
 20
32396.57426681328
 30
0.0
 10
80888.55531864785
 20
32396.57200468376
 30
0.0
 10
80888.56276123387
 20
32396.56979697755
 30
0.0
 10
80888.57006759616
 20
32396.56767944415
 30
0.0
 10
80888.57727177089
 20
32396.56564223057
 30
0.0
 10
80888.58436592034
 20
32396.56368722204
 30
0.0
 10
80888.59146611464
 20
32396.56178393985
 30
0.0
 10
80888.598914416
 20
32396.55984287838
 30
0.0
 10
80888.60672015506
 20
32396.55787064457
 30
0.0
 10
80888.61494921253
 20
32396.55585946113
 30
0.0
 10
80888.62325803627
 20
32396.55389651003
 30
0.0
 10
80888.63211519227
 20
32396.55187497925
 30
0.0
 10
80888.64145822181
 20
32396.54982133739
 30
0.0
 10
80888.65132920035
 20
32396.54774223781
 30
0.0
 10
80888.66125798397
 20
32396.54574354751
 30
0.0
 10
80888.67119841663
 20
32396.54383965801
 30
0.0
 10
80888.68111047053
 20
32396.5420412382
 30
0.0
 10
80888.69087160501
 20
32396.54036664915
 30
0.0
 10
80888.7005265575
 20
32396.53880262969
 30
0.0
 10
80888.70955985272
 20
32396.53743029143
 30
0.0
 10
80888.71809014055
 20
32396.53621868645
 30
0.0
 10
80888.72606223283
 20
32396.53516011706
 30
0.0
 10
80888.73399129104
 20
32396.53418177086
 30
0.0
 10
80888.74247312805
 20
32396.53320732649
 30
0.0
 10
80888.75156094348
 20
32396.53224117952
 30
0.0
 10
80888.76134290802
 20
32396.53129624127
 30
0.0
 10
80888.77122066826
 20
32396.53044095519
 30
0.0
 10
80888.78733750554
 20
32396.52922443499
 30
0.0
 10
80888.80963276423
 20
32396.52800155677
 30
0.0
 10
80888.82861911187
 20
32396.52759953146
 30
0.0
 10
80888.83811230322
 20
32396.52739851842
 30
0.0
 11
80887.88665473362
 21
32396.94436860712
 31
0.0
 11
80887.91645209893
 21
32396.92172328284
 31
0.0
 11
80887.94641092757
 21
32396.89929200367
 31
0.0
 11
80887.95703375239
 21
32396.89144388333
 31
0.0
 11
80887.96768432955
 21
32396.88363344765
 31
0.0
 11
80887.97807909094
 21
32396.87606571229
 31
0.0
 11
80887.98850005948
 21
32396.86853410982
 31
0.0
 11
80887.9968441504
 21
32396.86254494795
 31
0.0
 11
80888.00520812499
 21
32396.85658360042
 31
0.0
 11
80888.01377617102
 21
32396.85052545633
 31
0.0
 11
80888.0223677928
 21
32396.84450078492
 31
0.0
 11
80888.03247118549
 21
32396.83747917243
 31
0.0
 11
80888.04260497517
 21
32396.83050148063
 31
0.0
 11
80888.05314515432
 21
32396.82330972864
 31
0.0
 11
80888.06371696328
 21
32396.8161645715
 31
0.0
 11
80888.07394876052
 21
32396.8093154559
 31
0.0
 11
80888.08421033021
 21
32396.80251101803
 31
0.0
 11
80888.0943752626
 21
32396.79583336011
 31
0.0
 11
80888.10456873495
 21
32396.78919936151
 31
0.0
 11
80888.11294081254
 21
32396.78379762677
 31
0.0
 11
80888.12133256235
 21
32396.7784265073
 31
0.0
 11
80888.12950103144
 21
32396.77324111743
 31
0.0
 11
80888.13768950895
 21
32396.76808738973
 31
0.0
 11
80888.14412900178
 21
32396.76406703004
 31
0.0
 11
80888.15058186564
 21
32396.76006817323
 31
0.0
 11
80888.1570605112
 21
32396.75608395997
 31
0.0
 11
80888.16355237286
 21
32396.75212131306
 31
0.0
 11
80888.17014756998
 21
32396.74812455519
 31
0.0
 11
80888.17675513036
 21
32396.7441482695
 31
0.0
 11
80888.18347773585
 21
32396.74013041296
 31
0.0
 11
80888.19021256786
 21
32396.73613308523
 31
0.0
 11
80888.19690578293
 21
32396.73218822195
 31
0.0
 11
80888.20361129932
 21
32396.72826430598
 31
0.0
 11
80888.21033649324
 21
32396.72435767107
 31
0.0
 11
80888.21707429878
 21
32396.72047282676
 31
0.0
 11
80888.22397510539
 21
32396.71652437917
 31
0.0
 11
80888.23088928644
 21
32396.71259939862
 31
0.0
 11
80888.2378343354
 21
32396.70868861039
 31
0.0
 11
80888.24479319011
 21
32396.70480244083
 31
0.0
 11
80888.25182755315
 21
32396.70090764249
 31
0.0
 11
80888.25887649732
 21
32396.69703929682
 31
0.0
 11
80888.26593710048
 21
32396.69319991677
 31
0.0
 11
80888.27301283681
 21
32396.68938849606
 31
0.0
 11
80888.28013894113
 21
32396.68558740441
 31
0.0
 11
80888.28728127912
 21
32396.68181690632
 31
0.0
 11
80888.2944394493
 21
32396.67807916051
 31
0.0
 11
80888.30161516802
 21
32396.6743752159
 31
0.0
 11
80888.30882246283
 21
32396.67069991064
 31
0.0
 11
80888.31604861503
 21
32396.66706181967
 31
0.0
 11
80888.32329348399
 21
32396.66346296817
 31
0.0
 11
80888.33055835034
 21
32396.65990466529
 31
0.0
 11
80888.33784222715
 21
32396.65638887626
 31
0.0
 11
80888.34514609745
 21
32396.65291480552
 31
0.0
 11
80888.35246816759
 21
32396.64948254329
 31
0.0
 11
80888.35980918295
 21
32396.64609099289
 31
0.0
 11
80888.36715069244
 21
32396.64274777819
 31
0.0
 11
80888.37451008176
 21
32396.63944410834
 31
0.0
 11
80888.38188433737
 21
32396.63618062418
 31
0.0
 11
80888.38927553716
 21
32396.63295569797
 31
0.0
 11
80888.396664945
 21
32396.62977675293
 31
0.0
 11
80888.40407053655
 21
32396.62663569554
 31
0.0
 11
80888.41149075504
 21
32396.62353307625
 31
0.0
 11
80888.41892669155
 21
32396.62046831831
 31
0.0
 11
80888.42637833046
 21
32396.61744131265
 31
0.0
 11
80888.43384521113
 21
32396.61445210309
 31
0.0
 11
80888.44132782222
 21
32396.61150034883
 31
0.0
 11
80888.44882519373
 21
32396.60858628657
 31
0.0
 11
80888.45635606427
 21
32396.6057027853
 31
0.0
 11
80888.4639015622
 21
32396.60285778344
 31
0.0
 11
80888.47147018442
 21
32396.60004882393
 31
0.0
 11
80888.47905348043
 21
32396.59727972226
 31
0.0
 11
80888.48668948658
 21
32396.59453751753
 31
0.0
 11
80888.49434024961
 21
32396.59183675706
 31
0.0
 11
80888.50201652302
 21
32396.58917432457
 31
0.0
 11
80888.50970750487
 21
32396.58655468607
 31
0.0
 11
80888.51735527869
 21
32396.58399758907
 31
0.0
 11
80888.52501732224
 21
32396.58148357176
 31
0.0
 11
80888.53268802339
 21
32396.57901467363
 31
0.0
 11
80888.54037264948
 21
32396.57658946462
 31
0.0
 11
80888.54785726113
 21
32396.57427401452
 31
0.0
 11
80888.55535510328
 21
32396.57200177343
 31
0.0
 11
80888.56276350874
 21
32396.56980472806
 31
0.0
 11
80888.5701855455
 21
32396.56765419096
 31
0.0
 11
80888.57727397961
 21
32396.56565013025
 31
0.0
 11
80888.5843756391
 21
32396.56369347524
 31
0.0
 11
80888.5914682911
 21
32396.56179218655
 31
0.0
 11
80888.59857402914
 21
32396.55994037087
 31
0.0
 11
80888.60672278175
 21
32396.55788122685
 31
0.0
 11
80888.61488732077
 21
32396.55588557018
 31
0.0
 11
80888.62326049739
 21
32396.55390712947
 31
0.0
 11
80888.63164848211
 21
32396.55199239569
 31
0.0
 11
80888.64146130593
 21
32396.54983569701
 31
0.0
 11
80888.65129268587
 21
32396.54776514474
 31
0.0
 11
80888.66126106863
 21
32396.54575919314
 31
0.0
 11
80888.6712478598
 21
32396.54384713496
 31
0.0
 11
80888.6811132419
 21
32396.54205700953
 31
0.0
 11
80888.69099535685
 21
32396.54036149338
 31
0.0
 11
80888.70052903052
 21
32396.53881825674
 31
0.0
 11
80888.71007737026
 21
32396.53736880912
 31
0.0
 11
80888.7180918191
 21
32396.53623082089
 31
0.0
 11
80888.72611624376
 21
32396.53516565225
 31
0.0
 11
80888.73399258469
 21
32396.53419278268
 31
0.0
 11
80888.74187684302
 21
32396.53328595748
 31
0.0
 11
80888.75156251139
 21
32396.53225670661
 31
0.0
 11
80888.76125762677
 21
32396.53132045955
 31
0.0
 11
80888.77122214435
 21
32396.53045928764
 31
0.0
 11
80888.78119533526
 21
32396.52970590692
 31
0.0
 11
80888.80963791163
 21
32396.52816111425
 31
0.0
 11
80888.83811230322
 21
32396.52739851842
 31
0.0
  0
SPLINE
  5
AE
330
1F
100
AcDbEntity
  8
0
  6
Continuous
 62
     7
100
AcDbSpline
210
0.0
220
0.0
230
1.0
 70
     8
 71
     3
 72
   115
 73
   111
 74
   109
 42
0.0000000001
 43
0.0000000001
 44
0.00000001
 40
0.0
 40
0.0
 40
0.0
 40
0.0
 40
0.028484445245121
 40
0.0569687852868799
 40
0.066970336247319
 40
0.0769719425876713
 40
0.0867121057872862
 40
0.0964522539823283
 40
0.1043884476118029
 40
0.112324600874187
 40
0.1204193679783406
 40
0.1285141618376209
 40
0.1381718356758296
 40
0.1478295521483667
 40
0.1578560103889386
 40
0.1678824357485778
 40
0.1780505630142102
 40
0.1882187164694473
 40
0.1982657107057869
 40
0.208312687151238
 40
0.2169163872825976
 40
0.225520077005572
 40
0.2339249293505149
 40
0.2423297757555527
 40
0.2496728068332031
 40
0.257015829509121
 40
0.2643820656569092
 40
0.2717483079412563
 40
0.279475580577625
 40
0.2872028557647312
 40
0.2950373946769988
 40
0.3028719338937592
 40
0.310930118881618
 40
0.3189883036885516
 40
0.3270521999629695
 40
0.3351160959341932
 40
0.3432409295384236
 40
0.3513657639540576
 40
0.3594791786580125
 40
0.3675925929811358
 40
0.3756656036085914
 40
0.3837386138309002
 40
0.3918025938557719
 40
0.3998665749058698
 40
0.407910300858409
 40
0.4159540257479505
 40
0.423996964822857
 40
0.4320399041648835
 40
0.4400826053769036
 40
0.4481253063716125
 40
0.4561694456379198
 40
0.464213585640283
 40
0.4722776486318983
 40
0.4803417110595183
 40
0.4884085551091991
 40
0.4964753991339734
 40
0.5045619447447736
 40
0.5126484912817234
 40
0.5207364321468396
 40
0.528824369617953
 40
0.5369138007593707
 40
0.5450032353650283
 40
0.5530934811056031
 40
0.5611837259593762
 40
0.5692589505979525
 40
0.5773341752027551
 40
0.5854106073364241
 40
0.5934870402327928
 40
0.6015239614363592
 40
0.6095608816100758
 40
0.6176014564020909
 40
0.6256420315243791
 40
0.6336124232805116
 40
0.6415828148333904
 40
0.6495333210131843
 40
0.6574838271168034
 40
0.6652613113468431
 40
0.6730387949739444
 40
0.6808079834882707
 40
0.6885771725053108
 40
0.6964088914597426
 40
0.7042406106910993
 40
0.7119522872450239
 40
0.7196639635818888
 40
0.7272696269337574
 40
0.734875288006679
 40
0.742466703317187
 40
0.7500581220293369
 40
0.7597333965196391
 40
0.7694086752313377
 40
0.779372067517116
 40
0.7893354613974596
 40
0.8014974944672406
 40
0.8136595337202083
 40
0.8259720629242828
 40
0.8382845869181004
 40
0.8510444655637139
 40
0.8638043543567596
 40
0.8761080163982702
 40
0.888411666628034
 40
0.8989050620999377
 40
0.9093984524156682
 40
0.9196694068844391
 40
0.9299403700240312
 40
0.9427980413781765
 40
0.9556557151529161
 40
0.9688631254814151
 40
0.9820705244555958
 40
1.019496151070154
 40
1.056921777567031
 40
1.056921777567031
 40
1.056921777567031
 40
1.056921777567031
 10
80888.83811230322
 20
32448.52739851842
 30
0.0
 10
80888.82861916423
 20
32448.52719749586
 30
0.0
 10
80888.8096329213
 20
32448.52679545146
 30
0.0
 10
80888.78733778585
 20
32448.52557256437
 30
0.0
 10
80888.7712210377
 20
32448.52435604343
 30
0.0
 10
80888.76134333195
 20
32448.52350075871
 30
0.0
 10
80888.75156142132
 20
32448.52255582347
 30
0.0
 10
80888.74247365593
 20
32448.52158968079
 30
0.0
 10
80888.73399186556
 20
32448.52061524158
 30
0.0
 10
80888.7260628509
 20
32448.5196369013
 30
0.0
 10
80888.71809080229
 20
32448.518578339
 30
0.0
 10
80888.70956056105
 20
32448.51736674279
 30
0.0
 10
80888.70052731506
 20
32448.51599441519
 30
0.0
 10
80888.6908724149
 20
32448.5144304086
 30
0.0
 10
80888.68111133332
 20
32448.51275583389
 30
0.0
 10
80888.67119933307
 20
32448.51095743014
 30
0.0
 10
80888.66125895423
 20
32448.5090535582
 30
0.0
 10
80888.65133022441
 20
32448.50705488693
 30
0.0
 10
80888.64145929902
 20
32448.5049758075
 30
0.0
 10
80888.63211631986
 20
32448.50292218599
 30
0.0
 10
80888.6232592116
 20
32448.5009006755
 30
0.0
 10
80888.61495043276
 20
32448.49893774436
 30
0.0
 10
80888.60672141968
 20
32448.49692658163
 30
0.0
 10
80888.59891572282
 20
32448.49495436833
 30
0.0
 10
80888.5914674621
 20
32448.49301332727
 30
0.0
 10
80888.5843673067
 20
32448.49111006523
 30
0.0
 10
80888.57727319602
 20
32448.4891550775
 30
0.0
 10
80888.57006906046
 20
32448.48711788561
 30
0.0
 10
80888.56276273783
 20
32448.48500037492
 30
0.0
 10
80888.55532019204
 20
32448.4827926924
 30
0.0
 10
80888.54785663958
 20
32448.48053058712
 30
0.0
 10
80888.54030088637
 20
32448.4781928692
 30
0.0
 10
80888.53268736905
 20
32448.47579005935
 30
0.0
 10
80888.52501487234
 20
32448.47332054115
 30
0.0
 10
80888.51735465004
 20
32448.4708070964
 30
0.0
 10
80888.50968762436
 20
32448.46824353778
 30
0.0
 10
80888.50201590308
 20
32448.46563036928
 30
0.0
 10
80888.4943432609
 20
32448.46296910603
 30
0.0
 10
80888.48668894122
 20
32448.46026700991
 30
0.0
 10
80888.47906564425
 20
32448.45752928958
 30
0.0
 10
80888.47146973528
 20
32448.4547554996
 30
0.0
 10
80888.46390397381
 20
32448.45194751968
 30
0.0
 10
80888.45635570475
 20
32448.44910137421
 30
0.0
 10
80888.44883118695
 20
32448.44622020687
 30
0.0
 10
80888.44132752426
 20
32448.44330374105
 30
0.0
 10
80888.43384515731
 20
32448.4403521252
 30
0.0
 10
80888.42637803387
 20
32448.43736286056
 30
0.0
 10
80888.41892646856
 20
32448.43433592736
 30
0.0
 10
80888.41149046287
 20
32448.43127117663
 30
0.0
 10
80888.40406980565
 20
32448.42816841006
 30
0.0
 10
80888.39666465952
 20
32448.42502757526
 30
0.0
 10
80888.38926915538
 20
32448.4218460417
 30
0.0
 10
80888.38188401086
 20
32448.41862388924
 30
0.0
 10
80888.37450887353
 20
32448.41536014738
 30
0.0
 10
80888.36715029462
 20
32448.41205697475
 30
0.0
 10
80888.35980277119
 20
32448.40871115561
 30
0.0
 10
80888.35246767719
 20
32448.40532248135
 30
0.0
 10
80888.34514514431
 20
32448.4018901436
 30
0.0
 10
80888.33784164969
 20
32448.39841639675
 30
0.0
 10
80888.33055727565
 20
32448.39490051383
 30
0.0
 10
80888.32329298629
 20
32448.39134218908
 30
0.0
 10
80888.31604801168
 20
32448.38774298022
 30
0.0
 10
80888.308822241
 20
32448.38410477473
 30
0.0
 10
80888.30161954966
 20
32448.3804315101
 30
0.0
 10
80888.29443952726
 20
32448.37672503962
 30
0.0
 10
80888.2872811489
 20
32448.37298688041
 30
0.0
 10
80888.2801393182
 20
32448.36921634552
 30
0.0
 10
80888.27302498947
 20
32448.3654212304
 30
0.0
 10
80888.2659377407
 20
32448.36160347971
 30
0.0
 10
80888.25887615053
 20
32448.35776343437
 30
0.0
 10
80888.25182836148
 20
32448.35389558773
 30
0.0
 10
80888.2448145535
 20
32448.35001203574
 30
0.0
 10
80888.23783534733
 20
32448.34611439914
 30
0.0
 10
80888.23089614854
 20
32448.34220680371
 30
0.0
 10
80888.22397626075
 20
32448.3382785227
 30
0.0
 10
80888.2171255711
 20
32448.33435869019
 30
0.0
 10
80888.21033784539
 20
32448.33044503509
 30
0.0
 10
80888.2036150859
 20
32448.32653978649
 30
0.0
 10
80888.19690725362
 20
32448.32261442625
 30
0.0
 10
80888.19019615362
 20
32448.31865893263
 30
0.0
 10
80888.18347928507
 20
32448.3146722488
 30
0.0
 10
80888.17679106677
 20
32448.31067492637
 30
0.0
 10
80888.17014916104
 20
32448.30667818025
 30
0.0
 10
80888.16358412417
 20
32448.30269990616
 30
0.0
 10
80888.15706202347
 20
32448.29871904047
 30
0.0
 10
80888.15058734358
 20
32448.29473750456
 30
0.0
 10
80888.14413054626
 20
32448.29073603979
 30
0.0
 10
80888.13710195333
 20
32448.28634770188
 30
0.0
 10
80888.12950153618
 20
32448.28156373788
 30
0.0
 10
80888.12125219314
 20
32448.27632662249
 30
0.0
 10
80888.11294144897
 20
32448.27100716032
 30
0.0
 10
80888.10395367496
 20
32448.26520796664
 30
0.0
 10
80888.09437450081
 20
32448.25897371868
 30
0.0
 10
80888.08416769389
 20
32448.25226850963
 30
0.0
 10
80888.07394788678
 20
32448.24549192798
 30
0.0
 10
80888.06359212118
 20
32448.23855999553
 30
0.0
 10
80888.05314405156
 20
32448.23149810523
 30
0.0
 10
80888.0427296948
 20
32448.22439183875
 30
0.0
 10
80888.03247038464
 20
32448.21732835913
 30
0.0
 10
80888.02286223817
 20
32448.21065153414
 30
0.0
 10
80888.01377657914
 20
32448.2042804553
 30
0.0
 10
80888.00526908904
 20
32448.19826515125
 30
0.0
 10
80887.99684523419
 20
32448.19226012924
 30
0.0
 10
80887.98780121765
 20
32448.18576750377
 30
0.0
 10
80887.9780791945
 20
32448.17874088549
 30
0.0
 10
80887.967590336
 20
32448.17110441499
 30
0.0
 10
80887.95703363452
 20
32448.16336318763
 30
0.0
 10
80887.9399181381
 20
32448.15071780685
 30
0.0
 10
80887.91642553684
 20
32448.13311894265
 30
0.0
 10
80887.89658155062
 20
32448.1179947143
 30
0.0
 10
80887.88665955752
 20
32448.11043260012
 30
0.0
 11
80888.83811230322
 21
32448.52739851842
 31
0.0
 11
80888.80963806873
 21
32448.52663589687
 31
0.0
 11
80888.78119564959
 21
32448.52509109248
 31
0.0
 11
80888.77122251375
 21
32448.52433771128
 31
0.0
 11
80888.76125805116
 21
32448.52347654073
 31
0.0
 11
80888.75156298922
 21
32448.52254029665
 31
0.0
 11
80888.74187737417
 21
32448.52151105033
 31
0.0
 11
80888.73399315917
 21
32448.52060422994
 31
0.0
 11
80888.72611686151
 21
32448.51963136626
 31
0.0
 11
80888.71809248082
 21
32448.51856620475
 31
0.0
 11
80888.71007807572
 21
32448.51742822475
 31
0.0
 11
80888.70052978801
 21
32448.51597878837
 31
0.0
 11
80888.69099616607
 21
32448.51443556441
 31
0.0
 11
80888.68111410459
 21
32448.51274006279
 31
0.0
 11
80888.67124877573
 21
32448.51094995329
 31
0.0
 11
80888.66126203886
 21
32448.50903791282
 31
0.0
 11
80888.65129371005
 21
32448.50703198028
 31
0.0
 11
80888.6414623831
 21
32448.5049614481
 31
0.0
 11
80888.63164961191
 21
32448.5028047707
 31
0.0
 11
80888.62326167269
 21
32448.5008900562
 31
0.0
 11
80888.61488854133
 21
32448.49891163562
 31
0.0
 11
80888.60672404629
 21
32448.49691599946
 31
0.0
 11
80888.59857533738
 21
32448.49485687676
 31
0.0
 11
80888.5914696385
 21
32448.49300508066
 31
0.0
 11
80888.58437702544
 21
32448.49110381213
 31
0.0
 11
80888.57727540468
 21
32448.4891471779
 31
0.0
 11
80888.57018700911
 21
32448.48714313855
 31
0.0
 11
80888.56276501264
 21
32448.48499262449
 31
0.0
 11
80888.5553566473
 21
32448.4827956027
 31
0.0
 11
80888.54785884554
 21
32448.48052338597
 31
0.0
 11
80888.54037427405
 21
32448.47820796069
 31
0.0
 11
80888.53268968988
 21
32448.47578277792
 31
0.0
 11
80888.52501903042
 21
32448.47331390654
 31
0.0
 11
80888.51735702825
 21
32448.47079991652
 31
0.0
 11
80888.50970929557
 21
32448.46824284728
 31
0.0
 11
80888.50201835515
 21
32448.46562323727
 31
0.0
 11
80888.4943421229
 21
32448.46296083373
 31
0.0
 11
80888.48669140073
 21
32448.46026010263
 31
0.0
 11
80888.47905543525
 21
32448.45751792772
 31
0.0
 11
80888.47147218091
 21
32448.45474885672
 31
0.0
 11
80888.46390360012
 21
32448.45193992831
 31
0.0
 11
80888.45635814336
 21
32448.44909495798
 31
0.0
 11
80888.44882731374
 21
32448.44621148862
 31
0.0
 11
80888.44132998369
 21
32448.44329745888
 31
0.0
 11
80888.43384741386
 21
32448.44034573753
 31
0.0
 11
80888.42638057421
 21
32448.4373565613
 31
0.0
 11
80888.41892897611
 21
32448.43432958937
 31
0.0
 11
80888.41149308236
 21
32448.43126486641
 31
0.0
 11
80888.40407290634
 21
32448.42816228245
 31
0.0
 11
80888.39666735708
 21
32448.42502126085
 31
0.0
 11
80888.3892779913
 21
32448.42184235196
 31
0.0
 11
80888.38188683432
 21
32448.41861746275
 31
0.0
 11
80888.37451262129
 21
32448.41535401595
 31
0.0
 11
80888.3671532743
 21
32448.41205038388
 31
0.0
 11
80888.35981180693
 21
32448.40870720734
 31
0.0
 11
80888.3524708348
 21
32448.40531569617
 31
0.0
 11
80888.34514880757
 21
32448.40188347355
 31
0.0
 11
80888.33784497993
 21
32448.39840944284
 31
0.0
 11
80888.3305611455
 21
32448.39489369421
 31
0.0
 11
80888.3232963215
 21
32448.39133543221
 31
0.0
 11
80888.31605149459
 21
32448.38773662195
 31
0.0
 11
80888.30882538411
 21
32448.38409857254
 31
0.0
 11
80888.30161813075
 21
32448.38042330919
 31
0.0
 11
80888.29444245256
 21
32448.37671940644
 31
0.0
 11
80888.28728432265
 21
32448.37298170279
 31
0.0
 11
80888.2801420247
 21
32448.36921124712
 31
0.0
 11
80888.27301596022
 21
32448.36541019813
 31
0.0
 11
80888.26594026259
 21
32448.36159881972
 31
0.0
 11
80888.25887969794
 21
32448.35775948218
 31
0.0
 11
80888.251830792
 21
32448.35389117919
 31
0.0
 11
80888.24479646698
 21
32448.34999642375
 31
0.0
 11
80888.23783764835
 21
32448.34611029612
 31
0.0
 11
80888.2308926353
 21
32448.34219955
 31
0.0
 11
80888.22397848987
 21
32448.33827461159
 31
0.0
 11
80888.21707771868
 21
32448.3343262063
 31
0.0
 11
80888.2103399471
 21
32448.33044140322
 31
0.0
 11
80888.20361478697
 21
32448.32653480972
 31
0.0
 11
80888.19690930417
 21
32448.32261093528
 31
0.0
 11
80888.19021612252
 21
32448.31866611369
 31
0.0
 11
80888.183481323
 21
32448.31466882746
 31
0.0
 11
80888.17675874986
 21
32448.31065101256
 31
0.0
 11
80888.17015122122
 21
32448.30667476804
 31
0.0
 11
80888.16355605566
 21
32448.30267805149
 31
0.0
 11
80888.15706422484
 21
32448.29871544532
 31
0.0
 11
80888.15058560995
 21
32448.29473127295
 31
0.0
 11
80888.14413277658
 21
32448.29073245714
 31
0.0
 11
80888.13769331411
 21
32448.28671213859
 31
0.0
 11
80888.1295048735
 21
32448.28155846254
 31
0.0
 11
80888.12133644112
 21
32448.2763731245
 31
0.0
 11
80888.11294472877
 21
32448.27100205854
 31
0.0
 11
80888.10457268842
 21
32448.2656003775
 31
0.0
 11
80888.09437926035
 21
32448.25896644409
 31
0.0
 11
80888.08421437192
 21
32448.25228885156
 31
0.0
 11
80888.07395284643
 21
32448.24548448016
 31
0.0
 11
80888.06372109306
 21
32448.23863543132
 31
0.0
 11
80888.05314932812
 21
32448.23149034287
 31
0.0
 11
80888.04260919258
 21
32448.22429865984
 31
0.0
 11
80888.03247544459
 21
32448.21732103478
 31
0.0
 11
80888.02237209327
 21
32448.21029948929
 31
0.0
 11
80888.0137805061
 21
32448.20427487492
 31
0.0
 11
80888.0052124944
 21
32448.19821678809
 31
0.0
 11
80887.99684855322
 21
32448.19225549683
 31
0.0
 11
80887.98850449543
 21
32448.18626639144
 31
0.0
 11
80887.97808356753
 21
32448.17873485942
 31
0.0
 11
80887.96768884645
 21
32448.17116719476
 31
0.0
 11
80887.95703831033
 21
32448.1633568319
 31
0.0
 11
80887.94641552624
 21
32448.15550878464
 31
0.0
 11
80887.9164568113
 21
32448.13307771407
 31
0.0
 11
80887.88665955752
 21
32448.11043260012
 31
0.0
  0
DIMENSION
  5
BB
330
1F
100
AcDbEntity
  8
1
100
AcDbDimension
  2
*D1
 10
80997.92606421582
 20
32395.52739851842
 30
0.0
 11
80994.17606421582
 21
32369.95224673822
 31
0.0
 70
    32
  1
<>
 71
     5
 42
-1.0
 53
90.0
  3
ME10_DIM_10
100
AcDbAlignedDimension
 13
80889.59349224652
 23
32343.52739851842
 33
0.0
 14
80890.59349224652
 24
32395.52739851842
 34
0.0
 50
90.0
100
AcDbRotatedDimension
  0
DIMENSION
  5
C7
330
1F
100
AcDbEntity
  8
1
100
AcDbDimension
  2
*D2
 10
80997.92606421582
 20
32448.52739851842
 30
0.0
 11
80994.17606421582
 21
32421.21477041362
 31
0.0
 70
    32
  1
<>
 71
     5
 42
-1.0
 53
90.0
  3
ME10_DIM_11
100
AcDbAlignedDimension
 13
80962.59349224652
 23
32396.52739851842
 33
0.0
 14
80962.59349224652
 24
32448.52739851843
 34
0.0
 50
90.0
100
AcDbRotatedDimension
  0
DIMENSION
  5
D6
330
1F
100
AcDbEntity
  8
1
100
AcDbDimension
  2
*D3
 10
80987.46513919502
 20
32395.52739851842
 30
0.0
 11
80983.71513919502
 21
32401.95195173612
 31
0.0
 70
    32
  1
<>
 71
     5
 42
-1.0
 53
90.0
  3
ME10_DIM_12
100
AcDbAlignedDimension
 13
80865.84349224652
 23
32396.52739851842
 33
0.0
 14
80890.59349224652
 24
32395.52739851842
 34
0.0
 50
90.0
100
AcDbRotatedDimension
  0
DIMENSION
  5
E2
330
1F
100
AcDbEntity
  8
1
100
AcDbDimension
  2
*D4
 10
80844.45873594572
 20
32422.52739851842
 30
0.0
 11
80840.70873594572
 21
32388.40499344752
 31
0.0
 70
    32
  1
<>
 71
     5
 42
-1.0
 53
90.0
  3
ME10_DIM_13
100
AcDbAlignedDimension
 13
80873.34349224652
 23
32359.02739851842
 33
0.0
 14
80873.34349224652
 24
32422.52739851842
 34
0.0
 50
90.0
100
AcDbRotatedDimension
  0
DIMENSION
  5
ED
330
1F
100
AcDbEntity
  8
1
100
AcDbDimension
  2
*D5
 10
80854.83197659232
 20
32442.02739851842
 30
0.0
 11
80851.08197659232
 21
32422.61331962182
 31
0.0
 70
    32
  1
<>
 71
     5
 42
-1.0
 53
90.0
  3
ME10_DIM_14
100
AcDbAlignedDimension
 13
80870.31849224652
 23
32403.02739851842
 33
0.0
 14
80870.31849224652
 24
32442.02739851842
 34
0.0
 50
90.0
100
AcDbRotatedDimension
  0
DIMENSION
  5
F8
330
1F
100
AcDbEntity
  8
1
100
AcDbDimension
  2
*D6
 10
80920.2289049739
 20
32433.52739851842
 30
0.0
 11
80916.4789049739
 21
32423.3990054547
 31
0.0
 70
    32
  1
<>
 71
     5
 42
-1.0
 53
90.0
  3
ME10_DIM_15
100
AcDbAlignedDimension
 13
80916.04432501142
 23
32411.52739851842
 33
0.0
 14
80916.04432501142
 24
32433.52739851842
 34
0.0
 50
90.0
100
AcDbRotatedDimension
  0
DIMENSION
  5
103
330
1F
100
AcDbEntity
  8
1
100
AcDbDimension
  2
*D7
 10
80929.7432179161
 20
32434.02739851842
 30
0.0
 11
80925.9932179161
 21
32422.221124392
 31
0.0
 70
    32
  1
<>
 71
     5
 42
-1.0
 53
90.0
  3
ME10_DIM_16
100
AcDbAlignedDimension
 13
80954.36849224652
 23
32411.02739851842
 33
0.0
 14
80954.36849224652
 24
32434.02739851842
 34
0.0
 50
90.0
100
AcDbRotatedDimension
  0
DIMENSION
  5
10E
330
1F
100
AcDbEntity
  8
1
100
AcDbDimension
  2
*D8
 10
80969.6999096052
 20
32440.02739851842
 30
0.0
 11
80965.9499096052
 21
32422.221124392
 31
0.0
 70
    32
  1
<>
 71
     5
 42
-1.0
 53
90.0
  3
ME10_DIM_17
100
AcDbAlignedDimension
 13
80963.86849224652
 23
32405.02739851842
 33
0.0
 14
80963.86849224652
 24
32440.02739851842
 34
0.0
 50
90.0
100
AcDbRotatedDimension
  0
DIMENSION
  5
119
330
1F
100
AcDbEntity
  8
1
100
AcDbDimension
  2
*D9
 10
80877.59349224652
 20
32462.5760230568
 30
0.0
 11
80886.1808568643
 21
32466.3260230568
 31
0.0
 70
    32
  1
<>
 71
     5
 42
-1.0
 53
0.00013888888889
  3
ME10_DIM_18
100
AcDbAlignedDimension
 13
80895.59349224652
 23
32446.02739851842
 33
0.0
 14
80877.59349224652
 24
32454.76961654442
 34
0.0
100
AcDbRotatedDimension
  0
DIMENSION
  5
124
330
1F
100
AcDbEntity
  8
1
100
AcDbDimension
  2
*D10
 10
80865.59349224652
 20
32329.6720712291
 30
0.0
 11
80877.9533841902
 21
32333.4220712291
 31
0.0
 70
    32
  1
<>
 71
     5
 42
-1.0
 53
0.00013888888889
  3
ME10_DIM_19
100
AcDbAlignedDimension
 13
80889.59349224652
 23
32343.52739851842
 33
0.0
 14
80865.59349224652
 24
32343.52739851842
 34
0.0
100
AcDbRotatedDimension
  0
DIMENSION
  5
130
330
1F
100
AcDbEntity
  8
1
100
AcDbDimension
  2
*D11
 10
80889.59349224652
 20
32329.6720712291
 30
0.0
 11
80932.86498738732
 21
32333.4220712291
 31
0.0
 70
    32
  1
<>
 71
     5
 42
-1.0
 53
0.00013888888889
  3
ME10_DIM_20
100
AcDbAlignedDimension
 13
80977.59349224654
 23
32411.52739851842
 33
0.0
 14
80889.59349224652
 24
32343.52739851842
 34
0.0
100
AcDbRotatedDimension
  0
ENDSEC
  0
SECTION
  2
OBJECTS
  0
DICTIONARY
  5
C
330
0
100
AcDbDictionary
281
     1
  3
ACAD_GROUP
350
D
  3
ACAD_LAYOUT
350
1A
  3
ACAD_MLINESTYLE
350
17
  3
ACAD_PLOTSETTINGS
350
19
  3
ACAD_PLOTSTYLENAME
350
E
  0
DICTIONARY
  5
D
102
{ACAD_REACTORS
330
C
102
}
330
C
100
AcDbDictionary
281
     1
  0
DICTIONARY
  5
1A
102
{ACAD_REACTORS
330
C
102
}
330
C
100
AcDbDictionary
281
     1
  3
Layout1
350
1E
  3
Layout2
350
26
  3
Model
350
22
  0
DICTIONARY
  5
17
102
{ACAD_REACTORS
330
C
102
}
330
C
100
AcDbDictionary
281
     1
  3
Standard
350
18
  0
DICTIONARY
  5
19
102
{ACAD_REACTORS
330
C
102
}
330
C
100
AcDbDictionary
281
     1
  0
ACDBDICTIONARYWDFLT
  5
E
102
{ACAD_REACTORS
330
C
102
}
330
C
100
AcDbDictionary
281
     1
  3
Normal
350
F
100
AcDbDictionaryWithDefault
340
F
  0
LAYOUT
  5
1E
102
{ACAD_REACTORS
330
1A
102
}
330
1A
100
AcDbPlotSettings
  1

  2

  4

  6

 40
0.0
 41
0.0
 42
0.0
 43
0.0
 44
0.0
 45
0.0
 46
0.0
 47
0.0
 48
0.0
 49
0.0
140
0.0
141
0.0
142
1.0
143
1.0
 70
   688
 72
     0
 73
     0
 74
     5
  7

 75
    16
 76
     0
 77
     2
 78
   300
147
1.0
148
0.0
149
0.0
100
AcDbLayout
  1
Layout1
 70
     1
 71
     1
 10
0.0
 20
0.0
 11
0.0
 21
0.0
 12
0.0
 22
0.0
 32
0.0
 14
0.0
 24
0.0
 34
0.0
 15
0.0
 25
0.0
 35
0.0
146
0.0
 13
0.0
 23
0.0
 33
0.0
 16
1.0
 26
0.0
 36
0.0
 17
0.0
 27
1.0
 37
0.0
 76
     0
330
1B
  0
LAYOUT
  5
26
102
{ACAD_REACTORS
330
1A
102
}
330
1A
100
AcDbPlotSettings
  1

  2

  4

  6

 40
0.0
 41
0.0
 42
0.0
 43
0.0
 44
0.0
 45
0.0
 46
0.0
 47
0.0
 48
0.0
 49
0.0
140
0.0
141
0.0
142
1.0
143
1.0
 70
   688
 72
     0
 73
     0
 74
     5
  7

 75
    16
 76
     0
 77
     2
 78
   300
147
1.0
148
0.0
149
0.0
100
AcDbLayout
  1
Layout2
 70
     1
 71
     2
 10
0.0
 20
0.0
 11
0.0
 21
0.0
 12
0.0
 22
0.0
 32
0.0
 14
0.0
 24
0.0
 34
0.0
 15
0.0
 25
0.0
 35
0.0
146
0.0
 13
0.0
 23
0.0
 33
0.0
 16
1.0
 26
0.0
 36
0.0
 17
0.0
 27
1.0
 37
0.0
 76
     0
330
23
  0
LAYOUT
  5
22
102
{ACAD_REACTORS
330
1A
102
}
330
1A
100
AcDbPlotSettings
  1

  2

  4

  6

 40
0.0
 41
0.0
 42
0.0
 43
0.0
 44
0.0
 45
0.0
 46
0.0
 47
0.0
 48
0.0
 49
0.0
140
0.0
141
0.0
142
1.0
143
1.0
 70
  1712
 72
     0
 73
     0
 74
     0
  7

 75
     0
 76
     0
 77
     2
 78
   300
147
1.0
148
0.0
149
0.0
100
AcDbLayout
  1
Model
 70
     1
 71
     0
 10
0.0
 20
0.0
 11
0.0
 21
0.0
 12
0.0
 22
0.0
 32
0.0
 14
80838.95873594572
 24
32327.6720712291
 34
0.0
 15
80999.92606421582
 25
32468.0760230568
 35
0.0
146
0.0
 13
0.0
 23
0.0
 33
0.0
 16
1.0
 26
0.0
 36
0.0
 17
0.0
 27
1.0
 37
0.0
 76
     0
330
1F
  0
MLINESTYLE
  5
18
102
{ACAD_REACTORS
330
17
102
}
330
17
100
AcDbMlineStyle
  2
Standard
 70
     0
  3

 62
   256
 51
90.0
 52
90.0
 71
     2
 49
0.5
 62
   256
  6
BYLAYER
 49
-0.5
 62
   256
  6
BYLAYER
  0
ACDBPLACEHOLDER
  5
F
102
{ACAD_REACTORS
330
E
102
}
330
E
  0
ENDSEC
  0
EOF
