  0
SECTION
  2
HEADER
  9
$ACADVER
  1
AC1018
  9
$ACADMAINTVER
 70
     0
  9
$DWGCODEPAGE
  3
ANSI_1252
  9
$INSBASE
 10
0.0
 20
0.0
 30
0.0
  9
$EXTMIN
 10
-51.01238659436625
 20
-93.92215282101023
 30
0.0
  9
$EXTMAX
 10
70.40737059596782
 20
84.7662035597215
 30
0.0
  9
$LIMMIN
 10
0.0
 20
0.0
  9
$LIMMAX
 10
12.0
 20
9.0
  9
$ORTHOMODE
 70
     0
  9
$REGENMODE
 70
     1
  9
$FILLMODE
 70
     1
  9
$QTEXTMODE
 70
     0
  9
$MIRRTEXT
 70
     1
  9
$LTSCALE
 40
1.0
  9
$ATTMODE
 70
     1
  9
$TEXTSIZE
 40
0.2
  9
$TRACEWID
 40
0.05
  9
$TEXTSTYLE
  7
Standard
  9
$CLAYER
  8
0
  9
$CELTYPE
  6
ByLayer
  9
$CECOLOR
 62
   256
  9
$CELTSCALE
 40
1.0
  9
$DISPSILH
 70
     0
  9
$DIMSCALE
 40
1.0
  9
$DIMASZ
 40
0.18
  9
$DIMEXO
 40
0.0625
  9
$DIMDLI
 40
0.38
  9
$DIMRND
 40
0.0
  9
$DIMDLE
 40
0.0
  9
$DIMEXE
 40
0.18
  9
$DIMTP
 40
0.0
  9
$DIMTM
 40
0.0
  9
$DIMTXT
 40
0.18
  9
$DIMCEN
 40
0.09
  9
$DIMTSZ
 40
0.0
  9
$DIMTOL
 70
     0
  9
$DIMLIM
 70
     0
  9
$DIMTIH
 70
     1
  9
$DIMTOH
 70
     1
  9
$DIMSE1
 70
     0
  9
$DIMSE2
 70
     0
  9
$DIMTAD
 70
     0
  9
$DIMZIN
 70
     0
  9
$DIMBLK
  1

  9
$DIMASO
 70
     1
  9
$DIMSHO
 70
     1
  9
$DIMPOST
  1

  9
$DIMAPOST
  1

  9
$DIMALT
 70
     0
  9
$DIMALTD
 70
     2
  9
$DIMALTF
 40
25.4
  9
$DIMLFAC
 40
1.0
  9
$DIMTOFL
 70
     0
  9
$DIMTVP
 40
0.0
  9
$DIMTIX
 70
     0
  9
$DIMSOXD
 70
     0
  9
$DIMSAH
 70
     0
  9
$DIMBLK1
  1

  9
$DIMBLK2
  1

  9
$DIMSTYLE
  2
Standard
  9
$DIMCLRD
 70
     0
  9
$DIMCLRE
 70
     0
  9
$DIMCLRT
 70
     0
  9
$DIMTFAC
 40
1.0
  9
$DIMGAP
 40
0.09
  9
$DIMJUST
 70
     0
  9
$DIMSD1
 70
     0
  9
$DIMSD2
 70
     0
  9
$DIMTOLJ
 70
     1
  9
$DIMTZIN
 70
     0
  9
$DIMALTZ
 70
     0
  9
$DIMALTTZ
 70
     0
  9
$DIMUPT
 70
     0
  9
$DIMDEC
 70
     4
  9
$DIMTDEC
 70
     4
  9
$DIMALTU
 70
     2
  9
$DIMALTTD
 70
     2
  9
$DIMTXSTY
  7
Standard
  9
$DIMAUNIT
 70
     0
  9
$DIMADEC
 70
     0
  9
$DIMALTRND
 40
0.0
  9
$DIMAZIN
 70
     0
  9
$DIMDSEP
 70
    46
  9
$DIMATFIT
 70
     3
  9
$DIMFRAC
 70
     0
  9
$DIMLDRBLK
  1

  9
$DIMLUNIT
 70
     2
  9
$DIMLWD
 70
    -2
  9
$DIMLWE
 70
    -2
  9
$DIMTMOVE
 70
     0
  9
$LUNITS
 70
     2
  9
$LUPREC
 70
     4
  9
$SKETCHINC
 40
0.1
  9
$FILLETRAD
 40
0.5
  9
$AUNITS
 70
     0
  9
$AUPREC
 70
     0
  9
$MENU
  1
.
  9
$ELEVATION
 40
0.0
  9
$PELEVATION
 40
0.0
  9
$THICKNESS
 40
0.0
  9
$LIMCHECK
 70
     0
  9
$CHAMFERA
 40
0.5
  9
$CHAMFERB
 40
0.5
  9
$CHAMFERC
 40
1.0
  9
$CHAMFERD
 40
0.0
  9
$SKPOLY
 70
     0
  9
$TDCREATE
 40
2454497.488564444
  9
$TDUCREATE
 40
2454497.446897778
  9
$TDUPDATE
 40
2454497.488564456
  9
$TDUUPDATE
 40
2454497.446897789
  9
$TDINDWG
 40
0.0000000116
  9
$TDUSRTIMER
 40
0.0000000116
  9
$USRTIMER
 70
     1
  9
$ANGBASE
 50
0.0
  9
$ANGDIR
 70
     0
  9
$PDMODE
 70
     0
  9
$PDSIZE
 40
0.0
  9
$PLINEWID
 40
0.0
  9
$SPLFRAME
 70
     0
  9
$SPLINETYPE
 70
     6
  9
$SPLINESEGS
 70
     8
  9
$HANDSEED
  5
C7
  9
$SURFTAB1
 70
     6
  9
$SURFTAB2
 70
     6
  9
$SURFTYPE
 70
     6
  9
$SURFU
 70
     6
  9
$SURFV
 70
     6
  9
$UCSBASE
  2

  9
$UCSNAME
  2

  9
$UCSORG
 10
0.0
 20
0.0
 30
0.0
  9
$UCSXDIR
 10
1.0
 20
0.0
 30
0.0
  9
$UCSYDIR
 10
0.0
 20
1.0
 30
0.0
  9
$UCSORTHOREF
  2

  9
$UCSORTHOVIEW
 70
     0
  9
$UCSORGTOP
 10
0.0
 20
0.0
 30
0.0
  9
$UCSORGBOTTOM
 10
0.0
 20
0.0
 30
0.0
  9
$UCSORGLEFT
 10
0.0
 20
0.0
 30
0.0
  9
$UCSORGRIGHT
 10
0.0
 20
0.0
 30
0.0
  9
$UCSORGFRONT
 10
0.0
 20
0.0
 30
0.0
  9
$UCSORGBACK
 10
0.0
 20
0.0
 30
0.0
  9
$PUCSBASE
  2

  9
$PUCSNAME
  2

  9
$PUCSORG
 10
0.0
 20
0.0
 30
0.0
  9
$PUCSXDIR
 10
1.0
 20
0.0
 30
0.0
  9
$PUCSYDIR
 10
0.0
 20
1.0
 30
0.0
  9
$PUCSORTHOREF
  2

  9
$PUCSORTHOVIEW
 70
     0
  9
$PUCSORGTOP
 10
0.0
 20
0.0
 30
0.0
  9
$PUCSORGBOTTOM
 10
0.0
 20
0.0
 30
0.0
  9
$PUCSORGLEFT
 10
0.0
 20
0.0
 30
0.0
  9
$PUCSORGRIGHT
 10
0.0
 20
0.0
 30
0.0
  9
$PUCSORGFRONT
 10
0.0
 20
0.0
 30
0.0
  9
$PUCSORGBACK
 10
0.0
 20
0.0
 30
0.0
  9
$USERI1
 70
     0
  9
$USERI2
 70
     0
  9
$USERI3
 70
     0
  9
$USERI4
 70
     0
  9
$USERI5
 70
     0
  9
$USERR1
 40
14.5
  9
$USERR2
 40
0.0
  9
$USERR3
 40
0.0
  9
$USERR4
 40
0.0
  9
$USERR5
 40
0.0
  9
$WORLDVIEW
 70
     1
  9
$SHADEDGE
 70
     3
  9
$SHADEDIF
 70
    70
  9
$TILEMODE
 70
     1
  9
$MAXACTVP
 70
    64
  9
$PINSBASE
 10
0.0
 20
0.0
 30
0.0
  9
$PLIMCHECK
 70
     0
  9
$PEXTMIN
 10
1.00000000000000E+20
 20
1.00000000000000E+20
 30
1.00000000000000E+20
  9
$PEXTMAX
 10
-1.00000000000000E+20
 20
-1.00000000000000E+20
 30
-1.00000000000000E+20
  9
$PLIMMIN
 10
0.0
 20
0.0
  9
$PLIMMAX
 10
12.0
 20
9.0
  9
$UNITMODE
 70
     0
  9
$VISRETAIN
 70
     1
  9
$PLINEGEN
 70
     0
  9
$PSLTSCALE
 70
     1
  9
$TREEDEPTH
 70
  3020
  9
$CMLSTYLE
  2
Standard
  9
$CMLJUST
 70
     0
  9
$CMLSCALE
 40
1.0
  9
$PROXYGRAPHICS
 70
     1
  9
$MEASUREMENT
 70
     1
  9
$CELWEIGHT
370
    -1
  9
$ENDCAPS
280
     0
  9
$JOINSTYLE
280
     0
  9
$LWDISPLAY
290
     0
  9
$INSUNITS
 70
     1
  9
$HYPERLINKBASE
  1

  9
$STYLESHEET
  1

  9
$XEDIT
290
     1
  9
$CEPSNTYPE
380
     0
  9
$PSTYLEMODE
290
     1
  9
$FINGERPRINTGUID
  2
{EAE9A5A7-84FB-4205-ADCB-360A38F07115}
  9
$VERSIONGUID
  2
{FAEB1C32-E019-11D5-929B-00C0DF256EC4}
  9
$EXTNAMES
290
     1
  9
$PSVPSCALE
 40
0.0
  9
$OLESTARTUP
290
     0
  9
$SORTENTS
280
   127
  9
$INDEXCTL
280
     0
  9
$HIDETEXT
280
     1
  9
$XCLIPFRAME
290
     0
  9
$HALOGAP
280
     0
  9
$OBSCOLOR
 70
   257
  9
$OBSLTYPE
280
     0
  9
$INTERSECTIONDISPLAY
280
     0
  9
$INTERSECTIONCOLOR
 70
   257
  9
$DIMASSOC
280
     2
  9
$PROJECTNAME
  1

  0
ENDSEC
  0
SECTION
  2
CLASSES
  0
CLASS
  1
ACDBDICTIONARYWDFLT
  2
AcDbDictionaryWithDefault
  3
ObjectDBX Classes
 90
        0
 91
        3
280
     0
281
     0
  0
CLASS
  1

  2
exOdDbCircle
  3

 90
        0
 91
        3
280
     0
281
     1
  0
ENDSEC
  0
SECTION
  2
TABLES
  0
TABLE
  2
VPORT
  5
8
330
0
100
AcDbSymbolTable
 70
     1
  0
VPORT
  5
29
330
8
100
AcDbSymbolTableRecord
100
AcDbViewportTableRecord
  2
*Active
 70
     0
 10
0.0
 20
0.0
 11
1.0
 21
1.0
 12
9.69749200080079
 22
-4.57797463064436
 13
0.0
 23
0.0
 14
0.5
 24
0.5
 15
0.5
 25
0.5
 16
0.0
 26
0.0
 36
1.0
 17
0.0
 27
0.0
 37
0.0
 40
196.5571920188049
 41
1.60267857142857
 42
50.0
 43
0.0
 44
0.0
 50
0.0
 51
0.0
 71
     0
 72
   100
 73
     1
 74
     3
 75
     0
 76
     0
 77
     0
 78
     0
281
     0
 65
     1
110
0.0
120
0.0
130
0.0
111
1.0
121
0.0
131
0.0
112
0.0
122
1.0
132
0.0
 79
     0
146
0.0
  0
ENDTAB
  0
TABLE
  2
LTYPE
  5
5
330
0
100
AcDbSymbolTable
 70
     8
  0
LTYPE
  5
14
330
5
100
AcDbSymbolTableRecord
100
AcDbLinetypeTableRecord
  2
ByBlock
 70
     0
  3

 72
    65
 73
     0
 40
0.0
  0
LTYPE
  5
15
330
5
100
AcDbSymbolTableRecord
100
AcDbLinetypeTableRecord
  2
ByLayer
 70
     0
  3

 72
    65
 73
     0
 40
0.0
  0
LTYPE
  5
16
330
5
100
AcDbSymbolTableRecord
100
AcDbLinetypeTableRecord
  2
Continuous
 70
     0
  3
Solid line
 72
    65
 73
     0
 40
0.0
  0
LTYPE
  5
2A
330
5
100
AcDbSymbolTableRecord
100
AcDbLinetypeTableRecord
  2
DASHED
 70
     0
  3
Dashed
 72
    65
 73
     2
 40
15.0
 49
7.0
 74
     0
 49
-8.0
 74
     0
  0
LTYPE
  5
2B
330
5
100
AcDbSymbolTableRecord
100
AcDbLinetypeTableRecord
  2
DOTTED
 70
     0
  3
Dotted
 72
    65
 73
     2
 40
1.0
 49
0.0
 74
     0
 49
-1.0
 74
     0
  0
LTYPE
  5
2C
330
5
100
AcDbSymbolTableRecord
100
AcDbLinetypeTableRecord
  2
DOT_CENTER
 70
     0
  3
Dot_Center
 72
    65
 73
     4
 40
14.0
 49
12.0
 74
     0
 49
-1.0
 74
     0
 49
0.0
 74
     0
 49
-1.0
 74
     0
  0
LTYPE
  5
2D
330
5
100
AcDbSymbolTableRecord
100
AcDbLinetypeTableRecord
  2
LONG_DASHED
 70
     0
  3
Long_Dashed
 72
    65
 73
     2
 40
15.0
 49
10.0
 74
     0
 49
-5.0
 74
     0
  0
LTYPE
  5
2E
330
5
100
AcDbSymbolTableRecord
100
AcDbLinetypeTableRecord
  2
DASH_CENTER
 70
     0
  3
Dash_Center
 72
    65
 73
     4
 40
14.0
 49
11.0
 74
     0
 49
-1.0
 74
     0
 49
1.0
 74
     0
 49
-1.0
 74
     0
  0
LTYPE
  5
2F
330
5
100
AcDbSymbolTableRecord
100
AcDbLinetypeTableRecord
  2
PHANTOM
 70
     0
  3
Phantom
 72
    65
 73
     6
 40
13.0
 49
10.0
 74
     0
 49
-1.0
 74
     0
 49
0.0
 74
     0
 49
-1.0
 74
     0
 49
0.0
 74
     0
 49
-1.0
 74
     0
  0
LTYPE
  5
30
330
5
100
AcDbSymbolTableRecord
100
AcDbLinetypeTableRecord
  2
CENTER_DASH_DASH
 70
     0
  3
Center_Dash_Dash
 72
    65
 73
     6
 40
14.0
 49
9.0
 74
     0
 49
-1.0
 74
     0
 49
1.0
 74
     0
 49
-1.0
 74
     0
 49
1.0
 74
     0
 49
-1.0
 74
     0
  0
ENDTAB
  0
TABLE
  2
LAYER
  5
2
330
0
100
AcDbSymbolTable
 70
     2
  0
LAYER
  5
10
330
2
100
AcDbSymbolTableRecord
100
AcDbLayerTableRecord
  2
0
 70
     0
 62
     7
  6
Continuous
370
    -3
390
F
  0
LAYER
  5
31
330
2
100
AcDbSymbolTableRecord
100
AcDbLayerTableRecord
  2
1
 70
     0
 62
     7
  6
Continuous
370
    -3
390
F
  0
ENDTAB
  0
TABLE
  2
STYLE
  5
3
330
0
100
AcDbSymbolTable
 70
     2
  0
STYLE
  5
11
330
3
100
AcDbSymbolTableRecord
100
AcDbTextStyleTableRecord
  2
Standard
 70
     0
 40
0.0
 41
1.0
 50
0.0
 71
     0
 42
0.2
  3
txt
  4

  0
STYLE
  5
80
330
3
100
AcDbSymbolTableRecord
100
AcDbTextStyleTableRecord
  2
CONVERTER_11
 70
     0
 40
0.0
 41
0.9
 50
0.0
 71
     0
 42
0.2
  3
txt.shx
  4

  0
ENDTAB
  0
TABLE
  2
VIEW
  5
6
330
0
100
AcDbSymbolTable
 70
     0
  0
ENDTAB
  0
TABLE
  2
UCS
  5
7
330
0
100
AcDbSymbolTable
 70
     0
  0
ENDTAB
  0
TABLE
  2
APPID
  5
9
330
0
100
AcDbSymbolTable
 70
     1
  0
APPID
  5
12
330
9
100
AcDbSymbolTableRecord
100
AcDbRegAppTableRecord
  2
ACAD
 70
     0
  0
ENDTAB
  0
TABLE
  2
DIMSTYLE
  5
A
330
0
100
AcDbSymbolTable
 70
     7
100
AcDbDimStyleTable
  0
DIMSTYLE
105
27
330
A
100
AcDbSymbolTableRecord
100
AcDbDimStyleTableRecord
  2
Standard
 70
     0
340
11
  0
DIMSTYLE
105
8C
102
{ACAD_REACTORS
330
8D
102
}
330
A
100
AcDbSymbolTableRecord
100
AcDbDimStyleTableRecord
  2
ME10_DIM_10
 70
     0
 41
3.5
 42
0.0
 44
2.0
 73
     0
 74
     0
 77
     1
 78
     8
140
3.5
147
2.0
172
     1
173
     1
176
     2
177
     2
178
     2
271
     2
340
80
  0
DIMSTYLE
105
97
102
{ACAD_REACTORS
330
98
102
}
330
A
100
AcDbSymbolTableRecord
100
AcDbDimStyleTableRecord
  2
ME10_DIM_11
 70
     0
  3
ø<>
 41
3.5
 42
0.0
 44
2.0
 73
     0
 74
     0
 77
     1
 78
     8
140
3.5
147
2.0
172
     1
173
     1
176
     2
177
     2
178
     2
271
     2
340
80
  0
DIMSTYLE
105
A2
102
{ACAD_REACTORS
330
A3
102
}
330
A
100
AcDbSymbolTableRecord
100
AcDbDimStyleTableRecord
  2
ME10_DIM_12
 70
     0
 41
3.5
 42
0.0
 44
2.0
 73
     0
 74
     0
 77
     1
 78
     8
140
3.5
147
2.0
172
     1
173
     1
176
     2
177
     2
178
     2
271
     2
340
80
  0
DIMSTYLE
105
AF
102
{ACAD_REACTORS
330
B0
102
}
330
A
100
AcDbSymbolTableRecord
100
AcDbDimStyleTableRecord
  2
ME10_DIM_13
 70
     0
 41
3.5
 42
0.0
 44
2.0
 73
     0
 74
     0
 77
     1
 78
     8
140
3.5
147
2.0
172
     1
173
     1
176
     2
177
     2
178
     2
271
     2
340
80
  0
DIMSTYLE
105
BA
102
{ACAD_REACTORS
330
BB
102
}
330
A
100
AcDbSymbolTableRecord
100
AcDbDimStyleTableRecord
  2
ME10_DIM_14
 70
     0
 41
3.5
 42
0.0
 44
2.0
 73
     0
 74
     0
 77
     1
 78
     8
140
3.5
147
2.0
172
     1
173
     1
176
     2
177
     2
178
     2
271
     2
340
80
  0
DIMSTYLE
105
C5
102
{ACAD_REACTORS
330
C6
102
}
330
A
100
AcDbSymbolTableRecord
100
AcDbDimStyleTableRecord
  2
ME10_DIM_15
 70
     0
 41
3.5
 42
0.0
 44
2.0
 73
     0
 74
     0
 77
     1
 78
     8
140
3.5
147
2.0
172
     1
173
     1
176
     2
177
     2
178
     2
271
     2
340
80
  0
ENDTAB
  0
TABLE
  2
BLOCK_RECORD
  5
1
330
0
100
AcDbSymbolTable
 70
     7
  0
BLOCK_RECORD
  5
1F
330
1
100
AcDbSymbolTableRecord
100
AcDbBlockTableRecord
  2
*Model_Space
340
22
  0
BLOCK_RECORD
  5
1B
330
1
100
AcDbSymbolTableRecord
100
AcDbBlockTableRecord
  2
*Paper_Space
340
1E
  0
BLOCK_RECORD
  5
23
330
1
100
AcDbSymbolTableRecord
100
AcDbBlockTableRecord
  2
*Paper_Space0
340
26
  0
BLOCK_RECORD
  5
83
330
1
100
AcDbSymbolTableRecord
100
AcDbBlockTableRecord
  2
*D1
340
0
  0
BLOCK_RECORD
  5
8E
330
1
100
AcDbSymbolTableRecord
100
AcDbBlockTableRecord
  2
*D2
340
0
  0
BLOCK_RECORD
  5
99
330
1
100
AcDbSymbolTableRecord
100
AcDbBlockTableRecord
  2
*D3
340
0
  0
BLOCK_RECORD
  5
A4
330
1
100
AcDbSymbolTableRecord
100
AcDbBlockTableRecord
  2
*D4
340
0
  0
BLOCK_RECORD
  5
B1
330
1
100
AcDbSymbolTableRecord
100
AcDbBlockTableRecord
  2
*D5
340
0
  0
BLOCK_RECORD
  5
BC
330
1
100
AcDbSymbolTableRecord
100
AcDbBlockTableRecord
  2
*D6
340
0
  0
ENDTAB
  0
ENDSEC
  0
SECTION
  2
BLOCKS
  0
BLOCK
  5
20
330
1F
100
AcDbEntity
  8
0
100
AcDbBlockBegin
  2
*Model_Space
 70
     0
 71
     0
 10
0.0
 20
0.0
 30
0.0
  3
*Model_Space
  1

  0
ENDBLK
  5
21
330
1F
100
AcDbEntity
  8
0
100
AcDbBlockEnd
  0
BLOCK
  5
1C
330
1B
100
AcDbEntity
 67
     1
  8
0
100
AcDbBlockBegin
  2
*Paper_Space
 70
     0
 71
     0
 10
0.0
 20
0.0
 30
0.0
  3
*Paper_Space
  1

  0
ENDBLK
  5
1D
330
1B
100
AcDbEntity
 67
     1
  8
0
100
AcDbBlockEnd
  0
BLOCK
  5
24
330
23
100
AcDbEntity
  8
0
100
AcDbBlockBegin
  2
*Paper_Space0
 70
     0
 71
     0
 10
0.0
 20
0.0
 30
0.0
  3
*Paper_Space0
  1

  0
ENDBLK
  5
25
330
23
100
AcDbEntity
  8
0
100
AcDbBlockEnd
  0
BLOCK
  5
8A
330
83
100
AcDbEntity
  8
0
100
AcDbBlockBegin
  2
*D1
 70
     1
 71
     0
 10
0.0
 20
0.0
 30
0.0
  3
*D1
  1

  0
LINE
  5
84
330
83
100
AcDbEntity
  8
1
  6
Continuous
 62
     2
100
AcDbLine
 10
-45.51238659436625
 20
-89.88176263658747
 30
0.0
 11
-45.51238659436625
 21
70.11823736341245
 31
0.0
  0
LINE
  5
85
330
83
100
AcDbEntity
  8
1
  6
Continuous
 62
     2
100
AcDbLine
 10
-13.5989556757563
 20
70.11823736341245
 30
0.0
 11
-47.51238659436625
 21
70.11823736341245
 31
0.0
  0
LINE
  5
86
330
83
100
AcDbEntity
  8
1
  6
Continuous
 62
     2
100
AcDbLine
 10
-13.5989556757563
 20
-89.88176263658747
 30
0.0
 11
-47.51238659436625
 21
-89.88176263658747
 31
0.0
  0
SOLID
  5
87
330
83
100
AcDbEntity
  8
1
 62
     2
100
AcDbTrace
 10
-45.05160285281036
 20
66.61823736341245
 30
0.0
 11
-45.97317033592213
 21
66.61823736341245
 31
0.0
 12
-45.51238659436625
 22
70.11823736341245
 32
0.0
 13
-45.51238659436625
 23
70.11823736341245
 33
0.0
  0
SOLID
  5
88
330
83
100
AcDbEntity
  8
1
 62
     2
100
AcDbTrace
 10
-45.97317033592213
 20
-86.38176263658747
 30
0.0
 11
-45.05160285281036
 21
-86.38176263658747
 31
0.0
 12
-45.51238659436625
 22
-89.88176263658747
 32
0.0
 13
-45.51238659436625
 23
-89.88176263658747
 33
0.0
  0
MTEXT
  5
89
330
83
100
AcDbEntity
  8
1
 62
     2
100
AcDbMText
 10
-47.51238659436625
 20
-19.38398875387951
 30
0.0
 40
3.5
 41
0.0
 71
     7
 72
     1
  1
160
  7
CONVERTER_11
 11
0.0
 21
1.0
 31
0.0
 73
     1
 44
0.60024009603842
  0
ENDBLK
  5
8B
330
83
100
AcDbEntity
  8
0
100
AcDbBlockEnd
  0
BLOCK
  5
95
330
8E
100
AcDbEntity
  8
0
100
AcDbBlockBegin
  2
*D2
 70
     1
 71
     0
 10
0.0
 20
0.0
 30
0.0
  3
*D2
  1

  0
LINE
  5
8F
330
8E
100
AcDbEntity
  8
1
  6
Continuous
 62
     2
100
AcDbLine
 10
9.4010443242437
 20
77.37715048156048
 30
0.0
 11
31.4010443242437
 21
77.37715048156048
 31
0.0
  0
LINE
  5
90
330
8E
100
AcDbEntity
  8
1
  6
Continuous
 62
     2
100
AcDbLine
 10
9.4010443242437
 20
70.1182373634125
 30
0.0
 11
9.4010443242437
 21
79.37715048156048
 31
0.0
  0
LINE
  5
91
330
8E
100
AcDbEntity
  8
1
  6
Continuous
 62
     2
100
AcDbLine
 10
31.4010443242437
 20
70.1182373634125
 30
0.0
 11
31.4010443242437
 21
79.37715048156048
 31
0.0
  0
SOLID
  5
92
330
8E
100
AcDbEntity
  8
1
 62
     2
100
AcDbTrace
 10
12.9010443242437
 20
77.83793422311636
 30
0.0
 11
12.9010443242437
 21
76.91636674000459
 31
0.0
 12
9.4010443242437
 22
77.37715048156048
 32
0.0
 13
9.4010443242437
 23
77.37715048156048
 33
0.0
  0
SOLID
  5
93
330
8E
100
AcDbEntity
  8
1
 62
     2
100
AcDbTrace
 10
27.9010443242437
 20
76.91636674000459
 30
0.0
 11
27.9010443242437
 21
77.83793422311636
 31
0.0
 12
31.4010443242437
 22
77.37715048156048
 32
0.0
 13
31.4010443242437
 23
77.37715048156048
 33
0.0
  0
MTEXT
  5
94
330
8E
100
AcDbEntity
  8
1
 62
     2
100
AcDbMText
 10
14.01531373897418
 20
79.37714352448415
 30
0.0
 40
3.5
 41
0.0
 71
     7
 72
     1
  1
\C2;ø\C2;22.5
  7
CONVERTER_11
 11
0.9999999999970621
 21
2.424068405545307E-6
 31
0.0
 73
     1
 44
0.60024009603842
  0
ENDBLK
  5
96
330
8E
100
AcDbEntity
  8
0
100
AcDbBlockEnd
  0
BLOCK
  5
A0
330
99
100
AcDbEntity
  8
0
100
AcDbBlockBegin
  2
*D3
 70
     1
 71
     0
 10
0.0
 20
0.0
 30
0.0
  3
*D3
  1

  0
LINE
  5
9A
330
99
100
AcDbEntity
  8
1
  6
Continuous
 62
     2
100
AcDbLine
 10
-36.95094133156827
 20
-9.8817626365875
 30
0.0
 11
-36.95094133156827
 21
67.6182373634125
 31
0.0
  0
LINE
  5
9B
330
99
100
AcDbEntity
  8
1
  6
Continuous
 62
     2
100
AcDbLine
 10
-30.38839061669431
 20
67.6182373634125
 30
0.0
 11
-38.95094133156827
 21
67.6182373634125
 31
0.0
  0
LINE
  5
9C
330
99
100
AcDbEntity
  8
1
  6
Continuous
 62
     2
100
AcDbLine
 10
-30.28612771155711
 20
-9.8817626365875
 30
0.0
 11
-38.95094133156827
 21
-9.8817626365875
 31
0.0
  0
SOLID
  5
9D
330
99
100
AcDbEntity
  8
1
 62
     2
100
AcDbTrace
 10
-37.41172507312416
 20
-6.3817626365875
 30
0.0
 11
-36.49015759001239
 21
-6.3817626365875
 31
0.0
 12
-36.95094133156827
 22
-9.8817626365875
 32
0.0
 13
-36.95094133156827
 23
-9.8817626365875
 33
0.0
  0
SOLID
  5
9E
330
99
100
AcDbEntity
  8
1
 62
     2
100
AcDbTrace
 10
-36.49015759001239
 20
64.1182373634125
 30
0.0
 11
-37.41172507312416
 21
64.1182373634125
 31
0.0
 12
-36.95094133156827
 22
67.6182373634125
 32
0.0
 13
-36.95094133156827
 23
67.6182373634125
 33
0.0
  0
MTEXT
  5
9F
330
99
100
AcDbEntity
  8
1
 62
     2
100
AcDbMText
 10
-38.95094133156827
 20
23.91029828020448
 30
0.0
 40
3.5
 41
0.0
 71
     7
 72
     1
  1
77.5
  7
CONVERTER_11
 11
0.0
 21
1.0
 31
0.0
 73
     1
 44
0.60024009603842
  0
ENDBLK
  5
A1
330
99
100
AcDbEntity
  8
0
100
AcDbBlockEnd
  0
BLOCK
  5
AD
330
A4
100
AcDbEntity
  8
0
100
AcDbBlockBegin
  2
*D4
 70
     1
 71
     0
 10
0.0
 20
0.0
 30
0.0
  3
*D4
  1

  0
LINE
  5
A5
330
A4
100
AcDbEntity
  8
1
  6
Continuous
 62
     2
100
AcDbLine
 10
-36.95094133156827
 20
60.6182373634125
 30
0.0
 11
-36.95094133156827
 21
67.6182373634125
 31
0.0
  0
LINE
  5
A6
330
A4
100
AcDbEntity
  8
1
  6
Continuous
 62
     2
100
AcDbLine
 10
-36.95094133156827
 20
67.6182373634125
 30
0.0
 11
-36.95094133156827
 21
70.1182373634125
 31
0.0
  0
LINE
  5
A7
330
A4
100
AcDbEntity
  8
1
  6
Continuous
 62
     2
100
AcDbLine
 10
-36.95094133156827
 20
70.1182373634125
 30
0.0
 11
-36.95094133156827
 21
84.7662035597215
 31
0.0
  0
LINE
  5
A8
330
A4
100
AcDbEntity
  8
1
  6
Continuous
 62
     2
100
AcDbLine
 10
-30.38839061669431
 20
67.6182373634125
 30
0.0
 11
-38.95094133156827
 21
67.6182373634125
 31
0.0
  0
LINE
  5
A9
330
A4
100
AcDbEntity
  8
1
  6
Continuous
 62
     2
100
AcDbLine
 10
-13.5989556757563
 20
70.1182373634125
 30
0.0
 11
-38.95094133156827
 21
70.1182373634125
 31
0.0
  0
SOLID
  5
AA
330
A4
100
AcDbEntity
  8
1
 62
     2
100
AcDbTrace
 10
-36.49015759001239
 20
64.1182373634125
 30
0.0
 11
-37.41172507312416
 21
64.1182373634125
 31
0.0
 12
-36.95094133156827
 22
67.6182373634125
 32
0.0
 13
-36.95094133156827
 23
67.6182373634125
 33
0.0
  0
SOLID
  5
AB
330
A4
100
AcDbEntity
  8
1
 62
     2
100
AcDbTrace
 10
-37.41172507312416
 20
73.6182373634125
 30
0.0
 11
-36.49015759001239
 21
73.6182373634125
 31
0.0
 12
-36.95094133156827
 22
70.1182373634125
 32
0.0
 13
-36.95094133156827
 23
70.1182373634125
 33
0.0
  0
MTEXT
  5
AC
330
A4
100
AcDbEntity
  8
1
 62
     2
100
AcDbMText
 10
-38.95094133156827
 20
78.37870355972152
 30
0.0
 40
3.5
 41
0.0
 71
     7
 72
     1
  1
2.5
  7
CONVERTER_11
 11
0.0
 21
1.0
 31
0.0
 73
     1
 44
0.60024009603842
  0
ENDBLK
  5
AE
330
A4
100
AcDbEntity
  8
0
100
AcDbBlockEnd
  0
BLOCK
  5
B8
330
B1
100
AcDbEntity
  8
0
100
AcDbBlockBegin
  2
*D5
 70
     1
 71
     0
 10
0.0
 20
0.0
 30
0.0
  3
*D5
  1

  0
LINE
  5
B2
330
B1
100
AcDbEntity
  8
1
  6
Continuous
 62
     2
100
AcDbLine
 10
68.40737059596782
 20
50.1182373634125
 30
0.0
 11
68.40737059596782
 21
67.6182373634125
 31
0.0
  0
LINE
  5
B3
330
B1
100
AcDbEntity
  8
1
  6
Continuous
 62
     2
100
AcDbLine
 10
57.57587638411363
 20
50.1182373634125
 30
0.0
 11
70.40737059596782
 21
50.1182373634125
 31
0.0
  0
LINE
  5
B4
330
B1
100
AcDbEntity
  8
1
  6
Continuous
 62
     2
100
AcDbLine
 10
62.99405596453678
 20
67.6182373634125
 30
0.0
 11
70.40737059596782
 21
67.6182373634125
 31
0.0
  0
SOLID
  5
B5
330
B1
100
AcDbEntity
  8
1
 62
     2
100
AcDbTrace
 10
68.8681543375237
 20
64.1182373634125
 30
0.0
 11
67.94658685441193
 21
64.1182373634125
 31
0.0
 12
68.40737059596782
 22
67.6182373634125
 32
0.0
 13
68.40737059596782
 23
67.6182373634125
 33
0.0
  0
SOLID
  5
B6
330
B1
100
AcDbEntity
  8
1
 62
     2
100
AcDbTrace
 10
67.94658685441193
 20
53.6182373634125
 30
0.0
 11
68.8681543375237
 21
53.6182373634125
 31
0.0
 12
68.40737059596782
 22
50.1182373634125
 32
0.0
 13
68.40737059596782
 23
50.1182373634125
 33
0.0
  0
MTEXT
  5
B7
330
B1
100
AcDbEntity
  8
1
 62
     2
100
AcDbMText
 10
66.40737059596782
 20
54.37496164596849
 30
0.0
 40
3.5
 41
0.0
 71
     7
 72
     1
  1
17.5
  7
CONVERTER_11
 11
0.0
 21
1.0
 31
0.0
 73
     1
 44
0.60024009603842
  0
ENDBLK
  5
B9
330
B1
100
AcDbEntity
  8
0
100
AcDbBlockEnd
  0
BLOCK
  5
C3
330
BC
100
AcDbEntity
  8
0
100
AcDbBlockBegin
  2
*D6
 70
     1
 71
     0
 10
0.0
 20
0.0
 30
0.0
  3
*D6
  1

  0
LINE
  5
BD
330
BC
100
AcDbEntity
  8
1
  6
Continuous
 62
     2
100
AcDbLine
 10
68.40737059596782
 20
-69.88176263658751
 30
0.0
 11
68.40737059596782
 21
50.1182373634125
 31
0.0
  0
LINE
  5
BE
330
BC
100
AcDbEntity
  8
1
  6
Continuous
 62
     2
100
AcDbLine
 10
57.57587638411363
 20
-69.88176263658751
 30
0.0
 11
70.40737059596782
 21
-69.88176263658751
 31
0.0
  0
LINE
  5
BF
330
BC
100
AcDbEntity
  8
1
  6
Continuous
 62
     2
100
AcDbLine
 10
57.57587638411363
 20
50.1182373634125
 30
0.0
 11
70.40737059596782
 21
50.1182373634125
 31
0.0
  0
SOLID
  5
C0
330
BC
100
AcDbEntity
  8
1
 62
     2
100
AcDbTrace
 10
68.8681543375237
 20
46.6182373634125
 30
0.0
 11
67.94658685441193
 21
46.6182373634125
 31
0.0
 12
68.40737059596782
 22
50.1182373634125
 32
0.0
 13
68.40737059596782
 23
50.1182373634125
 33
0.0
  0
SOLID
  5
C1
330
BC
100
AcDbEntity
  8
1
 62
     2
100
AcDbTrace
 10
67.94658685441193
 20
-66.38176263658751
 30
0.0
 11
68.8681543375237
 21
-66.38176263658751
 31
0.0
 12
68.40737059596782
 22
-69.88176263658751
 32
0.0
 13
68.40737059596782
 23
-69.88176263658751
 33
0.0
  0
MTEXT
  5
C2
330
BC
100
AcDbEntity
  8
1
 62
     2
100
AcDbMText
 10
66.40737059596782
 20
-13.5567626365875
 30
0.0
 40
3.5
 41
0.0
 71
     7
 72
     1
  1
120
  7
CONVERTER_11
 11
0.0
 21
1.0
 31
0.0
 73
     1
 44
0.60024009603842
  0
ENDBLK
  5
C4
330
BC
100
AcDbEntity
  8
0
100
AcDbBlockEnd
  0
ENDSEC
  0
SECTION
  2
ENTITIES
  0
LINE
  5
32
330
1F
100
AcDbEntity
  8
1
  6
Continuous
 62
     7
100
AcDbLine
 10
31.4010443242437
 20
67.6182373634125
 30
0.0
 11
31.4010443242437
 21
32.6182373634125
 31
0.0
  0
LINE
  5
33
330
1F
100
AcDbEntity
  8
1
  6
Continuous
 62
     7
100
AcDbLine
 10
31.4010443242437
 20
70.1182373634125
 30
0.0
 11
31.4010443242437
 21
67.6182373634125
 31
0.0
  0
LINE
  5
34
330
1F
100
AcDbEntity
  8
1
  6
Continuous
 62
     7
100
AcDbLine
 10
9.4010443242437
 20
70.1182373634125
 30
0.0
 11
31.4010443242437
 21
70.1182373634125
 31
0.0
  0
LINE
  5
35
330
1F
100
AcDbEntity
  8
1
  6
Continuous
 62
     7
100
AcDbLine
 10
9.4010443242437
 20
67.6182373634125
 30
0.0
 11
9.4010443242437
 21
70.1182373634125
 31
0.0
  0
LINE
  5
36
330
1F
100
AcDbEntity
  8
1
  6
Continuous
 62
     7
100
AcDbLine
 10
10.4010443242437
 20
32.6182373634125
 30
0.0
 11
9.4010443242437
 21
32.6182373634125
 31
0.0
  0
LINE
  5
37
330
1F
100
AcDbEntity
  8
1
  6
Continuous
 62
     7
100
AcDbLine
 10
30.4010443242437
 20
-52.3817626365875
 30
0.0
 11
31.4010443242437
 21
-52.3817626365875
 31
0.0
  0
LINE
  5
38
330
1F
100
AcDbEntity
  8
1
  6
Continuous
 62
     7
100
AcDbLine
 10
9.4010443242437
 20
-89.88176263658755
 30
0.0
 11
9.4010443242437
 21
-52.3817626365875
 31
0.0
  0
LINE
  5
39
330
1F
100
AcDbEntity
  8
1
  6
Continuous
 62
     7
100
AcDbLine
 10
31.4010443242437
 20
-89.88176263658755
 30
0.0
 11
9.4010443242437
 21
-89.88176263658755
 31
0.0
  0
LINE
  5
3A
330
1F
100
AcDbEntity
  8
1
  6
Continuous
 62
     7
100
AcDbLine
 10
31.40104432424359
 20
-74.0817626365875
 30
0.0
 11
31.4010443242437
 21
-89.88176263658755
 31
0.0
  0
LINE
  5
3B
330
1F
100
AcDbEntity
  8
1
  6
Continuous
 62
     7
100
AcDbLine
 10
30.4010443242437
 20
31.6182373634125
 30
0.0
 11
31.4010443242437
 21
31.6182373634125
 31
0.0
  0
LINE
  5
3C
330
1F
100
AcDbEntity
  8
1
  6
Continuous
 62
     7
100
AcDbLine
 10
30.4010443242437
 20
-51.3817626365875
 30
0.0
 11
31.4010443242437
 21
-51.3817626365875
 31
0.0
  0
LINE
  5
3D
330
1F
100
AcDbEntity
  8
1
  6
Continuous
 62
     7
100
AcDbLine
 10
31.4010443242437
 20
-51.3817626365875
 30
0.0
 11
31.4010443242437
 21
31.6182373634125
 31
0.0
  0
LINE
  5
3E
330
1F
100
AcDbEntity
  8
1
  6
Continuous
 62
     7
100
AcDbLine
 10
9.40104432424359
 20
-51.3817626365875
 30
0.0
 11
9.4010443242437
 21
31.6182373634125
 31
0.0
  0
LINE
  5
3F
330
1F
100
AcDbEntity
  8
1
  6
Continuous
 62
     7
100
AcDbLine
 10
30.4010443242437
 20
31.6182373634125
 30
0.0
 11
30.4010443242437
 21
32.6182373634125
 31
0.0
  0
LINE
  5
40
330
1F
100
AcDbEntity
  8
1
  6
Continuous
 62
     7
100
AcDbLine
 10
31.4010443242437
 20
32.6182373634125
 30
0.0
 11
30.4010443242437
 21
32.6182373634125
 31
0.0
  0
LINE
  5
41
330
1F
100
AcDbEntity
  8
1
  6
Continuous
 62
     7
100
AcDbLine
 10
10.4010443242437
 20
31.6182373634125
 30
0.0
 11
30.4010443242437
 21
31.6182373634125
 31
0.0
  0
LINE
  5
42
330
1F
100
AcDbEntity
  8
1
  6
Continuous
 62
     7
100
AcDbLine
 10
10.4010443242437
 20
31.6182373634125
 30
0.0
 11
10.4010443242437
 21
32.6182373634125
 31
0.0
  0
LINE
  5
43
330
1F
100
AcDbEntity
  8
1
  6
Continuous
 62
     7
100
AcDbLine
 10
30.4010443242437
 20
32.6182373634125
 30
0.0
 11
10.4010443242437
 21
32.6182373634125
 31
0.0
  0
LINE
  5
44
330
1F
100
AcDbEntity
  8
1
  6
Continuous
 62
     7
100
AcDbLine
 10
9.4010443242437
 20
31.6182373634125
 30
0.0
 11
10.4010443242437
 21
31.6182373634125
 31
0.0
  0
LINE
  5
45
330
1F
100
AcDbEntity
  8
1
  6
Continuous
 62
     7
100
AcDbLine
 10
30.4010443242437
 20
-52.3817626365875
 30
0.0
 11
30.4010443242437
 21
-51.3817626365875
 31
0.0
  0
LINE
  5
46
330
1F
100
AcDbEntity
  8
1
  6
Continuous
 62
     7
100
AcDbLine
 10
10.4010443242437
 20
-51.3817626365875
 30
0.0
 11
30.4010443242437
 21
-51.3817626365875
 31
0.0
  0
LINE
  5
47
330
1F
100
AcDbEntity
  8
1
  6
Continuous
 62
     7
100
AcDbLine
 10
10.4010443242437
 20
-52.3817626365875
 30
0.0
 11
30.4010443242437
 21
-52.3817626365875
 31
0.0
  0
LINE
  5
48
330
1F
100
AcDbEntity
  8
1
  6
Continuous
 62
     7
100
AcDbLine
 10
10.4010443242437
 20
-52.3817626365875
 30
0.0
 11
10.4010443242437
 21
-51.3817626365875
 31
0.0
  0
LINE
  5
49
330
1F
100
AcDbEntity
  8
1
  6
Continuous
 62
     7
100
AcDbLine
 10
9.40104432424359
 20
-51.3817626365875
 30
0.0
 11
10.4010443242437
 21
-51.3817626365875
 31
0.0
  0
LINE
  5
4A
330
1F
100
AcDbEntity
  8
1
  6
Continuous
 62
     7
100
AcDbLine
 10
9.4010443242437
 20
-52.3817626365875
 30
0.0
 11
10.4010443242437
 21
-52.3817626365875
 31
0.0
  0
LINE
  5
4B
330
1F
100
AcDbEntity
  8
1
  6
Continuous
 62
     7
100
AcDbLine
 10
9.4010443242437
 20
32.6182373634125
 30
0.0
 11
9.4010443242437
 21
67.6182373634125
 31
0.0
  0
LINE
  5
4C
330
1F
100
AcDbEntity
  8
1
  6
CENTER_DASH_DASH
 62
     7
100
AcDbLine
 10
-30.38839061669431
 20
67.6182373634125
 30
0.0
 11
9.4010443242437
 21
67.6182373634125
 31
0.0
  0
LINE
  5
4D
330
1F
100
AcDbEntity
  8
1
  6
Continuous
 62
     7
100
AcDbLine
 10
7.40104432424359
 20
-89.88176263658755
 30
0.0
 11
3.15104432424359
 21
-89.88176263658755
 31
0.0
  0
LINE
  5
4E
330
1F
100
AcDbEntity
  8
1
  6
Continuous
 62
     7
100
AcDbLine
 10
52.90104432424359
 20
-74.88176263658751
 30
0.0
 11
52.90104432424359
 21
-64.88176263658751
 31
0.0
  0
LINE
  5
4F
330
1F
100
AcDbEntity
  8
1
  6
Continuous
 62
     7
100
AcDbLine
 10
52.90104432424359
 20
-74.88176263658751
 30
0.0
 11
56.40104432424359
 21
-73.43201516828171
 31
0.0
  0
LINE
  5
50
330
1F
100
AcDbEntity
  8
1
  6
Continuous
 62
     7
100
AcDbLine
 10
56.40104432424359
 20
-73.43201516828171
 30
0.0
 11
56.40104432424359
 21
-66.3315101048933
 31
0.0
  0
LINE
  5
51
330
1F
100
AcDbEntity
  8
1
  6
Continuous
 62
     7
100
AcDbLine
 10
56.40104432424359
 20
-66.3315101048933
 30
0.0
 11
52.90104432424359
 21
-64.88176263658751
 31
0.0
  0
LINE
  5
52
330
1F
100
AcDbEntity
  8
1
  6
Continuous
 62
     7
100
AcDbLine
 10
52.90104432424359
 20
-64.88176263658751
 30
0.0
 11
31.40104432424359
 21
-64.88176263658751
 31
0.0
  0
LINE
  5
53
330
1F
100
AcDbEntity
  8
1
  6
Continuous
 62
     2
100
AcDbLine
 10
31.40104432424359
 20
-65.68176263658751
 30
0.0
 11
54.83241517414207
 21
-65.68176263658751
 31
0.0
  0
LINE
  5
54
330
1F
100
AcDbEntity
  8
1
  6
DOT_CENTER
 62
     2
100
AcDbLine
 10
27.59808042052954
 20
-69.88176263658751
 30
0.0
 11
57.57587638411361
 21
-69.88176263658751
 31
0.0
  0
LINE
  5
55
330
1F
100
AcDbEntity
  8
1
  6
Continuous
 62
     2
100
AcDbLine
 10
31.40104432424359
 20
-74.0817626365875
 30
0.0
 11
54.83241517414207
 21
-74.0817626365875
 31
0.0
  0
LINE
  5
56
330
1F
100
AcDbEntity
  8
1
  6
Continuous
 62
     7
100
AcDbLine
 10
31.40104432424359
 20
-74.88176263658751
 30
0.0
 11
52.90104432424359
 21
-74.88176263658751
 31
0.0
  0
LINE
  5
57
330
1F
100
AcDbEntity
  8
1
  6
Continuous
 62
     7
100
AcDbLine
 10
31.4010443242437
 20
-52.3817626365875
 30
0.0
 11
31.40104432424359
 21
-65.68176263658751
 31
0.0
  0
LINE
  5
58
330
1F
100
AcDbEntity
  8
1
  6
Continuous
 62
     7
100
AcDbLine
 10
31.40104432424359
 20
-65.68176263658751
 30
0.0
 11
31.40104432424359
 21
-74.0817626365875
 31
0.0
  0
LINE
  5
59
330
1F
100
AcDbEntity
  8
1
  6
Continuous
 62
     7
100
AcDbLine
 10
52.90104432424359
 20
45.1182373634125
 30
0.0
 11
52.90104432424359
 21
55.1182373634125
 31
0.0
  0
LINE
  5
5A
330
1F
100
AcDbEntity
  8
1
  6
Continuous
 62
     7
100
AcDbLine
 10
52.90104432424359
 20
45.1182373634125
 30
0.0
 11
56.40104432424359
 21
46.56798483171829
 31
0.0
  0
LINE
  5
5B
330
1F
100
AcDbEntity
  8
1
  6
Continuous
 62
     7
100
AcDbLine
 10
56.40104432424359
 20
46.56798483171829
 30
0.0
 11
56.40104432424359
 21
53.66848989510667
 31
0.0
  0
LINE
  5
5C
330
1F
100
AcDbEntity
  8
1
  6
Continuous
 62
     7
100
AcDbLine
 10
56.40104432424359
 20
53.66848989510667
 30
0.0
 11
52.90104432424359
 21
55.1182373634125
 31
0.0
  0
LINE
  5
5D
330
1F
100
AcDbEntity
  8
1
  6
Continuous
 62
     7
100
AcDbLine
 10
52.90104432424359
 20
55.1182373634125
 30
0.0
 11
31.40104432424359
 21
55.1182373634125
 31
0.0
  0
LINE
  5
5E
330
1F
100
AcDbEntity
  8
1
  6
Continuous
 62
     2
100
AcDbLine
 10
31.40104432424359
 20
54.31823736341249
 30
0.0
 11
54.83241517414207
 21
54.31823736341249
 31
0.0
  0
LINE
  5
5F
330
1F
100
AcDbEntity
  8
1
  6
Continuous
 62
     2
100
AcDbLine
 10
31.40104432424359
 20
45.91823736341249
 30
0.0
 11
54.83241517414207
 21
45.91823736341249
 31
0.0
  0
LINE
  5
60
330
1F
100
AcDbEntity
  8
1
  6
Continuous
 62
     7
100
AcDbLine
 10
31.40104432424359
 20
45.1182373634125
 30
0.0
 11
52.90104432424359
 21
45.1182373634125
 31
0.0
  0
LINE
  5
61
330
1F
100
AcDbEntity
  8
1
  6
DOT_CENTER
 62
     2
100
AcDbLine
 10
27.59808042052954
 20
50.1182373634125
 30
0.0
 11
57.57587638411361
 21
50.1182373634125
 31
0.0
  0
LINE
  5
62
330
1F
100
AcDbEntity
  8
1
  6
DOT_CENTER
 62
     2
100
AcDbLine
 10
20.4010443242437
 20
-9.8817626365875
 30
0.0
 11
46.56384979088968
 21
-9.8817626365875
 31
0.0
  0
LINE
  5
63
330
1F
100
AcDbEntity
  8
1
  6
DOT_CENTER
 62
     2
100
AcDbLine
 10
20.4010443242437
 20
-9.8817626365875
 30
0.0
 11
20.4010443242437
 21
72.4045758280775
 31
0.0
  0
LINE
  5
64
330
1F
100
AcDbEntity
  8
1
  6
DOT_CENTER
 62
     2
100
AcDbLine
 10
-30.28612771155711
 20
-9.8817626365875
 30
0.0
 11
20.4010443242437
 21
-9.8817626365875
 31
0.0
  0
LINE
  5
65
330
1F
100
AcDbEntity
  8
1
  6
DOT_CENTER
 62
     2
100
AcDbLine
 10
20.4010443242437
 20
-93.92215282101023
 30
0.0
 11
20.4010443242437
 21
-9.8817626365875
 31
0.0
  0
LINE
  5
66
330
1F
100
AcDbEntity
  8
1
  6
CENTER_DASH_DASH
 62
     7
100
AcDbLine
 10
9.4010443242437
 20
67.6182373634125
 30
0.0
 11
62.99405596453677
 21
67.6182373634125
 31
0.0
  0
LINE
  5
67
330
1F
100
AcDbEntity
  8
1
  6
DOT_CENTER
 62
     2
100
AcDbLine
 10
-13.5989556757563
 20
-70.00676263658751
 30
0.0
 11
-13.5989556757563
 21
-85.75676263658755
 31
0.0
  0
LINE
  5
68
330
1F
100
AcDbEntity
  8
1
  6
DOT_CENTER
 62
     2
100
AcDbLine
 10
-5.7239556757563
 20
-77.88176263658751
 30
0.0
 11
-21.4739556757563
 21
-77.88176263658751
 31
0.0
  0
LINE
  5
69
330
1F
100
AcDbEntity
  8
1
  6
DOT_CENTER
 62
     2
100
AcDbLine
 10
-13.5989556757563
 20
65.9932373634125
 30
0.0
 11
-13.5989556757563
 21
50.2432373634125
 31
0.0
  0
LINE
  5
6A
330
1F
100
AcDbEntity
  8
1
  6
DOT_CENTER
 62
     2
100
AcDbLine
 10
-5.7239556757563
 20
58.1182373634125
 30
0.0
 11
-21.4739556757563
 21
58.1182373634125
 31
0.0
  0
LINE
  5
6B
330
1F
100
AcDbEntity
  8
1
  6
DOT_CENTER
 62
     2
100
AcDbLine
 10
-3.5989556757563
 20
31.9932373634125
 30
0.0
 11
-3.5989556757563
 21
16.2432373634125
 31
0.0
  0
LINE
  5
6C
330
1F
100
AcDbEntity
  8
1
  6
DOT_CENTER
 62
     2
100
AcDbLine
 10
4.2760443242437
 20
24.1182373634125
 30
0.0
 11
-11.4739556757563
 21
24.1182373634125
 31
0.0
  0
LINE
  5
6D
330
1F
100
AcDbEntity
  8
1
  6
DOT_CENTER
 62
     2
100
AcDbLine
 10
-3.5989556757563
 20
-36.0067626365875
 30
0.0
 11
-3.5989556757563
 21
-51.7567626365875
 31
0.0
  0
LINE
  5
6E
330
1F
100
AcDbEntity
  8
1
  6
DOT_CENTER
 62
     2
100
AcDbLine
 10
4.2760443242437
 20
-43.8817626365875
 30
0.0
 11
-11.4739556757563
 21
-43.8817626365875
 31
0.0
  0
LINE
  5
6F
330
1F
100
AcDbEntity
  8
1
  6
DOT_CENTER
 62
     2
100
AcDbLine
 10
-17.5989556757563
 20
-2.0067626365875
 30
0.0
 11
-17.5989556757563
 21
-17.7567626365875
 31
0.0
  0
LINE
  5
70
330
1F
100
AcDbEntity
  8
1
  6
Continuous
 62
     7
100
AcDbLine
 10
-13.5989556757563
 20
70.1182373634125
 30
0.0
 11
9.4010443242437
 21
70.1182373634125
 31
0.0
  0
LINE
  5
71
330
1F
100
AcDbEntity
  8
1
  6
Continuous
 62
     7
100
AcDbLine
 10
-25.5989556757563
 20
-77.88176263658751
 30
0.0
 11
-25.5989556757563
 21
58.1182373634125
 31
0.0
  0
LINE
  5
72
330
1F
100
AcDbEntity
  8
1
  6
Continuous
 62
     7
100
AcDbLine
 10
-13.5989556757563
 20
-89.88176263658755
 30
0.0
 11
9.4010443242437
 21
-89.88176263658755
 31
0.0
  0
CIRCLE
  5
73
330
1F
100
AcDbEntity
  8
1
  6
Continuous
 62
     7
100
AcDbCircle
 10
-13.5989556757563
 20
-77.88176263658751
 30
0.0
 40
3.0
  0
CIRCLE
  5
74
330
1F
100
AcDbEntity
  8
1
  6
Continuous
 62
     7
100
AcDbCircle
 10
-13.5989556757563
 20
-77.88176263658751
 30
0.0
 40
5.25
  0
CIRCLE
  5
75
330
1F
100
AcDbEntity
  8
1
  6
Continuous
 62
     7
100
AcDbCircle
 10
-13.5989556757563
 20
58.1182373634125
 30
0.0
 40
3.0
  0
CIRCLE
  5
76
330
1F
100
AcDbEntity
  8
1
  6
Continuous
 62
     7
100
AcDbCircle
 10
-13.5989556757563
 20
58.1182373634125
 30
0.0
 40
5.25
  0
CIRCLE
  5
77
330
1F
100
AcDbEntity
  8
1
  6
Continuous
 62
     7
100
AcDbCircle
 10
-3.5989556757563
 20
24.1182373634125
 30
0.0
 40
3.0
  0
CIRCLE
  5
78
330
1F
100
AcDbEntity
  8
1
  6
Continuous
 62
     7
100
AcDbCircle
 10
-3.5989556757563
 20
24.1182373634125
 30
0.0
 40
5.25
  0
CIRCLE
  5
79
330
1F
100
AcDbEntity
  8
1
  6
Continuous
 62
     7
100
AcDbCircle
 10
-3.5989556757563
 20
-43.8817626365875
 30
0.0
 40
3.0
  0
CIRCLE
  5
7A
330
1F
100
AcDbEntity
  8
1
  6
Continuous
 62
     7
100
AcDbCircle
 10
-3.5989556757563
 20
-43.8817626365875
 30
0.0
 40
5.25
  0
CIRCLE
  5
7B
330
1F
100
AcDbEntity
  8
1
  6
Continuous
 62
     7
100
AcDbCircle
 10
-17.5989556757563
 20
-9.8817626365875
 30
0.0
 40
3.0
  0
CIRCLE
  5
7C
330
1F
100
AcDbEntity
  8
1
  6
Continuous
 62
     7
100
AcDbCircle
 10
-17.5989556757563
 20
-9.8817626365875
 30
0.0
 40
5.25
  0
CIRCLE
  5
7D
330
1F
100
AcDbEntity
  8
1
  6
DASHED
 62
     2
100
AcDbCircle
 10
-17.5989556757563
 20
-9.8817626365875
 30
0.0
 40
6.25
  0
ARC
  5
7E
330
1F
100
AcDbEntity
  8
1
  6
Continuous
 62
     7
100
AcDbCircle
 10
-13.5989556757563
 20
58.1182373634125
 30
0.0
 40
12.00000000000001
100
AcDbArc
 50
90.0
 51
180.0
  0
ARC
  5
7F
330
1F
100
AcDbEntity
  8
1
  6
Continuous
 62
     7
100
AcDbCircle
 10
-13.5989556757563
 20
-77.88176263658751
 30
0.0
 40
12.0
100
AcDbArc
 50
180.0
 51
-90.0
  0
MTEXT
  5
81
330
1F
100
AcDbEntity
  8
1
 62
     2
100
AcDbMText
 10
-10.23566640019963
 20
-1.06092807750269
 30
0.0
 40
2.5
 41
0.0
 71
     5
 72
     1
  1
TZ
  7
CONVERTER_11
 73
     1
 44
1.32052821128451
  0
MTEXT
  5
82
330
1F
100
AcDbEntity
  8
1
 62
     2
100
AcDbMText
 10
53.24157927788385
 20
70.95701570806148
 30
0.0
 40
2.5
 41
0.0
 71
     5
 72
     1
  1
BBL
  7
CONVERTER_11
 73
     1
 44
1.32052821128451
  0
DIMENSION
  5
8D
330
1F
100
AcDbEntity
  8
1
100
AcDbDimension
  2
*D1
 10
-45.51238659436625
 20
70.11823736341245
 30
0.0
 11
-49.26238659436625
 21
-15.70898875387951
 31
0.0
 70
    32
  1
<>
 71
     5
 42
-1.0
 53
90.0
  3
ME10_DIM_10
100
AcDbAlignedDimension
 13
-13.5989556757563
 23
-89.88176263658755
 33
0.0
 14
-13.5989556757563
 24
70.1182373634125
 34
0.0
 50
90.0
100
AcDbRotatedDimension
  0
DIMENSION
  5
98
330
1F
100
AcDbEntity
  8
1
100
AcDbDimension
  2
*D2
 10
9.4010443242437
 20
77.37715048156048
 30
0.0
 11
19.55406373896575
 21
81.12715048156048
 31
0.0
 70
    32
  1
ø22.5
 71
     5
 42
-1.0
 53
0.00013888888889
  3
ME10_DIM_11
100
AcDbAlignedDimension
 13
31.4010443242437
 23
70.1182373634125
 33
0.0
 14
9.4010443242437
 24
70.1182373634125
 34
0.0
100
AcDbRotatedDimension
  0
DIMENSION
  5
A3
330
1F
100
AcDbEntity
  8
1
100
AcDbDimension
  2
*D3
 10
-36.95094133156827
 20
-9.8817626365875
 30
0.0
 11
-40.70094133156827
 21
28.67904828020448
 31
0.0
 70
    32
  1
<>
 71
     5
 42
-1.0
 53
90.0
  3
ME10_DIM_12
100
AcDbAlignedDimension
 13
-30.38839061669431
 23
67.6182373634125
 33
0.0
 14
-30.28612771155711
 24
-9.8817626365875
 34
0.0
 50
90.0
100
AcDbRotatedDimension
  0
DIMENSION
  5
B0
330
1F
100
AcDbEntity
  8
1
100
AcDbDimension
  2
*D4
 10
-36.95094133156827
 20
67.6182373634125
 30
0.0
 11
-40.70094133156827
 21
81.57245355972151
 31
0.0
 70
    32
  1
<>
 71
     5
 42
-1.0
 53
90.0
  3
ME10_DIM_13
100
AcDbAlignedDimension
 13
-13.5989556757563
 23
70.1182373634125
 33
0.0
 14
-30.38839061669431
 24
67.6182373634125
 34
0.0
 50
90.0
100
AcDbRotatedDimension
  0
DIMENSION
  5
BB
330
1F
100
AcDbEntity
  8
1
100
AcDbDimension
  2
*D5
 10
68.40737059596782
 20
67.6182373634125
 30
0.0
 11
64.65737059596782
 21
58.61871164596849
 31
0.0
 70
    32
  1
<>
 71
     5
 42
-1.0
 53
90.0
  3
ME10_DIM_14
100
AcDbAlignedDimension
 13
57.57587638411361
 23
50.1182373634125
 33
0.0
 14
62.99405596453677
 24
67.6182373634125
 34
0.0
 50
90.0
100
AcDbRotatedDimension
  0
DIMENSION
  5
C6
330
1F
100
AcDbEntity
  8
1
100
AcDbDimension
  2
*D6
 10
68.40737059596782
 20
50.1182373634125
 30
0.0
 11
64.65737059596782
 21
-9.8817626365875
 31
0.0
 70
    32
  1
<>
 71
     5
 42
-1.0
 53
90.0
  3
ME10_DIM_15
100
AcDbAlignedDimension
 13
57.57587638411361
 23
-69.88176263658751
 33
0.0
 14
57.57587638411361
 24
50.1182373634125
 34
0.0
 50
90.0
100
AcDbRotatedDimension
  0
ENDSEC
  0
SECTION
  2
OBJECTS
  0
DICTIONARY
  5
C
330
0
100
AcDbDictionary
281
     1
  3
ACAD_GROUP
350
D
  3
ACAD_LAYOUT
350
1A
  3
ACAD_MLINESTYLE
350
17
  3
ACAD_PLOTSETTINGS
350
19
  3
ACAD_PLOTSTYLENAME
350
E
  0
DICTIONARY
  5
D
102
{ACAD_REACTORS
330
C
102
}
330
C
100
AcDbDictionary
281
     1
  0
DICTIONARY
  5
1A
102
{ACAD_REACTORS
330
C
102
}
330
C
100
AcDbDictionary
281
     1
  3
Layout1
350
1E
  3
Layout2
350
26
  3
Model
350
22
  0
DICTIONARY
  5
17
102
{ACAD_REACTORS
330
C
102
}
330
C
100
AcDbDictionary
281
     1
  3
Standard
350
18
  0
DICTIONARY
  5
19
102
{ACAD_REACTORS
330
C
102
}
330
C
100
AcDbDictionary
281
     1
  0
ACDBDICTIONARYWDFLT
  5
E
102
{ACAD_REACTORS
330
C
102
}
330
C
100
AcDbDictionary
281
     1
  3
Normal
350
F
100
AcDbDictionaryWithDefault
340
F
  0
LAYOUT
  5
1E
102
{ACAD_REACTORS
330
1A
102
}
330
1A
100
AcDbPlotSettings
  1

  2

  4

  6

 40
0.0
 41
0.0
 42
0.0
 43
0.0
 44
0.0
 45
0.0
 46
0.0
 47
0.0
 48
0.0
 49
0.0
140
0.0
141
0.0
142
1.0
143
1.0
 70
   688
 72
     0
 73
     0
 74
     5
  7

 75
    16
 76
     0
 77
     2
 78
   300
147
1.0
148
0.0
149
0.0
100
AcDbLayout
  1
Layout1
 70
     1
 71
     1
 10
0.0
 20
0.0
 11
0.0
 21
0.0
 12
0.0
 22
0.0
 32
0.0
 14
0.0
 24
0.0
 34
0.0
 15
0.0
 25
0.0
 35
0.0
146
0.0
 13
0.0
 23
0.0
 33
0.0
 16
1.0
 26
0.0
 36
0.0
 17
0.0
 27
1.0
 37
0.0
 76
     0
330
1B
  0
LAYOUT
  5
26
102
{ACAD_REACTORS
330
1A
102
}
330
1A
100
AcDbPlotSettings
  1

  2

  4

  6

 40
0.0
 41
0.0
 42
0.0
 43
0.0
 44
0.0
 45
0.0
 46
0.0
 47
0.0
 48
0.0
 49
0.0
140
0.0
141
0.0
142
1.0
143
1.0
 70
   688
 72
     0
 73
     0
 74
     5
  7

 75
    16
 76
     0
 77
     2
 78
   300
147
1.0
148
0.0
149
0.0
100
AcDbLayout
  1
Layout2
 70
     1
 71
     2
 10
0.0
 20
0.0
 11
0.0
 21
0.0
 12
0.0
 22
0.0
 32
0.0
 14
0.0
 24
0.0
 34
0.0
 15
0.0
 25
0.0
 35
0.0
146
0.0
 13
0.0
 23
0.0
 33
0.0
 16
1.0
 26
0.0
 36
0.0
 17
0.0
 27
1.0
 37
0.0
 76
     0
330
23
  0
LAYOUT
  5
22
102
{ACAD_REACTORS
330
1A
102
}
330
1A
100
AcDbPlotSettings
  1

  2

  4

  6

 40
0.0
 41
0.0
 42
0.0
 43
0.0
 44
0.0
 45
0.0
 46
0.0
 47
0.0
 48
0.0
 49
0.0
140
0.0
141
0.0
142
1.0
143
1.0
 70
  1712
 72
     0
 73
     0
 74
     0
  7

 75
     0
 76
     0
 77
     2
 78
   300
147
1.0
148
0.0
149
0.0
100
AcDbLayout
  1
Model
 70
     1
 71
     0
 10
0.0
 20
0.0
 11
0.0
 21
0.0
 12
0.0
 22
0.0
 32
0.0
 14
-51.01238659436625
 24
-93.92215282101023
 34
0.0
 15
70.40737059596782
 25
84.7662035597215
 35
0.0
146
0.0
 13
0.0
 23
0.0
 33
0.0
 16
1.0
 26
0.0
 36
0.0
 17
0.0
 27
1.0
 37
0.0
 76
     0
330
1F
  0
MLINESTYLE
  5
18
102
{ACAD_REACTORS
330
17
102
}
330
17
100
AcDbMlineStyle
  2
Standard
 70
     0
  3

 62
   256
 51
90.0
 52
90.0
 71
     2
 49
0.5
 62
   256
  6
BYLAYER
 49
-0.5
 62
   256
  6
BYLAYER
  0
ACDBPLACEHOLDER
  5
F
102
{ACAD_REACTORS
330
E
102
}
330
E
  0
ENDSEC
  0
EOF
