999
DXF file: DXF_5_190901_0_00000_mkt_v_01_drw_1.dxf
999
Pro/ENGINEER 2020184 by Parametric Technology Corporation
  0
SECTION
  2
HEADER
  9
$ACADVER
  1
AC1014
  9
$DWGCODEPAGE
  3
ANSI_1252
  9
$EXTMAX
 10
105.0
 20
160.0
 30
0.0
  9
$EXTMIN
 10
0.0
 20
0.0
 30
0.0
  9
$LIMMIN
 10
0.0
 20
0.0
  9
$LIMMAX
 10
105.0
 20
160.0
  9
$VIEWCTR
 10
52.5
 20
80.0
  9
$VIEWSIZE
 40
160.0
  9
$CLAYER
  8
0
  9
$LTSCALE
 40
10.4296296296
  9
$CELTYPE
  6
BYLAYER
  9
$DIMSCALE
 40
1.0
  9
$DIMASZ
 40
3.5
  9
$DIMEXO
 40
0.0
  9
$DIMDLI
 40
7.2059259259
  9
$DIMEXE
 40
2.0
  9
$DIMCEN
 40
1.7066666667
  9
$DIMLFAC
 40
1.0
  9
$DIMBLK
  1
_ARROW_FILLED
  9
$DIMALT
 70
0
  9
$DIMALTF
 40
0.0393700787
  9
$DIMTXT
 40
3.5
  9
$DIMTOL
 70
1
  9
$DIMLIM
 70
0
  9
$DIMTFAC
 40
1.0
  9
$DIMTP
 40
0.01
  9
$DIMTM
 40
0.01
  9
$DIMGAP
 40
0.625
  9
$AUNITS
 70
0
  9
$PDMODE
 70
0
  9
$PDSIZE
 40
0.04
  9
$HANDSEED
  5
38F
  9
$TILEMODE
 70
1
  9
$MEASUREMENT
 70
1
  0
ENDSEC
  0
SECTION
  2
CLASSES
  0
ENDSEC
  0
SECTION
  2
TABLES
  0
TABLE
  2
VPORT
  5
8
100
AcDbSymbolTable
 70
2
  0
VPORT
  5
1F4
100
AcDbSymbolTableRecord
100
AcDbViewportTableRecord
  2
*ACTIVE
 70
0
 10
0.0
 20
0.0
 11
1.0
 21
1.0
 12
52.5
 22
80.0
 13
0.0
 23
0.0
 14
1.0
 24
1.0
 15
0.0
 25
0.0
 16
0.0
 26
0.0
 36
1.0
 17
0.0
 27
0.0
 37
0.0
 40
160.0
 41
0.65625
 42
50.0
 43
0.0
 44
0.0
 50
0.0
 51
0.0
 71
0
 72
100
 73
1
 74
1
 75
0
 76
0
 77
0
 78
0
  0
ENDTAB
  0
TABLE
  2
LTYPE
  5
5
100
AcDbSymbolTable
 70
6
  0
LTYPE
  5
14
100
AcDbSymbolTableRecord
100
AcDbLinetypeTableRecord
  2
BYBLOCK
 70
0
  3

 72
65
 73
0
 40
0.0
  0
LTYPE
  5
15
100
AcDbSymbolTableRecord
100
AcDbLinetypeTableRecord
  2
BYLAYER
 70
0
  3

 72
65
 73
0
 40
0.0
  0
LTYPE
  5
16
100
AcDbSymbolTableRecord
100
AcDbLinetypeTableRecord
  2
CONTINUOUS
 70
64
  3
Solid line
 72
65
 73
0
 40
0.0
  0
LTYPE
  5
1F5
100
AcDbSymbolTableRecord
100
AcDbLinetypeTableRecord
  2
CENTER
 70
64
  3
____ _ ____ _ ____ _ ____ _ ____ _ ____ _ ____
 72
65
 73
4
 40
0.6
 49
0.375
 74
0
 49
-0.075
 74
0
 49
0.075
 74
0
 49
-0.075
 74
0
  0
LTYPE
  5
1F6
100
AcDbSymbolTableRecord
100
AcDbLinetypeTableRecord
  2
HIDDEN
 70
64
  3
- - - - - - - - - - - - - - - - - - - -
 72
65
 73
2
 40
0.2
 49
0.1
 74
0
 49
-0.1
 74
0
  0
LTYPE
  5
1F7
100
AcDbSymbolTableRecord
100
AcDbLinetypeTableRecord
  2
PHANTOM
 70
64
  3
_____ _ _ _____ _ _ _____ _ _ _____
 72
65
 73
6
 40
0.8
 49
0.45
 74
0
 49
-0.05
 74
0
 49
0.1
 74
0
 49
-0.05
 74
0
 49
0.1
 74
0
 49
-0.05
 74
0
  0
LTYPE
  5
1F8
100
AcDbSymbolTableRecord
100
AcDbLinetypeTableRecord
  2
DOT
 70
64
  3
. . . . . . . . . . . . . . . . . . . .
 72
65
 73
2
 40
0.2
 49
0.1
 74
0
 49
-0.1
 74
0
  0
LTYPE
  5
1F9
100
AcDbSymbolTableRecord
100
AcDbLinetypeTableRecord
  2
DASHED
 70
64
  3
- - - - - - - - - - - - - - - - - - - -
 72
65
 73
2
 40
0.2
 49
0.1
 74
0
 49
-0.1
 74
0
  0
ENDTAB
  0
TABLE
  2
LAYER
  5
2
100
AcDbSymbolTable
 70
36
  0
LAYER
  5
10
100
AcDbSymbolTableRecord
100
AcDbLayerTableRecord
  2
0
 70
0
 62
7
  6
CONTINUOUS
  0
LAYER
  5
1FA
100
AcDbSymbolTableRecord
100
AcDbLayerTableRecord
  2
DEFAULT_1
 70
0
 62
7
  6
CENTER
  0
LAYER
  5
1FB
100
AcDbSymbolTableRecord
100
AcDbLayerTableRecord
  2
DEFAULT_2
 70
0
 62
2
  6
HIDDEN
  0
LAYER
  5
1FC
100
AcDbSymbolTableRecord
100
AcDbLayerTableRecord
  2
DEFAULT_3
 70
0
 62
7
  6
PHANTOM
  0
LAYER
  5
1FD
100
AcDbSymbolTableRecord
100
AcDbLayerTableRecord
  2
ALLE_ACHSEN
 70
0
 62
7
  6
CONTINUOUS
  0
LAYER
  5
1FE
100
AcDbSymbolTableRecord
100
AcDbLayerTableRecord
  2
ALLE_BEMASSUNGEN
 70
0
 62
7
  6
CONTINUOUS
  0
LAYER
  5
1FF
100
AcDbSymbolTableRecord
100
AcDbLayerTableRecord
  2
ALLE_EBENEN
 70
0
 62
7
  6
CONTINUOUS
  0
LAYER
  5
200
100
AcDbSymbolTableRecord
100
AcDbLayerTableRecord
  2
ALLE_FASEN
 70
0
 62
7
  6
CONTINUOUS
  0
LAYER
  5
201
100
AcDbSymbolTableRecord
100
AcDbLayerTableRecord
  2
A_ACHSEN
 70
0
 62
7
  6
CONTINUOUS
  0
LAYER
  5
202
100
AcDbSymbolTableRecord
100
AcDbLayerTableRecord
  2
A_BASISEBENEN
 70
0
 62
7
  6
CONTINUOUS
  0
LAYER
  5
203
100
AcDbSymbolTableRecord
100
AcDbLayerTableRecord
  2
A_BEMASSUNGEN
 70
0
 62
7
  6
CONTINUOUS
  0
LAYER
  5
204
100
AcDbSymbolTableRecord
100
AcDbLayerTableRecord
  2
A_BOHRUNGEN
 70
0
 62
7
  6
CONTINUOUS
  0
LAYER
  5
205
100
AcDbSymbolTableRecord
100
AcDbLayerTableRecord
  2
A_EBENEN
 70
0
 62
7
  6
CONTINUOUS
  0
LAYER
  5
206
100
AcDbSymbolTableRecord
100
AcDbLayerTableRecord
  2
A_FASEN
 70
0
 62
7
  6
CONTINUOUS
  0
LAYER
  5
207
100
AcDbSymbolTableRecord
100
AcDbLayerTableRecord
  2
A_FLAECHEN
 70
0
 62
7
  6
CONTINUOUS
  0
LAYER
  5
208
100
AcDbSymbolTableRecord
100
AcDbLayerTableRecord
  2
A_FL_VERBAENDE
 70
0
 62
7
  6
CONTINUOUS
  0
LAYER
  5
209
100
AcDbSymbolTableRecord
100
AcDbLayerTableRecord
  2
A_KURVEN
 70
0
 62
7
  6
CONTINUOUS
  0
LAYER
  5
20A
100
AcDbSymbolTableRecord
100
AcDbLayerTableRecord
  2
A_NOTIZEN_SYMB
 70
0
 62
7
  6
CONTINUOUS
  0
LAYER
  5
20B
100
AcDbSymbolTableRecord
100
AcDbLayerTableRecord
  2
A_RUNDUNGEN
 70
0
 62
7
  6
CONTINUOUS
  0
LAYER
  5
20C
100
AcDbSymbolTableRecord
100
AcDbLayerTableRecord
  2
B-ACHSEN
 70
0
 62
7
  6
CONTINUOUS
  0
LAYER
  5
20D
100
AcDbSymbolTableRecord
100
AcDbLayerTableRecord
  2
B-EBENEN
 70
0
 62
7
  6
CONTINUOUS
  0
LAYER
  5
20E
100
AcDbSymbolTableRecord
100
AcDbLayerTableRecord
  2
B-KOORSYS
 70
0
 62
7
  6
CONTINUOUS
  0
LAYER
  5
20F
100
AcDbSymbolTableRecord
100
AcDbLayerTableRecord
  2
BASISEBENEN
 70
0
 62
7
  6
CONTINUOUS
  0
LAYER
  5
210
100
AcDbSymbolTableRecord
100
AcDbLayerTableRecord
  2
BEMASSUNG
 70
0
 62
7
  6
CONTINUOUS
  0
LAYER
  5
211
100
AcDbSymbolTableRecord
100
AcDbLayerTableRecord
  2
BOHRUNGEN
 70
0
 62
7
  6
CONTINUOUS
  0
LAYER
  5
212
100
AcDbSymbolTableRecord
100
AcDbLayerTableRecord
  2
KOERPER
 70
0
 62
7
  6
CONTINUOUS
  0
LAYER
  5
213
100
AcDbSymbolTableRecord
100
AcDbLayerTableRecord
  2
RUNDUNGEN
 70
0
 62
7
  6
CONTINUOUS
  0
LAYER
  5
214
100
AcDbSymbolTableRecord
100
AcDbLayerTableRecord
  2
STD_ASM_ACHSEN
 70
0
 62
7
  6
CONTINUOUS
  0
LAYER
  5
215
100
AcDbSymbolTableRecord
100
AcDbLayerTableRecord
  2
STD_ASM_BASISEBENEN
 70
0
 62
7
  6
CONTINUOUS
  0
LAYER
  5
216
100
AcDbSymbolTableRecord
100
AcDbLayerTableRecord
  2
STD_ASM_CS0
 70
0
 62
7
  6
CONTINUOUS
  0
LAYER
  5
217
100
AcDbSymbolTableRecord
100
AcDbLayerTableRecord
  2
STD_BASISEBENEN
 70
0
 62
7
  6
CONTINUOUS
  0
LAYER
  5
218
100
AcDbSymbolTableRecord
100
AcDbLayerTableRecord
  2
STD_CS0
 70
0
 62
7
  6
CONTINUOUS
  0
LAYER
  5
219
100
AcDbSymbolTableRecord
100
AcDbLayerTableRecord
  2
VERBUNDFLAECHEN
 70
0
 62
7
  6
CONTINUOUS
  0
LAYER
  5
21A
100
AcDbSymbolTableRecord
100
AcDbLayerTableRecord
  2
XSEC_DATUMS
 70
0
 62
7
  6
CONTINUOUS
  0
LAYER
  5
21B
100
AcDbSymbolTableRecord
100
AcDbLayerTableRecord
  2
ZUBEHOER
 70
0
 62
7
  6
CONTINUOUS
  0
ENDTAB
  0
TABLE
  2
STYLE
  5
3
100
AcDbSymbolTable
 70
1
  0
STYLE
  5
11
100
AcDbSymbolTableRecord
100
AcDbTextStyleTableRecord
  2
STANDARD
 70
0
 40
0.0
 41
1.0
 50
0.0
 71
0
 42
0.2
  3
ARIAL.TTF
  4

  0
STYLE
  5
21C
100
AcDbSymbolTableRecord
100
AcDbTextStyleTableRecord
  2
TEXTSTYLE_1
 70
0
 40
0.0
 41
0.8
 50
0.0
 71
0
 42
0.2
  3
gdt
  4

  0
ENDTAB
  0
TABLE
  2
VIEW
  5
6
100
AcDbSymbolTable
 70
0
  0
ENDTAB
  0
TABLE
  2
UCS
  5
7
100
AcDbSymbolTable
 70
0
  0
ENDTAB
  0
TABLE
  2
APPID
  5
9
100
AcDbSymbolTable
 70
1
  0
APPID
  5
21D
100
AcDbSymbolTableRecord
100
AcDbRegAppTableRecord
  2
ACAD
 70
0
  0
ENDTAB
  0
TABLE
  2
BLOCK_RECORD
  5
1
100
AcDbSymbolTable
 70
0
  0
BLOCK_RECORD
  5
1F
100
AcDbSymbolTableRecord
100
AcDbBlockTableRecord
  2
*MODEL_SPACE
  0
BLOCK_RECORD
  5
1B
100
AcDbSymbolTableRecord
100
AcDbBlockTableRecord
  2
*PAPER_SPACE
  0
BLOCK_RECORD
  5
21E
100
AcDbSymbolTableRecord
100
AcDbBlockTableRecord
  2
_ARROW_FILLED
  0
BLOCK_RECORD
  5
21F
100
AcDbSymbolTableRecord
100
AcDbBlockTableRecord
  2
*D0
  0
BLOCK_RECORD
  5
220
100
AcDbSymbolTableRecord
100
AcDbBlockTableRecord
  2
*D1
  0
BLOCK_RECORD
  5
221
100
AcDbSymbolTableRecord
100
AcDbBlockTableRecord
  2
*D2
  0
BLOCK_RECORD
  5
222
100
AcDbSymbolTableRecord
100
AcDbBlockTableRecord
  2
*D3
  0
ENDTAB
  0
TABLE
  2
DIMSTYLE
  5
A
100
AcDbSymbolTable
 70
1
  0
DIMSTYLE
105
223
100
AcDbSymbolTableRecord
100
AcDbDimStyleTableRecord
  2
STANDARD
 70
0
  3

  4

  5
_ARROW_FILLED
  6
_ARROW_FILLED
  7
_ARROW_FILLED
 40
1.0
 41
3.5
 42
0.0
 43
0.38
 44
2.0
 45
0.0
 46
0.0
 47
0.01
 48
0.01
140
3.5
141
0.09
142
0.0
143
25.4
144
1.0
145
0.0
146
1.0
147
0.625
 71
1
 72
0
 73
0
 74
0
 75
0
 76
0
 77
1
 78
8
 79
2
170
0
171
1
172
0
173
0
174
0
175
0
176
0
177
0
178
2
270
2
271
2
272
2
273
2
274
2
275
0
280
0
281
0
282
0
283
1
284
8
285
0
286
0
287
3
288
0
340
11
  0
DIMSTYLE
105
224
100
AcDbSymbolTableRecord
100
AcDbDimStyleTableRecord
  2
DIMSTYLE_1
 70
0
  3

  4

  5
_ARROW_FILLED
  6
_ARROW_FILLED
  7
_ARROW_FILLED
 40
1.0
 41
3.5
 42
0.0
 43
0.38
 44
2.0
 45
0.0
 46
0.0
 47
0.3
 48
0.3
140
3.5
141
0.09
142
0.0
143
25.4
144
1.0
145
0.0
146
1.0
147
0.875
 71
0
 72
0
 73
0
 74
0
 75
0
 76
0
 77
1
 78
8
 79
2
170
0
171
1
172
0
173
0
174
0
175
0
176
0
177
0
178
2
270
2
271
4
272
4
273
2
274
2
275
0
280
0
281
0
282
0
283
1
284
8
285
0
286
0
287
3
288
0
340
11
  0
DIMSTYLE
105
225
100
AcDbSymbolTableRecord
100
AcDbDimStyleTableRecord
  2
DIMSTYLE_2
 70
0
  3

  4

  5
_ARROW_FILLED
  6
_ARROW_FILLED
  7
_ARROW_FILLED
 40
1.0
 41
3.5
 42
0.0
 43
0.38
 44
2.0
 45
0.0
 46
0.0
 47
0.5
 48
0.5
140
3.5
141
0.09
142
0.0
143
25.4
144
1.0
145
0.0
146
1.0
147
0.875
 71
0
 72
0
 73
0
 74
0
 75
0
 76
0
 77
1
 78
8
 79
2
170
0
171
1
172
0
173
0
174
0
175
0
176
0
177
0
178
2
270
2
271
4
272
4
273
2
274
2
275
0
280
0
281
0
282
0
283
1
284
8
285
0
286
0
287
3
288
0
340
11
  0
ENDTAB
  0
ENDSEC
  0
SECTION
  2
BLOCKS
  0
BLOCK
  5
20
100
AcDbEntity
  8
0
100
AcDbBlockBegin
  2
*MODEL_SPACE
 70
0
 10
0.0
 20
0.0
 30
0.0
  3
*MODEL_SPACE
  1

  0
ENDBLK
  5
21
100
AcDbEntity
  8
0
100
AcDbBlockEnd
  0
BLOCK
  5
1C
100
AcDbEntity
  8
0
100
AcDbBlockBegin
  2
*PAPER_SPACE
 70
0
 10
0.0
 20
0.0
 30
0.0
  3
*PAPER_SPACE
  1

  0
ENDBLK
  5
1D
100
AcDbEntity
  8
0
100
AcDbBlockEnd
  0
BLOCK
  5
226
100
AcDbEntity
  8
0
100
AcDbBlockBegin
  2
_ARROW_FILLED
 70
64
 10
0.0
 20
0.0
  3
_ARROW_FILLED
  1

  0
SOLID
  5
227
100
AcDbEntity
  8
0
  6
BYBLOCK
 62
0
100
AcDbTrace
 10
0.0
 20
0.0
 11
-1.0
 21
0.1428571429
 12
-1.0
 22
-0.1428571429
 13
-1.0
 23
-0.1428571429
  0
ENDBLK
  5
228
100
AcDbEntity
  8
0
  6
BYBLOCK
 62
0
100
AcDbBlockEnd
  0
BLOCK
  5
229
100
AcDbEntity
  8
ALLE_BEMASSUNGEN
100
AcDbBlockBegin
 62
2
  6
CONTINUOUS
  2
*D0
 70
65
 10
0.0
 20
0.0
  3
*D0
  1

  0
MTEXT
  5
22A
100
AcDbEntity
  8
ALLE_BEMASSUNGEN
100
AcDbMText
 62
2
  6
CONTINUOUS
  7
STANDARD
 71
2
 72
1
 10
11.5125921382
 20
82.0535002646
 30
0.0
 11
0.0
 21
1.0
 31
0.0
  1
60
 40
3.5
 41
8.25
  0
LINE
  5
22B
100
AcDbEntity
  8
ALLE_BEMASSUNGEN
100
AcDbLine
 62
2
  6
CONTINUOUS
 10
27.1868740284
 20
112.0535002646
 11
13.8875921382
 21
112.0535002646
  0
LINE
  5
22C
100
AcDbEntity
  8
ALLE_BEMASSUNGEN
100
AcDbLine
 62
2
  6
CONTINUOUS
 10
27.8941909905
 20
52.0535002646
 11
13.8875921382
 21
52.0535002646
  0
LINE
  5
22D
100
AcDbEntity
  8
ALLE_BEMASSUNGEN
100
AcDbLine
 62
2
  6
CONTINUOUS
 10
15.8875921382
 20
112.0535002646
 11
15.8875921382
 21
82.0535002646
  0
LINE
  5
22E
100
AcDbEntity
  8
ALLE_BEMASSUNGEN
100
AcDbLine
 62
2
  6
CONTINUOUS
 10
15.8875921382
 20
52.0535002646
 11
15.8875921382
 21
82.0535002646
  0
INSERT
  5
22F
100
AcDbEntity
  8
ALLE_BEMASSUNGEN
100
AcDbBlockReference
 62
2
  6
CONTINUOUS
  2
_ARROW_FILLED
 10
15.8875921382
 20
112.0535002646
 41
3.5
 42
3.5
 43
3.5
 50
90.0
  0
INSERT
  5
230
100
AcDbEntity
  8
ALLE_BEMASSUNGEN
100
AcDbBlockReference
 62
2
  6
CONTINUOUS
  2
_ARROW_FILLED
 10
15.8875921382
 20
52.0535002646
 41
3.5
 42
3.5
 43
3.5
 50
270.0
  0
ENDBLK
  5
231
100
AcDbEntity
  8
0
  6
BYBLOCK
 62
0
100
AcDbBlockEnd
  0
BLOCK
  5
232
100
AcDbEntity
  8
ALLE_BEMASSUNGEN
100
AcDbBlockBegin
 62
2
  6
CONTINUOUS
  2
*D1
 70
65
 10
0.0
 20
0.0
  3
*D1
  1

  0
MTEXT
  5
233
100
AcDbEntity
  8
ALLE_BEMASSUNGEN
100
AcDbMText
 62
2
  6
CONTINUOUS
  7
STANDARD
 71
2
 72
1
 10
3.2888942943
 20
82.0535002646
 30
0.0
 11
0.0
 21
1.0
 31
0.0
  1
84
 40
3.5
 41
8.25
  0
LINE
  5
234
100
AcDbEntity
  8
ALLE_BEMASSUNGEN
100
AcDbLine
 62
2
  6
CONTINUOUS
 10
25.084975807
 20
124.0535002646
 11
5.6638942943
 21
124.0535002646
  0
LINE
  5
235
100
AcDbEntity
  8
ALLE_BEMASSUNGEN
100
AcDbLine
 62
2
  6
CONTINUOUS
 10
25.000765141
 20
40.0535002646
 11
5.6638942943
 21
40.0535002646
  0
LINE
  5
236
100
AcDbEntity
  8
ALLE_BEMASSUNGEN
100
AcDbLine
 62
2
  6
CONTINUOUS
 10
7.6638942943
 20
124.0535002646
 11
7.6638942943
 21
82.0535002646
  0
LINE
  5
237
100
AcDbEntity
  8
ALLE_BEMASSUNGEN
100
AcDbLine
 62
2
  6
CONTINUOUS
 10
7.6638942943
 20
40.0535002646
 11
7.6638942943
 21
82.0535002646
  0
INSERT
  5
238
100
AcDbEntity
  8
ALLE_BEMASSUNGEN
100
AcDbBlockReference
 62
2
  6
CONTINUOUS
  2
_ARROW_FILLED
 10
7.6638942943
 20
124.0535002646
 41
3.5
 42
3.5
 43
3.5
 50
90.0
  0
INSERT
  5
239
100
AcDbEntity
  8
ALLE_BEMASSUNGEN
100
AcDbBlockReference
 62
2
  6
CONTINUOUS
  2
_ARROW_FILLED
 10
7.6638942943
 20
40.0535002646
 41
3.5
 42
3.5
 43
3.5
 50
270.0
  0
ENDBLK
  5
23A
100
AcDbEntity
  8
0
  6
BYBLOCK
 62
0
100
AcDbBlockEnd
  0
BLOCK
  5
23B
100
AcDbEntity
  8
ALLE_BEMASSUNGEN
100
AcDbBlockBegin
 62
2
  6
CONTINUOUS
  2
*D2
 70
65
 10
0.0
 20
0.0
  3
*D2
  1

  0
MTEXT
  5
23C
100
AcDbEntity
  8
ALLE_BEMASSUNGEN
100
AcDbMText
 62
2
  6
CONTINUOUS
  7
STANDARD
 71
2
 72
1
 10
83.7166592084
 20
82.0535002646
 30
0.0
 11
0.0
 21
1.0
 31
0.0
  1
102
 40
3.5
 41
11.25
  0
LINE
  5
23D
100
AcDbEntity
  8
ALLE_BEMASSUNGEN
100
AcDbLine
 62
2
  6
CONTINUOUS
 10
84.9666540277
 20
133.0535002646
 11
90.0916592084
 21
133.0535002646
  0
LINE
  5
23E
100
AcDbEntity
  8
ALLE_BEMASSUNGEN
100
AcDbLine
 62
2
  6
CONTINUOUS
 10
85.1311279846
 20
31.0535002646
 11
90.0916592084
 21
31.0535002646
  0
LINE
  5
23F
100
AcDbEntity
  8
ALLE_BEMASSUNGEN
100
AcDbLine
 62
2
  6
CONTINUOUS
 10
88.0916592084
 20
133.0535002646
 11
88.0916592084
 21
82.0535002646
  0
LINE
  5
240
100
AcDbEntity
  8
ALLE_BEMASSUNGEN
100
AcDbLine
 62
2
  6
CONTINUOUS
 10
88.0916592084
 20
31.0535002646
 11
88.0916592084
 21
82.0535002646
  0
INSERT
  5
241
100
AcDbEntity
  8
ALLE_BEMASSUNGEN
100
AcDbBlockReference
 62
2
  6
CONTINUOUS
  2
_ARROW_FILLED
 10
88.0916592084
 20
133.0535002646
 41
3.5
 42
3.5
 43
3.5
 50
90.0
  0
INSERT
  5
242
100
AcDbEntity
  8
ALLE_BEMASSUNGEN
100
AcDbBlockReference
 62
2
  6
CONTINUOUS
  2
_ARROW_FILLED
 10
88.0916592084
 20
31.0535002646
 41
3.5
 42
3.5
 43
3.5
 50
270.0
  0
ENDBLK
  5
243
100
AcDbEntity
  8
0
  6
BYBLOCK
 62
0
100
AcDbBlockEnd
  0
BLOCK
  5
244
100
AcDbEntity
  8
ALLE_BEMASSUNGEN
100
AcDbBlockBegin
 62
2
  6
CONTINUOUS
  2
*D3
 70
65
 10
0.0
 20
0.0
  3
*D3
  1

  0
MTEXT
  5
245
100
AcDbEntity
  8
ALLE_BEMASSUNGEN
100
AcDbMText
 62
2
  6
CONTINUOUS
  7
STANDARD
 71
2
 72
1
 10
93.5850966212
 20
82.0535002646
 30
0.0
 11
0.0
 21
1.0
 31
0.0
  1
124
 40
3.5
 41
11.25
  0
LINE
  5
246
100
AcDbEntity
  8
ALLE_BEMASSUNGEN
100
AcDbLine
 62
2
  6
CONTINUOUS
 10
80.5258571919
 20
144.0535002646
 11
99.9600966212
 21
144.0535002646
  0
LINE
  5
247
100
AcDbEntity
  8
ALLE_BEMASSUNGEN
100
AcDbLine
 62
2
  6
CONTINUOUS
 10
80.6903311488
 20
20.0535002646
 11
99.9600966212
 21
20.0535002646
  0
LINE
  5
248
100
AcDbEntity
  8
ALLE_BEMASSUNGEN
100
AcDbLine
 62
2
  6
CONTINUOUS
 10
97.9600966212
 20
144.0535002646
 11
97.9600966212
 21
82.0535002646
  0
LINE
  5
249
100
AcDbEntity
  8
ALLE_BEMASSUNGEN
100
AcDbLine
 62
2
  6
CONTINUOUS
 10
97.9600966212
 20
20.0535002646
 11
97.9600966212
 21
82.0535002646
  0
INSERT
  5
24A
100
AcDbEntity
  8
ALLE_BEMASSUNGEN
100
AcDbBlockReference
 62
2
  6
CONTINUOUS
  2
_ARROW_FILLED
 10
97.9600966212
 20
144.0535002646
 41
3.5
 42
3.5
 43
3.5
 50
90.0
  0
INSERT
  5
24B
100
AcDbEntity
  8
ALLE_BEMASSUNGEN
100
AcDbBlockReference
 62
2
  6
CONTINUOUS
  2
_ARROW_FILLED
 10
97.9600966212
 20
20.0535002646
 41
3.5
 42
3.5
 43
3.5
 50
270.0
  0
ENDBLK
  5
24C
100
AcDbEntity
  8
0
  6
BYBLOCK
 62
0
100
AcDbBlockEnd
  0
ENDSEC
  0
SECTION
  2
ENTITIES
  0
DIMENSION
  5
24D
100
AcDbEntity
  8
ALLE_BEMASSUNGEN
100
AcDbDimension
 62
2
  6
CONTINUOUS
  2
*D0
 10
15.8875921382
 20
52.0535002646
 11
15.8875921382
 21
81.553500719
 70
160
  3
DIMSTYLE_1
100
AcDbAlignedDimension
 13
27.1868740284
 23
112.0535002646
 14
27.8941909905
 24
52.0535002646
 50
270.0
100
AcDbRotatedDimension
  0
DIMENSION
  5
24E
100
AcDbEntity
  8
ALLE_BEMASSUNGEN
100
AcDbDimension
 62
2
  6
CONTINUOUS
  2
*D1
 10
7.6638942943
 20
40.0535002646
 11
7.6638942943
 21
81.5535006463
 70
160
  3
DIMSTYLE_1
100
AcDbAlignedDimension
 13
25.084975807
 23
124.0535002646
 14
25.000765141
 24
40.0535002646
 50
270.0
100
AcDbRotatedDimension
  0
DIMENSION
  5
24F
100
AcDbEntity
  8
ALLE_BEMASSUNGEN
100
AcDbDimension
 62
2
  6
CONTINUOUS
  2
*D2
 10
88.0916592084
 20
31.0535002646
 11
88.0916592084
 21
81.5534961488
 70
160
  3
DIMSTYLE_1
100
AcDbAlignedDimension
 13
84.9666540277
 23
133.0535002646
 14
85.1311279846
 24
31.0535002646
 50
270.0
100
AcDbRotatedDimension
  0
DIMENSION
  5
250
100
AcDbEntity
  8
ALLE_BEMASSUNGEN
100
AcDbDimension
 62
2
  6
CONTINUOUS
  2
*D3
 10
97.9600966212
 20
20.0535002646
 11
97.9600966212
 21
81.553496236
 70
160
  3
DIMSTYLE_2
100
AcDbAlignedDimension
 13
80.5258571919
 23
144.0535002646
 14
80.6903311488
 24
20.0535002646
 50
270.0
100
AcDbRotatedDimension
  0
LINE
  5
251
100
AcDbEntity
  8
A_RUNDUNGEN
100
AcDbLine
 62
7
  6
CONTINUOUS
 10
77.9200296805
 20
12.0535002646
 11
62.9200296805
 21
12.0535002646
  0
LINE
  5
252
100
AcDbEntity
  8
A_RUNDUNGEN
100
AcDbLine
 62
7
  6
CONTINUOUS
 10
39.4950297105
 20
12.0535002646
 11
29.8200296805
 21
12.0535002646
  0
LINE
  5
253
100
AcDbEntity
  8
A_ACHSEN
100
AcDbLine
 62
7
  6
CONTINUOUS
 10
39.4950297105
 20
12.0535002646
 11
59.3450296754
 21
12.0535002646
  0
LINE
  5
254
100
AcDbEntity
  8
A_ACHSEN
100
AcDbLine
 62
7
  6
CONTINUOUS
 10
61.9200296805
 20
12.0535002646
 11
62.9200296805
 21
12.0535002646
  0
LINE
  5
255
100
AcDbEntity
  8
A_ACHSEN
100
AcDbLine
 62
2
  6
HIDDEN
 10
73.9200296805
 20
13.8035002646
 11
73.6700296805
 21
13.8035002646
  0
LINE
  5
256
100
AcDbEntity
  8
A_ACHSEN
100
AcDbLine
 62
2
  6
HIDDEN
 10
63.1700296805
 20
13.8035002646
 11
60.9357161972
 21
13.8035002646
  0
LINE
  5
257
100
AcDbEntity
  8
A_ACHSEN
100
AcDbLine
 62
2
  6
HIDDEN
 10
77.9200296805
 20
16.8035002646
 11
76.9200296805
 21
16.8035002646
  0
LINE
  5
258
100
AcDbEntity
  8
A_ACHSEN
100
AcDbLine
 62
2
  6
CENTER
 10
71.1063176286
 20
20.0535002646
 11
80.9200296805
 21
20.0535002646
  0
LINE
  5
259
100
AcDbEntity
  8
A_ACHSEN
100
AcDbLine
 62
2
  6
HIDDEN
 10
77.9200296805
 20
23.3035002646
 11
76.9200296805
 21
23.3035002646
  0
LINE
  5
25A
100
AcDbEntity
  8
0
100
AcDbLine
 62
7
  6
CONTINUOUS
 10
77.9200296805
 20
24.5535002646
 11
78.0200296805
 21
24.5535002646
  0
LINE
  5
25B
100
AcDbEntity
  8
A_ACHSEN
100
AcDbLine
 62
2
  6
HIDDEN
 10
73.9200296805
 20
26.3035002646
 11
73.6700296805
 21
26.3035002646
  0
LINE
  5
25C
100
AcDbEntity
  8
A_ACHSEN
100
AcDbLine
 62
2
  6
HIDDEN
 10
63.1700296805
 20
26.3035002646
 11
60.9200296805
 21
26.3035002646
  0
LINE
  5
25D
100
AcDbEntity
  8
A_ACHSEN
100
AcDbLine
 62
2
  6
HIDDEN
 10
73.6700296805
 20
26.5535002646
 11
63.1700296805
 21
26.5535002646
  0
LINE
  5
25E
100
AcDbEntity
  8
ALLE_FASEN
100
AcDbLine
 62
2
  6
HIDDEN
 10
63.2950296805
 20
26.5535002646
 11
73.5450296805
 21
26.5535002646
  0
LINE
  5
25F
100
AcDbEntity
  8
0
100
AcDbLine
 62
7
  6
CONTINUOUS
 10
78.0200296805
 20
28.6035002646
 11
82.4200296805
 21
28.6035002646
  0
LINE
  5
260
100
AcDbEntity
  8
A_ACHSEN
100
AcDbLine
 62
2
  6
CENTER
 10
74.9200296805
 20
31.0535002646
 11
85.4200320305
 21
31.0535002646
  0
LINE
  5
261
100
AcDbEntity
  8
0
100
AcDbLine
 62
7
  6
CONTINUOUS
 10
78.0200296805
 20
33.5035002646
 11
82.4200296805
 21
33.5035002646
  0
LINE
  5
262
100
AcDbEntity
  8
A_ACHSEN
100
AcDbLine
 62
2
  6
HIDDEN
 10
39.7950296805
 20
35.5535002646
 11
44.7450296805
 21
35.5535002646
  0
LINE
  5
263
100
AcDbEntity
  8
A_ACHSEN
100
AcDbLine
 62
2
  6
HIDDEN
 10
39.4950296805
 20
128.2535002646
 11
39.7950296805
 21
128.5535002646
  0
LINE
  5
264
100
AcDbEntity
  8
DEFAULT_2
100
AcDbLine
 62
2
  6
HIDDEN
 10
39.4950296805
 20
36.2535002646
 11
45.4450296805
 21
36.2535002646
  0
LINE
  5
265
100
AcDbEntity
  8
DEFAULT_2
100
AcDbLine
 62
2
  6
HIDDEN
 10
39.4950296805
 20
36.6108516649
 11
41.0225402654
 21
36.6108516649
  0
LINE
  5
266
100
AcDbEntity
  8
DEFAULT_2
100
AcDbLine
 62
2
  6
HIDDEN
 10
39.4950296805
 20
37.2925052793
 11
41.0225402654
 21
37.2925052793
  0
LINE
  5
267
100
AcDbEntity
  8
DEFAULT_2
100
AcDbLine
 62
2
  6
HIDDEN
 10
39.4950296805
 20
37.3718466502
 11
41.0225402654
 21
37.3718466502
  0
LINE
  5
268
100
AcDbEntity
  8
A_ACHSEN
100
AcDbLine
 62
2
  6
CENTER
 10
36.4950296805
 20
38.0535002646
 11
48.4950296805
 21
38.0535002646
  0
LINE
  5
269
100
AcDbEntity
  8
DEFAULT_2
100
AcDbLine
 62
2
  6
HIDDEN
 10
39.4950296805
 20
38.7351538791
 11
41.0225402654
 21
38.7351538791
  0
LINE
  5
26A
100
AcDbEntity
  8
DEFAULT_2
100
AcDbLine
 62
2
  6
HIDDEN
 10
39.4950296805
 20
38.8144952499
 11
41.0225402654
 21
38.8144952499
  0
LINE
  5
26B
100
AcDbEntity
  8
DEFAULT_2
100
AcDbLine
 62
2
  6
HIDDEN
 10
39.4950296805
 20
39.4961488643
 11
41.0225402654
 21
39.4961488643
  0
LINE
  5
26C
100
AcDbEntity
  8
DEFAULT_2
100
AcDbLine
 62
2
  6
HIDDEN
 10
39.4950296805
 20
39.8535002646
 11
45.4450296805
 21
39.8535002646
  0
LINE
  5
26D
100
AcDbEntity
  8
A_ACHSEN
100
AcDbLine
 62
2
  6
CENTER
 10
25.000765141
 20
40.0535002646
 11
39.8392942199
 21
40.0535002646
  0
LINE
  5
26E
100
AcDbEntity
  8
A_ACHSEN
100
AcDbLine
 62
2
  6
HIDDEN
 10
39.7950296805
 20
40.5535002646
 11
44.7450296805
 21
40.5535002646
  0
LINE
  5
26F
100
AcDbEntity
  8
A_ACHSEN
100
AcDbLine
 62
2
  6
HIDDEN
 10
39.4950296805
 20
35.8535002646
 11
39.7950296805
 21
35.5535002646
  0
LINE
  5
270
100
AcDbEntity
  8
A_ACHSEN
100
AcDbLine
 62
7
  6
CONTINUOUS
 10
59.3450296483
 20
43.5035002646
 11
39.4950296805
 21
43.5035002646
  0
LINE
  5
271
100
AcDbEntity
  8
A_ACHSEN
100
AcDbLine
 62
7
  6
CONTINUOUS
 10
40.9450296909
 20
43.9535002646
 11
57.89502967
 21
43.9535002646
  0
LINE
  5
272
100
AcDbEntity
  8
A_ACHSEN
100
AcDbLine
 62
2
  6
CONTINUOUS
 10
71.1441037545
 20
44.0535002646
 11
70.1959556064
 21
44.0535002646
  0
LINE
  5
273
100
AcDbEntity
  8
A_ACHSEN
100
AcDbLine
 62
2
  6
CENTER
 10
68.2996593101
 20
44.0535002646
 11
62.6700296805
 21
44.0535002646
  0
LINE
  5
274
100
AcDbEntity
  8
A_ACHSEN
100
AcDbLine
 62
2
  6
CENTER
 10
73.0404000508
 20
44.0535002646
 11
78.6700296805
 21
44.0535002646
  0
LINE
  5
275
100
AcDbEntity
  8
A_ACHSEN
100
AcDbLine
 62
7
  6
CONTINUOUS
 10
59.4155286675
 20
44.5535002646
 11
39.4200298433
 21
44.5535002646
  0
LINE
  5
276
100
AcDbEntity
  8
A_ACHSEN
100
AcDbLine
 62
7
  6
CONTINUOUS
 10
59.4155286675
 20
44.5535002646
 11
60.9200296805
 21
44.5535002646
  0
LINE
  5
277
100
AcDbEntity
  8
DEFAULT_2
100
AcDbLine
 62
2
  6
HIDDEN
 10
39.5032535611
 20
124.6252114917
 11
39.4950296805
 21
124.6101245916
  0
LINE
  5
278
100
AcDbEntity
  8
DEFAULT_2
100
AcDbLine
 62
2
  6
HIDDEN
 10
39.5032423024
 20
124.6252129178
 11
39.4950296805
 21
124.6103741538
  0
LINE
  5
279
100
AcDbEntity
  8
A_FLAECHEN
100
AcDbLine
 62
2
  6
HIDDEN
 10
41.8558735987
 20
126.0535002646
 11
41.0312506912
 21
124.6252114917
  0
LINE
  5
27A
100
AcDbEntity
  8
DEFAULT_2
100
AcDbLine
 62
2
  6
HIDDEN
 10
41.0312856855
 20
124.6252067472
 11
41.0225402654
 21
124.6103741538
  0
LINE
  5
27B
100
AcDbEntity
  8
A_ACHSEN
100
AcDbLine
 62
2
  6
HIDDEN
 10
44.7450296805
 20
123.5535002646
 11
45.4950296805
 21
124.3035002646
  0
LINE
  5
27C
100
AcDbEntity
  8
A_ACHSEN
100
AcDbLine
 62
2
  6
HIDDEN
 10
44.7450296805
 20
40.5535002646
 11
45.4950296805
 21
39.8035002646
  0
LINE
  5
27D
100
AcDbEntity
  8
DEFAULT_2
100
AcDbLine
 62
2
  6
HIDDEN
 10
41.0371787853
 20
39.4716125023
 11
41.0225402654
 21
39.4961488643
  0
LINE
  5
27E
100
AcDbEntity
  8
A_FLAECHEN
100
AcDbLine
 62
2
  6
HIDDEN
 10
41.8558735987
 20
38.0535002646
 11
41.0371297676
 21
39.4716061785
  0
LINE
  5
27F
100
AcDbEntity
  8
DEFAULT_2
100
AcDbLine
 62
2
  6
HIDDEN
 10
39.5087304007
 20
39.4716048955
 11
39.4950296805
 21
39.4961488643
  0
LINE
  5
280
100
AcDbEntity
  8
DEFAULT_2
100
AcDbLine
 62
2
  6
HIDDEN
 10
39.5087411184
 20
39.4716061785
 11
39.4950296805
 21
39.4968759376
  0
LINE
  5
281
100
AcDbEntity
  8
A_RUNDUNGEN
100
AcDbLine
 62
7
  6
CONTINUOUS
 10
23.8200296805
 20
146.0535002646
 11
23.8200296805
 21
18.0535002646
  0
LINE
  5
282
100
AcDbEntity
  8
A_ACHSEN
100
AcDbLine
 62
2
  6
CONTINUOUS
 10
32.8941037545
 20
52.0535002646
 11
31.9459556064
 21
52.0535002646
  0
LINE
  5
283
100
AcDbEntity
  8
A_ACHSEN
100
AcDbLine
 62
2
  6
CENTER
 10
30.0496593101
 20
52.0535002646
 11
27.0700296805
 21
52.0535002646
  0
LINE
  5
284
100
AcDbEntity
  8
A_ACHSEN
100
AcDbLine
 62
2
  6
CENTER
 10
34.7904000508
 20
52.0535002646
 11
37.7700296805
 21
52.0535002646
  0
LINE
  5
285
100
AcDbEntity
  8
A_ACHSEN
100
AcDbLine
 62
2
  6
CONTINUOUS
 10
32.4200296805
 20
52.5275743387
 11
32.4200296805
 21
51.5794261905
  0
LINE
  5
286
100
AcDbEntity
  8
A_ACHSEN
100
AcDbLine
 62
2
  6
CENTER
 10
32.4200296805
 20
32.6342357252
 11
32.4200296805
 21
49.6831298942
  0
LINE
  5
287
100
AcDbEntity
  8
A_ACHSEN
100
AcDbLine
 62
2
  6
CENTER
 10
32.4200296805
 20
54.423870635
 11
32.4200296805
 21
57.4035002646
  0
LINE
  5
288
100
AcDbEntity
  8
A_ACHSEN
100
AcDbLine
 62
2
  6
CENTER
 10
32.4200296805
 20
75.9035002646
 11
32.4200296805
 21
88.2035002646
  0
LINE
  5
289
100
AcDbEntity
  8
A_ACHSEN
100
AcDbLine
 62
2
  6
CENTER
 10
32.4200296805
 20
106.8203446125
 11
32.4200296805
 21
131.3885541381
  0
LINE
  5
28A
100
AcDbEntity
  8
0
100
AcDbLine
 62
2
  6
CONTINUOUS
 10
39.4949548157
 20
123.5531162684
 11
39.4949657896
 21
123.553160185
  0
LINE
  5
28B
100
AcDbEntity
  8
DEFAULT_2
100
AcDbLine
 62
2
  6
HIDDEN
 10
76.9200296805
 20
140.8035002646
 11
73.9200296805
 21
137.8035002646
  0
LINE
  5
28C
100
AcDbEntity
  8
A_ACHSEN
100
AcDbLine
 62
2
  6
CONTINUOUS
 10
71.1441037545
 20
60.0535002646
 11
70.1959556064
 21
60.0535002646
  0
LINE
  5
28D
100
AcDbEntity
  8
A_ACHSEN
100
AcDbLine
 62
2
  6
CENTER
 10
68.2996593101
 20
60.0535002646
 11
61.6700296805
 21
60.0535002646
  0
LINE
  5
28E
100
AcDbEntity
  8
A_ACHSEN
100
AcDbLine
 62
2
  6
CENTER
 10
73.0404000508
 20
60.0535002646
 11
79.6700296805
 21
60.0535002646
  0
LINE
  5
28F
100
AcDbEntity
  8
DEFAULT_2
100
AcDbLine
 62
2
  6
HIDDEN
 10
76.9200296805
 20
23.3035002646
 11
73.9200296805
 21
26.3035002646
  0
LINE
  5
290
100
AcDbEntity
  8
0
100
AcDbLine
 62
2
  6
CONTINUOUS
 10
39.4949548157
 20
40.5538842608
 11
39.4949657896
 21
40.5538403442
  0
LINE
  5
291
100
AcDbEntity
  8
A_ACHSEN
100
AcDbLine
 62
7
  6
CONTINUOUS
 10
39.4200296805
 20
44.5535002646
 11
39.4200296805
 21
119.5535002646
  0
LINE
  5
292
100
AcDbEntity
  8
DEFAULT_2
100
AcDbLine
 62
2
  6
HIDDEN
 10
39.4950296805
 20
127.8535002646
 11
39.4950296805
 21
124.2535002646
  0
LINE
  5
293
100
AcDbEntity
  8
DEFAULT_2
100
AcDbLine
 62
2
  6
HIDDEN
 10
39.4950296805
 20
39.8535002646
 11
39.4950296805
 21
36.2535002646
  0
LINE
  5
294
100
AcDbEntity
  8
A_ACHSEN
100
AcDbLine
 62
7
  6
CONTINUOUS
 10
39.4950296805
 20
12.0535002646
 11
39.4950296805
 21
43.5035002646
  0
LINE
  5
295
100
AcDbEntity
  8
A_ACHSEN
100
AcDbLine
 62
7
  6
CONTINUOUS
 10
39.4950296805
 20
120.6035002646
 11
39.4950296805
 21
152.0535002646
  0
LINE
  5
296
100
AcDbEntity
  8
A_ACHSEN
100
AcDbLine
 62
2
  6
HIDDEN
 10
39.7950296805
 20
35.5535002646
 11
39.7950296805
 21
40.5535002646
  0
LINE
  5
297
100
AcDbEntity
  8
A_ACHSEN
100
AcDbLine
 62
2
  6
HIDDEN
 10
39.7950296805
 20
123.5535002646
 11
39.7950296805
 21
128.5535002646
  0
LINE
  5
298
100
AcDbEntity
  8
A_ACHSEN
100
AcDbLine
 62
7
  6
CONTINUOUS
 10
40.9450296805
 20
120.1535002646
 11
40.9450296805
 21
119.5535002646
  0
LINE
  5
299
100
AcDbEntity
  8
A_ACHSEN
100
AcDbLine
 62
7
  6
CONTINUOUS
 10
40.9450296805
 20
43.9535002646
 11
40.9450296805
 21
44.5535002646
  0
LINE
  5
29A
100
AcDbEntity
  8
A_ACHSEN
100
AcDbLine
 62
7
  6
CONTINUOUS
 10
42.8478396136
 20
120.6035002646
 11
42.8478396136
 21
120.1535002646
  0
LINE
  5
29B
100
AcDbEntity
  8
A_ACHSEN
100
AcDbLine
 62
7
  6
CONTINUOUS
 10
42.8478396136
 20
43.9535002646
 11
42.8478396136
 21
43.5035002646
  0
LINE
  5
29C
100
AcDbEntity
  8
A_FASEN
100
AcDbLine
 62
7
  6
CONTINUOUS
 10
82.9200071494
 20
131.1035228077
 11
82.4200013722
 21
130.603528588
  0
LINE
  5
29D
100
AcDbEntity
  8
A_FASEN
100
AcDbLine
 62
7
  6
CONTINUOUS
 10
82.9200071494
 20
33.0034777215
 11
82.4200013722
 21
33.5034719412
  0
LINE
  5
29E
100
AcDbEntity
  8
0
100
AcDbLine
 62
7
  6
CONTINUOUS
 10
44.4200296805
 20
43.5035002646
 11
44.4200296805
 21
43.9535002646
  0
LINE
  5
29F
100
AcDbEntity
  8
0
100
AcDbLine
 62
7
  6
CONTINUOUS
 10
44.4200296805
 20
120.1535002646
 11
44.4200296805
 21
120.6035002646
  0
LINE
  5
2A0
100
AcDbEntity
  8
A_ACHSEN
100
AcDbLine
 62
2
  6
HIDDEN
 10
44.7450296805
 20
35.5535002646
 11
44.7450296805
 21
40.5535002646
  0
LINE
  5
2A1
100
AcDbEntity
  8
A_ACHSEN
100
AcDbLine
 62
2
  6
HIDDEN
 10
44.7450296805
 20
123.5535002646
 11
44.7450296805
 21
128.5535002646
  0
LINE
  5
2A2
100
AcDbEntity
  8
DEFAULT_2
100
AcDbLine
 62
2
  6
HIDDEN
 10
45.4450296805
 20
127.8535002646
 11
45.4450296805
 21
124.2538114863
  0
LINE
  5
2A3
100
AcDbEntity
  8
DEFAULT_2
100
AcDbLine
 62
2
  6
HIDDEN
 10
45.4450296805
 20
39.8535002646
 11
45.4450296805
 21
36.2535002646
  0
LINE
  5
2A4
100
AcDbEntity
  8
A_ACHSEN
100
AcDbLine
 62
2
  6
HIDDEN
 10
45.4950296805
 20
36.3035003282
 11
45.4950296805
 21
39.803500201
  0
LINE
  5
2A5
100
AcDbEntity
  8
A_ACHSEN
100
AcDbLine
 62
2
  6
HIDDEN
 10
45.4950296805
 20
124.3035002922
 11
45.4950296805
 21
127.803500237
  0
LINE
  5
2A6
100
AcDbEntity
  8
A_ACHSEN
100
AcDbLine
 62
2
  6
CENTER
 10
49.4200296805
 20
6.5535002646
 11
49.4200296805
 21
157.5535002646
  0
LINE
  5
2A7
100
AcDbEntity
  8
0
100
AcDbLine
 62
2
  6
CONTINUOUS
 10
39.4949659127
 20
35.5531606826
 11
39.4949548157
 21
35.5531162684
  0
LINE
  5
2A8
100
AcDbEntity
  8
0
100
AcDbLine
 62
2
  6
CONTINUOUS
 10
39.4949548157
 20
35.5531162684
 11
39.4949657896
 21
35.553160185
  0
LINE
  5
2A9
100
AcDbEntity
  8
A_ACHSEN
100
AcDbLine
 62
2
  6
CENTER
 10
22.0129707141
 20
82.0535002646
 11
79.4200296805
 21
82.0535002646
  0
LINE
  5
2AA
100
AcDbEntity
  8
0
100
AcDbLine
 62
2
  6
CONTINUOUS
 10
39.4949659127
 20
128.5538398466
 11
39.4949548157
 21
128.5538842608
  0
LINE
  5
2AB
100
AcDbEntity
  8
0
100
AcDbLine
 62
2
  6
CONTINUOUS
 10
39.4949548157
 20
128.5538842608
 11
39.4949657896
 21
128.5538403442
  0
LINE
  5
2AC
100
AcDbEntity
  8
0
100
AcDbLine
 62
7
  6
CONTINUOUS
 10
54.4200296805
 20
43.5035002646
 11
54.4200296805
 21
43.9535002646
  0
LINE
  5
2AD
100
AcDbEntity
  8
0
100
AcDbLine
 62
7
  6
CONTINUOUS
 10
54.4200296805
 20
120.1535002646
 11
54.4200296805
 21
120.6035002646
  0
LINE
  5
2AE
100
AcDbEntity
  8
A_ACHSEN
100
AcDbLine
 62
7
  6
CONTINUOUS
 10
57.8950296805
 20
120.1535002646
 11
57.8950296805
 21
119.5535002646
  0
LINE
  5
2AF
100
AcDbEntity
  8
A_ACHSEN
100
AcDbLine
 62
7
  6
CONTINUOUS
 10
57.8950296805
 20
43.9535002646
 11
57.8950296805
 21
44.5535002646
  0
LINE
  5
2B0
100
AcDbEntity
  8
A_ACHSEN
100
AcDbLine
 62
2
  6
CONTINUOUS
 10
71.1441037545
 20
83.5535002646
 11
70.1959556064
 21
83.5535002646
  0
LINE
  5
2B1
100
AcDbEntity
  8
A_ACHSEN
100
AcDbLine
 62
2
  6
CENTER
 10
68.2996593101
 20
83.5535002646
 11
63.1700296805
 21
83.5535002646
  0
LINE
  5
2B2
100
AcDbEntity
  8
A_ACHSEN
100
AcDbLine
 62
2
  6
CENTER
 10
73.0404000508
 20
83.5535002646
 11
78.1700296805
 21
83.5535002646
  0
LINE
  5
2B3
100
AcDbEntity
  8
A_ACHSEN
100
AcDbLine
 62
7
  6
CONTINUOUS
 10
59.3450296805
 20
152.0535002646
 11
59.3450296805
 21
120.6035002646
  0
LINE
  5
2B4
100
AcDbEntity
  8
A_ACHSEN
100
AcDbLine
 62
7
  6
CONTINUOUS
 10
59.3450296805
 20
43.5035002646
 11
59.3450296805
 21
12.0535002646
  0
LINE
  5
2B5
100
AcDbEntity
  8
A_ACHSEN
100
AcDbLine
 62
7
  6
CONTINUOUS
 10
59.4155286675
 20
44.5535002646
 11
59.4155286675
 21
119.5535002646
  0
LINE
  5
2B6
100
AcDbEntity
  8
A_RUNDUNGEN
100
AcDbLine
 62
7
  6
CONTINUOUS
 10
60.9200296805
 20
150.0535002646
 11
60.9200296805
 21
14.0535002646
  0
LINE
  5
2B7
100
AcDbEntity
  8
A_ACHSEN
100
AcDbLine
 62
2
  6
HIDDEN
 10
63.1700296805
 20
152.0535002646
 11
63.1700296805
 21
150.3035002646
  0
LINE
  5
2B8
100
AcDbEntity
  8
A_ACHSEN
100
AcDbLine
 62
2
  6
HIDDEN
 10
63.1700296805
 20
137.8035002646
 11
63.1700296805
 21
137.5535002646
  0
LINE
  5
2B9
100
AcDbEntity
  8
A_ACHSEN
100
AcDbLine
 62
2
  6
HIDDEN
 10
63.1700296805
 20
26.5535002646
 11
63.1700296805
 21
26.3035002646
  0
LINE
  5
2BA
100
AcDbEntity
  8
A_ACHSEN
100
AcDbLine
 62
2
  6
HIDDEN
 10
63.1700296805
 20
13.8035002646
 11
63.1700296805
 21
12.0535002646
  0
LINE
  5
2BB
100
AcDbEntity
  8
DEFAULT_2
100
AcDbLine
 62
2
  6
HIDDEN
 10
39.5087411184
 20
36.6353943507
 11
39.4950296805
 21
36.6101245916
  0
LINE
  5
2BC
100
AcDbEntity
  8
DEFAULT_2
100
AcDbLine
 62
2
  6
HIDDEN
 10
39.5087304007
 20
36.6353956337
 11
39.4950296805
 21
36.6108516649
  0
LINE
  5
2BD
100
AcDbEntity
  8
DEFAULT_2
100
AcDbLine
 62
2
  6
HIDDEN
 10
39.5032423024
 20
127.4817876114
 11
39.4950296805
 21
127.4966263754
  0
LINE
  5
2BE
100
AcDbEntity
  8
DEFAULT_2
100
AcDbLine
 62
2
  6
HIDDEN
 10
39.5032535611
 20
127.4817890375
 11
39.4950296805
 21
127.4968759376
  0
LINE
  5
2BF
100
AcDbEntity
  8
0
100
AcDbLine
 62
7
  6
CONTINUOUS
 10
66.1700296805
 20
105.5535002646
 11
66.1700296805
 21
102.5535002646
  0
LINE
  5
2C0
100
AcDbEntity
  8
0
100
AcDbLine
 62
7
  6
CONTINUOUS
 10
66.1700296805
 20
61.5535002646
 11
66.1700296805
 21
58.5535002646
  0
LINE
  5
2C1
100
AcDbEntity
  8
0
100
AcDbLine
 62
7
  6
CONTINUOUS
 10
66.9200296805
 20
122.3035002646
 11
66.9200296805
 21
117.8035002646
  0
LINE
  5
2C2
100
AcDbEntity
  8
0
100
AcDbLine
 62
7
  6
CONTINUOUS
 10
66.9200296805
 20
84.3035002646
 11
66.9200296805
 21
79.8035002646
  0
LINE
  5
2C3
100
AcDbEntity
  8
0
100
AcDbLine
 62
7
  6
CONTINUOUS
 10
66.9200296805
 20
46.3035002646
 11
66.9200296805
 21
41.8035002646
  0
LINE
  5
2C4
100
AcDbEntity
  8
A_FLAECHEN
100
AcDbLine
 62
2
  6
HIDDEN
 10
41.8558735987
 20
38.0535002646
 11
41.0371297676
 21
36.6353943507
  0
LINE
  5
2C5
100
AcDbEntity
  8
DEFAULT_2
100
AcDbLine
 62
2
  6
HIDDEN
 10
41.0371787853
 20
36.6353880269
 11
41.0225402654
 21
36.6108516649
  0
LINE
  5
2C6
100
AcDbEntity
  8
DEFAULT_2
100
AcDbLine
 62
2
  6
HIDDEN
 10
41.0312856855
 20
127.4817937821
 11
41.0225402654
 21
127.4966263754
  0
LINE
  5
2C7
100
AcDbEntity
  8
A_FLAECHEN
100
AcDbLine
 62
2
  6
HIDDEN
 10
41.8558735987
 20
126.0535002646
 11
41.0312506912
 21
127.4817890375
  0
LINE
  5
2C8
100
AcDbEntity
  8
A_ACHSEN
100
AcDbLine
 62
2
  6
CONTINUOUS
 10
70.6700296805
 20
120.5275743387
 11
70.6700296805
 21
119.5794261905
  0
LINE
  5
2C9
100
AcDbEntity
  8
A_ACHSEN
100
AcDbLine
 62
2
  6
CONTINUOUS
 10
70.6700296805
 20
104.5275743387
 11
70.6700296805
 21
103.5794261905
  0
LINE
  5
2CA
100
AcDbEntity
  8
A_ACHSEN
100
AcDbLine
 62
2
  6
CENTER
 10
70.6700296805
 20
101.6831298942
 11
70.6700296805
 21
95.0535002646
  0
LINE
  5
2CB
100
AcDbEntity
  8
A_ACHSEN
100
AcDbLine
 62
2
  6
CONTINUOUS
 10
70.6700296805
 20
84.0275743387
 11
70.6700296805
 21
83.0794261905
  0
LINE
  5
2CC
100
AcDbEntity
  8
A_ACHSEN
100
AcDbLine
 62
2
  6
CENTER
 10
70.6700296805
 20
81.1831298942
 11
70.6700296805
 21
76.0535002646
  0
LINE
  5
2CD
100
AcDbEntity
  8
A_ACHSEN
100
AcDbLine
 62
2
  6
CONTINUOUS
 10
70.6700296805
 20
60.5275743387
 11
70.6700296805
 21
59.5794261905
  0
LINE
  5
2CE
100
AcDbEntity
  8
A_ACHSEN
100
AcDbLine
 62
2
  6
CONTINUOUS
 10
70.6700296805
 20
44.5275743387
 11
70.6700296805
 21
43.5794261905
  0
LINE
  5
2CF
100
AcDbEntity
  8
A_ACHSEN
100
AcDbLine
 62
2
  6
CENTER
 10
70.6700296805
 20
41.6831298942
 11
70.6700296805
 21
36.0535002646
  0
LINE
  5
2D0
100
AcDbEntity
  8
A_ACHSEN
100
AcDbLine
 62
2
  6
CENTER
 10
70.6700296805
 20
46.423870635
 11
70.6700296805
 21
57.6831298942
  0
LINE
  5
2D1
100
AcDbEntity
  8
A_ACHSEN
100
AcDbLine
 62
2
  6
CENTER
 10
70.6700296805
 20
62.423870635
 11
70.6700296805
 21
69.0535002646
  0
LINE
  5
2D2
100
AcDbEntity
  8
A_ACHSEN
100
AcDbLine
 62
2
  6
CENTER
 10
70.6700296805
 20
85.923870635
 11
70.6700296805
 21
91.0535002646
  0
LINE
  5
2D3
100
AcDbEntity
  8
A_ACHSEN
100
AcDbLine
 62
2
  6
CENTER
 10
70.6700296805
 20
106.423870635
 11
70.6700296805
 21
117.6831298942
  0
LINE
  5
2D4
100
AcDbEntity
  8
A_ACHSEN
100
AcDbLine
 62
2
  6
CENTER
 10
70.6700296805
 20
122.423870635
 11
70.6700296805
 21
128.0535002646
  0
LINE
  5
2D5
100
AcDbEntity
  8
A_ACHSEN
100
AcDbLine
 62
2
  6
HIDDEN
 10
73.6700296805
 20
152.0535002646
 11
73.6700296805
 21
150.3035002646
  0
LINE
  5
2D6
100
AcDbEntity
  8
A_ACHSEN
100
AcDbLine
 62
2
  6
HIDDEN
 10
73.6700296805
 20
137.8035002646
 11
73.6700296805
 21
137.5535002646
  0
LINE
  5
2D7
100
AcDbEntity
  8
A_ACHSEN
100
AcDbLine
 62
2
  6
HIDDEN
 10
73.6700296805
 20
26.5535002646
 11
73.6700296805
 21
26.3035002646
  0
LINE
  5
2D8
100
AcDbEntity
  8
A_ACHSEN
100
AcDbLine
 62
2
  6
HIDDEN
 10
73.6700296805
 20
13.8035002646
 11
73.6700296805
 21
12.0535002646
  0
LINE
  5
2D9
100
AcDbEntity
  8
DEFAULT_2
100
AcDbLine
 62
2
  6
HIDDEN
 10
73.9200296805
 20
150.3035002646
 11
73.9200296805
 21
137.8035002646
  0
LINE
  5
2DA
100
AcDbEntity
  8
DEFAULT_2
100
AcDbLine
 62
2
  6
HIDDEN
 10
73.9200296805
 20
26.3035002646
 11
73.9200296805
 21
13.8035002646
  0
LINE
  5
2DB
100
AcDbEntity
  8
0
100
AcDbLine
 62
7
  6
CONTINUOUS
 10
74.4200296805
 20
41.8035002646
 11
74.4200296805
 21
46.3035002646
  0
LINE
  5
2DC
100
AcDbEntity
  8
0
100
AcDbLine
 62
7
  6
CONTINUOUS
 10
74.4200296805
 20
79.8035002646
 11
74.4200296805
 21
84.3035002646
  0
LINE
  5
2DD
100
AcDbEntity
  8
0
100
AcDbLine
 62
7
  6
CONTINUOUS
 10
74.4200296805
 20
117.8035002646
 11
74.4200296805
 21
122.3035002646
  0
LINE
  5
2DE
100
AcDbEntity
  8
A_ACHSEN
100
AcDbLine
 62
2
  6
HIDDEN
 10
39.4950296805
 20
40.2535002646
 11
39.7950296805
 21
40.5535002646
  0
LINE
  5
2DF
100
AcDbEntity
  8
A_ACHSEN
100
AcDbLine
 62
2
  6
HIDDEN
 10
39.4950296805
 20
123.8535002646
 11
39.7950296805
 21
123.5535002646
  0
LINE
  5
2E0
100
AcDbEntity
  8
0
100
AcDbLine
 62
7
  6
CONTINUOUS
 10
75.1700296805
 20
58.5535002646
 11
75.1700296805
 21
61.5535002646
  0
LINE
  5
2E1
100
AcDbEntity
  8
0
100
AcDbLine
 62
7
  6
CONTINUOUS
 10
75.1700296805
 20
102.5535002646
 11
75.1700296805
 21
105.5535002646
  0
LINE
  5
2E2
100
AcDbEntity
  8
DEFAULT_2
100
AcDbLine
 62
2
  6
HIDDEN
 10
76.9200296805
 20
147.3035002646
 11
76.9200296805
 21
140.8035002646
  0
LINE
  5
2E3
100
AcDbEntity
  8
A_RUNDUNGEN
100
AcDbLine
 62
7
  6
CONTINUOUS
 10
77.9200296805
 20
12.0535002646
 11
77.9200296805
 21
152.0535002646
  0
LINE
  5
2E4
100
AcDbEntity
  8
0
100
AcDbLine
 62
7
  6
CONTINUOUS
 10
78.0200296805
 20
24.5535002646
 11
78.0200296805
 21
139.5535002646
  0
LINE
  5
2E5
100
AcDbEntity
  8
A_ACHSEN
100
AcDbLine
 62
2
  6
HIDDEN
 10
44.7450296805
 20
35.5535002646
 11
45.4950296805
 21
36.3035002646
  0
LINE
  5
2E6
100
AcDbEntity
  8
A_ACHSEN
100
AcDbLine
 62
2
  6
CONTINUOUS
 10
71.1441037545
 20
104.0535002646
 11
70.1959556064
 21
104.0535002646
  0
LINE
  5
2E7
100
AcDbEntity
  8
A_ACHSEN
100
AcDbLine
 62
2
  6
CENTER
 10
68.2996593101
 20
104.0535002646
 11
61.6700296805
 21
104.0535002646
  0
LINE
  5
2E8
100
AcDbEntity
  8
A_ACHSEN
100
AcDbLine
 62
2
  6
CENTER
 10
73.0404000508
 20
104.0535002646
 11
79.6700296805
 21
104.0535002646
  0
LINE
  5
2E9
100
AcDbEntity
  8
A_ACHSEN
100
AcDbLine
 62
2
  6
HIDDEN
 10
44.7450296805
 20
128.5535002646
 11
45.4950296805
 21
127.8035002646
  0
LINE
  5
2EA
100
AcDbEntity
  8
A_FASEN
100
AcDbLine
 62
7
  6
CONTINUOUS
 10
82.4200296805
 20
135.5035002646
 11
82.4200296805
 21
130.6035002646
  0
LINE
  5
2EB
100
AcDbEntity
  8
A_FASEN
100
AcDbLine
 62
7
  6
CONTINUOUS
 10
82.4200296805
 20
33.5035002646
 11
82.4200296805
 21
28.6035002646
  0
LINE
  5
2EC
100
AcDbEntity
  8
A_FASEN
100
AcDbLine
 62
7
  6
CONTINUOUS
 10
82.9200296805
 20
135.0035002646
 11
82.9200296805
 21
131.1035002646
  0
LINE
  5
2ED
100
AcDbEntity
  8
A_FASEN
100
AcDbLine
 62
7
  6
CONTINUOUS
 10
82.9200296805
 20
33.0035002646
 11
82.9200296805
 21
29.1035002646
  0
LINE
  5
2EE
100
AcDbEntity
  8
A_ACHSEN
100
AcDbLine
 62
2
  6
CENTER
 10
27.1868740284
 20
112.0535002646
 11
37.6531853326
 21
112.0535002646
  0
LINE
  5
2EF
100
AcDbEntity
  8
A_ACHSEN
100
AcDbLine
 62
7
  6
CONTINUOUS
 10
59.4155286675
 20
119.5535002646
 11
39.4200298433
 21
119.5535002646
  0
LINE
  5
2F0
100
AcDbEntity
  8
A_ACHSEN
100
AcDbLine
 62
7
  6
CONTINUOUS
 10
59.4155286675
 20
119.5535002646
 11
60.9200296805
 21
119.5535002646
  0
LINE
  5
2F1
100
AcDbEntity
  8
A_ACHSEN
100
AcDbLine
 62
2
  6
CONTINUOUS
 10
71.1441037545
 20
120.0535002646
 11
70.1959556064
 21
120.0535002646
  0
LINE
  5
2F2
100
AcDbEntity
  8
A_ACHSEN
100
AcDbLine
 62
2
  6
CENTER
 10
68.2996593101
 20
120.0535002646
 11
62.6700296805
 21
120.0535002646
  0
LINE
  5
2F3
100
AcDbEntity
  8
A_ACHSEN
100
AcDbLine
 62
2
  6
CENTER
 10
73.0404000508
 20
120.0535002646
 11
78.6700296805
 21
120.0535002646
  0
LINE
  5
2F4
100
AcDbEntity
  8
A_ACHSEN
100
AcDbLine
 62
7
  6
CONTINUOUS
 10
40.9450296909
 20
120.1535002646
 11
57.89502967
 21
120.1535002646
  0
LINE
  5
2F5
100
AcDbEntity
  8
A_ACHSEN
100
AcDbLine
 62
7
  6
CONTINUOUS
 10
59.3450296483
 20
120.6035002646
 11
39.4950296805
 21
120.6035002646
  0
LINE
  5
2F6
100
AcDbEntity
  8
A_ACHSEN
100
AcDbLine
 62
2
  6
HIDDEN
 10
39.7950296805
 20
123.5535002646
 11
44.7450296805
 21
123.5535002646
  0
LINE
  5
2F7
100
AcDbEntity
  8
A_ACHSEN
100
AcDbLine
 62
2
  6
CENTER
 10
25.084975807
 20
124.0535002646
 11
39.755083554
 21
124.0535002646
  0
LINE
  5
2F8
100
AcDbEntity
  8
DEFAULT_2
100
AcDbLine
 62
2
  6
HIDDEN
 10
39.4950296805
 20
124.2535002646
 11
45.4450296805
 21
124.2535002646
  0
LINE
  5
2F9
100
AcDbEntity
  8
DEFAULT_2
100
AcDbLine
 62
2
  6
HIDDEN
 10
39.4950296805
 20
124.6103741538
 11
41.0225402654
 21
124.6103741538
  0
LINE
  5
2FA
100
AcDbEntity
  8
DEFAULT_2
100
AcDbLine
 62
2
  6
HIDDEN
 10
39.4950296805
 20
125.3086934733
 11
41.0225402654
 21
125.3086934733
  0
LINE
  5
2FB
100
AcDbEntity
  8
DEFAULT_2
100
AcDbLine
 62
2
  6
HIDDEN
 10
39.4950296805
 20
125.3551809452
 11
41.0225402654
 21
125.3551809452
  0
LINE
  5
2FC
100
AcDbEntity
  8
A_ACHSEN
100
AcDbLine
 62
2
  6
CENTER
 10
36.4950296805
 20
126.0535002646
 11
48.4950296805
 21
126.0535002646
  0
LINE
  5
2FD
100
AcDbEntity
  8
DEFAULT_2
100
AcDbLine
 62
2
  6
HIDDEN
 10
39.4950296805
 20
126.7518195841
 11
41.0225402654
 21
126.7518195841
  0
LINE
  5
2FE
100
AcDbEntity
  8
DEFAULT_2
100
AcDbLine
 62
2
  6
HIDDEN
 10
39.4950296805
 20
126.798307056
 11
41.0225402654
 21
126.798307056
  0
LINE
  5
2FF
100
AcDbEntity
  8
DEFAULT_2
100
AcDbLine
 62
2
  6
HIDDEN
 10
39.4950296805
 20
127.4966263754
 11
41.0225402654
 21
127.4966263754
  0
LINE
  5
300
100
AcDbEntity
  8
DEFAULT_2
100
AcDbLine
 62
2
  6
HIDDEN
 10
39.4950296805
 20
127.8535002646
 11
45.4450296805
 21
127.8535002646
  0
LINE
  5
301
100
AcDbEntity
  8
A_ACHSEN
100
AcDbLine
 62
2
  6
HIDDEN
 10
39.7950296805
 20
128.5535002646
 11
44.7450296805
 21
128.5535002646
  0
LINE
  5
302
100
AcDbEntity
  8
0
100
AcDbLine
 62
7
  6
CONTINUOUS
 10
78.0200296805
 20
130.6035002646
 11
82.4200296805
 21
130.6035002646
  0
LINE
  5
303
100
AcDbEntity
  8
A_ACHSEN
100
AcDbLine
 62
2
  6
CENTER
 10
74.9200296805
 20
133.0535002646
 11
85.4200320305
 21
133.0535002646
  0
LINE
  5
304
100
AcDbEntity
  8
0
100
AcDbLine
 62
7
  6
CONTINUOUS
 10
78.0200296805
 20
135.5035002646
 11
82.4200296805
 21
135.5035002646
  0
LINE
  5
305
100
AcDbEntity
  8
A_ACHSEN
100
AcDbLine
 62
2
  6
HIDDEN
 10
73.6700296805
 20
137.5535002646
 11
63.1700296805
 21
137.5535002646
  0
LINE
  5
306
100
AcDbEntity
  8
A_ACHSEN
100
AcDbLine
 62
2
  6
HIDDEN
 10
73.9200296805
 20
137.8035002646
 11
73.6700296805
 21
137.8035002646
  0
LINE
  5
307
100
AcDbEntity
  8
A_ACHSEN
100
AcDbLine
 62
2
  6
HIDDEN
 10
63.1700296805
 20
137.8035002646
 11
60.9200296805
 21
137.8035002646
  0
LINE
  5
308
100
AcDbEntity
  8
0
100
AcDbLine
 62
7
  6
CONTINUOUS
 10
77.9200296805
 20
139.5535002646
 11
78.0200296805
 21
139.5535002646
  0
LINE
  5
309
100
AcDbEntity
  8
A_FASEN
100
AcDbLine
 62
7
  6
CONTINUOUS
 10
82.9200071494
 20
29.1035228077
 11
82.4200013722
 21
28.603528588
  0
LINE
  5
30A
100
AcDbEntity
  8
DEFAULT_2
100
AcDbLine
 62
2
  6
HIDDEN
 10
76.9200296805
 20
16.8035002646
 11
73.9200296805
 21
13.8035002646
  0
LINE
  5
30B
100
AcDbEntity
  8
A_ACHSEN
100
AcDbLine
 62
2
  6
HIDDEN
 10
77.9200296805
 20
140.8035002646
 11
76.9200296805
 21
140.8035002646
  0
LINE
  5
30C
100
AcDbEntity
  8
A_ACHSEN
100
AcDbLine
 62
2
  6
CENTER
 10
71.5690528694
 20
144.0535002646
 11
80.9200296805
 21
144.0535002646
  0
LINE
  5
30D
100
AcDbEntity
  8
A_FASEN
100
AcDbLine
 62
7
  6
CONTINUOUS
 10
82.9200071494
 20
135.0034777215
 11
82.4200013722
 21
135.5034719412
  0
LINE
  5
30E
100
AcDbEntity
  8
DEFAULT_2
100
AcDbLine
 62
2
  6
HIDDEN
 10
76.9200296805
 20
147.3035002646
 11
73.9200296805
 21
150.3035002646
  0
LINE
  5
30F
100
AcDbEntity
  8
A_ACHSEN
100
AcDbLine
 62
2
  6
HIDDEN
 10
77.9200296805
 20
147.3035002646
 11
76.9200296805
 21
147.3035002646
  0
LINE
  5
310
100
AcDbEntity
  8
A_ACHSEN
100
AcDbLine
 62
2
  6
HIDDEN
 10
73.9200296805
 20
150.3035002646
 11
73.6700296805
 21
150.3035002646
  0
LINE
  5
311
100
AcDbEntity
  8
A_ACHSEN
100
AcDbLine
 62
2
  6
HIDDEN
 10
63.1700296805
 20
150.3035002646
 11
60.9357161972
 21
150.3035002646
  0
LINE
  5
312
100
AcDbEntity
  8
A_ACHSEN
100
AcDbLine
 62
7
  6
CONTINUOUS
 10
62.9200296805
 20
152.0535002646
 11
61.9200296805
 21
152.0535002646
  0
LINE
  5
313
100
AcDbEntity
  8
A_RUNDUNGEN
100
AcDbLine
 62
7
  6
CONTINUOUS
 10
39.4950297105
 20
152.0535002646
 11
29.8200296805
 21
152.0535002646
  0
LINE
  5
314
100
AcDbEntity
  8
A_ACHSEN
100
AcDbLine
 62
7
  6
CONTINUOUS
 10
39.4950297105
 20
152.0535002646
 11
59.3450296754
 21
152.0535002646
  0
LINE
  5
315
100
AcDbEntity
  8
A_RUNDUNGEN
100
AcDbLine
 62
7
  6
CONTINUOUS
 10
62.9200296805
 20
152.0535002646
 11
77.9200296805
 21
152.0535002646
  0
ARC
  5
316
100
AcDbEntity
  8
A_RUNDUNGEN
100
AcDbCircle
 62
7
  6
CONTINUOUS
 10
29.8200296805
 20
18.0535002646
 40
6.0
100
AcDbArc
 50
180.0
 51
270.0
  0
CIRCLE
  5
317
100
AcDbEntity
  8
A_ACHSEN
100
AcDbCircle
 62
7
  6
CONTINUOUS
 10
32.4200296805
 20
40.0535002646
 40
5.75
  0
CIRCLE
  5
318
100
AcDbEntity
  8
A_ACHSEN
100
AcDbCircle
 62
7
  6
CONTINUOUS
 10
32.4200296805
 20
40.0535002646
 40
4.306624327
  0
ARC
  5
319
100
AcDbEntity
  8
DEFAULT_2
100
AcDbCircle
 62
2
  6
HIDDEN
 10
36.8677715081
 20
38.09317095
 40
2.7244805468
100
AcDbArc
 50
344.6475075244
 51
15.3524924756
  0
ARC
  5
31A
100
AcDbEntity
  8
DEFAULT_2
100
AcDbCircle
 62
2
  6
HIDDEN
 10
36.8677715081
 20
38.0138295792
 40
2.7244805468
100
AcDbArc
 50
344.6475075244
 51
15.3524924756
  0
CIRCLE
  5
31B
100
AcDbEntity
  8
A_ACHSEN
100
AcDbCircle
 62
7
  6
CONTINUOUS
 10
32.4200296805
 20
52.0535002646
 40
2.35
  0
ARC
  5
31C
100
AcDbEntity
  8
DEFAULT_2
100
AcDbCircle
 62
2
  6
HIDDEN
 10
38.6418185983
 20
39.0520359188
 40
0.9618760103
100
AcDbArc
 50
25.8185307577
 51
27.4978532073
  0
ARC
  5
31D
100
AcDbEntity
  8
A_RUNDUNGEN
100
AcDbCircle
 62
7
  6
CONTINUOUS
 10
29.8200296805
 20
146.0535002646
 40
6.0
100
AcDbArc
 50
90.0
 51
180.0
  0
CIRCLE
  5
31E
100
AcDbEntity
  8
A_ACHSEN
100
AcDbCircle
 62
7
  6
CONTINUOUS
 10
32.4200296805
 20
124.0535002646
 40
5.75
  0
CIRCLE
  5
31F
100
AcDbEntity
  8
A_ACHSEN
100
AcDbCircle
 62
7
  6
CONTINUOUS
 10
32.4200296805
 20
82.0535002646
 40
5.75
  0
CIRCLE
  5
320
100
AcDbEntity
  8
A_ACHSEN
100
AcDbCircle
 62
7
  6
CONTINUOUS
 10
32.4200296805
 20
124.0535002646
 40
4.306624327
  0
CIRCLE
  5
321
100
AcDbEntity
  8
A_ACHSEN
100
AcDbCircle
 62
7
  6
CONTINUOUS
 10
32.4200296805
 20
82.0535002646
 40
4.306624327
  0
ARC
  5
322
100
AcDbEntity
  8
DEFAULT_2
100
AcDbCircle
 62
2
  6
HIDDEN
 10
36.8659998102
 20
126.0767440006
 40
2.7262522447
100
AcDbArc
 50
344.6525269174
 51
15.3474730826
  0
ARC
  5
323
100
AcDbEntity
  8
DEFAULT_2
100
AcDbCircle
 62
2
  6
HIDDEN
 10
36.8659998102
 20
126.0302565287
 40
2.7262522447
100
AcDbArc
 50
344.6525269174
 51
15.3474730826
  0
CIRCLE
  5
324
100
AcDbEntity
  8
A_ACHSEN
100
AcDbCircle
 62
7
  6
CONTINUOUS
 10
32.4200296805
 20
112.0535002646
 40
2.35
  0
ARC
  5
325
100
AcDbEntity
  8
DEFAULT_2
100
AcDbCircle
 62
2
  6
HIDDEN
 10
38.6677758065
 20
127.0566738418
 40
0.9369670239
100
AcDbArc
 50
26.9619593037
 51
28.0050669997
  0
ARC
  5
326
100
AcDbEntity
  8
A_RUNDUNGEN
100
AcDbCircle
 62
7
  6
CONTINUOUS
 10
62.9200296805
 20
14.0535002646
 40
2.0
100
AcDbArc
 50
180.0
 51
270.0
  0
ARC
  5
327
100
AcDbEntity
  8
A_RUNDUNGEN
100
AcDbCircle
 62
7
  6
CONTINUOUS
 10
67.6740296805
 20
44.0535002646
 40
0.98
100
AcDbArc
 50
313.4120116047
 51
46.5879883953
  0
ARC
  5
328
100
AcDbEntity
  8
0
100
AcDbCircle
 62
7
  6
CONTINUOUS
 10
68.0754175707
 20
58.5555002646
 40
0.98
100
AcDbArc
 50
343.4120116047
 51
76.5879883953
  0
ARC
  5
329
100
AcDbEntity
  8
0
100
AcDbCircle
 62
7
  6
CONTINUOUS
 10
68.0754175707
 20
61.5515002646
 40
0.98
100
AcDbArc
 50
283.4120116047
 51
16.5879883953
  0
ARC
  5
32A
100
AcDbEntity
  8
A_ACHSEN
100
AcDbCircle
 62
7
  6
CONTINUOUS
 10
68.4200296805
 20
19.2535002646
 40
9.7
100
AcDbArc
 50
227.9249779492
 51
312.0750220508
  0
ARC
  5
32B
100
AcDbEntity
  8
0
100
AcDbCircle
 62
7
  6
CONTINUOUS
 10
70.6700296805
 20
46.3035002646
 40
3.75
100
AcDbArc
 50
0.0
 51
180.0
  0
ARC
  5
32C
100
AcDbEntity
  8
0
100
AcDbCircle
 62
7
  6
CONTINUOUS
 10
70.6700296805
 20
41.8035002646
 40
3.75
100
AcDbArc
 50
180.0
 51
360.0
  0
ARC
  5
32D
100
AcDbEntity
  8
A_RUNDUNGEN
100
AcDbCircle
 62
7
  6
CONTINUOUS
 10
69.1720296805
 20
46.6481123744
 40
0.98
100
AcDbArc
 50
253.4120116047
 51
346.5879883953
  0
ARC
  5
32E
100
AcDbEntity
  8
A_RUNDUNGEN
100
AcDbCircle
 62
7
  6
CONTINUOUS
 10
72.1680296805
 20
46.6481123744
 40
0.98
100
AcDbArc
 50
193.4120116047
 51
286.5879883953
  0
ARC
  5
32F
100
AcDbEntity
  8
A_RUNDUNGEN
100
AcDbCircle
 62
7
  6
CONTINUOUS
 10
69.1720296805
 20
41.4588881549
 40
0.98
100
AcDbArc
 50
13.4120116047
 51
106.5879883953
  0
ARC
  5
330
100
AcDbEntity
  8
A_RUNDUNGEN
100
AcDbCircle
 62
7
  6
CONTINUOUS
 10
73.6660296805
 20
44.0535002646
 40
0.98
100
AcDbArc
 50
133.4120116047
 51
226.5879883953
  0
ARC
  5
331
100
AcDbEntity
  8
A_RUNDUNGEN
100
AcDbCircle
 62
7
  6
CONTINUOUS
 10
72.1680296805
 20
41.4588881549
 40
0.98
100
AcDbArc
 50
73.4120116047
 51
166.5879883953
  0
ARC
  5
332
100
AcDbEntity
  8
A_RUNDUNGEN
100
AcDbCircle
 62
7
  6
CONTINUOUS
 10
70.6700296805
 20
46.2909065513
 40
0.56
100
AcDbArc
 50
13.4120116047
 51
166.5879883953
  0
ARC
  5
333
100
AcDbEntity
  8
A_RUNDUNGEN
100
AcDbCircle
 62
7
  6
CONTINUOUS
 10
68.7323789976
 20
45.172203408
 40
0.56
100
AcDbArc
 50
73.4120116047
 51
226.5879883953
  0
ARC
  5
334
100
AcDbEntity
  8
A_RUNDUNGEN
100
AcDbCircle
 62
7
  6
CONTINUOUS
 10
68.7323789976
 20
42.9347971213
 40
0.56
100
AcDbArc
 50
133.4120116047
 51
286.5879883953
  0
ARC
  5
335
100
AcDbEntity
  8
A_RUNDUNGEN
100
AcDbCircle
 62
7
  6
CONTINUOUS
 10
72.6076803634
 20
45.172203408
 40
0.56
100
AcDbArc
 50
313.4120116047
 51
106.5879883953
  0
ARC
  5
336
100
AcDbEntity
  8
A_RUNDUNGEN
100
AcDbCircle
 62
7
  6
CONTINUOUS
 10
72.6076803634
 20
42.9347971213
 40
0.56
100
AcDbArc
 50
253.4120116047
 51
46.5879883953
  0
ARC
  5
337
100
AcDbEntity
  8
A_RUNDUNGEN
100
AcDbCircle
 62
7
  6
CONTINUOUS
 10
70.6700296805
 20
41.8160939779
 40
0.56
100
AcDbArc
 50
193.4120116047
 51
346.5879883953
  0
ARC
  5
338
100
AcDbEntity
  8
0
100
AcDbCircle
 62
7
  6
CONTINUOUS
 10
70.6700296805
 20
61.5535002646
 40
4.5
100
AcDbArc
 50
0.0
 51
180.0
  0
ARC
  5
339
100
AcDbEntity
  8
0
100
AcDbCircle
 62
7
  6
CONTINUOUS
 10
70.6700296805
 20
58.5535002646
 40
4.5
100
AcDbArc
 50
180.0
 51
360.0
  0
ARC
  5
33A
100
AcDbEntity
  8
0
100
AcDbCircle
 62
7
  6
CONTINUOUS
 10
70.6700296805
 20
79.8035002646
 40
3.75
100
AcDbArc
 50
180.0
 51
360.0
  0
CIRCLE
  5
33B
100
AcDbEntity
  8
0
100
AcDbCircle
 62
7
  6
CONTINUOUS
 10
70.6700296805
 20
60.0535002646
 40
2.7974062867
  0
ARC
  5
33C
100
AcDbEntity
  8
A_RUNDUNGEN
100
AcDbCircle
 62
7
  6
CONTINUOUS
 10
69.1720296805
 20
80.9583679468
 40
0.98
100
AcDbArc
 50
13.4120116047
 51
106.5879883953
  0
ARC
  5
33D
100
AcDbEntity
  8
A_RUNDUNGEN
100
AcDbCircle
 62
7
  6
CONTINUOUS
 10
72.1680296805
 20
80.9583679468
 40
0.98
100
AcDbArc
 50
73.4120116047
 51
166.5879883953
  0
ARC
  5
33E
100
AcDbEntity
  8
0
100
AcDbCircle
 62
7
  6
CONTINUOUS
 10
73.2646417902
 20
58.5555002646
 40
0.98
100
AcDbArc
 50
103.4120116047
 51
196.5879883953
  0
ARC
  5
33F
100
AcDbEntity
  8
0
100
AcDbCircle
 62
7
  6
CONTINUOUS
 10
70.6700296805
 20
57.0575002646
 40
0.98
100
AcDbArc
 50
43.4120116047
 51
136.5879883953
  0
ARC
  5
340
100
AcDbEntity
  8
0
100
AcDbCircle
 62
7
  6
CONTINUOUS
 10
73.2646417902
 20
61.5515002646
 40
0.98
100
AcDbArc
 50
163.4120116047
 51
256.5879883953
  0
ARC
  5
341
100
AcDbEntity
  8
0
100
AcDbCircle
 62
7
  6
CONTINUOUS
 10
70.6700296805
 20
63.0495002646
 40
0.98
100
AcDbArc
 50
223.4120116047
 51
316.5879883953
  0
ARC
  5
342
100
AcDbEntity
  8
A_RUNDUNGEN
100
AcDbCircle
 62
7
  6
CONTINUOUS
 10
70.6700296805
 20
81.3155737698
 40
0.56
100
AcDbArc
 50
193.4120116047
 51
346.5879883953
  0
ARC
  5
343
100
AcDbEntity
  8
0
100
AcDbCircle
 62
7
  6
CONTINUOUS
 10
72.9074359672
 20
60.0535002646
 40
0.56
100
AcDbArc
 50
283.4120116047
 51
76.5879883953
  0
ARC
  5
344
100
AcDbEntity
  8
0
100
AcDbCircle
 62
7
  6
CONTINUOUS
 10
71.7887328238
 20
58.1158495817
 40
0.56
100
AcDbArc
 50
223.4120116047
 51
16.5879883953
  0
ARC
  5
345
100
AcDbEntity
  8
0
100
AcDbCircle
 62
7
  6
CONTINUOUS
 10
69.5513265371
 20
58.1158495817
 40
0.56
100
AcDbArc
 50
163.4120116047
 51
316.5879883953
  0
ARC
  5
346
100
AcDbEntity
  8
0
100
AcDbCircle
 62
7
  6
CONTINUOUS
 10
71.7887328238
 20
61.9911509475
 40
0.56
100
AcDbArc
 50
343.4120116047
 51
136.5879883953
  0
ARC
  5
347
100
AcDbEntity
  8
0
100
AcDbCircle
 62
7
  6
CONTINUOUS
 10
68.4326233938
 20
60.0535002646
 40
0.56
100
AcDbArc
 50
103.4120116047
 51
256.5879883953
  0
ARC
  5
348
100
AcDbEntity
  8
0
100
AcDbCircle
 62
7
  6
CONTINUOUS
 10
69.5513265371
 20
61.9911509475
 40
0.56
100
AcDbArc
 50
43.4120116047
 51
196.5879883953
  0
ARC
  5
349
100
AcDbEntity
  8
A_RUNDUNGEN
100
AcDbCircle
 62
7
  6
CONTINUOUS
 10
67.6740296805
 20
83.5529800565
 40
0.98
100
AcDbArc
 50
313.4120116047
 51
46.5879883953
  0
ARC
  5
34A
100
AcDbEntity
  8
0
100
AcDbCircle
 62
7
  6
CONTINUOUS
 10
68.0754175707
 20
102.5555002646
 40
0.98
100
AcDbArc
 50
343.4120116047
 51
76.5879883953
  0
ARC
  5
34B
100
AcDbEntity
  8
0
100
AcDbCircle
 62
7
  6
CONTINUOUS
 10
68.0754175707
 20
105.5515002646
 40
0.98
100
AcDbArc
 50
283.4120116047
 51
16.5879883953
  0
ARC
  5
34C
100
AcDbEntity
  8
A_RUNDUNGEN
100
AcDbCircle
 62
7
  6
CONTINUOUS
 10
62.9200296805
 20
150.0535002646
 40
2.0
100
AcDbArc
 50
90.0
 51
180.0
  0
ARC
  5
34D
100
AcDbEntity
  8
A_RUNDUNGEN
100
AcDbCircle
 62
7
  6
CONTINUOUS
 10
67.6740296805
 20
120.0535002646
 40
0.98
100
AcDbArc
 50
313.4120116047
 51
46.5879883953
  0
ARC
  5
34E
100
AcDbEntity
  8
A_RUNDUNGEN
100
AcDbCircle
 62
7
  6
CONTINUOUS
 10
70.6700296805
 20
83.5535002646
 40
4.5
100
AcDbArc
 50
212.9288666181
 51
327.0710449576
  0
ARC
  5
34F
100
AcDbEntity
  8
0
100
AcDbCircle
 62
7
  6
CONTINUOUS
 10
70.6700296805
 20
84.3035002646
 40
3.75
100
AcDbArc
 50
0.0
 51
180.0
  0
ARC
  5
350
100
AcDbEntity
  8
A_RUNDUNGEN
100
AcDbCircle
 62
7
  6
CONTINUOUS
 10
69.1720296805
 20
86.1475921663
 40
0.98
100
AcDbArc
 50
253.4120116047
 51
346.5879883953
  0
ARC
  5
351
100
AcDbEntity
  8
A_RUNDUNGEN
100
AcDbCircle
 62
7
  6
CONTINUOUS
 10
70.6700296805
 20
85.7903863432
 40
0.56
100
AcDbArc
 50
13.4120116047
 51
166.5879883953
  0
ARC
  5
352
100
AcDbEntity
  8
A_RUNDUNGEN
100
AcDbCircle
 62
7
  6
CONTINUOUS
 10
68.7323789976
 20
84.6716831999
 40
0.56
100
AcDbArc
 50
73.4120116047
 51
226.5879883953
  0
ARC
  5
353
100
AcDbEntity
  8
A_RUNDUNGEN
100
AcDbCircle
 62
7
  6
CONTINUOUS
 10
68.7323789976
 20
82.4342769132
 40
0.56
100
AcDbArc
 50
133.4120116047
 51
286.5879883953
  0
ARC
  5
354
100
AcDbEntity
  8
0
100
AcDbCircle
 62
7
  6
CONTINUOUS
 10
70.6700296805
 20
105.5535002646
 40
4.5
100
AcDbArc
 50
0.0
 51
180.0
  0
ARC
  5
355
100
AcDbEntity
  8
0
100
AcDbCircle
 62
7
  6
CONTINUOUS
 10
70.6700296805
 20
102.5535002646
 40
4.5
100
AcDbArc
 50
180.0
 51
360.0
  0
CIRCLE
  5
356
100
AcDbEntity
  8
0
100
AcDbCircle
 62
7
  6
CONTINUOUS
 10
70.6700296805
 20
104.0535002646
 40
2.7974062867
  0
ARC
  5
357
100
AcDbEntity
  8
0
100
AcDbCircle
 62
7
  6
CONTINUOUS
 10
70.6700296805
 20
101.0575002646
 40
0.98
100
AcDbArc
 50
43.4120116047
 51
136.5879883953
  0
ARC
  5
358
100
AcDbEntity
  8
0
100
AcDbCircle
 62
7
  6
CONTINUOUS
 10
70.6700296805
 20
107.0495002646
 40
0.98
100
AcDbArc
 50
223.4120116047
 51
316.5879883953
  0
ARC
  5
359
100
AcDbEntity
  8
0
100
AcDbCircle
 62
7
  6
CONTINUOUS
 10
69.5513265371
 20
102.1158495817
 40
0.56
100
AcDbArc
 50
163.4120116047
 51
316.5879883953
  0
ARC
  5
35A
100
AcDbEntity
  8
0
100
AcDbCircle
 62
7
  6
CONTINUOUS
 10
68.4326233938
 20
104.0535002646
 40
0.56
100
AcDbArc
 50
103.4120116047
 51
256.5879883953
  0
ARC
  5
35B
100
AcDbEntity
  8
0
100
AcDbCircle
 62
7
  6
CONTINUOUS
 10
69.5513265371
 20
105.9911509475
 40
0.56
100
AcDbArc
 50
43.4120116047
 51
196.5879883953
  0
ARC
  5
35C
100
AcDbEntity
  8
A_RUNDUNGEN
100
AcDbCircle
 62
7
  6
CONTINUOUS
 10
73.6660296805
 20
83.5529800565
 40
0.98
100
AcDbArc
 50
133.4120116047
 51
226.5879883953
  0
ARC
  5
35D
100
AcDbEntity
  8
A_RUNDUNGEN
100
AcDbCircle
 62
7
  6
CONTINUOUS
 10
72.1680296805
 20
86.1475921663
 40
0.98
100
AcDbArc
 50
193.4120116047
 51
286.5879883953
  0
ARC
  5
35E
100
AcDbEntity
  8
A_RUNDUNGEN
100
AcDbCircle
 62
7
  6
CONTINUOUS
 10
72.6076803634
 20
82.4342769132
 40
0.56
100
AcDbArc
 50
253.4120116047
 51
46.5879883953
  0
ARC
  5
35F
100
AcDbEntity
  8
A_RUNDUNGEN
100
AcDbCircle
 62
7
  6
CONTINUOUS
 10
72.6076803634
 20
84.6716831999
 40
0.56
100
AcDbArc
 50
313.4120116047
 51
106.5879883953
  0
ARC
  5
360
100
AcDbEntity
  8
0
100
AcDbCircle
 62
7
  6
CONTINUOUS
 10
73.2646417902
 20
102.5555002646
 40
0.98
100
AcDbArc
 50
103.4120116047
 51
196.5879883953
  0
ARC
  5
361
100
AcDbEntity
  8
0
100
AcDbCircle
 62
7
  6
CONTINUOUS
 10
73.2646417902
 20
105.5515002646
 40
0.98
100
AcDbArc
 50
163.4120116047
 51
256.5879883953
  0
ARC
  5
362
100
AcDbEntity
  8
0
100
AcDbCircle
 62
7
  6
CONTINUOUS
 10
72.9074359672
 20
104.0535002646
 40
0.56
100
AcDbArc
 50
283.4120116047
 51
76.5879883953
  0
ARC
  5
363
100
AcDbEntity
  8
0
100
AcDbCircle
 62
7
  6
CONTINUOUS
 10
71.7887328238
 20
102.1158495817
 40
0.56
100
AcDbArc
 50
223.4120116047
 51
16.5879883953
  0
ARC
  5
364
100
AcDbEntity
  8
0
100
AcDbCircle
 62
7
  6
CONTINUOUS
 10
71.7887328238
 20
105.9911509475
 40
0.56
100
AcDbArc
 50
343.4120116047
 51
136.5879883953
  0
ARC
  5
365
100
AcDbEntity
  8
A_ACHSEN
100
AcDbCircle
 62
7
  6
CONTINUOUS
 10
68.4200296805
 20
144.8535002646
 40
9.7
100
AcDbArc
 50
47.9249779492
 51
132.0750220508
  0
ARC
  5
366
100
AcDbEntity
  8
0
100
AcDbCircle
 62
7
  6
CONTINUOUS
 10
70.6700296805
 20
122.3035002646
 40
3.75
100
AcDbArc
 50
0.0
 51
180.0
  0
ARC
  5
367
100
AcDbEntity
  8
0
100
AcDbCircle
 62
7
  6
CONTINUOUS
 10
70.6700296805
 20
117.8035002646
 40
3.75
100
AcDbArc
 50
180.0
 51
360.0
  0
ARC
  5
368
100
AcDbEntity
  8
A_RUNDUNGEN
100
AcDbCircle
 62
7
  6
CONTINUOUS
 10
69.1720296805
 20
122.6481123744
 40
0.98
100
AcDbArc
 50
253.4120116047
 51
346.5879883953
  0
ARC
  5
369
100
AcDbEntity
  8
A_RUNDUNGEN
100
AcDbCircle
 62
7
  6
CONTINUOUS
 10
72.1680296805
 20
122.6481123744
 40
0.98
100
AcDbArc
 50
193.4120116047
 51
286.5879883953
  0
ARC
  5
36A
100
AcDbEntity
  8
A_RUNDUNGEN
100
AcDbCircle
 62
7
  6
CONTINUOUS
 10
69.1720296805
 20
117.4588881549
 40
0.98
100
AcDbArc
 50
13.4120116047
 51
106.5879883953
  0
ARC
  5
36B
100
AcDbEntity
  8
A_RUNDUNGEN
100
AcDbCircle
 62
7
  6
CONTINUOUS
 10
73.6660296805
 20
120.0535002646
 40
0.98
100
AcDbArc
 50
133.4120116047
 51
226.5879883953
  0
ARC
  5
36C
100
AcDbEntity
  8
A_RUNDUNGEN
100
AcDbCircle
 62
7
  6
CONTINUOUS
 10
72.1680296805
 20
117.4588881549
 40
0.98
100
AcDbArc
 50
73.4120116047
 51
166.5879883953
  0
ARC
  5
36D
100
AcDbEntity
  8
A_RUNDUNGEN
100
AcDbCircle
 62
7
  6
CONTINUOUS
 10
70.6700296805
 20
122.2909065513
 40
0.56
100
AcDbArc
 50
13.4120116047
 51
166.5879883953
  0
ARC
  5
36E
100
AcDbEntity
  8
A_RUNDUNGEN
100
AcDbCircle
 62
7
  6
CONTINUOUS
 10
68.7323789976
 20
121.172203408
 40
0.56
100
AcDbArc
 50
73.4120116047
 51
226.5879883953
  0
ARC
  5
36F
100
AcDbEntity
  8
A_RUNDUNGEN
100
AcDbCircle
 62
7
  6
CONTINUOUS
 10
68.7323789976
 20
118.9347971213
 40
0.56
100
AcDbArc
 50
133.4120116047
 51
286.5879883953
  0
ARC
  5
370
100
AcDbEntity
  8
A_RUNDUNGEN
100
AcDbCircle
 62
7
  6
CONTINUOUS
 10
72.6076803634
 20
121.172203408
 40
0.56
100
AcDbArc
 50
313.4120116047
 51
106.5879883953
  0
ARC
  5
371
100
AcDbEntity
  8
A_RUNDUNGEN
100
AcDbCircle
 62
7
  6
CONTINUOUS
 10
72.6076803634
 20
118.9347971213
 40
0.56
100
AcDbArc
 50
253.4120116047
 51
46.5879883953
  0
ARC
  5
372
100
AcDbEntity
  8
A_RUNDUNGEN
100
AcDbCircle
 62
7
  6
CONTINUOUS
 10
70.6700296805
 20
117.8160939779
 40
0.56
100
AcDbArc
 50
193.4120116047
 51
346.5879883953
  0
SPLINE
  5
373
100
AcDbEntity
  8
DEFAULT_2
100
AcDbSpline
 62
2
  6
HIDDEN
 70
0
 71
3
 72
15
 73
11
 74
0
 42
0.0000001
 43
0.0000001
 44
0.0000000001
 40
0.0
 40
0.0
 40
0.0
 40
0.0
 40
0.1303804525
 40
0.2566969278
 40
0.3794298163
 40
0.5000000356
 40
0.6205702569
 40
0.7433031376
 40
0.8696195623
 40
1.0
 40
1.0
 40
1.0
 40
1.0
 10
41.0225402654
 20
124.6103741538
 30
0.0
 10
41.0392121519
 20
124.6401757561
 30
0.0
 10
41.0698295035
 20
124.7001443207
 30
0.0
 10
41.1058367462
 20
124.7930004847
 30
0.0
 10
41.1288565774
 20
124.8873788309
 30
0.0
 10
41.1368169771
 20
124.9827775795
 30
0.0
 10
41.1288565861
 20
125.0781763274
 30
0.0
 10
41.1058367467
 20
125.1725546578
 30
0.0
 10
41.0698294835
 20
125.2654107922
 30
0.0
 10
41.03921215
 20
125.3253793463
 30
0.0
 10
41.0225402654
 20
125.3551809452
 30
0.0
  0
SPLINE
  5
374
100
AcDbEntity
  8
DEFAULT_2
100
AcDbSpline
 62
2
  6
HIDDEN
 70
0
 71
3
 72
13
 73
9
 74
0
 42
0.0000001
 43
0.0000001
 44
0.0000000001
 40
0.0
 40
0.0
 40
0.0
 40
0.0
 40
0.2499452698
 40
0.374972761
 40
0.5000000384
 40
0.6250273183
 40
0.750054799
 40
1.0
 40
1.0
 40
1.0
 40
1.0
 10
41.0225402654
 20
125.3551809452
 30
0.0
 10
41.056388769
 20
125.4724153275
 30
0.0
 10
41.098707405
 20
125.6511400931
 30
0.0
 10
41.1289718684
 20
125.893573171
 30
0.0
 10
41.1367829853
 20
126.0767440591
 30
0.0
 10
41.1289718781
 20
126.2599149431
 30
0.0
 10
41.0987073982
 20
126.5023479817
 30
0.0
 10
41.0563887596
 20
126.6810727058
 30
0.0
 10
41.0225402654
 20
126.798307056
 30
0.0
  0
SPLINE
  5
375
100
AcDbEntity
  8
DEFAULT_2
100
AcDbSpline
 62
2
  6
HIDDEN
 70
0
 71
3
 72
15
 73
11
 74
0
 42
0.0000001
 43
0.0000001
 44
0.0000000001
 40
0.0
 40
0.0
 40
0.0
 40
0.0
 40
0.1315330499
 40
0.2584197822
 40
0.3811444819
 40
0.5012350331
 40
0.6210931028
 40
0.7432075515
 40
0.8692905031
 40
1.0
 40
1.0
 40
1.0
 40
1.0
 10
41.0225402654
 20
126.798307056
 30
0.0
 10
41.0388176269
 20
126.8255873664
 30
0.0
 10
41.0687687332
 20
126.8804527179
 30
0.0
 10
41.1043747014
 20
126.9655645334
 30
0.0
 10
41.1276679484
 20
127.0521003693
 30
0.0
 10
41.1366463014
 20
127.1396556465
 30
0.0
 10
41.1303616823
 20
127.2273074451
 30
0.0
 10
41.1094861565
 20
127.31407082
 30
0.0
 10
41.0759039055
 20
127.3994402239
 30
0.0
 10
41.0470359093
 20
127.4544503691
 30
0.0
 10
41.0312509602
 20
127.481789089
 30
0.0
  0
SPLINE
  5
376
100
AcDbEntity
  8
DEFAULT_2
100
AcDbSpline
 62
2
  6
HIDDEN
 70
0
 71
3
 72
15
 73
11
 74
0
 42
0.0000001
 43
0.0000001
 44
0.0000000001
 40
0.0
 40
0.0
 40
0.0
 40
0.0
 40
0.1299184618
 40
0.2556939482
 40
0.3785870378
 40
0.5000000005
 40
0.6214129633
 40
0.7443060529
 40
0.8700815388
 40
1.0
 40
1.0
 40
1.0
 40
1.0
 10
39.4950296805
 20
124.6103741538
 30
0.0
 10
39.5108309125
 20
124.6400876828
 30
0.0
 10
39.5388358504
 20
124.7002925506
 30
0.0
 10
39.5695839953
 20
124.7936574112
 30
0.0
 10
39.5881165696
 20
124.887978105
 30
0.0
 10
39.5943072701
 20
124.9827775499
 30
0.0
 10
39.5881165695
 20
125.0775769949
 30
0.0
 10
39.5695839951
 20
125.1718976885
 30
0.0
 10
39.5388358502
 20
125.2652625488
 30
0.0
 10
39.5108309124
 20
125.3254674163
 30
0.0
 10
39.4950296805
 20
125.3551809452
 30
0.0
  0
SPLINE
  5
377
100
AcDbEntity
  8
DEFAULT_2
100
AcDbSpline
 62
2
  6
HIDDEN
 70
0
 71
3
 72
15
 73
11
 74
0
 42
0.0000001
 43
0.0000001
 44
0.0000000001
 40
0.0
 40
0.0
 40
0.0
 40
0.0
 40
0.1310116998
 40
0.2572455949
 40
0.3800931029
 40
0.5011212454
 40
0.6219991656
 40
0.7444047238
 40
0.8699292307
 40
1.0
 40
1.0
 40
1.0
 40
1.0
 10
39.4950296805
 20
126.798307056
 30
0.0
 10
39.5104489919
 20
126.8254926417
 30
0.0
 10
39.5378771258
 20
126.8805672939
 30
0.0
 10
39.5683761054
 20
126.9661967886
 30
0.0
 10
39.5871856992
 20
127.052724989
 30
0.0
 10
39.5941741838
 20
127.1397258175
 30
0.0
 10
39.5892942945
 20
127.2267657923
 30
0.0
 10
39.5725785396
 20
127.3134095873
 30
0.0
 10
39.5441462982
 20
127.3992258398
 30
0.0
 10
39.5180265492
 20
127.4545018789
 30
0.0
 10
39.5032535433
 20
127.4817890359
 30
0.0
  0
SPLINE
  5
378
100
AcDbEntity
  8
DEFAULT_2
100
AcDbSpline
 62
2
  6
HIDDEN
 70
0
 71
3
 72
15
 73
11
 74
0
 42
0.0000001
 43
0.0000001
 44
0.0000000001
 40
0.0
 40
0.0
 40
0.0
 40
0.0
 40
0.1300961085
 40
0.2563400258
 40
0.3791921367
 40
0.5000000358
 40
0.6208079368
 40
0.7436600398
 40
0.8699039062
 40
1.0
 40
1.0
 40
1.0
 40
1.0
 10
41.0225402654
 20
36.6108516649
 30
0.0
 10
41.0392246716
 20
36.6413238635
 30
0.0
 10
41.0698634168
 20
36.702649097
 30
0.0
 10
41.1058599666
 20
36.7975228132
 30
0.0
 10
41.1288633013
 20
36.8939271604
 30
0.0
 10
41.1368149718
 20
36.9913491882
 30
0.0
 10
41.12886331
 20
37.0887712151
 30
0.0
 10
41.1058599671
 20
37.1851755462
 30
0.0
 10
41.0698633967
 20
37.2800492326
 30
0.0
 10
41.0392246697
 20
37.341374455
 30
0.0
 10
41.0225402654
 20
37.3718466502
 30
0.0
  0
SPLINE
  5
379
100
AcDbEntity
  8
DEFAULT_2
100
AcDbSpline
 62
2
  6
HIDDEN
 70
0
 71
3
 72
13
 73
9
 74
0
 42
0.0000001
 43
0.0000001
 44
0.0000000001
 40
0.0
 40
0.0
 40
0.0
 40
0.0
 40
0.249946977
 40
0.3749738879
 40
0.5000000384
 40
0.6250261914
 40
0.7500530917
 40
1.0
 40
1.0
 40
1.0
 40
1.0
 10
41.0225402654
 20
37.3718466502
 30
0.0
 10
41.0563884628
 20
37.4890411812
 30
0.0
 10
41.0987071601
 20
37.6677062315
 30
0.0
 10
41.1289718405
 20
37.9100603195
 30
0.0
 10
41.1367829935
 20
38.0931710086
 30
0.0
 10
41.1289718502
 20
38.2762816935
 30
0.0
 10
41.0987071532
 20
38.5186357422
 30
0.0
 10
41.0563884535
 20
38.6973007511
 30
0.0
 10
41.0225402654
 20
38.8144952499
 30
0.0
  0
SPLINE
  5
37A
100
AcDbEntity
  8
DEFAULT_2
100
AcDbSpline
 62
2
  6
HIDDEN
 70
0
 71
3
 72
15
 73
11
 74
0
 42
0.0000001
 43
0.0000001
 44
0.0000000001
 40
0.0
 40
0.0
 40
0.0
 40
0.0
 40
0.1320839359
 40
0.2593260829
 40
0.3821915204
 40
0.5022038487
 40
0.6218044895
 40
0.7435861777
 40
0.8693943344
 40
1.0
 40
1.0
 40
1.0
 40
1.0
 10
41.0225402654
 20
38.8144952499
 30
0.0
 10
41.0385569864
 20
38.8406981038
 30
0.0
 10
41.06806661
 20
38.8933829767
 30
0.0
 10
41.1033722823
 20
38.9751455125
 30
0.0
 10
41.1268146506
 20
39.0582717938
 30
0.0
 10
41.1364561335
 20
39.1424092528
 30
0.0
 10
41.1313071281
 20
39.2267045122
 30
0.0
 10
41.1119064059
 20
39.3102027769
 30
0.0
 10
41.0799987047
 20
39.3923868605
 30
0.0
 10
41.0523145017
 20
39.4453084512
 30
0.0
 10
41.0371303988
 20
39.4716062712
 30
0.0
  0
SPLINE
  5
37B
100
AcDbEntity
  8
DEFAULT_2
100
AcDbSpline
 62
2
  6
HIDDEN
 70
0
 71
3
 72
15
 73
11
 74
0
 42
0.0000001
 43
0.0000001
 44
0.0000000001
 40
0.0
 40
0.0
 40
0.0
 40
0.0
 40
0.1296547155
 40
0.255386167
 40
0.3783921626
 40
0.5000000005
 40
0.6216078385
 40
0.7446138341
 40
0.8703452851
 40
1.0
 40
1.0
 40
1.0
 40
1.0
 10
39.4950296805
 20
36.6108516649
 30
0.0
 10
39.5108457273
 20
36.6412394742
 30
0.0
 10
39.5388665551
 20
36.7028046041
 30
0.0
 10
39.5695991301
 20
36.7981800991
 30
0.0
 10
39.5881199598
 20
36.8945228262
 30
0.0
 10
39.5943062934
 20
36.991349158
 30
0.0
 10
39.5881199597
 20
37.0881754898
 30
0.0
 10
39.5695991299
 20
37.1845182167
 30
0.0
 10
39.5388665549
 20
37.2798937113
 30
0.0
 10
39.5108457272
 20
37.341458841
 30
0.0
 10
39.4950296805
 20
37.3718466502
 30
0.0
  0
SPLINE
  5
37C
100
AcDbEntity
  8
DEFAULT_2
100
AcDbSpline
 62
2
  6
HIDDEN
 70
0
 71
3
 72
15
 73
11
 74
0
 42
0.0000001
 43
0.0000001
 44
0.0000000001
 40
0.0
 40
0.0
 40
0.0
 40
0.0
 40
0.131538443
 40
0.2580727634
 40
0.3810204371
 40
0.5019855729
 40
0.6226845142
 40
0.7448492435
 40
0.8701273733
 40
1.0
 40
1.0
 40
1.0
 40
1.0
 10
39.4950296805
 20
38.8144952499
 30
0.0
 10
39.510199511
 20
38.8406026801
 30
0.0
 10
39.5372418056
 20
38.8934822541
 30
0.0
 10
39.5675417583
 20
38.9757609905
 30
0.0
 10
39.5865140085
 20
39.0589093459
 30
0.0
 10
39.594027039
 20
39.1425290031
 30
0.0
 10
39.5900298294
 20
39.2262121578
 30
0.0
 10
39.5745488036
 20
39.3095477685
 30
0.0
 10
39.5476951624
 20
39.3921281971
 30
0.0
 10
39.5228334525
 20
39.4453348772
 30
0.0
 10
39.5087410953
 20
39.471606175
 30
0.0
  0
SPLINE
  5
37D
100
AcDbEntity
  8
DEFAULT_2
100
AcDbSpline
 62
2
  6
HIDDEN
 70
0
 71
3
 72
13
 73
9
 74
0
 42
0.0000001
 43
0.0000001
 44
0.0000000001
 40
0.0
 40
0.0
 40
0.0
 40
0.0
 40
0.2499452698
 40
0.374972761
 40
0.5000000384
 40
0.6250273183
 40
0.750054799
 40
1.0
 40
1.0
 40
1.0
 40
1.0
 10
41.0225402654
 20
126.7518195841
 30
0.0
 10
41.056388769
 20
126.6345852017
 30
0.0
 10
41.098707405
 20
126.4558604361
 30
0.0
 10
41.1289718684
 20
126.2134273582
 30
0.0
 10
41.1367829853
 20
126.0302564701
 30
0.0
 10
41.1289718781
 20
125.8470855861
 30
0.0
 10
41.0987073982
 20
125.6046525475
 30
0.0
 10
41.0563887596
 20
125.4259278234
 30
0.0
 10
41.0225402654
 20
125.3086934733
 30
0.0
  0
SPLINE
  5
37E
100
AcDbEntity
  8
DEFAULT_2
100
AcDbSpline
 62
2
  6
HIDDEN
 70
0
 71
3
 72
15
 73
11
 74
0
 42
0.0000001
 43
0.0000001
 44
0.0000000001
 40
0.0
 40
0.0
 40
0.0
 40
0.0
 40
0.1315330499
 40
0.2584197822
 40
0.3811444819
 40
0.5012350331
 40
0.6210931028
 40
0.7432075515
 40
0.8692905031
 40
1.0
 40
1.0
 40
1.0
 40
1.0
 10
41.0225402654
 20
125.3086934733
 30
0.0
 10
41.0388176269
 20
125.2814131628
 30
0.0
 10
41.0687687332
 20
125.2265478113
 30
0.0
 10
41.1043747014
 20
125.1414359958
 30
0.0
 10
41.1276679484
 20
125.0549001599
 30
0.0
 10
41.1366463014
 20
124.9673448827
 30
0.0
 10
41.1303616823
 20
124.8796930842
 30
0.0
 10
41.1094861565
 20
124.7929297092
 30
0.0
 10
41.0759039055
 20
124.7075603054
 30
0.0
 10
41.0470359093
 20
124.6525501601
 30
0.0
 10
41.0312509602
 20
124.6252114403
 30
0.0
  0
SPLINE
  5
37F
100
AcDbEntity
  8
DEFAULT_2
100
AcDbSpline
 62
2
  6
HIDDEN
 70
0
 71
3
 72
15
 73
11
 74
0
 42
0.0000001
 43
0.0000001
 44
0.0000000001
 40
0.0
 40
0.0
 40
0.0
 40
0.0
 40
0.1293472365
 40
0.2548013698
 40
0.3775944637
 40
0.4990848827
 40
0.6206970597
 40
0.7438491144
 40
0.8698816722
 40
1.0
 40
1.0
 40
1.0
 40
1.0
 10
39.5029017746
 20
127.4814935932
 30
0.0
 10
39.517759473
 20
127.452283677
 30
0.0
 10
39.5440030318
 20
127.3931290693
 30
0.0
 10
39.5724916689
 20
127.3015735008
 30
0.0
 10
39.5892535227
 20
127.2091595374
 30
0.0
 10
39.5941792111
 20
127.1163361007
 30
0.0
 10
39.587239351
 20
127.0235510666
 30
0.0
 10
39.5684760571
 20
126.9312510638
 30
0.0
 10
39.5380099434
 20
126.8398812246
 30
0.0
 10
39.5105084122
 20
126.7809266654
 30
0.0
 10
39.4950296805
 20
126.7518195841
 30
0.0
  0
SPLINE
  5
380
100
AcDbEntity
  8
DEFAULT_2
100
AcDbSpline
 62
2
  6
HIDDEN
 70
0
 71
3
 72
15
 73
11
 74
0
 42
0.0000001
 43
0.0000001
 44
0.0000000001
 40
0.0
 40
0.0
 40
0.0
 40
0.0
 40
0.1310116998
 40
0.2572455949
 40
0.3800931029
 40
0.5011212454
 40
0.6219991656
 40
0.7444047238
 40
0.8699292307
 40
1.0
 40
1.0
 40
1.0
 40
1.0
 10
39.4950296805
 20
125.3086934733
 30
0.0
 10
39.5104489919
 20
125.2815078875
 30
0.0
 10
39.5378771258
 20
125.2264332353
 30
0.0
 10
39.5683761054
 20
125.1408037406
 30
0.0
 10
39.5871856992
 20
125.0542755402
 30
0.0
 10
39.5941741838
 20
124.9672747118
 30
0.0
 10
39.5892942945
 20
124.880234737
 30
0.0
 10
39.5725785396
 20
124.7935909419
 30
0.0
 10
39.5441462982
 20
124.7077746894
 30
0.0
 10
39.5180265492
 20
124.6524986504
 30
0.0
 10
39.5032535433
 20
124.6252114933
 30
0.0
  0
SPLINE
  5
381
100
AcDbEntity
  8
DEFAULT_2
100
AcDbSpline
 62
2
  6
HIDDEN
 70
0
 71
3
 72
15
 73
11
 74
0
 42
0.0000001
 43
0.0000001
 44
0.0000000001
 40
0.0
 40
0.0
 40
0.0
 40
0.0
 40
0.1303804525
 40
0.2566969278
 40
0.3794298163
 40
0.5000000356
 40
0.6205702569
 40
0.7433031376
 40
0.8696195623
 40
1.0
 40
1.0
 40
1.0
 40
1.0
 10
41.0225402654
 20
127.4966263754
 30
0.0
 10
41.0392121519
 20
127.4668247731
 30
0.0
 10
41.0698295035
 20
127.4068562085
 30
0.0
 10
41.1058367462
 20
127.3140000445
 30
0.0
 10
41.1288565774
 20
127.2196216983
 30
0.0
 10
41.1368169771
 20
127.1242229497
 30
0.0
 10
41.1288565861
 20
127.0288242019
 30
0.0
 10
41.1058367467
 20
126.9344458715
 30
0.0
 10
41.0698294835
 20
126.841589737
 30
0.0
 10
41.03921215
 20
126.781621183
 30
0.0
 10
41.0225402654
 20
126.7518195841
 30
0.0
  0
SPLINE
  5
382
100
AcDbEntity
  8
DEFAULT_2
100
AcDbSpline
 62
2
  6
HIDDEN
 70
0
 71
3
 72
13
 73
9
 74
0
 42
0.0000001
 43
0.0000001
 44
0.0000000001
 40
0.0
 40
0.0
 40
0.0
 40
0.0
 40
0.249946977
 40
0.3749738879
 40
0.5000000384
 40
0.6250261914
 40
0.7500530917
 40
1.0
 40
1.0
 40
1.0
 40
1.0
 10
41.0225402654
 20
38.7351538791
 30
0.0
 10
41.0563884628
 20
38.617959348
 30
0.0
 10
41.0987071601
 20
38.4392942977
 30
0.0
 10
41.1289718405
 20
38.1969402097
 30
0.0
 10
41.1367829935
 20
38.0138295207
 30
0.0
 10
41.1289718502
 20
37.8307188357
 30
0.0
 10
41.0987071532
 20
37.588364787
 30
0.0
 10
41.0563884535
 20
37.4096997781
 30
0.0
 10
41.0225402654
 20
37.2925052793
 30
0.0
  0
SPLINE
  5
383
100
AcDbEntity
  8
DEFAULT_2
100
AcDbSpline
 62
2
  6
HIDDEN
 70
0
 71
3
 72
15
 73
11
 74
0
 42
0.0000001
 43
0.0000001
 44
0.0000000001
 40
0.0
 40
0.0
 40
0.0
 40
0.0
 40
0.1320839359
 40
0.2593260829
 40
0.3821915204
 40
0.5022038487
 40
0.6218044895
 40
0.7435861777
 40
0.8693943344
 40
1.0
 40
1.0
 40
1.0
 40
1.0
 10
41.0225402654
 20
37.2925052793
 30
0.0
 10
41.0385569864
 20
37.2663024254
 30
0.0
 10
41.06806661
 20
37.2136175526
 30
0.0
 10
41.1033722823
 20
37.1318550167
 30
0.0
 10
41.1268146506
 20
37.0487287354
 30
0.0
 10
41.1364561335
 20
36.9645912764
 30
0.0
 10
41.1313071281
 20
36.8802960171
 30
0.0
 10
41.1119064059
 20
36.7967977524
 30
0.0
 10
41.0799987047
 20
36.7146136687
 30
0.0
 10
41.0523145017
 20
36.6616920781
 30
0.0
 10
41.0371303988
 20
36.635394258
 30
0.0
  0
SPLINE
  5
384
100
AcDbEntity
  8
DEFAULT_2
100
AcDbSpline
 62
2
  6
HIDDEN
 70
0
 71
3
 72
15
 73
11
 74
0
 42
0.0000001
 43
0.0000001
 44
0.0000000001
 40
0.0
 40
0.0
 40
0.0
 40
0.0
 40
0.128779143
 40
0.2540211047
 40
0.3768771987
 40
0.498605848
 40
0.6205192769
 40
0.7439207287
 40
0.8700433037
 40
1.0
 40
1.0
 40
1.0
 40
1.0
 10
39.5076781837
 20
39.4709543328
 30
0.0
 10
39.5219678312
 20
39.4414109843
 30
0.0
 10
39.5471407245
 20
39.3816069772
 30
0.0
 10
39.5742311272
 20
39.2892485632
 30
0.0
 10
39.5899015447
 20
39.1960802867
 30
0.0
 10
39.5940552536
 20
39.1025396053
 30
0.0
 10
39.5866693702
 20
39.0090601952
 30
0.0
 10
39.5677859
 20
38.9160740688
 30
0.0
 10
39.5375187968
 20
38.8240133569
 30
0.0
 10
39.5103196215
 20
38.7645308668
 30
0.0
 10
39.4950296805
 20
38.7351538791
 30
0.0
  0
SPLINE
  5
385
100
AcDbEntity
  8
DEFAULT_2
100
AcDbSpline
 62
2
  6
HIDDEN
 70
0
 71
3
 72
15
 73
11
 74
0
 42
0.0000001
 43
0.0000001
 44
0.0000000001
 40
0.0
 40
0.0
 40
0.0
 40
0.0
 40
0.131538443
 40
0.2580727634
 40
0.3810204371
 40
0.5019855729
 40
0.6226845142
 40
0.7448492435
 40
0.8701273733
 40
1.0
 40
1.0
 40
1.0
 40
1.0
 10
39.4950296805
 20
37.2925052793
 30
0.0
 10
39.510199511
 20
37.2663978491
 30
0.0
 10
39.5372418056
 20
37.2135182751
 30
0.0
 10
39.5675417583
 20
37.1312395388
 30
0.0
 10
39.5865140085
 20
37.0480911833
 30
0.0
 10
39.594027039
 20
36.9644715261
 30
0.0
 10
39.5900298294
 20
36.8807883714
 30
0.0
 10
39.5745488036
 20
36.7974527607
 30
0.0
 10
39.5476951624
 20
36.7148723321
 30
0.0
 10
39.5228334525
 20
36.661665652
 30
0.0
 10
39.5087410953
 20
36.6353943543
 30
0.0
  0
SPLINE
  5
386
100
AcDbEntity
  8
DEFAULT_2
100
AcDbSpline
 62
2
  6
HIDDEN
 70
0
 71
3
 72
15
 73
11
 74
0
 42
0.0000001
 43
0.0000001
 44
0.0000000001
 40
0.0
 40
0.0
 40
0.0
 40
0.0
 40
0.1300961085
 40
0.2563400258
 40
0.3791921367
 40
0.5000000358
 40
0.6208079368
 40
0.7436600398
 40
0.8699039062
 40
1.0
 40
1.0
 40
1.0
 40
1.0
 10
41.0225402654
 20
39.4961488643
 30
0.0
 10
41.0392246716
 20
39.4656766657
 30
0.0
 10
41.0698634168
 20
39.4043514323
 30
0.0
 10
41.1058599666
 20
39.3094777161
 30
0.0
 10
41.1288633013
 20
39.2130733688
 30
0.0
 10
41.1368149718
 20
39.115651341
 30
0.0
 10
41.12886331
 20
39.0182293141
 30
0.0
 10
41.1058599671
 20
38.921824983
 30
0.0
 10
41.0698633967
 20
38.8269512967
 30
0.0
 10
41.0392246697
 20
38.7656260743
 30
0.0
 10
41.0225402654
 20
38.7351538791
 30
0.0
  0
SPLINE
  5
387
100
AcDbEntity
  8
0
100
AcDbSpline
 62
2
  6
CONTINUOUS
 70
0
 71
3
 72
14
 73
10
 74
0
 42
0.0000001
 43
0.0000001
 44
0.0000000001
 40
0.0
 40
0.0
 40
0.0
 40
0.0
 40
0.073416938
 40
0.2278474483
 40
0.3822779587
 40
0.536708469
 40
0.6911389793
 40
0.8455694897
 40
1.0
 40
1.0
 40
1.0
 40
1.0
 10
39.4949657896
 20
40.5538403442
 30
0.0
 10
39.4951077568
 20
40.5532721879
 30
0.0
 10
39.4998232363
 20
40.5344002399
 30
0.0
 10
39.5299960308
 20
40.4136438383
 30
0.0
 10
39.5941013616
 20
40.1346055845
 30
0.0
 10
39.6741267881
 20
39.7253030247
 30
0.0
 10
39.74890865
 20
39.2242583834
 30
0.0
 10
39.8029541593
 20
38.6488741484
 30
0.0
 10
39.8145062112
 20
38.2510957771
 30
0.0
 10
39.815050503
 20
38.0535002646
 30
0.0
  0
SPLINE
  5
388
100
AcDbEntity
  8
0
100
AcDbSpline
 62
2
  6
CONTINUOUS
 70
0
 71
3
 72
14
 73
10
 74
0
 42
0.0000001
 43
0.0000001
 44
0.0000000001
 40
0.0
 40
0.0
 40
0.0
 40
0.0
 40
0.1544291623
 40
0.3088583246
 40
0.4632874869
 40
0.6177166492
 40
0.7721458115
 40
0.9265749738
 40
1.0
 40
1.0
 40
1.0
 40
1.0
 10
39.815050503
 20
38.0535002646
 30
0.0
 10
39.8145056829
 20
37.8559093988
 30
0.0
 10
39.8029533543
 20
37.4581429916
 30
0.0
 10
39.7489241095
 20
36.8828697167
 30
0.0
 10
39.6741321729
 20
36.3817253472
 30
0.0
 10
39.5941213018
 20
35.9724910328
 30
0.0
 10
39.5300020114
 20
35.6933791731
 30
0.0
 10
39.4998272797
 20
35.572616589
 30
0.0
 10
39.4951086906
 20
35.5537321147
 30
0.0
 10
39.4949659127
 20
35.5531606826
 30
0.0
  0
SPLINE
  5
389
100
AcDbEntity
  8
0
100
AcDbSpline
 62
2
  6
CONTINUOUS
 70
0
 71
3
 72
14
 73
10
 74
0
 42
0.0000001
 43
0.0000001
 44
0.0000000001
 40
0.0
 40
0.0
 40
0.0
 40
0.0
 40
0.073416938
 40
0.2278474483
 40
0.3822779587
 40
0.536708469
 40
0.6911389793
 40
0.8455694897
 40
1.0
 40
1.0
 40
1.0
 40
1.0
 10
39.4949657896
 20
128.5538403442
 30
0.0
 10
39.4951077568
 20
128.5532721879
 30
0.0
 10
39.4998232363
 20
128.5344002399
 30
0.0
 10
39.5299960308
 20
128.4136438383
 30
0.0
 10
39.5941013616
 20
128.1346055845
 30
0.0
 10
39.6741267881
 20
127.7253030247
 30
0.0
 10
39.74890865
 20
127.2242583834
 30
0.0
 10
39.8029541593
 20
126.6488741484
 30
0.0
 10
39.8145062112
 20
126.2510957771
 30
0.0
 10
39.815050503
 20
126.0535002646
 30
0.0
  0
SPLINE
  5
38A
100
AcDbEntity
  8
0
100
AcDbSpline
 62
2
  6
CONTINUOUS
 70
0
 71
3
 72
14
 73
10
 74
0
 42
0.0000001
 43
0.0000001
 44
0.0000000001
 40
0.0
 40
0.0
 40
0.0
 40
0.0
 40
0.1544291623
 40
0.3088583246
 40
0.4632874869
 40
0.6177166492
 40
0.7721458115
 40
0.9265749738
 40
1.0
 40
1.0
 40
1.0
 40
1.0
 10
39.815050503
 20
126.0535002646
 30
0.0
 10
39.8145056829
 20
125.8559093988
 30
0.0
 10
39.8029533543
 20
125.4581429916
 30
0.0
 10
39.7489241095
 20
124.8828697167
 30
0.0
 10
39.6741321729
 20
124.3817253472
 30
0.0
 10
39.5941213018
 20
123.9724910328
 30
0.0
 10
39.5300020114
 20
123.6933791731
 30
0.0
 10
39.4998272797
 20
123.572616589
 30
0.0
 10
39.4951086906
 20
123.5537321147
 30
0.0
 10
39.4949659127
 20
123.5531606826
 30
0.0
  0
ENDSEC
  0
SECTION
  2
OBJECTS
  0
DICTIONARY
  5
38B
100
AcDbDictionary
  3
ACAD_GROUP
350
38C
  3
ACAD_MLINESTYLE
350
38D
  0
DICTIONARY
  5
38C
102
{ACAD_REACTORS
330
38B
102
}
100
AcDbDictionary
  0
DICTIONARY
  5
38D
102
{ACAD_REACTORS
330
38B
102
}
100
AcDbDictionary
  3
STANDARD
350
38E
  0
MLINESTYLE
  5
38E
102
{ACAD_REACTORS
330
38D
102
}
100
AcDbMlineStyle
  2
STANDARD
 70
0
  3

 62
256
 51
90.0
 52
90.0
 71
2
 49
0.5
 62
256
  6
BYLAYER
 49
-0.5
 62
256
  6
BYLAYER
  0
ENDSEC
  0
EOF
