  0
SECTION
  2
HEADER
  9
$ACADVER
  1
AC1018
  9
$ACADMAINTVER
 70
     0
  9
$DWGCODEPAGE
  3
ANSI_1252
  9
$INSBASE
 10
0.0
 20
0.0
 30
0.0
  9
$EXTMIN
 10
4001.913843089665
 20
8031.987686232454
 30
0.0
  9
$EXTMAX
 10
4111.21622696459
 20
8176.987686232454
 30
0.0
  9
$LIMMIN
 10
0.0
 20
0.0
  9
$LIMMAX
 10
12.0
 20
9.0
  9
$ORTHOMODE
 70
     0
  9
$REGENMODE
 70
     1
  9
$FILLMODE
 70
     1
  9
$QTEXTMODE
 70
     0
  9
$MIRRTEXT
 70
     1
  9
$LTSCALE
 40
1.0
  9
$ATTMODE
 70
     1
  9
$TEXTSIZE
 40
0.2
  9
$TRACEWID
 40
0.05
  9
$TEXTSTYLE
  7
Standard
  9
$CLAYER
  8
0
  9
$CELTYPE
  6
ByLayer
  9
$CECOLOR
 62
   256
  9
$CELTSCALE
 40
1.0
  9
$DISPSILH
 70
     0
  9
$DIMSCALE
 40
1.0
  9
$DIMASZ
 40
0.18
  9
$DIMEXO
 40
0.0625
  9
$DIMDLI
 40
0.38
  9
$DIMRND
 40
0.0
  9
$DIMDLE
 40
0.0
  9
$DIMEXE
 40
0.18
  9
$DIMTP
 40
0.0
  9
$DIMTM
 40
0.0
  9
$DIMTXT
 40
0.18
  9
$DIMCEN
 40
0.09
  9
$DIMTSZ
 40
0.0
  9
$DIMTOL
 70
     0
  9
$DIMLIM
 70
     0
  9
$DIMTIH
 70
     1
  9
$DIMTOH
 70
     1
  9
$DIMSE1
 70
     0
  9
$DIMSE2
 70
     0
  9
$DIMTAD
 70
     0
  9
$DIMZIN
 70
     0
  9
$DIMBLK
  1

  9
$DIMASO
 70
     1
  9
$DIMSHO
 70
     1
  9
$DIMPOST
  1

  9
$DIMAPOST
  1

  9
$DIMALT
 70
     0
  9
$DIMALTD
 70
     2
  9
$DIMALTF
 40
25.4
  9
$DIMLFAC
 40
1.0
  9
$DIMTOFL
 70
     0
  9
$DIMTVP
 40
0.0
  9
$DIMTIX
 70
     0
  9
$DIMSOXD
 70
     0
  9
$DIMSAH
 70
     0
  9
$DIMBLK1
  1

  9
$DIMBLK2
  1

  9
$DIMSTYLE
  2
Standard
  9
$DIMCLRD
 70
     0
  9
$DIMCLRE
 70
     0
  9
$DIMCLRT
 70
     0
  9
$DIMTFAC
 40
1.0
  9
$DIMGAP
 40
0.09
  9
$DIMJUST
 70
     0
  9
$DIMSD1
 70
     0
  9
$DIMSD2
 70
     0
  9
$DIMTOLJ
 70
     1
  9
$DIMTZIN
 70
     0
  9
$DIMALTZ
 70
     0
  9
$DIMALTTZ
 70
     0
  9
$DIMUPT
 70
     0
  9
$DIMDEC
 70
     4
  9
$DIMTDEC
 70
     4
  9
$DIMALTU
 70
     2
  9
$DIMALTTD
 70
     2
  9
$DIMTXSTY
  7
Standard
  9
$DIMAUNIT
 70
     0
  9
$DIMADEC
 70
     0
  9
$DIMALTRND
 40
0.0
  9
$DIMAZIN
 70
     0
  9
$DIMDSEP
 70
    46
  9
$DIMATFIT
 70
     3
  9
$DIMFRAC
 70
     0
  9
$DIMLDRBLK
  1

  9
$DIMLUNIT
 70
     2
  9
$DIMLWD
 70
    -2
  9
$DIMLWE
 70
    -2
  9
$DIMTMOVE
 70
     0
  9
$LUNITS
 70
     2
  9
$LUPREC
 70
     4
  9
$SKETCHINC
 40
0.1
  9
$FILLETRAD
 40
0.5
  9
$AUNITS
 70
     0
  9
$AUPREC
 70
     0
  9
$MENU
  1
.
  9
$ELEVATION
 40
0.0
  9
$PELEVATION
 40
0.0
  9
$THICKNESS
 40
0.0
  9
$LIMCHECK
 70
     0
  9
$CHAMFERA
 40
0.5
  9
$CHAMFERB
 40
0.5
  9
$CHAMFERC
 40
1.0
  9
$CHAMFERD
 40
0.0
  9
$SKPOLY
 70
     0
  9
$TDCREATE
 40
2456623.358716215
  9
$TDUCREATE
 40
2456623.317049548
  9
$TDUPDATE
 40
2456623.358716227
  9
$TDUUPDATE
 40
2456623.31704956
  9
$TDINDWG
 40
0.0000000116
  9
$TDUSRTIMER
 40
0.0000000116
  9
$USRTIMER
 70
     1
  9
$ANGBASE
 50
0.0
  9
$ANGDIR
 70
     0
  9
$PDMODE
 70
     0
  9
$PDSIZE
 40
0.0
  9
$PLINEWID
 40
0.0
  9
$SPLFRAME
 70
     0
  9
$SPLINETYPE
 70
     6
  9
$SPLINESEGS
 70
     8
  9
$HANDSEED
  5
173
  9
$SURFTAB1
 70
     6
  9
$SURFTAB2
 70
     6
  9
$SURFTYPE
 70
     6
  9
$SURFU
 70
     6
  9
$SURFV
 70
     6
  9
$UCSBASE
  2

  9
$UCSNAME
  2

  9
$UCSORG
 10
0.0
 20
0.0
 30
0.0
  9
$UCSXDIR
 10
1.0
 20
0.0
 30
0.0
  9
$UCSYDIR
 10
0.0
 20
1.0
 30
0.0
  9
$UCSORTHOREF
  2

  9
$UCSORTHOVIEW
 70
     0
  9
$UCSORGTOP
 10
0.0
 20
0.0
 30
0.0
  9
$UCSORGBOTTOM
 10
0.0
 20
0.0
 30
0.0
  9
$UCSORGLEFT
 10
0.0
 20
0.0
 30
0.0
  9
$UCSORGRIGHT
 10
0.0
 20
0.0
 30
0.0
  9
$UCSORGFRONT
 10
0.0
 20
0.0
 30
0.0
  9
$UCSORGBACK
 10
0.0
 20
0.0
 30
0.0
  9
$PUCSBASE
  2

  9
$PUCSNAME
  2

  9
$PUCSORG
 10
0.0
 20
0.0
 30
0.0
  9
$PUCSXDIR
 10
1.0
 20
0.0
 30
0.0
  9
$PUCSYDIR
 10
0.0
 20
1.0
 30
0.0
  9
$PUCSORTHOREF
  2

  9
$PUCSORTHOVIEW
 70
     0
  9
$PUCSORGTOP
 10
0.0
 20
0.0
 30
0.0
  9
$PUCSORGBOTTOM
 10
0.0
 20
0.0
 30
0.0
  9
$PUCSORGLEFT
 10
0.0
 20
0.0
 30
0.0
  9
$PUCSORGRIGHT
 10
0.0
 20
0.0
 30
0.0
  9
$PUCSORGFRONT
 10
0.0
 20
0.0
 30
0.0
  9
$PUCSORGBACK
 10
0.0
 20
0.0
 30
0.0
  9
$USERI1
 70
     0
  9
$USERI2
 70
     0
  9
$USERI3
 70
     0
  9
$USERI4
 70
     0
  9
$USERI5
 70
     0
  9
$USERR1
 40
16.5
  9
$USERR2
 40
0.0
  9
$USERR3
 40
0.0
  9
$USERR4
 40
0.0
  9
$USERR5
 40
0.0
  9
$WORLDVIEW
 70
     1
  9
$SHADEDGE
 70
     3
  9
$SHADEDIF
 70
    70
  9
$TILEMODE
 70
     1
  9
$MAXACTVP
 70
    64
  9
$PINSBASE
 10
0.0
 20
0.0
 30
0.0
  9
$PLIMCHECK
 70
     0
  9
$PEXTMIN
 10
1.00000000000000E+20
 20
1.00000000000000E+20
 30
1.00000000000000E+20
  9
$PEXTMAX
 10
-1.00000000000000E+20
 20
-1.00000000000000E+20
 30
-1.00000000000000E+20
  9
$PLIMMIN
 10
0.0
 20
0.0
  9
$PLIMMAX
 10
12.0
 20
9.0
  9
$UNITMODE
 70
     0
  9
$VISRETAIN
 70
     1
  9
$PLINEGEN
 70
     0
  9
$PSLTSCALE
 70
     1
  9
$TREEDEPTH
 70
  3020
  9
$CMLSTYLE
  2
Standard
  9
$CMLJUST
 70
     0
  9
$CMLSCALE
 40
1.0
  9
$PROXYGRAPHICS
 70
     1
  9
$MEASUREMENT
 70
     1
  9
$CELWEIGHT
370
    -1
  9
$ENDCAPS
280
     0
  9
$JOINSTYLE
280
     0
  9
$LWDISPLAY
290
     0
  9
$INSUNITS
 70
     1
  9
$HYPERLINKBASE
  1

  9
$STYLESHEET
  1

  9
$XEDIT
290
     1
  9
$CEPSNTYPE
380
     0
  9
$PSTYLEMODE
290
     1
  9
$FINGERPRINTGUID
  2
{24136104-2404-4F82-A84E-132F0A190CA8}
  9
$VERSIONGUID
  2
{FAEB1C32-E019-11D5-929B-00C0DF256EC4}
  9
$EXTNAMES
290
     1
  9
$PSVPSCALE
 40
0.0
  9
$OLESTARTUP
290
     0
  9
$SORTENTS
280
   127
  9
$INDEXCTL
280
     0
  9
$HIDETEXT
280
     1
  9
$XCLIPFRAME
290
     0
  9
$HALOGAP
280
     0
  9
$OBSCOLOR
 70
   257
  9
$OBSLTYPE
280
     0
  9
$INTERSECTIONDISPLAY
280
     0
  9
$INTERSECTIONCOLOR
 70
   257
  9
$DIMASSOC
280
     2
  9
$PROJECTNAME
  1

  0
ENDSEC
  0
SECTION
  2
CLASSES
  0
CLASS
  1
ACDBDICTIONARYWDFLT
  2
AcDbDictionaryWithDefault
  3
ObjectDBX Classes
 90
        0
 91
        4
280
     0
281
     0
  0
CLASS
  1
VISUALSTYLE
  2
AcDbVisualStyle
  3
ObjectDBX Classes
 90
     4095
 91
        4
280
     0
281
     0
  0
CLASS
  1

  2
exOdDbCircle
  3

 90
        0
 91
        4
280
     0
281
     1
  0
CLASS
  1

  2
exOdDbSpline
  3

 90
        0
 91
        4
280
     0
281
     1
  0
CLASS
  1
SCALE
  2
AcDbScale
  3
ObjectDBX Classes
 90
     1153
 91
        4
280
     0
281
     0
  0
CLASS
  1
DICTIONARYVAR
  2
AcDbDictionaryVar
  3
ObjectDBX Classes
 90
        0
 91
        4
280
     0
281
     0
  0
ENDSEC
  0
SECTION
  2
TABLES
  0
TABLE
  2
VPORT
  5
8
330
0
100
AcDbSymbolTable
 70
     1
  0
VPORT
  5
29
330
8
100
AcDbSymbolTableRecord
100
AcDbViewportTableRecord
  2
*Active
 70
     0
 10
0.0
 20
0.0
 11
1.0
 21
1.0
 12
4056.565035027127
 22
8104.487686232454
 13
0.0
 23
0.0
 14
0.5
 24
0.5
 15
0.5
 25
0.5
 16
0.0
 26
0.0
 36
1.0
 17
0.0
 27
0.0
 37
0.0
 40
159.5
 41
1.60267857142857
 42
50.0
 43
0.0
 44
0.0
 50
0.0
 51
0.0
 71
     0
 72
   100
 73
     1
 74
     3
 75
     0
 76
     0
 77
     0
 78
     0
281
     0
 65
     1
110
0.0
120
0.0
130
0.0
111
1.0
121
0.0
131
0.0
112
0.0
122
1.0
132
0.0
 79
     0
146
0.0
  0
ENDTAB
  0
TABLE
  2
LTYPE
  5
5
330
0
100
AcDbSymbolTable
 70
     8
  0
LTYPE
  5
14
330
5
100
AcDbSymbolTableRecord
100
AcDbLinetypeTableRecord
  2
ByBlock
 70
     0
  3

 72
    65
 73
     0
 40
0.0
  0
LTYPE
  5
15
330
5
100
AcDbSymbolTableRecord
100
AcDbLinetypeTableRecord
  2
ByLayer
 70
     0
  3

 72
    65
 73
     0
 40
0.0
  0
LTYPE
  5
16
330
5
100
AcDbSymbolTableRecord
100
AcDbLinetypeTableRecord
  2
Continuous
 70
     0
  3
Solid line
 72
    65
 73
     0
 40
0.0
  0
LTYPE
  5
3B
330
5
100
AcDbSymbolTableRecord
100
AcDbLinetypeTableRecord
  2
DASHED
 70
     0
  3
Dashed
 72
    65
 73
     2
 40
15.0
 49
7.0
 74
     0
 49
-8.0
 74
     0
  0
LTYPE
  5
3C
330
5
100
AcDbSymbolTableRecord
100
AcDbLinetypeTableRecord
  2
DOTTED
 70
     0
  3
Dotted
 72
    65
 73
     2
 40
1.0
 49
0.0
 74
     0
 49
-1.0
 74
     0
  0
LTYPE
  5
3D
330
5
100
AcDbSymbolTableRecord
100
AcDbLinetypeTableRecord
  2
DOT_CENTER
 70
     0
  3
Dot_Center
 72
    65
 73
     4
 40
14.0
 49
12.0
 74
     0
 49
-1.0
 74
     0
 49
0.0
 74
     0
 49
-1.0
 74
     0
  0
LTYPE
  5
3E
330
5
100
AcDbSymbolTableRecord
100
AcDbLinetypeTableRecord
  2
LONG_DASHED
 70
     0
  3
Long_Dashed
 72
    65
 73
     2
 40
15.0
 49
10.0
 74
     0
 49
-5.0
 74
     0
  0
LTYPE
  5
3F
330
5
100
AcDbSymbolTableRecord
100
AcDbLinetypeTableRecord
  2
DASH_CENTER
 70
     0
  3
Dash_Center
 72
    65
 73
     4
 40
14.0
 49
11.0
 74
     0
 49
-1.0
 74
     0
 49
1.0
 74
     0
 49
-1.0
 74
     0
  0
LTYPE
  5
40
330
5
100
AcDbSymbolTableRecord
100
AcDbLinetypeTableRecord
  2
PHANTOM
 70
     0
  3
Phantom
 72
    65
 73
     6
 40
13.0
 49
10.0
 74
     0
 49
-1.0
 74
     0
 49
0.0
 74
     0
 49
-1.0
 74
     0
 49
0.0
 74
     0
 49
-1.0
 74
     0
  0
LTYPE
  5
41
330
5
100
AcDbSymbolTableRecord
100
AcDbLinetypeTableRecord
  2
CENTER_DASH_DASH
 70
     0
  3
Center_Dash_Dash
 72
    65
 73
     6
 40
14.0
 49
9.0
 74
     0
 49
-1.0
 74
     0
 49
1.0
 74
     0
 49
-1.0
 74
     0
 49
1.0
 74
     0
 49
-1.0
 74
     0
  0
ENDTAB
  0
TABLE
  2
LAYER
  5
2
330
0
100
AcDbSymbolTable
 70
     2
  0
LAYER
  5
10
330
2
100
AcDbSymbolTableRecord
100
AcDbLayerTableRecord
  2
0
 70
     0
 62
     7
  6
Continuous
370
    -3
390
F
  0
LAYER
  5
42
330
2
100
AcDbSymbolTableRecord
100
AcDbLayerTableRecord
  2
1
 70
     0
 62
     7
  6
Continuous
370
    -3
390
F
  0
ENDTAB
  0
TABLE
  2
STYLE
  5
3
330
0
100
AcDbSymbolTable
 70
     2
  0
STYLE
  5
11
330
3
100
AcDbSymbolTableRecord
100
AcDbTextStyleTableRecord
  2
Standard
 70
     0
 40
0.0
 41
1.0
 50
0.0
 71
     0
 42
0.2
  3
txt
  4

  0
STYLE
  5
126
330
3
100
AcDbSymbolTableRecord
100
AcDbTextStyleTableRecord
  2
CONVERTER_11
 70
     0
 40
0.0
 41
0.9
 50
0.0
 71
     0
 42
0.2
  3
txt.shx
  4

  0
ENDTAB
  0
TABLE
  2
VIEW
  5
6
330
0
100
AcDbSymbolTable
 70
     0
  0
ENDTAB
  0
TABLE
  2
UCS
  5
7
330
0
100
AcDbSymbolTable
 70
     0
  0
ENDTAB
  0
TABLE
  2
APPID
  5
9
330
0
100
AcDbSymbolTable
 70
     1
  0
APPID
  5
12
330
9
100
AcDbSymbolTableRecord
100
AcDbRegAppTableRecord
  2
ACAD
 70
     0
  0
ENDTAB
  0
TABLE
  2
DIMSTYLE
  5
A
330
0
100
AcDbSymbolTable
 70
     5
100
AcDbDimStyleTable
  0
DIMSTYLE
105
27
330
A
100
AcDbSymbolTableRecord
100
AcDbDimStyleTableRecord
  2
Standard
 70
     0
340
11
  0
DIMSTYLE
105
14C
102
{ACAD_REACTORS
330
14D
102
}
330
A
100
AcDbSymbolTableRecord
100
AcDbDimStyleTableRecord
  2
ME10_DIM_10
 70
     0
 41
3.5
 42
0.0
 44
2.0
 73
     0
 74
     0
 77
     1
 78
    12
140
3.5
147
2.0
172
     1
173
     1
176
     2
177
     2
178
     2
271
     3
340
126
  0
DIMSTYLE
105
157
102
{ACAD_REACTORS
330
158
102
}
330
A
100
AcDbSymbolTableRecord
100
AcDbDimStyleTableRecord
  2
ME10_DIM_11
 70
     0
 41
3.5
 42
0.0
 44
2.0
 73
     0
 74
     0
 77
     1
 78
    12
140
3.5
147
2.0
172
     1
173
     1
176
     2
177
     2
178
     2
271
     3
340
126
  0
DIMSTYLE
105
162
102
{ACAD_REACTORS
330
163
102
}
330
A
100
AcDbSymbolTableRecord
100
AcDbDimStyleTableRecord
  2
ME10_DIM_12
 70
     0
 41
3.5
 42
0.0
 44
2.0
 73
     0
 74
     0
 77
     1
 78
    12
140
3.5
147
2.0
172
     1
173
     1
176
     2
177
     2
178
     2
271
     3
340
126
  0
DIMSTYLE
105
16D
102
{ACAD_REACTORS
330
16E
102
}
330
A
100
AcDbSymbolTableRecord
100
AcDbDimStyleTableRecord
  2
ME10_DIM_13
 70
     0
 41
3.5
 42
0.0
 44
2.0
 73
     0
 74
     0
 77
     1
 78
    12
140
3.5
147
2.0
172
     1
173
     1
176
     2
177
     2
178
     2
271
     3
340
126
  0
ENDTAB
  0
TABLE
  2
BLOCK_RECORD
  5
1
330
0
100
AcDbSymbolTable
 70
     5
  0
BLOCK_RECORD
  5
1F
330
1
100
AcDbSymbolTableRecord
100
AcDbBlockTableRecord
  2
*Model_Space
340
22
  0
BLOCK_RECORD
  5
1B
330
1
100
AcDbSymbolTableRecord
100
AcDbBlockTableRecord
  2
*Paper_Space
340
1E
  0
BLOCK_RECORD
  5
23
330
1
100
AcDbSymbolTableRecord
100
AcDbBlockTableRecord
  2
*Paper_Space0
340
26
  0
BLOCK_RECORD
  5
120
330
1
100
AcDbSymbolTableRecord
100
AcDbBlockTableRecord
  2
*D1
340
0
  0
BLOCK_RECORD
  5
14E
330
1
100
AcDbSymbolTableRecord
100
AcDbBlockTableRecord
  2
*D2
340
0
  0
BLOCK_RECORD
  5
159
330
1
100
AcDbSymbolTableRecord
100
AcDbBlockTableRecord
  2
*D3
340
0
  0
BLOCK_RECORD
  5
164
330
1
100
AcDbSymbolTableRecord
100
AcDbBlockTableRecord
  2
*D4
340
0
  0
ENDTAB
  0
ENDSEC
  0
SECTION
  2
BLOCKS
  0
BLOCK
  5
20
330
1F
100
AcDbEntity
  8
0
100
AcDbBlockBegin
  2
*Model_Space
 70
     0
 10
0.0
 20
0.0
 30
0.0
  3
*Model_Space
  1

  0
ENDBLK
  5
21
330
1F
100
AcDbEntity
  8
0
100
AcDbBlockEnd
  0
BLOCK
  5
1C
330
1B
100
AcDbEntity
 67
     1
  8
0
100
AcDbBlockBegin
  2
*Paper_Space
 70
     0
 10
0.0
 20
0.0
 30
0.0
  3
*Paper_Space
  1

  0
ENDBLK
  5
1D
330
1B
100
AcDbEntity
 67
     1
  8
0
100
AcDbBlockEnd
  0
BLOCK
  5
24
330
23
100
AcDbEntity
  8
0
100
AcDbBlockBegin
  2
*Paper_Space0
 70
     0
 10
0.0
 20
0.0
 30
0.0
  3
*Paper_Space0
  1

  0
ENDBLK
  5
25
330
23
100
AcDbEntity
  8
0
100
AcDbBlockEnd
  0
BLOCK
  5
14A
330
120
100
AcDbEntity
  8
0
100
AcDbBlockBegin
  2
*D1
 70
     1
 10
0.0
 20
0.0
 30
0.0
  3
*D1
  1

  0
LINE
  5
121
330
120
100
AcDbEntity
  8
1
  6
Continuous
 62
     2
100
AcDbLine
 10
4007.413843089665
 20
8146.6492468805
 30
0.0
 11
4007.413843089665
 21
8062.6492468805
 31
0.0
  0
LINE
  5
122
330
120
100
AcDbEntity
  8
1
  6
Continuous
 62
     2
100
AcDbLine
 10
4028.13099209955
 20
8146.6492468805
 30
0.0
 11
4005.413843089665
 21
8146.6492468805
 31
0.0
  0
LINE
  5
123
330
120
100
AcDbEntity
  8
1
  6
Continuous
 62
     2
100
AcDbLine
 10
4028.13099209955
 20
8062.6492468805
 30
0.0
 11
4005.413843089665
 21
8062.6492468805
 31
0.0
  0
SOLID
  5
124
330
120
100
AcDbEntity
  8
1
 62
     2
100
AcDbTrace
 10
4007.874626831221
 20
8143.1492468805
 30
0.0
 11
4006.953059348109
 21
8143.1492468805
 31
0.0
 12
4007.413843089665
 22
8146.6492468805
 32
0.0
 13
4007.413843089665
 23
8146.6492468805
 33
0.0
  0
SOLID
  5
125
330
120
100
AcDbEntity
  8
1
 62
     2
100
AcDbTrace
 10
4006.953059348109
 20
8066.1492468805
 30
0.0
 11
4007.874626831221
 21
8066.1492468805
 31
0.0
 12
4007.413843089665
 22
8062.6492468805
 32
0.0
 13
4007.413843089665
 23
8062.6492468805
 33
0.0
  0
MTEXT
  5
149
330
120
100
AcDbEntity
  8
1
 62
     2
100
AcDbMText
 10
4005.413843089665
 20
8102.183504968746
 30
0.0
 40
3.5
 41
0.0
 71
     7
 72
     1
  1
84
  7
CONVERTER_11
 11
0.0
 21
1.0
 31
0.0
 73
     1
 44
0.60024009603842
  0
ENDBLK
  5
14B
330
120
100
AcDbEntity
  8
0
100
AcDbBlockEnd
  0
BLOCK
  5
155
330
14E
100
AcDbEntity
  8
0
100
AcDbBlockBegin
  2
*D2
 70
     1
 10
0.0
 20
0.0
 30
0.0
  3
*D2
  1

  0
LINE
  5
14F
330
14E
100
AcDbEntity
  8
1
  6
Continuous
 62
     2
100
AcDbLine
 10
4016.432056993609
 20
8134.6492468805
 30
0.0
 11
4016.432056993609
 21
8074.6492468805
 31
0.0
  0
LINE
  5
150
330
14E
100
AcDbEntity
  8
1
  6
Continuous
 62
     2
100
AcDbLine
 10
4032.14605829447
 20
8134.6492468805
 30
0.0
 11
4014.432056993609
 21
8134.6492468805
 31
0.0
  0
LINE
  5
151
330
14E
100
AcDbEntity
  8
1
  6
Continuous
 62
     2
100
AcDbLine
 10
4032.14605829447
 20
8074.6492468805
 30
0.0
 11
4014.432056993609
 21
8074.6492468805
 31
0.0
  0
SOLID
  5
152
330
14E
100
AcDbEntity
  8
1
 62
     2
100
AcDbTrace
 10
4016.892840735165
 20
8131.1492468805
 30
0.0
 11
4015.971273252053
 21
8131.1492468805
 31
0.0
 12
4016.432056993609
 22
8134.6492468805
 32
0.0
 13
4016.432056993609
 23
8134.6492468805
 33
0.0
  0
SOLID
  5
153
330
14E
100
AcDbEntity
  8
1
 62
     2
100
AcDbTrace
 10
4015.971273252053
 20
8078.1492468805
 30
0.0
 11
4016.892840735165
 21
8078.1492468805
 31
0.0
 12
4016.432056993609
 22
8074.6492468805
 32
0.0
 13
4016.432056993609
 23
8074.6492468805
 33
0.0
  0
MTEXT
  5
154
330
14E
100
AcDbEntity
  8
1
 62
     2
100
AcDbMText
 10
4014.432056993609
 20
8102.344544502745
 30
0.0
 40
3.5
 41
0.0
 71
     7
 72
     1
  1
60
  7
CONVERTER_11
 11
0.0
 21
1.0
 31
0.0
 73
     1
 44
0.60024009603842
  0
ENDBLK
  5
156
330
14E
100
AcDbEntity
  8
0
100
AcDbBlockEnd
  0
BLOCK
  5
160
330
159
100
AcDbEntity
  8
0
100
AcDbBlockBegin
  2
*D3
 70
     1
 10
0.0
 20
0.0
 30
0.0
  3
*D3
  1

  0
LINE
  5
15A
330
159
100
AcDbEntity
  8
1
  6
Continuous
 62
     2
100
AcDbLine
 10
4099.206377469092
 20
8053.6492468805
 30
0.0
 11
4099.206377469092
 21
8155.6492468805
 31
0.0
  0
LINE
  5
15B
330
159
100
AcDbEntity
  8
1
  6
Continuous
 62
     2
100
AcDbLine
 10
4088.033868293644
 20
8053.6492468805
 30
0.0
 11
4101.206377469092
 21
8053.6492468805
 31
0.0
  0
LINE
  5
15C
330
159
100
AcDbEntity
  8
1
  6
Continuous
 62
     2
100
AcDbLine
 10
4088.699075534292
 20
8155.6492468805
 30
0.0
 11
4101.206377469092
 21
8155.6492468805
 31
0.0
  0
SOLID
  5
15D
330
159
100
AcDbEntity
  8
1
 62
     2
100
AcDbTrace
 10
4098.745593727536
 20
8057.1492468805
 30
0.0
 11
4099.667161210648
 21
8057.1492468805
 31
0.0
 12
4099.206377469092
 22
8053.6492468805
 32
0.0
 13
4099.206377469092
 23
8053.6492468805
 33
0.0
  0
SOLID
  5
15E
330
159
100
AcDbEntity
  8
1
 62
     2
100
AcDbTrace
 10
4099.667161210648
 20
8152.1492468805
 30
0.0
 11
4098.745593727536
 21
8152.1492468805
 31
0.0
 12
4099.206377469092
 22
8155.6492468805
 32
0.0
 13
4099.206377469092
 23
8155.6492468805
 33
0.0
  0
MTEXT
  5
15F
330
159
100
AcDbEntity
  8
1
 62
     2
100
AcDbMText
 10
4097.206377469092
 20
8101.133504968746
 30
0.0
 40
3.5
 41
0.0
 71
     7
 72
     1
  1
102
  7
CONVERTER_11
 11
0.0
 21
1.0
 31
0.0
 73
     1
 44
0.60024009603842
  0
ENDBLK
  5
161
330
159
100
AcDbEntity
  8
0
100
AcDbBlockEnd
  0
BLOCK
  5
16B
330
164
100
AcDbEntity
  8
0
100
AcDbBlockBegin
  2
*D4
 70
     1
 10
0.0
 20
0.0
 30
0.0
  3
*D4
  1

  0
LINE
  5
165
330
164
100
AcDbEntity
  8
1
  6
Continuous
 62
     2
100
AcDbLine
 10
4109.21622696459
 20
8166.6492468805
 30
0.0
 11
4109.21622696459
 21
8042.6492468805
 31
0.0
  0
LINE
  5
166
330
164
100
AcDbEntity
  8
1
  6
Continuous
 62
     2
100
AcDbLine
 10
4083.119786397969
 20
8166.6492468805
 30
0.0
 11
4111.21622696459
 21
8166.6492468805
 31
0.0
  0
LINE
  5
167
330
164
100
AcDbEntity
  8
1
  6
Continuous
 62
     2
100
AcDbLine
 10
4083.119786397969
 20
8042.6492468805
 30
0.0
 11
4111.21622696459
 21
8042.6492468805
 31
0.0
  0
SOLID
  5
168
330
164
100
AcDbEntity
  8
1
 62
     2
100
AcDbTrace
 10
4109.677010706146
 20
8163.1492468805
 30
0.0
 11
4108.755443223034
 21
8163.1492468805
 31
0.0
 12
4109.21622696459
 22
8166.6492468805
 32
0.0
 13
4109.21622696459
 23
8166.6492468805
 33
0.0
  0
SOLID
  5
169
330
164
100
AcDbEntity
  8
1
 62
     2
100
AcDbTrace
 10
4108.755443223034
 20
8046.1492468805
 30
0.0
 11
4109.677010706146
 21
8046.1492468805
 31
0.0
 12
4109.21622696459
 22
8042.6492468805
 32
0.0
 13
4109.21622696459
 23
8042.6492468805
 33
0.0
  0
MTEXT
  5
16A
330
164
100
AcDbEntity
  8
1
 62
     2
100
AcDbMText
 10
4107.21622696459
 20
8100.9742468805
 30
0.0
 40
3.5
 41
0.0
 71
     7
 72
     1
  1
124
  7
CONVERTER_11
 11
0.0
 21
1.0
 31
0.0
 73
     1
 44
0.60024009603842
  0
ENDBLK
  5
16C
330
164
100
AcDbEntity
  8
0
100
AcDbBlockEnd
  0
ENDSEC
  0
SECTION
  2
ENTITIES
  0
POINT
  5
43
330
1F
100
AcDbEntity
  8
1
 62
     3
 60
     1
100
AcDbPoint
 10
4036.39605829447
 20
8146.6492468805
 30
0.0
  0
POINT
  5
44
330
1F
100
AcDbEntity
  8
1
 62
     7
100
AcDbPoint
 10
4028.13099209955
 20
8062.6492468805
 30
0.0
  0
POINT
  5
45
330
1F
100
AcDbEntity
  8
1
 62
     7
100
AcDbPoint
 10
4028.13099209955
 20
8146.6492468805
 30
0.0
  0
POINT
  5
46
330
1F
100
AcDbEntity
  8
1
 62
     7
100
AcDbPoint
 10
4032.14605829447
 20
8074.6492468805
 30
0.0
  0
POINT
  5
47
330
1F
100
AcDbEntity
  8
1
 62
     7
100
AcDbPoint
 10
4032.14605829447
 20
8134.6492468805
 30
0.0
  0
POINT
  5
48
330
1F
100
AcDbEntity
  8
1
 62
     7
100
AcDbPoint
 10
4088.699075534292
 20
8155.6492468805
 30
0.0
  0
POINT
  5
49
330
1F
100
AcDbEntity
  8
1
 62
     7
100
AcDbPoint
 10
4088.033868293644
 20
8053.6492468805
 30
0.0
  0
POINT
  5
4A
330
1F
100
AcDbEntity
  8
1
 62
     7
100
AcDbPoint
 10
4083.119786397968
 20
8042.6492468805
 30
0.0
  0
POINT
  5
4B
330
1F
100
AcDbEntity
  8
1
 62
     7
100
AcDbPoint
 10
4083.119786397968
 20
8166.6492468805
 30
0.0
  0
LINE
  5
4C
330
1F
100
AcDbEntity
  8
1
  6
DOT_CENTER
 62
     2
100
AcDbLine
 10
4040.64605829447
 20
8146.6492468805
 30
0.0
 11
4044.66112448939
 21
8146.6492468805
 31
0.0
  0
LINE
  5
4D
330
1F
100
AcDbEntity
  8
0
  6
Continuous
 62
     7
100
AcDbLine
 10
4066.89605829447
 20
8174.6492468805
 30
0.0
 11
4081.89605829447
 21
8174.6492468805
 31
0.0
  0
LINE
  5
4E
330
1F
100
AcDbEntity
  8
0
  6
Continuous
 62
     7
100
AcDbLine
 10
4034.14605829447
 20
8174.6492468805
 30
0.0
 11
4063.32093681657
 21
8174.6492468805
 31
0.0
  0
LINE
  5
4F
330
1F
100
AcDbEntity
  8
0
  6
Continuous
 62
     7
100
AcDbLine
 10
4066.73275831267
 20
8174.6492468805
 30
0.0
 11
4066.39605829447
 21
8174.6492468805
 31
0.0
  0
LINE
  5
50
330
1F
100
AcDbEntity
  8
0
  6
Continuous
 62
     7
100
AcDbLine
 10
4081.89605829447
 20
8172.6492468805
 30
0.0
 11
4064.89605829447
 21
8172.6492468805
 31
0.0
  0
LINE
  5
51
330
1F
100
AcDbEntity
  8
0
  6
Continuous
 62
     7
100
AcDbLine
 10
4086.39605829447
 20
8158.0992468805
 30
0.0
 11
4081.89605829447
 21
8158.0992468805
 31
0.0
  0
LINE
  5
52
330
1F
100
AcDbEntity
  8
0
  6
Continuous
 62
     7
100
AcDbLine
 10
4086.39605829447
 20
8153.199246880499
 30
0.0
 11
4081.89605829447
 21
8153.199246880499
 31
0.0
  0
LINE
  5
53
330
1F
100
AcDbEntity
  8
0
  6
Continuous
 62
     7
100
AcDbLine
 10
4043.471206392771
 20
8143.0492468805
 30
0.0
 11
4063.320708631371
 21
8143.0492468805
 31
0.0
  0
LINE
  5
54
330
1F
100
AcDbEntity
  8
0
  6
Continuous
 62
     7
100
AcDbLine
 10
4061.89604194347
 20
8142.949246880499
 30
0.0
 11
4044.89607464557
 21
8142.949246880499
 31
0.0
  0
LINE
  5
55
330
1F
100
AcDbEntity
  8
0
  6
Continuous
 62
     7
100
AcDbLine
 10
4043.47117340017
 20
8142.1492468805
 30
0.0
 11
4064.89605829447
 21
8142.1492468805
 31
0.0
  0
LINE
  5
56
330
1F
100
AcDbEntity
  8
0
  6
Continuous
 62
     7
100
AcDbLine
 10
4028.14605829447
 20
8168.6492468805
 30
0.0
 11
4028.14605829447
 21
8040.6492468805
 31
0.0
  0
LINE
  5
57
330
1F
100
AcDbEntity
  8
0
  6
Continuous
 62
     7
100
AcDbLine
 10
4043.47105829447
 20
8048.3537148332
 30
0.0
 11
4043.47105829447
 21
8034.6492468805
 31
0.0
  0
LINE
  5
58
330
1F
100
AcDbEntity
  8
0
  6
Continuous
 62
     7
100
AcDbLine
 10
4043.47105829447
 20
8066.249246880499
 30
0.0
 11
4043.47105829447
 21
8052.9456430796
 31
0.0
  0
LINE
  5
59
330
1F
100
AcDbEntity
  8
0
  6
Continuous
 62
     7
100
AcDbLine
 10
4043.47105829447
 20
8142.1492468805
 30
0.0
 11
4043.47105829447
 21
8067.1492468805
 31
0.0
  0
LINE
  5
5A
330
1F
100
AcDbEntity
  8
0
  6
Continuous
 62
     7
100
AcDbLine
 10
4043.47105829447
 20
8156.3537148332
 30
0.0
 11
4043.47105829447
 21
8143.0492468805
 31
0.0
  0
LINE
  5
5B
330
1F
100
AcDbEntity
  8
0
  6
Continuous
 62
     7
100
AcDbLine
 10
4043.47105829447
 20
8174.6492468805
 30
0.0
 11
4043.47105829447
 21
8160.9456430796
 31
0.0
  0
LINE
  5
5C
330
1F
100
AcDbEntity
  8
0
  6
Continuous
 62
     7
100
AcDbLine
 10
4086.39607341727
 20
8153.1992318053
 30
0.0
 11
4086.89607033097
 21
8153.699234881899
 31
0.0
  0
LINE
  5
5D
330
1F
100
AcDbEntity
  8
0
  6
Continuous
 62
     9
420
 12434109
100
AcDbLine
 10
4044.16605829447
 20
8067.1492468805
 30
0.0
 11
4044.16605829447
 21
8066.249246880499
 31
0.0
  0
LINE
  5
5E
330
1F
100
AcDbEntity
  8
0
  6
Continuous
 62
     9
420
 12434109
100
AcDbLine
 10
4044.16605829447
 20
8143.0492468805
 30
0.0
 11
4044.16605829447
 21
8142.1492468805
 31
0.0
  0
LINE
  5
5F
330
1F
100
AcDbEntity
  8
0
  6
Continuous
 62
     7
100
AcDbLine
 10
4044.89605829447
 20
8067.1492468805
 30
0.0
 11
4044.89605829447
 21
8066.2742644133
 31
0.0
  0
LINE
  5
60
330
1F
100
AcDbEntity
  8
0
  6
Continuous
 62
     7
100
AcDbLine
 10
4044.89605829447
 20
8142.1492468805
 30
0.0
 11
4044.89605829447
 21
8142.949246880499
 31
0.0
  0
LINE
  5
61
330
1F
100
AcDbEntity
  8
0
  6
Continuous
 62
     9
420
 12434109
100
AcDbLine
 10
4045.07967472717
 20
8066.2742644133
 30
0.0
 11
4045.07967472717
 21
8066.249246880499
 31
0.0
  0
LINE
  5
62
330
1F
100
AcDbEntity
  8
0
  6
Continuous
 62
     9
420
 12434109
100
AcDbLine
 10
4045.07967472717
 20
8143.0492468805
 30
0.0
 11
4045.07967472717
 21
8142.949246880499
 31
0.0
  0
LINE
  5
63
330
1F
100
AcDbEntity
  8
0
  6
Continuous
 62
     9
420
 12434109
100
AcDbLine
 10
4047.50798154337
 20
8066.2742644133
 30
0.0
 11
4047.50798154337
 21
8066.249246880499
 31
0.0
  0
LINE
  5
64
330
1F
100
AcDbEntity
  8
0
  6
Continuous
 62
     9
420
 12434109
100
AcDbLine
 10
4047.50798154337
 20
8143.0492468805
 30
0.0
 11
4047.50798154337
 21
8142.949246880499
 31
0.0
  0
LINE
  5
65
330
1F
100
AcDbEntity
  8
0
  6
Continuous
 62
     7
100
AcDbLine
 10
4047.64007480077
 20
8066.2742644133
 30
0.0
 11
4047.64007480077
 21
8066.249246880499
 31
0.0
  0
LINE
  5
66
330
1F
100
AcDbEntity
  8
0
  6
Continuous
 62
     7
100
AcDbLine
 10
4047.64007480077
 20
8143.0492468805
 30
0.0
 11
4047.64007480077
 21
8142.949246880499
 31
0.0
  0
LINE
  5
67
330
1F
100
AcDbEntity
  8
0
  6
Continuous
 62
     7
100
AcDbLine
 10
4048.39605829447
 20
8142.949246880499
 30
0.0
 11
4048.39605829447
 21
8143.0492468805
 31
0.0
  0
LINE
  5
68
330
1F
100
AcDbEntity
  8
0
  6
Continuous
 62
     7
100
AcDbLine
 10
4048.39605829447
 20
8066.249246880499
 30
0.0
 11
4048.39605829447
 21
8066.2742644133
 31
0.0
  0
LINE
  5
69
330
1F
100
AcDbEntity
  8
0
  6
Continuous
 62
     7
100
AcDbLine
 10
4086.39607340437
 20
8056.099261968499
 30
0.0
 11
4086.89607032077
 21
8055.5992588893
 31
0.0
  0
LINE
  5
6A
330
1F
100
AcDbEntity
  8
0
  6
Continuous
 62
     7
100
AcDbLine
 10
4058.39605829447
 20
8142.949246880499
 30
0.0
 11
4058.39605829447
 21
8143.0492468805
 31
0.0
  0
LINE
  5
6B
330
1F
100
AcDbEntity
  8
0
  6
Continuous
 62
     7
100
AcDbLine
 10
4058.39605829447
 20
8066.249246880499
 30
0.0
 11
4058.39605829447
 21
8066.2742644133
 31
0.0
  0
LINE
  5
6C
330
1F
100
AcDbEntity
  8
0
  6
Continuous
 62
     7
100
AcDbLine
 10
4061.89605829447
 20
8067.1492468805
 30
0.0
 11
4061.89605829447
 21
8066.2742644133
 31
0.0
  0
LINE
  5
6D
330
1F
100
AcDbEntity
  8
0
  6
Continuous
 62
     7
100
AcDbLine
 10
4061.89605829447
 20
8142.1492468805
 30
0.0
 11
4061.89605829447
 21
8142.949246880499
 31
0.0
  0
LINE
  5
6E
330
1F
100
AcDbEntity
  8
0
  6
Continuous
 62
     7
100
AcDbLine
 10
4063.32105829447
 20
8066.249246880499
 30
0.0
 11
4063.32105829447
 21
8034.6492468805
 31
0.0
  0
LINE
  5
6F
330
1F
100
AcDbEntity
  8
0
  6
Continuous
 62
     7
100
AcDbLine
 10
4063.32105829447
 20
8142.1492468805
 30
0.0
 11
4063.32105829447
 21
8067.1492468805
 31
0.0
  0
LINE
  5
70
330
1F
100
AcDbEntity
  8
0
  6
Continuous
 62
     7
100
AcDbLine
 10
4063.32105829447
 20
8174.6492468805
 30
0.0
 11
4063.32105829447
 21
8143.0492468805
 31
0.0
  0
LINE
  5
71
330
1F
100
AcDbEntity
  8
0
  6
Continuous
 62
     7
100
AcDbLine
 10
4064.89605829447
 20
8172.6492468805
 30
0.0
 11
4064.89605829447
 21
8036.6492468805
 31
0.0
  0
LINE
  5
72
330
1F
100
AcDbEntity
  8
0
  6
Continuous
 62
     7
100
AcDbLine
 10
4066.89605829447
 20
8048.6492468805
 30
0.0
 11
4066.89605829447
 21
8034.6492468805
 31
0.0
  0
LINE
  5
73
330
1F
100
AcDbEntity
  8
0
  6
Continuous
 62
     7
100
AcDbLine
 10
4071.64605829447
 20
8069.6492468805
 30
0.0
 11
4071.64605829447
 21
8063.6492468805
 31
0.0
  0
LINE
  5
74
330
1F
100
AcDbEntity
  8
0
  6
Continuous
 62
     7
100
AcDbLine
 10
4071.64605829447
 20
8107.6492468805
 30
0.0
 11
4071.64605829447
 21
8101.6492468805
 31
0.0
  0
LINE
  5
75
330
1F
100
AcDbEntity
  8
0
  6
Continuous
 62
     7
100
AcDbLine
 10
4071.64605829447
 20
8145.6492468805
 30
0.0
 11
4071.64605829447
 21
8139.6492468805
 31
0.0
  0
LINE
  5
76
330
1F
100
AcDbEntity
  8
0
  6
Continuous
 62
     7
100
AcDbLine
 10
4077.64605829447
 20
8139.6492468805
 30
0.0
 11
4077.64605829447
 21
8145.6492468805
 31
0.0
  0
LINE
  5
77
330
1F
100
AcDbEntity
  8
0
  6
Continuous
 62
     7
100
AcDbLine
 10
4077.64605829447
 20
8101.6492468805
 30
0.0
 11
4077.64605829447
 21
8107.6492468805
 31
0.0
  0
LINE
  5
78
330
1F
100
AcDbEntity
  8
0
  6
Continuous
 62
     7
100
AcDbLine
 10
4077.64605829447
 20
8063.6492468805
 30
0.0
 11
4077.64605829447
 21
8069.6492468805
 31
0.0
  0
LINE
  5
79
330
1F
100
AcDbEntity
  8
0
  6
Continuous
 62
     7
100
AcDbLine
 10
4081.89605829447
 20
8045.8992468805
 30
0.0
 11
4081.89605829447
 21
8174.6492468805
 31
0.0
  0
LINE
  5
7A
330
1F
100
AcDbEntity
  8
0
  6
Continuous
 62
     7
100
AcDbLine
 10
4086.39605829447
 20
8056.0992468805
 30
0.0
 11
4086.39605829447
 21
8051.199246880499
 31
0.0
  0
LINE
  5
7B
330
1F
100
AcDbEntity
  8
0
  6
Continuous
 62
     7
100
AcDbLine
 10
4086.39605829447
 20
8158.0992468805
 30
0.0
 11
4086.39605829447
 21
8153.199246880499
 31
0.0
  0
LINE
  5
7C
330
1F
100
AcDbEntity
  8
0
  6
Continuous
 62
     7
100
AcDbLine
 10
4086.89605829447
 20
8055.5992468805
 30
0.0
 11
4086.89605829447
 21
8051.6992468804
 31
0.0
  0
LINE
  5
7D
330
1F
100
AcDbEntity
  8
0
  6
Continuous
 62
     7
100
AcDbLine
 10
4086.89605829447
 20
8157.5992468805
 30
0.0
 11
4086.89605829447
 21
8153.6992468804
 31
0.0
  0
LINE
  5
7E
330
1F
100
AcDbEntity
  8
0
  6
Continuous
 62
     7
100
AcDbLine
 10
4043.47117340017
 20
8067.1492468805
 30
0.0
 11
4064.89605829447
 21
8067.1492468805
 31
0.0
  0
LINE
  5
7F
330
1F
100
AcDbEntity
  8
0
  6
Continuous
 62
     7
100
AcDbLine
 10
4061.89604194347
 20
8066.2742644133
 30
0.0
 11
4044.89607464557
 21
8066.2742644133
 31
0.0
  0
LINE
  5
80
330
1F
100
AcDbEntity
  8
0
  6
Continuous
 62
     7
100
AcDbLine
 10
4043.471206392771
 20
8066.249246880499
 30
0.0
 11
4063.320708631371
 21
8066.249246880499
 31
0.0
  0
LINE
  5
81
330
1F
100
AcDbEntity
  8
0
  6
Continuous
 62
     7
100
AcDbLine
 10
4086.39605829447
 20
8056.0992468805
 30
0.0
 11
4081.89605829447
 21
8056.0992468805
 31
0.0
  0
LINE
  5
82
330
1F
100
AcDbEntity
  8
0
  6
Continuous
 62
     7
100
AcDbLine
 10
4086.39605829447
 20
8051.199246880499
 30
0.0
 11
4081.89605829447
 21
8051.199246880499
 31
0.0
  0
LINE
  5
83
330
1F
100
AcDbEntity
  8
0
  6
Continuous
 62
     7
100
AcDbLine
 10
4086.39607341727
 20
8051.1992318053
 30
0.0
 11
4086.89607033097
 21
8051.699234881899
 31
0.0
  0
LINE
  5
84
330
1F
100
AcDbEntity
  8
0
  6
Continuous
 62
     7
100
AcDbLine
 10
4086.39607340437
 20
8158.099261968499
 30
0.0
 11
4086.89607032077
 21
8157.5992588893
 31
0.0
  0
LINE
  5
85
330
1F
100
AcDbEntity
  8
0
  6
Continuous
 62
     7
100
AcDbLine
 10
4077.89605829447
 20
8036.6492468805
 30
0.0
 11
4064.89605829447
 21
8036.6492468805
 31
0.0
  0
LINE
  5
86
330
1F
100
AcDbEntity
  8
0
  6
Continuous
 62
     7
100
AcDbLine
 10
4034.14605829447
 20
8034.6492468805
 30
0.0
 11
4063.32093681657
 21
8034.6492468805
 31
0.0
  0
LINE
  5
87
330
1F
100
AcDbEntity
  8
0
  6
Continuous
 62
     7
100
AcDbLine
 10
4081.89605829447
 20
8034.6492468805
 30
0.0
 11
4066.39605829447
 21
8034.6492468805
 31
0.0
  0
LINE
  5
88
330
1F
100
AcDbEntity
  8
1
  6
Continuous
 62
     7
100
AcDbLine
 10
4070.645974303516
 20
8085.649415887237
 30
0.0
 11
4070.645974303516
 21
8079.64928835786
 31
0.0
  0
LINE
  5
89
330
1F
100
AcDbEntity
  8
1
  6
Continuous
 62
     7
100
AcDbLine
 10
4078.645974303086
 20
8085.649332932837
 30
0.0
 11
4078.645974303086
 21
8079.649205403461
 31
0.0
  0
LINE
  5
8A
330
1F
100
AcDbEntity
  8
1
  6
Continuous
 62
     7
100
AcDbLine
 10
4078.645974303086
 20
8129.648392123569
 30
0.0
 11
4078.645974303086
 21
8123.648264594193
 31
0.0
  0
LINE
  5
8B
330
1F
100
AcDbEntity
  8
1
  6
Continuous
 62
     7
100
AcDbLine
 10
4070.645974303516
 20
8129.648309169169
 30
0.0
 11
4070.645974303516
 21
8123.648181639794
 31
0.0
  0
LINE
  5
8C
330
1F
100
AcDbEntity
  8
1
  6
DOT_CENTER
 62
     2
100
AcDbLine
 10
4070.244563323175
 20
8142.650748717525
 30
0.0
 11
4079.110651180766
 21
8142.650748717525
 31
0.0
  0
LINE
  5
8D
330
1F
100
AcDbEntity
  8
1
  6
DOT_CENTER
 62
     2
100
AcDbLine
 10
4074.67760725197
 20
8147.083792646321
 30
0.0
 11
4074.67760725197
 21
8138.21770478873
 31
0.0
  0
LINE
  5
8E
330
1F
100
AcDbEntity
  8
1
  6
DOT_CENTER
 62
     2
100
AcDbLine
 10
4070.253075543203
 20
8126.646848026609
 30
0.0
 11
4079.119420845867
 21
8126.646848026609
 31
0.0
  0
LINE
  5
8F
330
1F
100
AcDbEntity
  8
1
  6
DOT_CENTER
 62
     2
100
AcDbLine
 10
4074.686248194535
 20
8131.080020677941
 30
0.0
 11
4074.686248194535
 21
8122.213675375277
 31
0.0
  0
LINE
  5
90
330
1F
100
AcDbEntity
  8
1
  6
DOT_CENTER
 62
     2
100
AcDbLine
 10
4069.79105829447
 20
8104.6492468805
 30
0.0
 11
4079.50105829447
 21
8104.6492468805
 31
0.0
  0
LINE
  5
91
330
1F
100
AcDbEntity
  8
1
  6
DOT_CENTER
 62
     2
100
AcDbLine
 10
4074.64605829447
 20
8109.5042468805
 30
0.0
 11
4074.64605829447
 21
8099.7942468805
 31
0.0
  0
LINE
  5
92
330
1F
100
AcDbEntity
  8
1
  6
DOT_CENTER
 62
     2
100
AcDbLine
 10
4070.215633723356
 20
8066.650749053432
 30
0.0
 11
4079.081329102073
 21
8066.650749053432
 31
0.0
  0
LINE
  5
93
330
1F
100
AcDbEntity
  8
1
  6
DOT_CENTER
 62
     2
100
AcDbLine
 10
4074.648481412715
 20
8071.083596742792
 30
0.0
 11
4074.648481412715
 21
8062.217901364074
 31
0.0
  0
LINE
  5
94
330
1F
100
AcDbEntity
  8
1
  6
DOT_CENTER
 62
     2
100
AcDbLine
 10
4070.214394443209
 20
8082.650749056342
 30
0.0
 11
4079.080087667979
 21
8082.650749056342
 31
0.0
  0
LINE
  5
95
330
1F
100
AcDbEntity
  8
1
  6
DOT_CENTER
 62
     2
100
AcDbLine
 10
4074.647241055594
 20
8087.083595668727
 30
0.0
 11
4074.647241055594
 21
8078.217902443957
 31
0.0
  0
LINE
  5
96
330
1F
100
AcDbEntity
  8
1
  6
DOT_CENTER
 62
     2
100
AcDbLine
 10
4032.14605829447
 20
8074.6492468805
 30
0.0
 11
4040.64605829447
 21
8074.6492468805
 31
0.0
  0
LINE
  5
97
330
1F
100
AcDbEntity
  8
1
  6
DOT_CENTER
 62
     2
100
AcDbLine
 10
4036.39605829447
 20
8078.8992468805
 30
0.0
 11
4036.39605829447
 21
8070.3992468805
 31
0.0
  0
LINE
  5
98
330
1F
100
AcDbEntity
  8
1
  6
DOT_CENTER
 62
     2
100
AcDbLine
 10
4032.14605829447
 20
8134.6492468805
 30
0.0
 11
4040.64605829447
 21
8134.6492468805
 31
0.0
  0
LINE
  5
99
330
1F
100
AcDbEntity
  8
1
  6
DOT_CENTER
 62
     2
100
AcDbLine
 10
4036.39605829447
 20
8138.8992468805
 30
0.0
 11
4036.39605829447
 21
8130.3992468805
 31
0.0
  0
LINE
  5
9A
330
1F
100
AcDbEntity
  8
1
  6
DOT_CENTER
 62
     2
100
AcDbLine
 10
4028.13099209955
 20
8104.6492468805
 30
0.0
 11
4044.66112448939
 21
8104.6492468805
 31
0.0
  0
LINE
  5
9B
330
1F
100
AcDbEntity
  8
1
  6
DOT_CENTER
 62
     2
100
AcDbLine
 10
4036.39605829447
 20
8112.91431307542
 30
0.0
 11
4036.39605829447
 21
8096.38418068558
 31
0.0
  0
LINE
  5
9C
330
1F
100
AcDbEntity
  8
1
  6
DOT_CENTER
 62
     2
100
AcDbLine
 10
4028.13099209955
 20
8062.6492468805
 30
0.0
 11
4044.66112448939
 21
8062.6492468805
 31
0.0
  0
LINE
  5
9D
330
1F
100
AcDbEntity
  8
1
  6
DOT_CENTER
 62
     2
100
AcDbLine
 10
4036.39605829447
 20
8070.91431307542
 30
0.0
 11
4036.39605829447
 21
8054.38418068558
 31
0.0
  0
LINE
  5
9E
330
1F
100
AcDbEntity
  8
1
  6
DOT_CENTER
 62
     2
100
AcDbLine
 10
4028.13099209955
 20
8146.6492468805
 30
0.0
 11
4040.64605829447
 21
8146.6492468805
 31
0.0
  0
LINE
  5
9F
330
1F
100
AcDbEntity
  8
1
  6
DOT_CENTER
 62
     2
100
AcDbLine
 10
4036.39605829447
 20
8154.91431307542
 30
0.0
 11
4036.39605829447
 21
8138.38418068558
 31
0.0
  0
LINE
  5
A0
330
1F
100
AcDbEntity
  8
1
  6
DOT_CENTER
 62
     2
100
AcDbLine
 10
4088.033868293644
 20
8053.6492468805
 30
0.0
 11
4081.033868293644
 21
8053.6492468805
 31
0.0
  0
LINE
  5
A1
330
1F
100
AcDbEntity
  8
1
  6
DOT_CENTER
 62
     2
100
AcDbLine
 10
4088.699075534292
 20
8155.6492468805
 30
0.0
 11
4080.699075534292
 21
8155.6492468805
 31
0.0
  0
LINE
  5
A2
330
1F
100
AcDbEntity
  8
1
  6
DOT_CENTER
 62
     2
100
AcDbLine
 10
4053.39599755552
 20
8176.987686232454
 30
0.0
 11
4053.39599755552
 21
8031.987686232454
 31
0.0
  0
LINE
  5
A3
330
1F
100
AcDbEntity
  8
1
  6
DOT_CENTER
 62
     2
100
AcDbLine
 10
4069.79105829447
 20
8104.6492468805
 30
0.0
 11
4044.66112448939
 21
8104.6492468805
 31
0.0
  0
LINE
  5
A4
330
1F
100
AcDbEntity
  8
1
  6
DOT_CENTER
 62
     2
100
AcDbLine
 10
4087.50105829447
 20
8104.6492468805
 30
0.0
 11
4079.50105829447
 21
8104.6492468805
 31
0.0
  0
LINE
  5
A5
330
1F
100
AcDbEntity
  8
1
  6
DOT_CENTER
 62
     2
100
AcDbLine
 10
4026.13099209955
 20
8104.6492468805
 30
0.0
 11
4028.13099209955
 21
8104.6492468805
 31
0.0
  0
LINE
  5
A6
330
1F
100
AcDbEntity
  8
1
  6
DASHED
 62
     2
100
AcDbLine
 10
4080.89605829447
 20
8039.3992468805
 30
0.0
 11
4081.89605829447
 21
8039.3992468805
 31
0.0
  0
LINE
  5
A7
330
1F
100
AcDbEntity
  8
0
  6
Continuous
 62
     7
100
AcDbLine
 10
4081.89605829447
 20
8034.6492468805
 30
0.0
 11
4081.89605829447
 21
8039.3992468805
 31
0.0
  0
LINE
  5
A8
330
1F
100
AcDbEntity
  8
1
  6
DASHED
 62
     2
100
AcDbLine
 10
4077.89605829447
 20
8036.6492468805
 30
0.0
 11
4080.89605829447
 21
8039.3992468805
 31
0.0
  0
LINE
  5
A9
330
1F
100
AcDbEntity
  8
0
  6
Continuous
 62
     7
100
AcDbLine
 10
4081.89605829447
 20
8036.6492468805
 30
0.0
 11
4077.89605829447
 21
8036.6492468805
 31
0.0
  0
LINE
  5
AA
330
1F
100
AcDbEntity
  8
1
  6
DASHED
 62
     2
100
AcDbLine
 10
4077.89605829447
 20
8048.6492468805
 30
0.0
 11
4077.89605829447
 21
8036.6492468805
 31
0.0
  0
LINE
  5
AB
330
1F
100
AcDbEntity
  8
1
  6
DASHED
 62
     2
100
AcDbLine
 10
4080.89605829447
 20
8045.8992468805
 30
0.0
 11
4077.89605829447
 21
8048.6492468805
 31
0.0
  0
LINE
  5
AC
330
1F
100
AcDbEntity
  8
1
  6
DASHED
 62
     2
100
AcDbLine
 10
4081.89605829447
 20
8045.8992468805
 30
0.0
 11
4080.89605829447
 21
8045.8992468805
 31
0.0
  0
LINE
  5
AD
330
1F
100
AcDbEntity
  8
0
  6
Continuous
 62
     7
100
AcDbLine
 10
4081.89605829447
 20
8039.3992468805
 30
0.0
 11
4081.89605829447
 21
8045.8992468805
 31
0.0
  0
LINE
  5
AE
330
1F
100
AcDbEntity
  8
1
  6
DASHED
 62
     2
100
AcDbLine
 10
4080.89605829447
 20
8039.3992468805
 30
0.0
 11
4080.89605829447
 21
8045.8992468805
 31
0.0
  0
LINE
  5
AF
330
1F
100
AcDbEntity
  8
1
  6
DOT_CENTER
 62
     2
100
AcDbLine
 10
4083.119786397968
 20
8042.6492468805
 30
0.0
 11
4076.684966307363
 21
8042.6492468805
 31
0.0
  0
LINE
  5
B0
330
1F
100
AcDbEntity
  8
1
  6
DOT_CENTER
 62
     2
100
AcDbLine
 10
4076.684966307363
 20
8166.6492468805
 30
0.0
 11
4083.119786397968
 21
8166.6492468805
 31
0.0
  0
LINE
  5
B1
330
1F
100
AcDbEntity
  8
1
  6
DASHED
 62
     2
100
AcDbLine
 10
4080.89605829447
 20
8163.3992468805
 30
0.0
 11
4080.89605829447
 21
8169.8992468805
 31
0.0
  0
LINE
  5
B2
330
1F
100
AcDbEntity
  8
0
  6
Continuous
 62
     7
100
AcDbLine
 10
4081.89605829447
 20
8163.3992468805
 30
0.0
 11
4081.89605829447
 21
8169.8992468805
 31
0.0
  0
LINE
  5
B3
330
1F
100
AcDbEntity
  8
1
  6
DASHED
 62
     2
100
AcDbLine
 10
4080.89605829447
 20
8163.3992468805
 30
0.0
 11
4081.89605829447
 21
8163.3992468805
 31
0.0
  0
LINE
  5
B4
330
1F
100
AcDbEntity
  8
1
  6
DASHED
 62
     2
100
AcDbLine
 10
4077.89605829447
 20
8160.6492468805
 30
0.0
 11
4080.89605829447
 21
8163.3992468805
 31
0.0
  0
LINE
  5
B5
330
1F
100
AcDbEntity
  8
1
  6
DASHED
 62
     2
100
AcDbLine
 10
4081.89605829447
 20
8169.8992468805
 30
0.0
 11
4080.89605829447
 21
8169.8992468805
 31
0.0
  0
LINE
  5
B6
330
1F
100
AcDbEntity
  8
1
  6
DASHED
 62
     2
100
AcDbLine
 10
4077.89605829447
 20
8172.6492468805
 30
0.0
 11
4077.89605829447
 21
8160.6492468805
 31
0.0
  0
LINE
  5
B7
330
1F
100
AcDbEntity
  8
1
  6
DASHED
 62
     2
100
AcDbLine
 10
4080.89605829447
 20
8169.8992468805
 30
0.0
 11
4077.89605829447
 21
8172.6492468805
 31
0.0
  0
LINE
  5
B8
330
1F
100
AcDbEntity
  8
1
  6
DASHED
 62
     2
100
AcDbLine
 10
4066.89605829447
 20
8160.6492468805
 30
0.0
 11
4077.89605829447
 21
8160.6492468805
 31
0.0
  0
LINE
  5
B9
330
1F
100
AcDbEntity
  8
0
  6
Continuous
 62
     9
420
 12434109
100
AcDbLine
 10
4066.89605829447
 20
8174.6492468805
 30
0.0
 11
4066.89605829447
 21
8160.6492468805
 31
0.0
  0
LINE
  5
BA
330
1F
100
AcDbEntity
  8
1
  6
DASHED
 62
     2
100
AcDbLine
 10
4066.89605829447
 20
8048.6492468805
 30
0.0
 11
4077.89605829447
 21
8048.6492468805
 31
0.0
  0
LINE
  5
BB
330
1F
100
AcDbEntity
  8
0
  6
Continuous
 62
     7
100
AcDbLine
 10
4066.89605829447
 20
8160.6492468805
 30
0.0
 11
4066.89605829447
 21
8048.6492468805
 31
0.0
  0
ARC
  5
BC
330
1F
100
AcDbEntity
  8
0
  6
Continuous
 62
     7
100
AcDbCircle
 10
4073.57264323967
 20
8106.5098070435
 30
0.0
 40
0.5179495529722004
100
AcDbArc
 50
45.24038865250017
 51
197.7857779518777
  0
ARC
  5
BD
330
1F
100
AcDbEntity
  8
0
  6
Continuous
 62
     7
100
AcDbCircle
 10
4074.64605829447
 20
8107.4837468805
 30
0.0
 40
0.9325769259000788
100
AcDbArc
 50
220.5404547854845
 51
316.103761409077
  0
ARC
  5
BE
330
1F
100
AcDbEntity
  8
0
  6
Continuous
 62
     7
100
AcDbCircle
 10
4075.71947334937
 20
8106.5098070435
 30
0.0
 40
0.5179495529413672
100
AcDbArc
 50
342.2142220480371
 51
140.8036952831932
  0
ARC
  5
BF
330
1F
100
AcDbEntity
  8
0
  6
Continuous
 62
     7
100
AcDbCircle
 10
4077.10067226847
 20
8106.066730738899
 30
0.0
 40
0.9325769259003645
100
AcDbArc
 50
162.2142220482264
 51
256.6000703067015
  0
ARC
  5
C0
330
1F
100
AcDbEntity
  8
0
  6
Continuous
 62
     7
100
AcDbCircle
 10
4076.79583484027
 20
8104.6492468805
 30
0.0
 40
0.5179495530285342
100
AcDbArc
 50
279.8624058819545
 51
80.1375941272788
  0
ARC
  5
C1
330
1F
100
AcDbEntity
  8
0
  6
Continuous
 62
     7
100
AcDbCircle
 10
4077.10067226847
 20
8103.2317630221
 30
0.0
 40
0.9325769259002362
100
AcDbArc
 50
103.3999296881488
 51
197.7857779519057
  0
ARC
  5
C2
330
1F
100
AcDbEntity
  8
0
  6
Continuous
 62
     7
100
AcDbCircle
 10
4075.71947334937
 20
8102.788686717499
 30
0.0
 40
0.5179495530467735
100
AcDbArc
 50
225.2403886517542
 51
17.78577795172519
  0
ARC
  5
C3
330
1F
100
AcDbEntity
  8
0
  6
Continuous
 62
     7
100
AcDbCircle
 10
4074.64605829447
 20
8101.8147468805
 30
0.0
 40
0.9325769259006412
100
AcDbArc
 50
40.54045478148448
 51
139.4595452147943
  0
ARC
  5
C4
330
1F
100
AcDbEntity
  8
0
  6
Continuous
 62
     7
100
AcDbCircle
 10
4073.57264323967
 20
8102.788686717499
 30
0.0
 40
0.5179495529418002
100
AcDbArc
 50
162.2142220480525
 51
314.759611347073
  0
ARC
  5
C5
330
1F
100
AcDbEntity
  8
0
  6
Continuous
 62
     7
100
AcDbCircle
 10
4072.19144432057
 20
8103.2317630221
 30
0.0
 40
0.9325769258999315
100
AcDbArc
 50
342.2142220482178
 51
77.74707056423514
  0
ARC
  5
C6
330
1F
100
AcDbEntity
  8
0
  6
Continuous
 62
     7
100
AcDbCircle
 10
4072.49928612617
 20
8104.6492468805
 30
0.0
 40
0.5179495530959353
100
AcDbArc
 50
102.2529294357062
 51
257.7470705692086
  0
ARC
  5
C7
330
1F
100
AcDbEntity
  8
0
  6
Continuous
 62
     7
100
AcDbCircle
 10
4072.19144432057
 20
8106.066730738899
 30
0.0
 40
0.9325769258412663
100
AcDbArc
 50
282.252929433047
 51
17.78577795182096
  0
ARC
  5
C8
330
1F
100
AcDbEntity
  8
0
  6
Continuous
 62
     7
100
AcDbCircle
 10
4074.64605829447
 20
8106.1492468805
 30
0.0
 40
4.50000000000016
100
AcDbArc
 50
258.7612559276959
 51
281.2387440723041
  0
ARC
  5
C9
330
1F
100
AcDbEntity
  8
0
  6
Continuous
 62
     7
100
AcDbCircle
 10
4072.39605829447
 20
8053.7280309088
 30
0.0
 40
19.99999999996298
100
AcDbArc
 50
252.5423968762445
 51
287.4576031237004
  0
ARC
  5
CA
330
1F
100
AcDbEntity
  8
0
  6
Continuous
 62
     7
100
AcDbCircle
 10
4072.39605829447
 20
8155.5704628522
 30
0.0
 40
19.99999999996273
100
AcDbArc
 50
72.54239687629897
 51
107.4576031237554
  0
ARC
  5
CB
330
1F
100
AcDbEntity
  8
0
  6
Continuous
 62
     7
100
AcDbCircle
 10
4072.78549813157
 20
8065.575831825699
 30
0.0
 40
0.5179495530368121
100
AcDbArc
 50
135.2403886519366
 51
287.7857779519256
  0
ARC
  5
CC
330
1F
100
AcDbEntity
  8
0
  6
Continuous
 62
     7
100
AcDbCircle
 10
4071.81155829447
 20
8066.6492468805
 30
0.0
 40
0.9325769259003442
100
AcDbArc
 50
310.5404547901029
 51
46.10376140911734
  0
ARC
  5
CD
330
1F
100
AcDbEntity
  8
0
  6
Continuous
 62
     7
100
AcDbCircle
 10
4072.78549813157
 20
8067.7226619353
 30
0.0
 40
0.5179495530375868
100
AcDbArc
 50
72.21422204812333
 51
230.8036952675516
  0
ARC
  5
CE
330
1F
100
AcDbEntity
  8
0
  6
Continuous
 62
     7
100
AcDbCircle
 10
4073.22857443617
 20
8069.103860854501
 30
0.0
 40
0.9325769259011395
100
AcDbArc
 50
252.2142220500901
 51
346.6000703066471
  0
ARC
  5
CF
330
1F
100
AcDbEntity
  8
0
  6
Continuous
 62
     7
100
AcDbCircle
 10
4074.64605829447
 20
8068.7990234262
 30
0.0
 40
0.5179495530512664
100
AcDbArc
 50
9.86240588202791
 51
170.1375941144389
  0
ARC
  5
D0
330
1F
100
AcDbEntity
  8
0
  6
Continuous
 62
     7
100
AcDbCircle
 10
4076.06354215287
 20
8069.103860854501
 30
0.0
 40
0.9325769259005651
100
AcDbArc
 50
193.3999296942615
 51
287.7857779519067
  0
ARC
  5
D1
330
1F
100
AcDbEntity
  8
0
  6
Continuous
 62
     7
100
AcDbCircle
 10
4076.50661845747
 20
8067.7226619353
 30
0.0
 40
0.5179495529725233
100
AcDbArc
 50
315.2403886525356
 51
107.7857779482335
  0
ARC
  5
D2
330
1F
100
AcDbEntity
  8
0
  6
Continuous
 62
     7
100
AcDbCircle
 10
4077.48055829447
 20
8066.6492468805
 30
0.0
 40
0.9325769258994377
100
AcDbArc
 50
130.5404547854815
 51
229.4595452148124
  0
ARC
  5
D3
330
1F
100
AcDbEntity
  8
0
  6
Continuous
 62
     7
100
AcDbCircle
 10
4076.50661845747
 20
8065.575831825699
 30
0.0
 40
0.5179495530358549
100
AcDbArc
 50
252.2142220480619
 51
44.75961134700215
  0
ARC
  5
D4
330
1F
100
AcDbEntity
  8
0
  6
Continuous
 62
     7
100
AcDbCircle
 10
4076.06354215287
 20
8064.1946329065
 30
0.0
 40
0.9325769259001346
100
AcDbArc
 50
72.21422205009965
 51
167.7470705642779
  0
ARC
  5
D5
330
1F
100
AcDbEntity
  8
0
  6
Continuous
 62
     7
100
AcDbCircle
 10
4074.64605829447
 20
8064.5024747121
 30
0.0
 40
0.51794955290391
100
AcDbArc
 50
192.2529294357894
 51
347.7470705691701
  0
ARC
  5
D6
330
1F
100
AcDbEntity
  8
0
  6
Continuous
 62
     7
100
AcDbCircle
 10
4073.22857443617
 20
8064.1946329065
 30
0.0
 40
0.9325769259358739
100
AcDbArc
 50
12.25292943427204
 51
107.7857779499339
  0
ARC
  5
D7
330
1F
100
AcDbEntity
  8
0
  6
Continuous
 62
     7
100
AcDbCircle
 10
4072.78549813157
 20
8141.575831825699
 30
0.0
 40
0.5179495530368121
100
AcDbArc
 50
135.2403886519366
 51
287.7857779519256
  0
ARC
  5
D8
330
1F
100
AcDbEntity
  8
0
  6
Continuous
 62
     7
100
AcDbCircle
 10
4071.81155829447
 20
8142.6492468805
 30
0.0
 40
0.9325769259003442
100
AcDbArc
 50
310.5404547901029
 51
46.10376140911734
  0
ARC
  5
D9
330
1F
100
AcDbEntity
  8
0
  6
Continuous
 62
     7
100
AcDbCircle
 10
4072.78549813157
 20
8143.7226619353
 30
0.0
 40
0.5179495530375868
100
AcDbArc
 50
72.21422204812333
 51
230.8036952675516
  0
ARC
  5
DA
330
1F
100
AcDbEntity
  8
0
  6
Continuous
 62
     7
100
AcDbCircle
 10
4073.22857443617
 20
8145.103860854501
 30
0.0
 40
0.9325769259011395
100
AcDbArc
 50
252.2142220500901
 51
346.6000703066471
  0
ARC
  5
DB
330
1F
100
AcDbEntity
  8
0
  6
Continuous
 62
     7
100
AcDbCircle
 10
4074.64605829447
 20
8144.7990234262
 30
0.0
 40
0.5179495530512664
100
AcDbArc
 50
9.86240588202791
 51
170.1375941144389
  0
ARC
  5
DC
330
1F
100
AcDbEntity
  8
0
  6
Continuous
 62
     7
100
AcDbCircle
 10
4076.06354215287
 20
8145.103860854501
 30
0.0
 40
0.9325769259005651
100
AcDbArc
 50
193.3999296942615
 51
287.7857779519067
  0
ARC
  5
DD
330
1F
100
AcDbEntity
  8
0
  6
Continuous
 62
     7
100
AcDbCircle
 10
4076.50661845747
 20
8143.7226619353
 30
0.0
 40
0.5179495529725233
100
AcDbArc
 50
315.2403886525356
 51
107.7857779482335
  0
ARC
  5
DE
330
1F
100
AcDbEntity
  8
0
  6
Continuous
 62
     7
100
AcDbCircle
 10
4077.48055829447
 20
8142.6492468805
 30
0.0
 40
0.9325769258994377
100
AcDbArc
 50
130.5404547854815
 51
229.4595452148124
  0
ARC
  5
DF
330
1F
100
AcDbEntity
  8
0
  6
Continuous
 62
     7
100
AcDbCircle
 10
4076.50661845747
 20
8141.575831825699
 30
0.0
 40
0.5179495530358549
100
AcDbArc
 50
252.2142220480619
 51
44.75961134700215
  0
ARC
  5
E0
330
1F
100
AcDbEntity
  8
0
  6
Continuous
 62
     7
100
AcDbCircle
 10
4076.06354215287
 20
8140.1946329065
 30
0.0
 40
0.9325769259001346
100
AcDbArc
 50
72.21422205009965
 51
167.7470705642779
  0
ARC
  5
E1
330
1F
100
AcDbEntity
  8
0
  6
Continuous
 62
     7
100
AcDbCircle
 10
4074.64605829447
 20
8140.5024747121
 30
0.0
 40
0.51794955290391
100
AcDbArc
 50
192.2529294357894
 51
347.7470705691701
  0
ARC
  5
E2
330
1F
100
AcDbEntity
  8
0
  6
Continuous
 62
     7
100
AcDbCircle
 10
4073.22857443617
 20
8140.1946329065
 30
0.0
 40
0.9325769259358739
100
AcDbArc
 50
12.25292943427204
 51
107.7857779499339
  0
ARC
  5
E3
330
1F
100
AcDbEntity
  8
0
  6
Continuous
 62
     7
100
AcDbCircle
 10
4074.64605829447
 20
8104.6492468805
 30
0.0
 40
3.049999999999628
100
AcDbArc
 50
9.09534207670155
 51
170.9046579232998
  0
ARC
  5
E4
330
1F
100
AcDbEntity
  8
0
  6
Continuous
 62
     7
100
AcDbCircle
 10
4074.64605829447
 20
8104.6492468805
 30
0.0
 40
3.049999999999933
100
AcDbArc
 50
189.0953420766833
 51
350.9046579233153
  0
ARC
  5
E5
330
1F
100
AcDbEntity
  8
0
  6
Continuous
 62
     7
100
AcDbCircle
 10
4074.64605829447
 20
8063.6492468805
 30
0.0
 40
3.0
100
AcDbArc
 50
180.0
 51
0.0
  0
ARC
  5
E6
330
1F
100
AcDbEntity
  8
0
  6
Continuous
 62
     7
100
AcDbCircle
 10
4074.64605829447
 20
8069.6492468805
 30
0.0
 40
3.0
100
AcDbArc
 50
0.0
 51
180.0
  0
ARC
  5
E7
330
1F
100
AcDbEntity
  8
0
  6
Continuous
 62
     7
100
AcDbCircle
 10
4074.64605829447
 20
8139.6492468805
 30
0.0
 40
3.0
100
AcDbArc
 50
180.0
 51
0.0
  0
ARC
  5
E8
330
1F
100
AcDbEntity
  8
0
  6
Continuous
 62
     7
100
AcDbCircle
 10
4074.64605829447
 20
8145.6492468805
 30
0.0
 40
3.0
100
AcDbArc
 50
0.0
 51
180.0
  0
ARC
  5
E9
330
1F
100
AcDbEntity
  8
0
  6
Continuous
 62
     7
100
AcDbCircle
 10
4074.64605829447
 20
8101.6492468805
 30
0.0
 40
3.0
100
AcDbArc
 50
180.0
 51
0.0
  0
ARC
  5
EA
330
1F
100
AcDbEntity
  8
0
  6
Continuous
 62
     7
100
AcDbCircle
 10
4074.64605829447
 20
8107.6492468805
 30
0.0
 40
3.0
100
AcDbArc
 50
0.0
 51
180.0
  0
ARC
  5
EB
330
1F
100
AcDbEntity
  8
0
  6
Continuous
 62
     7
100
AcDbCircle
 10
4066.89605829447
 20
8036.6492468805
 30
0.0
 40
2.0
100
AcDbArc
 50
180.0
 51
270.0
  0
ARC
  5
EC
330
1F
100
AcDbEntity
  8
0
  6
Continuous
 62
     7
100
AcDbCircle
 10
4066.89605829447
 20
8172.6492468805
 30
0.0
 40
2.0
100
AcDbArc
 50
90.0
 51
180.0
  0
ARC
  5
ED
330
1F
100
AcDbEntity
  8
0
  6
Continuous
 62
     7
100
AcDbCircle
 10
4034.14605829447
 20
8040.6492468805
 30
0.0
 40
6.0
100
AcDbArc
 50
180.0
 51
270.0
  0
ARC
  5
EE
330
1F
100
AcDbEntity
  8
0
  6
Continuous
 62
     7
100
AcDbCircle
 10
4034.14605829447
 20
8168.6492468805
 30
0.0
 40
6.0
100
AcDbArc
 50
90.0
 51
180.0
  0
ARC
  5
EF
330
1F
100
AcDbEntity
  8
1
  6
Continuous
 62
     7
100
AcDbCircle
 10
4074.645974303301
 20
8079.649246880661
 30
0.0
 40
3.999999999999949
100
AcDbArc
 50
179.9994058828825
 51
359.9994058828694
  0
ARC
  5
F0
330
1F
100
AcDbEntity
  8
1
  6
Continuous
 62
     7
100
AcDbCircle
 10
4074.646036520424
 20
8085.649374410037
 30
0.0
 40
3.999999999999949
100
AcDbArc
 50
359.9994058828694
 51
179.9994058828694
  0
ARC
  5
F1
330
1F
100
AcDbEntity
  8
0
  6
Continuous
 62
     7
100
AcDbCircle
 10
4073.22857443617
 20
8080.194632903683
 30
0.0
 40
0.9325769258029882
100
AcDbArc
 50
12.2529294343297
 51
107.7857779499168
  0
ARC
  5
F2
330
1F
100
AcDbEntity
  8
0
  6
Continuous
 62
     7
100
AcDbCircle
 10
4074.64605829447
 20
8080.502474709283
 30
0.0
 40
0.5179495530369886
100
AcDbArc
 50
192.2529294357839
 51
347.7470705691701
  0
ARC
  5
F3
330
1F
100
AcDbEntity
  8
0
  6
Continuous
 62
     7
100
AcDbCircle
 10
4076.06354215287
 20
8080.194632903683
 30
0.0
 40
0.9325769259651363
100
AcDbArc
 50
72.21422205008976
 51
167.7470705642233
  0
ARC
  5
F4
330
1F
100
AcDbEntity
  8
0
  6
Continuous
 62
     7
100
AcDbCircle
 10
4076.50661845747
 20
8081.575831822883
 30
0.0
 40
0.5179495529717192
100
AcDbArc
 50
252.2142220481105
 51
44.75961134700215
  0
ARC
  5
F5
330
1F
100
AcDbEntity
  8
0
  6
Continuous
 62
     7
100
AcDbCircle
 10
4077.48055829447
 20
8082.649246877682
 30
0.0
 40
0.932576925835517
100
AcDbArc
 50
130.5404547852743
 51
229.4595452147761
  0
ARC
  5
F6
330
1F
100
AcDbEntity
  8
0
  6
Continuous
 62
     7
100
AcDbCircle
 10
4076.50661845747
 20
8083.722661932483
 30
0.0
 40
0.5179495530371458
100
AcDbArc
 50
315.2403886522566
 51
107.7857779482335
  0
ARC
  5
F7
330
1F
100
AcDbEntity
  8
0
  6
Continuous
 62
     7
100
AcDbCircle
 10
4076.06354215287
 20
8085.103860851683
 30
0.0
 40
0.9325769259990049
100
AcDbArc
 50
193.3999296939695
 51
287.7857779519408
  0
ARC
  5
F8
330
1F
100
AcDbEntity
  8
0
  6
Continuous
 62
     7
100
AcDbCircle
 10
4074.64605829447
 20
8084.799023423383
 30
0.0
 40
0.5179495529524095
100
AcDbArc
 50
9.8624058816825
 51
170.1375941144389
  0
ARC
  5
F9
330
1F
100
AcDbEntity
  8
0
  6
Continuous
 62
     7
100
AcDbCircle
 10
4073.22857443617
 20
8085.103860851683
 30
0.0
 40
0.9325769259020056
100
AcDbArc
 50
252.2142220501072
 51
346.6000703067558
  0
ARC
  5
FA
330
1F
100
AcDbEntity
  8
0
  6
Continuous
 62
     7
100
AcDbCircle
 10
4072.78549813157
 20
8083.722661932483
 30
0.0
 40
0.5179495530349888
100
AcDbArc
 50
72.21422204803112
 51
230.8036952676152
  0
ARC
  5
FB
330
1F
100
AcDbEntity
  8
0
  6
Continuous
 62
     7
100
AcDbCircle
 10
4071.81155829447
 20
8082.649246877682
 30
0.0
 40
0.9325769259360539
100
AcDbArc
 50
310.5404547901749
 51
46.10376140911734
  0
ARC
  5
FC
330
1F
100
AcDbEntity
  8
0
  6
Continuous
 62
     7
100
AcDbCircle
 10
4072.78549813157
 20
8081.575831822883
 30
0.0
 40
0.5179495530004862
100
AcDbArc
 50
135.2403886522025
 51
287.7857779519256
  0
ARC
  5
FD
330
1F
100
AcDbEntity
  8
0
  6
Continuous
 62
     7
100
AcDbCircle
 10
4072.78549813157
 20
8127.721765704147
 30
0.0
 40
0.5179495530968368
100
AcDbArc
 50
72.21422204811269
 51
224.7596113477261
  0
ARC
  5
FE
330
1F
100
AcDbEntity
  8
0
  6
Continuous
 62
     7
100
AcDbCircle
 10
4071.81155829447
 20
8126.648350649347
 30
0.0
 40
0.9325769259347103
100
AcDbArc
 50
313.8962385907069
 51
49.45954520989773
  0
ARC
  5
FF
330
1F
100
AcDbEntity
  8
0
  6
Continuous
 62
     7
100
AcDbCircle
 10
4072.78549813157
 20
8125.574935594547
 30
0.0
 40
0.5179495530000335
100
AcDbArc
 50
129.1963047324456
 51
287.7857779519256
  0
ARC
  5
100
330
1F
100
AcDbEntity
  8
0
  6
Continuous
 62
     7
100
AcDbCircle
 10
4073.22857443617
 20
8124.193736675347
 30
0.0
 40
0.9325769258521754
100
AcDbArc
 50
13.39992969347624
 51
107.7857779499168
  0
ARC
  5
101
330
1F
100
AcDbEntity
  8
0
  6
Continuous
 62
     7
100
AcDbCircle
 10
4074.64605829447
 20
8124.498574103647
 30
0.0
 40
0.5179495529998978
100
AcDbArc
 50
189.8624058854666
 51
350.137594118412
  0
ARC
  5
102
330
1F
100
AcDbEntity
  8
0
  6
Continuous
 62
     7
100
AcDbCircle
 10
4076.06354215287
 20
8124.193736675347
 30
0.0
 40
0.9325769259373017
100
AcDbArc
 50
72.21422204810345
 51
166.6000703057985
  0
ARC
  5
103
330
1F
100
AcDbEntity
  8
0
  6
Continuous
 62
     7
100
AcDbCircle
 10
4076.50661845747
 20
8125.574935594547
 30
0.0
 40
0.5179495529995538
100
AcDbArc
 50
252.2142220516868
 51
44.75961134769067
  0
ARC
  5
104
330
1F
100
AcDbEntity
  8
0
  6
Continuous
 62
     7
100
AcDbCircle
 10
4077.48055829447
 20
8126.648350649347
 30
0.0
 40
0.9325769258726133
100
AcDbArc
 50
130.5404547850161
 51
229.4595452145324
  0
ARC
  5
105
330
1F
100
AcDbEntity
  8
0
  6
Continuous
 62
     7
100
AcDbCircle
 10
4076.50661845747
 20
8127.721765704147
 30
0.0
 40
0.5179495530005186
100
AcDbArc
 50
315.2403886530561
 51
107.7857779518777
  0
ARC
  5
106
330
1F
100
AcDbEntity
  8
0
  6
Continuous
 62
     7
100
AcDbCircle
 10
4076.06354215287
 20
8129.102964623347
 30
0.0
 40
0.932576925937086
100
AcDbArc
 50
192.2529294357997
 51
287.7857779499168
  0
ARC
  5
107
330
1F
100
AcDbEntity
  8
0
  6
Continuous
 62
     7
100
AcDbCircle
 10
4074.64605829447
 20
8128.795122817746
 30
0.0
 40
0.5179495530008494
100
AcDbArc
 50
12.2529294308867
 51
167.7470705640609
  0
ARC
  5
108
330
1F
100
AcDbEntity
  8
0
  6
Continuous
 62
     7
100
AcDbCircle
 10
4073.22857443617
 20
8129.102964623347
 30
0.0
 40
0.9325769258401576
100
AcDbArc
 50
252.2142220500619
 51
347.7470705657018
  0
ARC
  5
109
330
1F
100
AcDbEntity
  8
1
  6
Continuous
 62
     7
100
AcDbCircle
 10
4074.646036520424
 20
8123.648223116994
 30
0.0
 40
3.999999999999949
100
AcDbArc
 50
180.0005941171306
 51
0.00059411711756
  0
ARC
  5
10A
330
1F
100
AcDbEntity
  8
1
  6
Continuous
 62
     7
100
AcDbCircle
 10
4074.645974303301
 20
8129.648350646368
 30
0.0
 40
3.999999999999949
100
AcDbArc
 50
0.00059411713059
 51
180.0005941171175
  0
CIRCLE
  5
10B
330
1F
100
AcDbEntity
  8
1
  6
Continuous
 62
     7
100
AcDbCircle
 10
4036.39605829447
 20
8062.6492468805
 30
0.0
 40
4.25
  0
CIRCLE
  5
10C
330
1F
100
AcDbEntity
  8
1
  6
Continuous
 62
     7
100
AcDbCircle
 10
4036.39605829447
 20
8104.6492468805
 30
0.0
 40
4.25
  0
CIRCLE
  5
10D
330
1F
100
AcDbEntity
  8
0
  6
Continuous
 62
     7
100
AcDbCircle
 10
4074.64605829447
 20
8104.6492468805
 30
0.0
 40
3.0
  0
CIRCLE
  5
10E
330
1F
100
AcDbEntity
  8
0
  6
Continuous
 62
     7
100
AcDbCircle
 10
4036.39605829447
 20
8074.6492468805
 30
0.0
 40
2.5
  0
CIRCLE
  5
10F
330
1F
100
AcDbEntity
  8
0
  6
Continuous
 62
     7
100
AcDbCircle
 10
4036.39605829447
 20
8134.6492468805
 30
0.0
 40
2.5
  0
CIRCLE
  5
110
330
1F
100
AcDbEntity
  8
0
  6
Continuous
 62
     7
100
AcDbCircle
 10
4036.39605829447
 20
8062.6492468805
 30
0.0
 40
6.150060177199975
  0
CIRCLE
  5
111
330
1F
100
AcDbEntity
  8
0
  6
Continuous
 62
     7
100
AcDbCircle
 10
4036.39605829447
 20
8104.6492468805
 30
0.0
 40
6.150060177199975
  0
CIRCLE
  5
112
330
1F
100
AcDbEntity
  8
0
  6
Continuous
 62
     7
100
AcDbCircle
 10
4036.39605829447
 20
8146.6492468805
 30
0.0
 40
6.150060177199975
  0
CIRCLE
  5
113
330
1F
100
AcDbEntity
  8
1
  6
Continuous
 62
     2
100
AcDbCircle
 10
4074.648481412715
 20
8066.650749053432
 30
0.0
 40
2.666225172144095
  0
CIRCLE
  5
114
330
1F
100
AcDbEntity
  8
1
  6
Continuous
 62
     2
100
AcDbCircle
 10
4074.647241055594
 20
8082.650749056342
 30
0.0
 40
2.666224193077142
  0
CIRCLE
  5
115
330
1F
100
AcDbEntity
  8
1
  6
Continuous
 62
     2
100
AcDbCircle
 10
4074.686248194535
 20
8126.646848026609
 30
0.0
 40
2.666520592119923
  0
CIRCLE
  5
116
330
1F
100
AcDbEntity
  8
1
  6
Continuous
 62
     2
100
AcDbCircle
 10
4074.67760725197
 20
8142.650748717525
 30
0.0
 40
2.666403571633055
  0
CIRCLE
  5
117
330
1F
100
AcDbEntity
  8
1
  6
Continuous
 62
     7
100
AcDbCircle
 10
4036.39605829447
 20
8146.6492468805
 30
0.0
 40
4.25
  0
SPLINE
  5
118
330
1F
100
AcDbEntity
  8
0
  6
Continuous
 62
     7
100
AcDbSpline
210
0.0
220
0.0
230
1.0
 70
     8
 71
     3
 72
    23
 73
    19
 74
    17
 42
0.0000000001
 43
0.0000000001
 44
0.00000001
 40
0.0
 40
0.0
 40
0.0
 40
0.0
 40
0.591906073426787
 40
1.183812145375447
 40
1.306099701489391
 40
1.428384661101357
 40
1.550668351672144
 40
1.672952287629198
 40
1.762442310493173
 40
1.851932018310843
 40
1.941419696001351
 40
2.030907178244673
 40
2.086173590468277
 40
2.141439921287028
 40
2.196706168400206
 40
2.251972410777117
 40
2.28627185954995
 40
2.320571308322227
 40
2.320571308322227
 40
2.320571308322227
 40
2.320571308322227
 10
4043.74123437067
 20
8158.6492468805
 30
0.0
 10
4043.737757775241
 20
8158.451917440158
 30
0.0
 10
4043.73080458439
 20
8158.057258559966
 30
0.0
 10
4043.689241284155
 20
8157.623417348213
 30
0.0
 10
4043.654036618084
 20
8157.346832257261
 30
0.0
 10
4043.637090509631
 20
8157.225721712797
 30
0.0
 10
4043.618723857797
 20
8157.104822457735
 30
0.0
 10
4043.600709215659
 20
8156.994933960139
 30
0.0
 10
4043.58347430746
 20
8156.896001682144
 30
0.0
 10
4043.567371907865
 20
8156.807972060855
 30
0.0
 10
4043.550528026121
 20
8156.720082231059
 30
0.0
 10
4043.535185660912
 20
8156.643522875066
 30
0.0
 10
4043.521640150305
 20
8156.578239668367
 30
0.0
 10
4043.510143950529
 20
8156.524182032974
 30
0.0
 10
4043.498396353345
 20
8156.470178522757
 30
0.0
 10
4043.487917596455
 20
8156.423052068139
 30
0.0
 10
4043.478837954219
 20
8156.382774222329
 30
0.0
 10
4043.473669097452
 20
8156.360499727309
 30
0.0
 10
4043.47108466907
 20
8156.349362479799
 30
0.0
 11
4043.74123437067
 21
8158.6492468805
 31
0.0
 11
4043.723124929608
 21
8158.057617902251
 31
0.0
 11
4043.66926164617
 21
8157.468167696799
 31
0.0
 11
4043.653785447947
 21
8157.346863394861
 31
0.0
 11
4043.636853663201
 21
8157.225756309962
 31
0.0
 11
4043.618487785537
 21
8157.104859678424
 31
0.0
 11
4043.59870900657
 21
8156.9841858996
 31
0.0
 11
4043.583350334108
 21
8156.896023689031
 31
0.0
 11
4043.567248176983
 21
8156.807994555551
 31
0.0
 11
4043.550404674159
 21
8156.720106326128
 31
0.0
 11
4043.53282128677
 21
8156.6323633266
 31
0.0
 11
4043.521595448805
 21
8156.578249031982
 31
0.0
 11
4043.510102043118
 21
8156.524191017332
 31
0.0
 11
4043.498354996748
 21
8156.470187638071
 31
0.0
 11
4043.48636817707
 21
8156.416236978201
 31
0.0
 11
4043.478802860166
 21
8156.382782260054
 31
0.0
 11
4043.47108466907
 21
8156.349362479799
 31
0.0
  0
SPLINE
  5
119
330
1F
100
AcDbEntity
  8
0
  6
Continuous
 62
     7
100
AcDbSpline
210
0.0
220
0.0
230
1.0
 70
     8
 71
     3
 72
    23
 73
    19
 74
    17
 42
0.0000000001
 43
0.0000000001
 44
0.00000001
 40
0.0
 40
0.0
 40
0.0
 40
0.0
 40
0.591906073426787
 40
1.183812145375489
 40
1.306099701485766
 40
1.428384661099471
 40
1.550668351669358
 40
1.672952287627384
 40
1.762442310495176
 40
1.85193201831073
 40
1.941419695999452
 40
2.030907178245538
 40
2.086173590467268
 40
2.141439921287799
 40
2.196706168400186
 40
2.251972410779069
 40
2.286271859548841
 40
2.320571308322208
 40
2.320571308322208
 40
2.320571308322208
 40
2.320571308322208
 10
4043.74123437067
 20
8050.6492468805
 30
0.0
 10
4043.737757775241
 20
8050.451917440159
 30
0.0
 10
4043.73080458439
 20
8050.057258559966
 30
0.0
 10
4043.689241284153
 20
8049.623417348213
 30
0.0
 10
4043.654036618084
 20
8049.346832257263
 30
0.0
 10
4043.637090509632
 20
8049.225721712803
 30
0.0
 10
4043.618723857796
 20
8049.104822457735
 30
0.0
 10
4043.600709215659
 20
8048.994933960137
 30
0.0
 10
4043.58347430746
 20
8048.896001682147
 30
0.0
 10
4043.567371907864
 20
8048.807972060851
 30
0.0
 10
4043.550528026121
 20
8048.720082231058
 30
0.0
 10
4043.53518566091
 20
8048.643522875066
 30
0.0
 10
4043.521640150307
 20
8048.578239668368
 30
0.0
 10
4043.510143950529
 20
8048.524182032974
 30
0.0
 10
4043.498396353345
 20
8048.470178522753
 30
0.0
 10
4043.487917596454
 20
8048.423052068141
 30
0.0
 10
4043.47883795422
 20
8048.382774222327
 30
0.0
 10
4043.473669097453
 20
8048.360499727309
 30
0.0
 10
4043.47108466907
 20
8048.349362479799
 30
0.0
 11
4043.74123437067
 21
8050.6492468805
 31
0.0
 11
4043.723124929608
 21
8050.057617902251
 31
0.0
 11
4043.66926164617
 21
8049.468167696799
 31
0.0
 11
4043.653785447947
 21
8049.346863394864
 31
0.0
 11
4043.636853663201
 21
8049.225756309964
 31
0.0
 11
4043.618487785537
 21
8049.104859678427
 31
0.0
 11
4043.59870900657
 21
8048.984185899601
 31
0.0
 11
4043.583350334107
 21
8048.896023689029
 31
0.0
 11
4043.567248176983
 21
8048.807994555551
 31
0.0
 11
4043.550404674159
 21
8048.72010632613
 31
0.0
 11
4043.53282128677
 21
8048.632363326599
 31
0.0
 11
4043.521595448806
 21
8048.578249031983
 31
0.0
 11
4043.510102043119
 21
8048.524191017331
 31
0.0
 11
4043.498354996748
 21
8048.470187638071
 31
0.0
 11
4043.486368177069
 21
8048.416236978199
 31
0.0
 11
4043.478802860167
 21
8048.382782260055
 31
0.0
 11
4043.47108466907
 21
8048.349362479799
 31
0.0
  0
SPLINE
  5
11A
330
1F
100
AcDbEntity
  8
0
  6
Continuous
 62
     7
100
AcDbSpline
210
0.0
220
0.0
230
1.0
 70
    24
 71
     3
 72
     9
 73
     5
 74
     3
 42
0.0000000001
 43
0.0000000001
 44
0.00000001
 40
0.0
 40
0.0
 40
0.0
 40
0.0
 40
0.0374581710809642
 40
0.0749163421626131
 40
0.0749163421626131
 40
0.0749163421626131
 40
0.0749163421626131
 10
4043.48772187387
 20
8160.8761301348
 30
0.0
 10
4043.484947399603
 20
8160.888304037733
 30
0.0
 10
4043.47939845107
 20
8160.9126518436
 30
0.0
 10
4043.473849502537
 20
8160.936999649466
 30
0.0
 10
4043.47107502827
 20
8160.9491735524
 30
0.0
 11
4043.48772187387
 21
8160.8761301348
 31
0.0
 11
4043.47939845107
 21
8160.9126518436
 31
0.0
 11
4043.47107502827
 21
8160.9491735524
 31
0.0
  0
SPLINE
  5
11B
330
1F
100
AcDbEntity
  8
0
  6
Continuous
 62
     7
100
AcDbSpline
210
0.0
220
0.0
230
1.0
 70
    24
 71
     3
 72
     9
 73
     5
 74
     3
 42
0.0000000001
 43
0.0000000001
 44
0.00000001
 40
0.0
 40
0.0
 40
0.0
 40
0.0
 40
0.0374581710809642
 40
0.0749163421626131
 40
0.0749163421626131
 40
0.0749163421626131
 40
0.0749163421626131
 10
4043.48772187387
 20
8052.8761301348
 30
0.0
 10
4043.484947399603
 20
8052.888304037733
 30
0.0
 10
4043.47939845107
 20
8052.912651843599
 30
0.0
 10
4043.473849502537
 20
8052.936999649466
 30
0.0
 10
4043.47107502827
 20
8052.9491735524
 30
0.0
 11
4043.48772187387
 21
8052.8761301348
 31
0.0
 11
4043.47939845107
 21
8052.9126518436
 31
0.0
 11
4043.47107502827
 21
8052.9491735524
 31
0.0
  0
SPLINE
  5
11C
330
1F
100
AcDbEntity
  8
0
  6
Continuous
 62
     7
100
AcDbSpline
210
0.0
220
0.0
230
1.0
 70
    24
 71
     3
 72
     9
 73
     5
 74
     3
 42
0.0000000001
 43
0.0000000001
 44
0.00000001
 40
0.0
 40
0.0
 40
0.0
 40
0.0
 40
0.0367959366280679
 40
0.0735918732552491
 40
0.0735918732552491
 40
0.0735918732552491
 40
0.0735918732552491
 10
4043.47108466907
 20
8048.349362479799
 30
0.0
 10
4043.47380964357
 20
8048.361321258901
 30
0.0
 10
4043.47925959257
 20
8048.385238817101
 30
0.0
 10
4043.484709541571
 20
8048.409156375302
 30
0.0
 10
4043.48743451607
 20
8048.4211151544
 30
0.0
 11
4043.47108466907
 21
8048.349362479799
 31
0.0
 11
4043.47925959257
 21
8048.3852388171
 31
0.0
 11
4043.48743451607
 21
8048.4211151544
 31
0.0
  0
SPLINE
  5
11D
330
1F
100
AcDbEntity
  8
0
  6
Continuous
 62
     7
100
AcDbSpline
210
0.0
220
0.0
230
1.0
 70
     8
 71
     3
 72
    19
 73
    15
 74
    13
 42
0.0000000001
 43
0.0000000001
 44
0.00000001
 40
0.0
 40
0.0
 40
0.0
 40
0.0
 40
0.5708134311303884
 40
1.141626859946645
 40
1.261893727765034
 40
1.38215817596775
 40
1.502421413903522
 40
1.622684928938713
 40
1.715958932027463
 40
1.809232604719807
 40
1.902504836734242
 40
1.995777069014602
 40
2.158203752227617
 40
2.320630435394571
 40
2.320630435394571
 40
2.320630435394571
 40
2.320630435394571
 10
4043.74123437067
 20
8050.6492468805
 30
0.0
 10
4043.738002448196
 20
8050.839542719363
 30
0.0
 10
4043.731538603261
 20
8051.220134396315
 30
0.0
 10
4043.69279114249
 20
8051.639393688698
 30
0.0
 10
4043.659797686798
 20
8051.907813127169
 30
0.0
 10
4043.643662893382
 20
8052.0269954949
 30
0.0
 10
4043.626144379539
 20
8052.145978627546
 30
0.0
 10
4043.608656517337
 20
8052.255865410358
 30
0.0
 10
4043.591555112741
 20
8052.356697115226
 30
0.0
 10
4043.575146317219
 20
8052.448516920018
 30
0.0
 10
4043.557941460071
 20
8052.540190514099
 30
0.0
 10
4043.535474383275
 20
8052.65432458226
 30
0.0
 10
4043.507091119319
 20
8052.790787444822
 30
0.0
 10
4043.483080391952
 20
8052.896378183212
 30
0.0
 10
4043.47107502827
 20
8052.9491735524
 30
0.0
 11
4043.74123437067
 21
8050.6492468805
 31
0.0
 11
4043.724390921961
 21
8051.219811750952
 31
0.0
 11
4043.67426115267
 21
8051.7884196798
 31
0.0
 11
4043.659553743732
 21
8051.907783877184
 31
0.0
 11
4043.643432191667
 21
8052.02696287307
 31
0.0
 11
4043.6259138307
 21
8052.145943348056
 31
0.0
 11
4043.60701569517
 21
8052.264712761299
 31
0.0
 11
4043.591419782579
 21
8052.356673661483
 31
0.0
 11
4043.575013536101
 21
8052.448493120717
 31
0.0
 11
4043.557806446358
 21
8052.540164410266
 31
0.0
 11
4043.53980748527
 21
8052.631683516
 31
0.0
 11
4043.506601373584
 21
8052.790679684401
 31
0.0
 11
4043.47107502827
 21
8052.9491735524
 31
0.0
  0
SPLINE
  5
11E
330
1F
100
AcDbEntity
  8
0
  6
Continuous
 62
     7
100
AcDbSpline
210
0.0
220
0.0
230
1.0
 70
    24
 71
     3
 72
     9
 73
     5
 74
     3
 42
0.0000000001
 43
0.0000000001
 44
0.00000001
 40
0.0
 40
0.0
 40
0.0
 40
0.0
 40
0.0367959366280679
 40
0.0735918732552491
 40
0.0735918732552491
 40
0.0735918732552491
 40
0.0735918732552491
 10
4043.47108466907
 20
8156.349362479799
 30
0.0
 10
4043.47380964357
 20
8156.361321258901
 30
0.0
 10
4043.47925959257
 20
8156.3852388171
 30
0.0
 10
4043.484709541571
 20
8156.409156375301
 30
0.0
 10
4043.48743451607
 20
8156.4211151544
 30
0.0
 11
4043.47108466907
 21
8156.349362479799
 31
0.0
 11
4043.47925959257
 21
8156.3852388171
 31
0.0
 11
4043.48743451607
 21
8156.4211151544
 31
0.0
  0
SPLINE
  5
11F
330
1F
100
AcDbEntity
  8
0
  6
Continuous
 62
     7
100
AcDbSpline
210
0.0
220
0.0
230
1.0
 70
     8
 71
     3
 72
    19
 73
    15
 74
    13
 42
0.0000000001
 43
0.0000000001
 44
0.00000001
 40
0.0
 40
0.0
 40
0.0
 40
0.0
 40
0.570813431130375
 40
1.141626859945725
 40
1.261893727764282
 40
1.382158175966876
 40
1.502421413903481
 40
1.622684928938744
 40
1.715958932028391
 40
1.809232604719919
 40
1.902504836735164
 40
1.995777069014456
 40
2.158203752230327
 40
2.320630435394619
 40
2.320630435394619
 40
2.320630435394619
 40
2.320630435394619
 10
4043.74123437067
 20
8158.6492468805
 30
0.0
 10
4043.738002448195
 20
8158.839542719361
 30
0.0
 10
4043.731538603261
 20
8159.220134396313
 30
0.0
 10
4043.692791142495
 20
8159.639393688696
 30
0.0
 10
4043.659797686796
 20
8159.907813127169
 30
0.0
 10
4043.643662893382
 20
8160.0269954949
 30
0.0
 10
4043.62614437954
 20
8160.145978627546
 30
0.0
 10
4043.608656517335
 20
8160.255865410354
 30
0.0
 10
4043.591555112743
 20
8160.356697115229
 30
0.0
 10
4043.575146317217
 20
8160.448516920018
 30
0.0
 10
4043.557941460071
 20
8160.540190514097
 30
0.0
 10
4043.535474383276
 20
8160.654324582263
 30
0.0
 10
4043.50709111932
 20
8160.79078744482
 30
0.0
 10
4043.483080391952
 20
8160.896378183212
 30
0.0
 10
4043.47107502827
 20
8160.9491735524
 30
0.0
 11
4043.74123437067
 21
8158.6492468805
 31
0.0
 11
4043.724390921962
 21
8159.219811750952
 31
0.0
 11
4043.674261152671
 21
8159.788419679799
 31
0.0
 11
4043.659553743731
 21
8159.907783877183
 31
0.0
 11
4043.643432191667
 21
8160.026962873069
 31
0.0
 11
4043.6259138307
 21
8160.145943348056
 31
0.0
 11
4043.60701569517
 21
8160.264712761299
 31
0.0
 11
4043.591419782579
 21
8160.356673661484
 31
0.0
 11
4043.575013536101
 21
8160.448493120717
 31
0.0
 11
4043.557806446358
 21
8160.540164410267
 31
0.0
 11
4043.539807485271
 21
8160.631683516
 31
0.0
 11
4043.506601373584
 21
8160.790679684404
 31
0.0
 11
4043.47107502827
 21
8160.9491735524
 31
0.0
  0
DIMENSION
  5
14D
330
1F
100
AcDbEntity
  8
1
100
AcDbDimension
  2
*D1
 10
4007.413843089665
 20
8146.6492468805
 30
0.0
 11
4003.663843089665
 21
8104.808504968746
 31
0.0
 70
    32
  1
84
 71
     5
 42
-1.0
 53
90.0
  3
ME10_DIM_10
100
AcDbAlignedDimension
 13
4028.13099209955
 23
8062.6492468805
 33
0.0
 14
4028.13099209955
 24
8146.6492468805
 34
0.0
 50
90.0
100
AcDbRotatedDimension
  0
DIMENSION
  5
158
330
1F
100
AcDbEntity
  8
1
100
AcDbDimension
  2
*D2
 10
4016.432056993609
 20
8134.6492468805
 30
0.0
 11
4012.682056993609
 21
8104.969544502745
 31
0.0
 70
    32
  1
60
 71
     5
 42
-1.0
 53
90.0
  3
ME10_DIM_11
100
AcDbAlignedDimension
 13
4032.14605829447
 23
8074.6492468805
 33
0.0
 14
4032.14605829447
 24
8134.6492468805
 34
0.0
 50
90.0
100
AcDbRotatedDimension
  0
DIMENSION
  5
163
330
1F
100
AcDbEntity
  8
1
100
AcDbDimension
  2
*D3
 10
4099.206377469092
 20
8053.6492468805
 30
0.0
 11
4095.456377469093
 21
8104.808504968746
 31
0.0
 70
    32
  1
102
 71
     5
 42
-1.0
 53
90.0
  3
ME10_DIM_12
100
AcDbAlignedDimension
 13
4088.699075534292
 23
8155.6492468805
 33
0.0
 14
4088.033868293644
 24
8053.6492468805
 34
0.0
 50
90.0
100
AcDbRotatedDimension
  0
DIMENSION
  5
16E
330
1F
100
AcDbEntity
  8
1
100
AcDbDimension
  2
*D4
 10
4109.21622696459
 20
8166.6492468805
 30
0.0
 11
4105.46622696459
 21
8104.6492468805
 31
0.0
 70
    32
  1
124
 71
     5
 42
-1.0
 53
90.0
  3
ME10_DIM_13
100
AcDbAlignedDimension
 13
4083.119786397968
 23
8042.6492468805
 33
0.0
 14
4083.119786397968
 24
8166.6492468805
 34
0.0
 50
90.0
100
AcDbRotatedDimension
  0
ENDSEC
  0
SECTION
  2
OBJECTS
  0
DICTIONARY
  5
C
330
0
100
AcDbDictionary
281
     1
  3
ACAD_GROUP
350
D
  3
ACAD_LAYOUT
350
1A
  3
ACAD_MLEADERSTYLE
350
172
  3
ACAD_MLINESTYLE
350
17
  3
ACAD_PLOTSETTINGS
350
19
  3
ACAD_PLOTSTYLENAME
350
E
  3
ACAD_SCALELIST
350
127
  3
ACAD_TABLESTYLE
350
171
  3
ACAD_VISUALSTYLE
350
2A
  3
AcDbVariableDictionary
350
16F
  0
DICTIONARY
  5
D
102
{ACAD_REACTORS
330
C
102
}
330
C
100
AcDbDictionary
281
     1
  0
DICTIONARY
  5
1A
102
{ACAD_REACTORS
330
C
102
}
330
C
100
AcDbDictionary
281
     1
  3
Layout1
350
1E
  3
Layout2
350
26
  3
Model
350
22
  0
DICTIONARY
  5
172
102
{ACAD_REACTORS
330
C
102
}
330
C
100
AcDbDictionary
281
     1
  0
DICTIONARY
  5
17
102
{ACAD_REACTORS
330
C
102
}
330
C
100
AcDbDictionary
281
     1
  3
Standard
350
18
  0
DICTIONARY
  5
19
102
{ACAD_REACTORS
330
C
102
}
330
C
100
AcDbDictionary
281
     1
  0
ACDBDICTIONARYWDFLT
  5
E
102
{ACAD_REACTORS
330
C
102
}
330
C
100
AcDbDictionary
281
     1
  3
Normal
350
F
100
AcDbDictionaryWithDefault
340
F
  0
DICTIONARY
  5
127
102
{ACAD_REACTORS
330
C
102
}
330
C
100
AcDbDictionary
281
     1
  3
A0
350
128
  3
A1
350
129
  3
A2
350
12A
  3
A3
350
12B
  3
A4
350
12C
  3
A5
350
12D
  3
A6
350
12E
  3
A7
350
12F
  3
A8
350
130
  3
A9
350
131
  3
B0
350
132
  3
B1
350
133
  3
B2
350
134
  3
B3
350
135
  3
B4
350
136
  3
B5
350
137
  3
B6
350
138
  3
B7
350
139
  3
B8
350
13A
  3
B9
350
13B
  3
C0
350
13C
  3
C1
350
13D
  3
C2
350
13E
  3
C3
350
13F
  3
C4
350
140
  3
C5
350
141
  3
C6
350
142
  3
C7
350
143
  3
C8
350
144
  3
C9
350
145
  3
D0
350
146
  3
D1
350
147
  3
D2
350
148
  0
DICTIONARY
  5
171
102
{ACAD_REACTORS
330
C
102
}
330
C
100
AcDbDictionary
281
     1
  0
DICTIONARY
  5
2A
102
{ACAD_REACTORS
330
C
102
}
330
C
100
AcDbDictionary
281
     1
  3
2dWireframe
350
2F
  3
3D Hidden
350
31
  3
3dWireframe
350
30
  3
Basic
350
32
  3
Brighten
350
36
  3
ColorChange
350
3A
  3
Conceptual
350
34
  3
Dim
350
35
  3
Facepattern
350
39
  3
Flat
350
2B
  3
FlatWithEdges
350
2C
  3
Gouraud
350
2D
  3
GouraudWithEdges
350
2E
  3
Linepattern
350
38
  3
Realistic
350
33
  3
Thicken
350
37
  0
DICTIONARY
  5
16F
102
{ACAD_REACTORS
330
C
102
}
330
C
100
AcDbDictionary
281
     1
  3
CANNOSCALE
350
170
  0
LAYOUT
  5
1E
102
{ACAD_REACTORS
330
1A
102
}
330
1A
100
AcDbPlotSettings
  1

  2
none_device
  4

  6

 40
0.0
 41
0.0
 42
0.0
 43
0.0
 44
0.0
 45
0.0
 46
0.0
 47
0.0
 48
0.0
 49
0.0
140
0.0
141
0.0
142
1.0
143
1.0
 70
   688
 72
     0
 73
     0
 74
     5
  7

 75
    16
 76
     0
 77
     2
 78
   300
147
1.0
148
0.0
149
0.0
100
AcDbLayout
  1
Layout1
 70
     1
 71
     1
 10
0.0
 20
0.0
 11
12.0
 21
9.0
 12
0.0
 22
0.0
 32
0.0
 14
1.00000000000000E+20
 24
1.00000000000000E+20
 34
1.00000000000000E+20
 15
-1.00000000000000E+20
 25
-1.00000000000000E+20
 35
-1.00000000000000E+20
146
0.0
 13
0.0
 23
0.0
 33
0.0
 16
1.0
 26
0.0
 36
0.0
 17
0.0
 27
1.0
 37
0.0
 76
     0
330
1B
  0
LAYOUT
  5
26
102
{ACAD_REACTORS
330
1A
102
}
330
1A
100
AcDbPlotSettings
  1

  2
none_device
  4

  6

 40
0.0
 41
0.0
 42
0.0
 43
0.0
 44
0.0
 45
0.0
 46
0.0
 47
0.0
 48
0.0
 49
0.0
140
0.0
141
0.0
142
1.0
143
1.0
 70
   688
 72
     0
 73
     0
 74
     5
  7

 75
    16
 76
     0
 77
     2
 78
   300
147
1.0
148
0.0
149
0.0
100
AcDbLayout
  1
Layout2
 70
     1
 71
     2
 10
0.0
 20
0.0
 11
0.0
 21
0.0
 12
0.0
 22
0.0
 32
0.0
 14
0.0
 24
0.0
 34
0.0
 15
0.0
 25
0.0
 35
0.0
146
0.0
 13
0.0
 23
0.0
 33
0.0
 16
1.0
 26
0.0
 36
0.0
 17
0.0
 27
1.0
 37
0.0
 76
     0
330
23
  0
LAYOUT
  5
22
102
{ACAD_REACTORS
330
1A
102
}
330
1A
100
AcDbPlotSettings
  1

  2
none_device
  4

  6

 40
0.0
 41
0.0
 42
0.0
 43
0.0
 44
0.0
 45
0.0
 46
0.0
 47
0.0
 48
0.0
 49
0.0
140
0.0
141
0.0
142
1.0
143
1.0
 70
  1712
 72
     0
 73
     0
 74
     0
  7

 75
     0
 76
     0
 77
     2
 78
   300
147
1.0
148
0.0
149
0.0
100
AcDbLayout
  1
Model
 70
     1
 71
     0
 10
0.0
 20
0.0
 11
12.0
 21
9.0
 12
0.0
 22
0.0
 32
0.0
 14
4001.913843089665
 24
8031.987686232454
 34
0.0
 15
4111.21622696459
 25
8176.987686232454
 35
0.0
146
0.0
 13
0.0
 23
0.0
 33
0.0
 16
1.0
 26
0.0
 36
0.0
 17
0.0
 27
1.0
 37
0.0
 76
     0
330
1F
331
29
  0
MLINESTYLE
  5
18
102
{ACAD_REACTORS
330
17
102
}
330
17
100
AcDbMlineStyle
  2
Standard
 70
     0
  3

 62
   256
 51
90.0
 52
90.0
 71
     2
 49
0.5
 62
   256
  6
BYLAYER
 49
-0.5
 62
   256
  6
BYLAYER
  0
ACDBPLACEHOLDER
  5
F
102
{ACAD_REACTORS
330
E
102
}
330
E
  0
SCALE
  5
128
102
{ACAD_REACTORS
330
127
102
}
330
127
100
AcDbScale
 70
     0
300
1:1
140
1.0
141
1.0
290
     1
  0
SCALE
  5
129
102
{ACAD_REACTORS
330
127
102
}
330
127
100
AcDbScale
 70
     0
300
1:2
140
1.0
141
2.0
290
     0
  0
SCALE
  5
12A
102
{ACAD_REACTORS
330
127
102
}
330
127
100
AcDbScale
 70
     0
300
1:4
140
1.0
141
4.0
290
     0
  0
SCALE
  5
12B
102
{ACAD_REACTORS
330
127
102
}
330
127
100
AcDbScale
 70
     0
300
1:5
140
1.0
141
5.0
290
     0
  0
SCALE
  5
12C
102
{ACAD_REACTORS
330
127
102
}
330
127
100
AcDbScale
 70
     0
300
1:8
140
1.0
141
8.0
290
     0
  0
SCALE
  5
12D
102
{ACAD_REACTORS
330
127
102
}
330
127
100
AcDbScale
 70
     0
300
1:10
140
1.0
141
10.0
290
     0
  0
SCALE
  5
12E
102
{ACAD_REACTORS
330
127
102
}
330
127
100
AcDbScale
 70
     0
300
1:16
140
1.0
141
16.0
290
     0
  0
SCALE
  5
12F
102
{ACAD_REACTORS
330
127
102
}
330
127
100
AcDbScale
 70
     0
300
1:20
140
1.0
141
20.0
290
     0
  0
SCALE
  5
130
102
{ACAD_REACTORS
330
127
102
}
330
127
100
AcDbScale
 70
     0
300
1:30
140
1.0
141
30.0
290
     0
  0
SCALE
  5
131
102
{ACAD_REACTORS
330
127
102
}
330
127
100
AcDbScale
 70
     0
300
1:40
140
1.0
141
40.0
290
     0
  0
SCALE
  5
132
102
{ACAD_REACTORS
330
127
102
}
330
127
100
AcDbScale
 70
     0
300
1:50
140
1.0
141
50.0
290
     0
  0
SCALE
  5
133
102
{ACAD_REACTORS
330
127
102
}
330
127
100
AcDbScale
 70
     0
300
1:100
140
1.0
141
100.0
290
     0
  0
SCALE
  5
134
102
{ACAD_REACTORS
330
127
102
}
330
127
100
AcDbScale
 70
     0
300
2:1
140
2.0
141
1.0
290
     0
  0
SCALE
  5
135
102
{ACAD_REACTORS
330
127
102
}
330
127
100
AcDbScale
 70
     0
300
4:1
140
4.0
141
1.0
290
     0
  0
SCALE
  5
136
102
{ACAD_REACTORS
330
127
102
}
330
127
100
AcDbScale
 70
     0
300
8:1
140
8.0
141
1.0
290
     0
  0
SCALE
  5
137
102
{ACAD_REACTORS
330
127
102
}
330
127
100
AcDbScale
 70
     0
300
10:1
140
10.0
141
1.0
290
     0
  0
SCALE
  5
138
102
{ACAD_REACTORS
330
127
102
}
330
127
100
AcDbScale
 70
     0
300
100:1
140
100.0
141
1.0
290
     0
  0
SCALE
  5
139
102
{ACAD_REACTORS
330
127
102
}
330
127
100
AcDbScale
 70
     0
300
1/128" = 1'-0"
140
0.0078125
141
12.0
290
     0
  0
SCALE
  5
13A
102
{ACAD_REACTORS
330
127
102
}
330
127
100
AcDbScale
 70
     0
300
1/64" = 1'-0"
140
0.015625
141
12.0
290
     0
  0
SCALE
  5
13B
102
{ACAD_REACTORS
330
127
102
}
330
127
100
AcDbScale
 70
     0
300
1/32" = 1'-0"
140
0.03125
141
12.0
290
     0
  0
SCALE
  5
13C
102
{ACAD_REACTORS
330
127
102
}
330
127
100
AcDbScale
 70
     0
300
1/16" = 1'-0"
140
0.0625
141
12.0
290
     0
  0
SCALE
  5
13D
102
{ACAD_REACTORS
330
127
102
}
330
127
100
AcDbScale
 70
     0
300
3/32" = 1'-0"
140
0.09375
141
12.0
290
     0
  0
SCALE
  5
13E
102
{ACAD_REACTORS
330
127
102
}
330
127
100
AcDbScale
 70
     0
300
1/8" = 1'-0"
140
0.125
141
12.0
290
     0
  0
SCALE
  5
13F
102
{ACAD_REACTORS
330
127
102
}
330
127
100
AcDbScale
 70
     0
300
3/16" = 1'-0"
140
0.1875
141
12.0
290
     0
  0
SCALE
  5
140
102
{ACAD_REACTORS
330
127
102
}
330
127
100
AcDbScale
 70
     0
300
1/4" = 1'-0"
140
0.25
141
12.0
290
     0
  0
SCALE
  5
141
102
{ACAD_REACTORS
330
127
102
}
330
127
100
AcDbScale
 70
     0
300
3/8" = 1'-0"
140
0.375
141
12.0
290
     0
  0
SCALE
  5
142
102
{ACAD_REACTORS
330
127
102
}
330
127
100
AcDbScale
 70
     0
300
1/2" = 1'-0"
140
0.5
141
12.0
290
     0
  0
SCALE
  5
143
102
{ACAD_REACTORS
330
127
102
}
330
127
100
AcDbScale
 70
     0
300
3/4" = 1'-0"
140
0.75
141
12.0
290
     0
  0
SCALE
  5
144
102
{ACAD_REACTORS
330
127
102
}
330
127
100
AcDbScale
 70
     0
300
1" = 1'-0"
140
1.0
141
12.0
290
     0
  0
SCALE
  5
145
102
{ACAD_REACTORS
330
127
102
}
330
127
100
AcDbScale
 70
     0
300
1-1/2" = 1'-0"
140
1.5
141
12.0
290
     0
  0
SCALE
  5
146
102
{ACAD_REACTORS
330
127
102
}
330
127
100
AcDbScale
 70
     0
300
3" = 1'-0"
140
3.0
141
12.0
290
     0
  0
SCALE
  5
147
102
{ACAD_REACTORS
330
127
102
}
330
127
100
AcDbScale
 70
     0
300
6" = 1'-0"
140
6.0
141
12.0
290
     0
  0
SCALE
  5
148
102
{ACAD_REACTORS
330
127
102
}
330
127
100
AcDbScale
 70
     0
300
1'-0" = 1'-0"
140
12.0
141
12.0
290
     0
  0
VISUALSTYLE
  5
2F
102
{ACAD_REACTORS
330
2A
102
}
330
2A
100
AcDbVisualStyle
  2
2dWireframe
 70
     4
 71
     0
 72
     2
 73
     0
 90
        0
 40
-0.6
 41
-30.0
 62
     5
 63
     7
421
 16777215
 74
     1
 91
        4
 64
     7
 65
   257
 75
     1
175
     1
 42
1.0
 92
        0
 66
   257
 43
1.0
 76
     1
 77
     6
 78
     2
 67
     7
 79
     5
170
     0
171
     0
290
     0
174
     0
 93
        1
 44
0.0
173
     0
291
     0
 45
0.0
1001
ACAD
1000
AcDbSavedByObjectVersion
1070
     0
  0
VISUALSTYLE
  5
31
102
{ACAD_REACTORS
330
2A
102
}
330
2A
100
AcDbVisualStyle
  2
3D Hidden
 70
     6
 71
     1
 72
     2
 73
     2
 90
        0
 40
-0.6
 41
-30.0
 62
     5
 63
     7
421
 16777215
 74
     2
 91
        2
 64
     7
 65
   257
 75
     2
175
     1
 42
40.0
 92
        0
 66
   257
 43
1.0
 76
     1
 77
     6
 78
     2
 67
     7
 79
     3
170
     0
171
     0
290
     0
174
     0
 93
        1
 44
0.0
173
     0
291
     0
 45
0.0
1001
ACAD
1000
AcDbSavedByObjectVersion
1070
     0
  0
VISUALSTYLE
  5
30
102
{ACAD_REACTORS
330
2A
102
}
330
2A
100
AcDbVisualStyle
  2
3dWireframe
 70
     5
 71
     0
 72
     2
 73
     0
 90
        0
 40
-0.6
 41
-30.0
 62
     5
 63
     7
421
 16777215
 74
     1
 91
        4
 64
     7
 65
   257
 75
     1
175
     1
 42
1.0
 92
        0
 66
   257
 43
1.0
 76
     1
 77
     6
 78
     2
 67
     7
 79
     5
170
     0
171
     0
290
     0
174
     0
 93
        1
 44
0.0
173
     0
291
     0
 45
0.0
1001
ACAD
1000
AcDbSavedByObjectVersion
1070
     0
  0
VISUALSTYLE
  5
32
102
{ACAD_REACTORS
330
2A
102
}
330
2A
100
AcDbVisualStyle
  2
Basic
 70
     7
 71
     1
 72
     0
 73
     1
 90
        0
 40
-0.6
 41
-30.0
 62
     5
 63
     7
421
 16777215
 74
     0
 91
        4
 64
     7
 65
   257
 75
     1
175
     1
 42
1.0
 92
        8
 66
     7
 43
1.0
 76
     1
 77
     6
 78
     2
 67
     7
 79
     5
170
     0
171
     0
290
     0
174
     0
 93
        1
 44
0.0
173
     0
291
     1
 45
0.0
1001
ACAD
1000
AcDbSavedByObjectVersion
1070
     0
  0
VISUALSTYLE
  5
36
102
{ACAD_REACTORS
330
2A
102
}
330
2A
100
AcDbVisualStyle
  2
Brighten
 70
    12
 71
     2
 72
     2
 73
     0
 90
        0
 40
-0.6
 41
-30.0
 62
     5
 63
     7
421
 16777215
 74
     1
 91
        4
 64
     7
 65
   257
 75
     1
175
     1
 42
1.0
 92
        8
 66
     7
 43
1.0
 76
     1
 77
     6
 78
     2
 67
     7
 79
     5
170
     0
171
     0
290
     0
174
     0
 93
        1
 44
50.0
173
     0
291
     1
 45
0.0
1001
ACAD
1000
AcDbSavedByObjectVersion
1070
     0
  0
VISUALSTYLE
  5
3A
102
{ACAD_REACTORS
330
2A
102
}
330
2A
100
AcDbVisualStyle
  2
ColorChange
 70
    16
 71
     2
 72
     2
 73
     3
 90
        0
 40
-0.6
 41
-30.0
 62
     5
 63
     8
421
  8421504
 74
     1
 91
        4
 64
     7
 65
   257
 75
     1
175
     1
 42
1.0
 92
        8
 66
     8
424
  8421504
 43
1.0
 76
     1
 77
     6
 78
     2
 67
     7
 79
     5
170
     0
171
     0
290
     0
174
     0
 93
        1
 44
0.0
173
     0
291
     1
 45
0.0
1001
ACAD
1000
AcDbSavedByObjectVersion
1070
     0
  0
VISUALSTYLE
  5
34
102
{ACAD_REACTORS
330
2A
102
}
330
2A
100
AcDbVisualStyle
  2
Conceptual
 70
     9
 71
     3
 72
     2
 73
     0
 90
        0
 40
-0.6
 41
-30.0
 62
     5
 63
     7
421
 16777215
 74
     2
 91
        2
 64
     7
 65
   257
 75
     1
175
     1
 42
40.0
 92
        8
 66
     7
 43
1.0
 76
     1
 77
     6
 78
     2
 67
     7
 79
     3
170
     0
171
     0
290
     0
174
     0
 93
        1
 44
0.0
173
     0
291
     0
 45
0.0
1001
ACAD
1000
AcDbSavedByObjectVersion
1070
     0
  0
VISUALSTYLE
  5
35
102
{ACAD_REACTORS
330
2A
102
}
330
2A
100
AcDbVisualStyle
  2
Dim
 70
    11
 71
     2
 72
     2
 73
     0
 90
        0
 40
-0.6
 41
-30.0
 62
     5
 63
     7
421
 16777215
 74
     1
 91
        4
 64
     7
 65
   257
 75
     1
175
     1
 42
1.0
 92
        8
 66
     7
 43
1.0
 76
     1
 77
     6
 78
     2
 67
     7
 79
     5
170
     0
171
     0
290
     0
174
     0
 93
        1
 44
-50.0
173
     0
291
     1
 45
0.0
1001
ACAD
1000
AcDbSavedByObjectVersion
1070
     0
  0
VISUALSTYLE
  5
39
102
{ACAD_REACTORS
330
2A
102
}
330
2A
100
AcDbVisualStyle
  2
Facepattern
 70
    15
 71
     2
 72
     2
 73
     0
 90
        0
 40
-0.6
 41
-30.0
 62
     5
 63
     7
421
 16777215
 74
     1
 91
        4
 64
     7
 65
   257
 75
     1
175
     1
 42
1.0
 92
        8
 66
     7
 43
1.0
 76
     1
 77
     6
 78
     2
 67
     7
 79
     5
170
     0
171
     0
290
     0
174
     0
 93
        1
 44
0.0
173
     0
291
     1
 45
0.0
1001
ACAD
1000
AcDbSavedByObjectVersion
1070
     0
  0
VISUALSTYLE
  5
2B
102
{ACAD_REACTORS
330
2A
102
}
330
2A
100
AcDbVisualStyle
  2
Flat
 70
     0
 71
     2
 72
     1
 73
     1
 90
        2
 40
-0.6
 41
30.0
 62
     5
 63
     7
421
 16777215
 74
     0
 91
        4
 64
     7
 65
   257
 75
     1
175
     1
 42
1.0
 92
        8
 66
     7
 43
1.0
 76
     1
 77
     6
 78
     2
 67
     7
 79
     5
170
     0
171
     0
290
     0
174
     0
 93
       13
 44
0.0
173
     0
291
     1
 45
0.0
1001
ACAD
1000
AcDbSavedByObjectVersion
1070
     0
  0
VISUALSTYLE
  5
2C
102
{ACAD_REACTORS
330
2A
102
}
330
2A
100
AcDbVisualStyle
  2
FlatWithEdges
 70
     1
 71
     2
 72
     1
 73
     1
 90
        2
 40
-0.6
 41
30.0
 62
     5
 63
     7
421
 16777215
 74
     1
 91
        4
 64
     7
 65
   257
 75
     1
175
     1
 42
1.0
 92
        0
 66
   257
 43
1.0
 76
     1
 77
     6
 78
     2
 67
     7
 79
     5
170
     0
171
     0
290
     0
174
     0
 93
       13
 44
0.0
173
     0
291
     1
 45
0.0
1001
ACAD
1000
AcDbSavedByObjectVersion
1070
     0
  0
VISUALSTYLE
  5
2D
102
{ACAD_REACTORS
330
2A
102
}
330
2A
100
AcDbVisualStyle
  2
Gouraud
 70
     2
 71
     2
 72
     2
 73
     1
 90
        2
 40
-0.6
 41
30.0
 62
     5
 63
     7
421
 16777215
 74
     0
 91
        4
 64
     7
 65
   257
 75
     1
175
     1
 42
1.0
 92
        0
 66
     7
 43
1.0
 76
     1
 77
     6
 78
     2
 67
     7
 79
     5
170
     0
171
     0
290
     0
174
     0
 93
       13
 44
0.0
173
     0
291
     1
 45
0.0
1001
ACAD
1000
AcDbSavedByObjectVersion
1070
     0
  0
VISUALSTYLE
  5
2E
102
{ACAD_REACTORS
330
2A
102
}
330
2A
100
AcDbVisualStyle
  2
GouraudWithEdges
 70
     3
 71
     2
 72
     2
 73
     1
 90
        2
 40
-0.6
 41
30.0
 62
     5
 63
     7
421
 16777215
 74
     1
 91
        4
 64
     7
 65
   257
 75
     1
175
     1
 42
1.0
 92
        0
 66
   257
 43
1.0
 76
     1
 77
     6
 78
     2
 67
     7
 79
     5
170
     0
171
     0
290
     0
174
     0
 93
       13
 44
0.0
173
     0
291
     1
 45
0.0
1001
ACAD
1000
AcDbSavedByObjectVersion
1070
     0
  0
VISUALSTYLE
  5
38
102
{ACAD_REACTORS
330
2A
102
}
330
2A
100
AcDbVisualStyle
  2
Linepattern
 70
    14
 71
     2
 72
     2
 73
     0
 90
        0
 40
-0.6
 41
-30.0
 62
     5
 63
     7
421
 16777215
 74
     1
 91
        4
 64
     7
 65
   257
 75
     7
175
     7
 42
1.0
 92
        8
 66
     7
 43
1.0
 76
     1
 77
     6
 78
     2
 67
     7
 79
     5
170
     0
171
     0
290
     0
174
     0
 93
        1
 44
0.0
173
     0
291
     1
 45
0.0
1001
ACAD
1000
AcDbSavedByObjectVersion
1070
     0
  0
VISUALSTYLE
  5
33
102
{ACAD_REACTORS
330
2A
102
}
330
2A
100
AcDbVisualStyle
  2
Realistic
 70
     8
 71
     2
 72
     2
 73
     0
 90
        0
 40
-0.6
 41
-30.0
 62
     5
 63
     7
421
 16777215
 74
     1
 91
        0
 64
     7
 65
   257
 75
     1
175
     1
 42
1.0
 92
        8
 66
     8
424
  7895160
 43
1.0
 76
     1
 77
     6
 78
     2
 67
     7
 79
     5
170
     0
171
     0
290
     0
174
     0
 93
       13
 44
0.0
173
     0
291
     0
 45
0.0
1001
ACAD
1000
AcDbSavedByObjectVersion
1070
     0
  0
VISUALSTYLE
  5
37
102
{ACAD_REACTORS
330
2A
102
}
330
2A
100
AcDbVisualStyle
  2
Thicken
 70
    13
 71
     2
 72
     2
 73
     0
 90
        0
 40
-0.6
 41
-30.0
 62
     5
 63
     7
421
 16777215
 74
     1
 91
        4
 64
     7
 65
   257
 75
     1
175
     1
 42
1.0
 92
       12
 66
     7
 43
1.0
 76
     1
 77
     6
 78
     2
 67
     7
 79
     5
170
     0
171
     0
290
     0
174
     0
 93
        1
 44
0.0
173
     0
291
     1
 45
0.0
1001
ACAD
1000
AcDbSavedByObjectVersion
1070
     0
  0
DICTIONARYVAR
  5
170
102
{ACAD_REACTORS
330
16F
102
}
330
16F
100
DictionaryVariables
280
     0
  1
1:1
  0
ENDSEC
  0
EOF
