  0
SECTION
  2
HEADER
  9
$ACADVER
  1
AC1018
  9
$ACADMAINTVER
 70
     0
  9
$DWGCODEPAGE
  3
ANSI_1252
  9
$INSBASE
 10
0.0
 20
0.0
 30
0.0
  9
$EXTMIN
 10
6.2477820622008
 20
108.223135051405
 30
0.0
  9
$EXTMAX
 10
167.30893573416
 20
247.823817555707
 30
0.0
  9
$LIMMIN
 10
0.0
 20
0.0
  9
$LIMMAX
 10
12.0
 20
9.0
  9
$ORTHOMODE
 70
     0
  9
$REGENMODE
 70
     1
  9
$FILLMODE
 70
     1
  9
$QTEXTMODE
 70
     0
  9
$MIRRTEXT
 70
     1
  9
$LTSCALE
 40
1.0
  9
$ATTMODE
 70
     1
  9
$TEXTSIZE
 40
0.2
  9
$TRACEWID
 40
0.05
  9
$TEXTSTYLE
  7
Standard
  9
$CLAYER
  8
0
  9
$CELTYPE
  6
ByLayer
  9
$CECOLOR
 62
   256
  9
$CELTSCALE
 40
1.0
  9
$DISPSILH
 70
     0
  9
$DIMSCALE
 40
1.0
  9
$DIMASZ
 40
0.18
  9
$DIMEXO
 40
0.0625
  9
$DIMDLI
 40
0.38
  9
$DIMRND
 40
0.0
  9
$DIMDLE
 40
0.0
  9
$DIMEXE
 40
0.18
  9
$DIMTP
 40
0.0
  9
$DIMTM
 40
0.0
  9
$DIMTXT
 40
0.18
  9
$DIMCEN
 40
0.09
  9
$DIMTSZ
 40
0.0
  9
$DIMTOL
 70
     0
  9
$DIMLIM
 70
     0
  9
$DIMTIH
 70
     1
  9
$DIMTOH
 70
     1
  9
$DIMSE1
 70
     0
  9
$DIMSE2
 70
     0
  9
$DIMTAD
 70
     0
  9
$DIMZIN
 70
     0
  9
$DIMBLK
  1

  9
$DIMASO
 70
     1
  9
$DIMSHO
 70
     1
  9
$DIMPOST
  1

  9
$DIMAPOST
  1

  9
$DIMALT
 70
     0
  9
$DIMALTD
 70
     2
  9
$DIMALTF
 40
25.4
  9
$DIMLFAC
 40
1.0
  9
$DIMTOFL
 70
     0
  9
$DIMTVP
 40
0.0
  9
$DIMTIX
 70
     0
  9
$DIMSOXD
 70
     0
  9
$DIMSAH
 70
     0
  9
$DIMBLK1
  1

  9
$DIMBLK2
  1

  9
$DIMSTYLE
  2
Standard
  9
$DIMCLRD
 70
     0
  9
$DIMCLRE
 70
     0
  9
$DIMCLRT
 70
     0
  9
$DIMTFAC
 40
1.0
  9
$DIMGAP
 40
0.09
  9
$DIMJUST
 70
     0
  9
$DIMSD1
 70
     0
  9
$DIMSD2
 70
     0
  9
$DIMTOLJ
 70
     1
  9
$DIMTZIN
 70
     0
  9
$DIMALTZ
 70
     0
  9
$DIMALTTZ
 70
     0
  9
$DIMUPT
 70
     0
  9
$DIMDEC
 70
     4
  9
$DIMTDEC
 70
     4
  9
$DIMALTU
 70
     2
  9
$DIMALTTD
 70
     2
  9
$DIMTXSTY
  7
Standard
  9
$DIMAUNIT
 70
     0
  9
$DIMADEC
 70
     0
  9
$DIMALTRND
 40
0.0
  9
$DIMAZIN
 70
     0
  9
$DIMDSEP
 70
    46
  9
$DIMATFIT
 70
     3
  9
$DIMFRAC
 70
     0
  9
$DIMLDRBLK
  1

  9
$DIMLUNIT
 70
     2
  9
$DIMLWD
 70
    -2
  9
$DIMLWE
 70
    -2
  9
$DIMTMOVE
 70
     0
  9
$LUNITS
 70
     2
  9
$LUPREC
 70
     4
  9
$SKETCHINC
 40
0.1
  9
$FILLETRAD
 40
0.5
  9
$AUNITS
 70
     0
  9
$AUPREC
 70
     0
  9
$MENU
  1
.
  9
$ELEVATION
 40
0.0
  9
$PELEVATION
 40
0.0
  9
$THICKNESS
 40
0.0
  9
$LIMCHECK
 70
     0
  9
$CHAMFERA
 40
0.5
  9
$CHAMFERB
 40
0.5
  9
$CHAMFERC
 40
1.0
  9
$CHAMFERD
 40
0.0
  9
$SKPOLY
 70
     0
  9
$TDCREATE
 40
2454483.369536308
  9
$TDUCREATE
 40
2454483.327869641
  9
$TDUPDATE
 40
2454483.369536319
  9
$TDUUPDATE
 40
2454483.327869653
  9
$TDINDWG
 40
0.0000000116
  9
$TDUSRTIMER
 40
0.0000000116
  9
$USRTIMER
 70
     1
  9
$ANGBASE
 50
0.0
  9
$ANGDIR
 70
     0
  9
$PDMODE
 70
     0
  9
$PDSIZE
 40
0.0
  9
$PLINEWID
 40
0.0
  9
$SPLFRAME
 70
     0
  9
$SPLINETYPE
 70
     6
  9
$SPLINESEGS
 70
     8
  9
$HANDSEED
  5
12B
  9
$SURFTAB1
 70
     6
  9
$SURFTAB2
 70
     6
  9
$SURFTYPE
 70
     6
  9
$SURFU
 70
     6
  9
$SURFV
 70
     6
  9
$UCSBASE
  2

  9
$UCSNAME
  2

  9
$UCSORG
 10
0.0
 20
0.0
 30
0.0
  9
$UCSXDIR
 10
1.0
 20
0.0
 30
0.0
  9
$UCSYDIR
 10
0.0
 20
1.0
 30
0.0
  9
$UCSORTHOREF
  2

  9
$UCSORTHOVIEW
 70
     0
  9
$UCSORGTOP
 10
0.0
 20
0.0
 30
0.0
  9
$UCSORGBOTTOM
 10
0.0
 20
0.0
 30
0.0
  9
$UCSORGLEFT
 10
0.0
 20
0.0
 30
0.0
  9
$UCSORGRIGHT
 10
0.0
 20
0.0
 30
0.0
  9
$UCSORGFRONT
 10
0.0
 20
0.0
 30
0.0
  9
$UCSORGBACK
 10
0.0
 20
0.0
 30
0.0
  9
$PUCSBASE
  2

  9
$PUCSNAME
  2

  9
$PUCSORG
 10
0.0
 20
0.0
 30
0.0
  9
$PUCSXDIR
 10
1.0
 20
0.0
 30
0.0
  9
$PUCSYDIR
 10
0.0
 20
1.0
 30
0.0
  9
$PUCSORTHOREF
  2

  9
$PUCSORTHOVIEW
 70
     0
  9
$PUCSORGTOP
 10
0.0
 20
0.0
 30
0.0
  9
$PUCSORGBOTTOM
 10
0.0
 20
0.0
 30
0.0
  9
$PUCSORGLEFT
 10
0.0
 20
0.0
 30
0.0
  9
$PUCSORGRIGHT
 10
0.0
 20
0.0
 30
0.0
  9
$PUCSORGFRONT
 10
0.0
 20
0.0
 30
0.0
  9
$PUCSORGBACK
 10
0.0
 20
0.0
 30
0.0
  9
$USERI1
 70
     0
  9
$USERI2
 70
     0
  9
$USERI3
 70
     0
  9
$USERI4
 70
     0
  9
$USERI5
 70
     0
  9
$USERR1
 40
14.5
  9
$USERR2
 40
0.0
  9
$USERR3
 40
0.0
  9
$USERR4
 40
0.0
  9
$USERR5
 40
0.0
  9
$WORLDVIEW
 70
     1
  9
$SHADEDGE
 70
     3
  9
$SHADEDIF
 70
    70
  9
$TILEMODE
 70
     1
  9
$MAXACTVP
 70
    64
  9
$PINSBASE
 10
0.0
 20
0.0
 30
0.0
  9
$PLIMCHECK
 70
     0
  9
$PEXTMIN
 10
1.00000000000000E+20
 20
1.00000000000000E+20
 30
1.00000000000000E+20
  9
$PEXTMAX
 10
-1.00000000000000E+20
 20
-1.00000000000000E+20
 30
-1.00000000000000E+20
  9
$PLIMMIN
 10
0.0
 20
0.0
  9
$PLIMMAX
 10
12.0
 20
9.0
  9
$UNITMODE
 70
     0
  9
$VISRETAIN
 70
     1
  9
$PLINEGEN
 70
     0
  9
$PSLTSCALE
 70
     1
  9
$TREEDEPTH
 70
  3020
  9
$CMLSTYLE
  2
Standard
  9
$CMLJUST
 70
     0
  9
$CMLSCALE
 40
1.0
  9
$PROXYGRAPHICS
 70
     1
  9
$MEASUREMENT
 70
     1
  9
$CELWEIGHT
370
    -1
  9
$ENDCAPS
280
     0
  9
$JOINSTYLE
280
     0
  9
$LWDISPLAY
290
     0
  9
$INSUNITS
 70
     1
  9
$HYPERLINKBASE
  1

  9
$STYLESHEET
  1

  9
$XEDIT
290
     1
  9
$CEPSNTYPE
380
     0
  9
$PSTYLEMODE
290
     1
  9
$FINGERPRINTGUID
  2
{85B62091-197F-4195-9602-607BCEBF49B0}
  9
$VERSIONGUID
  2
{FAEB1C32-E019-11D5-929B-00C0DF256EC4}
  9
$EXTNAMES
290
     1
  9
$PSVPSCALE
 40
0.0
  9
$OLESTARTUP
290
     0
  9
$SORTENTS
280
   127
  9
$INDEXCTL
280
     0
  9
$HIDETEXT
280
     1
  9
$XCLIPFRAME
290
     0
  9
$HALOGAP
280
     0
  9
$OBSCOLOR
 70
   257
  9
$OBSLTYPE
280
     0
  9
$INTERSECTIONDISPLAY
280
     0
  9
$INTERSECTIONCOLOR
 70
   257
  9
$DIMASSOC
280
     2
  9
$PROJECTNAME
  1

  0
ENDSEC
  0
SECTION
  2
CLASSES
  0
CLASS
  1
ACDBDICTIONARYWDFLT
  2
AcDbDictionaryWithDefault
  3
ObjectDBX Classes
 90
        0
 91
        3
280
     0
281
     0
  0
CLASS
  1

  2
exOdDbCircle
  3

 90
        0
 91
        3
280
     0
281
     1
  0
CLASS
  1

  2
exOdDbSpline
  3

 90
        0
 91
        3
280
     0
281
     1
  0
ENDSEC
  0
SECTION
  2
TABLES
  0
TABLE
  2
VPORT
  5
8
330
0
100
AcDbSymbolTable
 70
     1
  0
VPORT
  5
29
330
8
100
AcDbSymbolTableRecord
100
AcDbViewportTableRecord
  2
*Active
 70
     0
 10
0.0
 20
0.0
 11
1.0
 21
1.0
 12
86.7783588981804
 22
178.023476303556
 13
0.0
 23
0.0
 14
0.5
 24
0.5
 15
0.5
 25
0.5
 16
0.0
 26
0.0
 36
1.0
 17
0.0
 27
0.0
 37
0.0
 40
153.5607507547322
 41
1.60267857142857
 42
50.0
 43
0.0
 44
0.0
 50
0.0
 51
0.0
 71
     0
 72
   100
 73
     1
 74
     3
 75
     0
 76
     0
 77
     0
 78
     0
281
     0
 65
     1
110
0.0
120
0.0
130
0.0
111
1.0
121
0.0
131
0.0
112
0.0
122
1.0
132
0.0
 79
     0
146
0.0
  0
ENDTAB
  0
TABLE
  2
LTYPE
  5
5
330
0
100
AcDbSymbolTable
 70
     9
  0
LTYPE
  5
14
330
5
100
AcDbSymbolTableRecord
100
AcDbLinetypeTableRecord
  2
ByBlock
 70
     0
  3

 72
    65
 73
     0
 40
0.0
  0
LTYPE
  5
15
330
5
100
AcDbSymbolTableRecord
100
AcDbLinetypeTableRecord
  2
ByLayer
 70
     0
  3

 72
    65
 73
     0
 40
0.0
  0
LTYPE
  5
16
330
5
100
AcDbSymbolTableRecord
100
AcDbLinetypeTableRecord
  2
Continuous
 70
     0
  3
Solid line
 72
    65
 73
     0
 40
0.0
  0
LTYPE
  5
2A
330
5
100
AcDbSymbolTableRecord
100
AcDbLinetypeTableRecord
  2
DASHED
 70
     0
  3
Dashed
 72
    65
 73
     2
 40
15.0
 49
7.0
 74
     0
 49
-8.0
 74
     0
  0
LTYPE
  5
2B
330
5
100
AcDbSymbolTableRecord
100
AcDbLinetypeTableRecord
  2
DOTTED
 70
     0
  3
Dotted
 72
    65
 73
     2
 40
1.0
 49
0.0
 74
     0
 49
-1.0
 74
     0
  0
LTYPE
  5
2C
330
5
100
AcDbSymbolTableRecord
100
AcDbLinetypeTableRecord
  2
DOT_CENTER
 70
     0
  3
Dot_Center
 72
    65
 73
     4
 40
14.0
 49
12.0
 74
     0
 49
-1.0
 74
     0
 49
0.0
 74
     0
 49
-1.0
 74
     0
  0
LTYPE
  5
2D
330
5
100
AcDbSymbolTableRecord
100
AcDbLinetypeTableRecord
  2
LONG_DASHED
 70
     0
  3
Long_Dashed
 72
    65
 73
     2
 40
15.0
 49
10.0
 74
     0
 49
-5.0
 74
     0
  0
LTYPE
  5
2E
330
5
100
AcDbSymbolTableRecord
100
AcDbLinetypeTableRecord
  2
DASH_CENTER
 70
     0
  3
Dash_Center
 72
    65
 73
     4
 40
14.0
 49
11.0
 74
     0
 49
-1.0
 74
     0
 49
1.0
 74
     0
 49
-1.0
 74
     0
  0
LTYPE
  5
2F
330
5
100
AcDbSymbolTableRecord
100
AcDbLinetypeTableRecord
  2
PHANTOM
 70
     0
  3
Phantom
 72
    65
 73
     6
 40
13.0
 49
10.0
 74
     0
 49
-1.0
 74
     0
 49
0.0
 74
     0
 49
-1.0
 74
     0
 49
0.0
 74
     0
 49
-1.0
 74
     0
  0
LTYPE
  5
30
330
5
100
AcDbSymbolTableRecord
100
AcDbLinetypeTableRecord
  2
CENTER_DASH_DASH
 70
     0
  3
Center_Dash_Dash
 72
    65
 73
     6
 40
14.0
 49
9.0
 74
     0
 49
-1.0
 74
     0
 49
1.0
 74
     0
 49
-1.0
 74
     0
 49
1.0
 74
     0
 49
-1.0
 74
     0
  0
LTYPE
  5
31
330
5
100
AcDbSymbolTableRecord
100
AcDbLinetypeTableRecord
  2
HIDDEN_1
 70
     0
  3
HIDDEN_1
 72
    65
 73
     2
 40
2.0
 49
1.0
 74
     0
 49
-1.0
 74
     0
  0
ENDTAB
  0
TABLE
  2
LAYER
  5
2
330
0
100
AcDbSymbolTable
 70
     3
  0
LAYER
  5
10
330
2
100
AcDbSymbolTableRecord
100
AcDbLayerTableRecord
  2
0
 70
     0
 62
     7
  6
Continuous
370
    -3
390
F
  0
LAYER
  5
32
330
2
100
AcDbSymbolTableRecord
100
AcDbLayerTableRecord
  2
1
 70
     0
 62
     7
  6
Continuous
370
    -3
390
F
  0
LAYER
  5
33
330
2
100
AcDbSymbolTableRecord
100
AcDbLayerTableRecord
  2
DEFAULT_2
 70
     0
 62
     7
  6
Continuous
370
    -3
390
F
  0
ENDTAB
  0
TABLE
  2
STYLE
  5
3
330
0
100
AcDbSymbolTable
 70
     2
  0
STYLE
  5
11
330
3
100
AcDbSymbolTableRecord
100
AcDbTextStyleTableRecord
  2
Standard
 70
     0
 40
0.0
 41
1.0
 50
0.0
 71
     0
 42
0.2
  3
txt
  4

  0
STYLE
  5
A4
330
3
100
AcDbSymbolTableRecord
100
AcDbTextStyleTableRecord
  2
CONVERTER_11
 70
     0
 40
0.0
 41
0.9
 50
0.0
 71
     0
 42
0.2
  3
txt.shx
  4

  0
ENDTAB
  0
TABLE
  2
VIEW
  5
6
330
0
100
AcDbSymbolTable
 70
     0
  0
ENDTAB
  0
TABLE
  2
UCS
  5
7
330
0
100
AcDbSymbolTable
 70
     0
  0
ENDTAB
  0
TABLE
  2
APPID
  5
9
330
0
100
AcDbSymbolTable
 70
     1
  0
APPID
  5
12
330
9
100
AcDbSymbolTableRecord
100
AcDbRegAppTableRecord
  2
ACAD
 70
     0
  0
ENDTAB
  0
TABLE
  2
DIMSTYLE
  5
A
330
0
100
AcDbSymbolTable
 70
    13
100
AcDbDimStyleTable
  0
DIMSTYLE
105
27
330
A
100
AcDbSymbolTableRecord
100
AcDbDimStyleTableRecord
  2
Standard
 70
     0
340
11
  0
DIMSTYLE
105
A8
102
{ACAD_REACTORS
330
A9
102
}
330
A
100
AcDbSymbolTableRecord
100
AcDbDimStyleTableRecord
  2
ME10_DIM_10
 70
     0
 41
3.5
 42
0.0
 44
2.0
 73
     0
 74
     0
 77
     1
 78
     8
140
3.5
147
2.0
172
     1
173
     1
176
     2
177
     2
178
     2
271
     3
340
A4
  0
DIMSTYLE
105
B3
102
{ACAD_REACTORS
330
B4
102
}
330
A
100
AcDbSymbolTableRecord
100
AcDbDimStyleTableRecord
  2
ME10_DIM_11
 70
     0
 41
3.5
 42
0.0
 44
2.0
 73
     0
 74
     0
 77
     1
 78
     8
140
3.5
147
2.0
172
     1
173
     1
176
     2
177
     2
178
     2
271
     3
340
A4
  0
DIMSTYLE
105
BE
102
{ACAD_REACTORS
330
BF
102
}
330
A
100
AcDbSymbolTableRecord
100
AcDbDimStyleTableRecord
  2
ME10_DIM_12
 70
     0
 41
3.5
 42
0.0
 44
2.0
 73
     0
 74
     0
 77
     1
 78
     8
140
3.5
147
2.0
172
     1
173
     1
176
     2
177
     2
178
     2
271
     3
340
A4
  0
DIMSTYLE
105
CA
102
{ACAD_REACTORS
330
CB
102
}
330
A
100
AcDbSymbolTableRecord
100
AcDbDimStyleTableRecord
  2
ME10_DIM_13
 70
     0
 41
3.5
 42
0.0
 44
2.0
 73
     0
 74
     0
 77
     1
 78
     8
140
3.5
147
2.0
172
     1
173
     1
176
     2
177
     2
178
     2
271
     3
340
A4
  0
DIMSTYLE
105
D6
102
{ACAD_REACTORS
330
D7
102
}
330
A
100
AcDbSymbolTableRecord
100
AcDbDimStyleTableRecord
  2
ME10_DIM_14
 70
     0
 41
3.5
 42
0.0
 44
2.0
 73
     0
 74
     0
 77
     1
 78
     8
140
3.5
147
2.0
172
     1
173
     1
176
     2
177
     2
178
     2
271
     3
340
A4
  0
DIMSTYLE
105
E5
102
{ACAD_REACTORS
330
E6
102
}
330
A
100
AcDbSymbolTableRecord
100
AcDbDimStyleTableRecord
  2
ME10_DIM_15
 70
     0
 41
3.5
 42
0.0
 44
2.0
 73
     0
 74
     0
 77
     1
 78
     8
140
3.5
147
2.0
172
     1
173
     1
176
     2
177
     2
178
     2
271
     3
340
A4
  0
DIMSTYLE
105
F1
102
{ACAD_REACTORS
330
F2
102
}
330
A
100
AcDbSymbolTableRecord
100
AcDbDimStyleTableRecord
  2
ME10_DIM_16
 70
     0
 41
3.5
 42
0.0
 44
2.0
 73
     0
 74
     0
 77
     1
 78
     8
140
3.5
147
2.0
172
     1
173
     1
176
     2
177
     2
178
     2
271
     3
340
A4
  0
DIMSTYLE
105
FC
102
{ACAD_REACTORS
330
FD
102
}
330
A
100
AcDbSymbolTableRecord
100
AcDbDimStyleTableRecord
  2
ME10_DIM_17
 70
     0
 41
3.5
 42
0.0
 44
2.0
 73
     0
 74
     0
 77
     1
 78
     8
140
3.5
147
2.0
172
     1
173
     1
176
     2
177
     2
178
     2
271
     3
340
A4
  0
DIMSTYLE
105
108
102
{ACAD_REACTORS
330
109
102
}
330
A
100
AcDbSymbolTableRecord
100
AcDbDimStyleTableRecord
  2
ME10_DIM_18
 70
     0
 41
3.5
 42
0.0
 44
2.0
 73
     0
 74
     0
 77
     1
 78
     8
140
3.5
147
2.0
172
     1
173
     1
176
     2
177
     2
178
     2
271
     3
340
A4
  0
DIMSTYLE
105
113
102
{ACAD_REACTORS
330
114
102
}
330
A
100
AcDbSymbolTableRecord
100
AcDbDimStyleTableRecord
  2
ME10_DIM_19
 70
     0
  3
ø<>
 41
3.5
 42
0.0
 44
2.0
 73
     0
 74
     0
 77
     1
 78
     8
140
3.5
147
2.0
172
     1
173
     1
176
     2
177
     2
178
     2
271
     3
340
A4
  0
DIMSTYLE
105
11E
102
{ACAD_REACTORS
330
11F
102
}
330
A
100
AcDbSymbolTableRecord
100
AcDbDimStyleTableRecord
  2
ME10_DIM_20
 70
     0
 41
3.5
 42
0.0
 44
2.0
 73
     0
 74
     0
 77
     1
 78
     8
140
3.5
147
2.0
172
     1
173
     1
176
     2
177
     2
178
     2
271
     3
340
A4
  0
DIMSTYLE
105
129
102
{ACAD_REACTORS
330
12A
102
}
330
A
100
AcDbSymbolTableRecord
100
AcDbDimStyleTableRecord
  2
ME10_DIM_21
 70
     0
 41
3.5
 42
0.0
 44
2.0
 73
     0
 74
     0
 77
     1
 78
     8
140
3.5
147
2.0
172
     1
173
     1
176
     2
177
     2
178
     2
271
     3
340
A4
  0
ENDTAB
  0
TABLE
  2
BLOCK_RECORD
  5
1
330
0
100
AcDbSymbolTable
 70
    13
  0
BLOCK_RECORD
  5
1F
330
1
100
AcDbSymbolTableRecord
100
AcDbBlockTableRecord
  2
*Model_Space
340
22
  0
BLOCK_RECORD
  5
1B
330
1
100
AcDbSymbolTableRecord
100
AcDbBlockTableRecord
  2
*Paper_Space
340
1E
  0
BLOCK_RECORD
  5
23
330
1
100
AcDbSymbolTableRecord
100
AcDbBlockTableRecord
  2
*Paper_Space0
340
26
  0
BLOCK_RECORD
  5
9E
330
1
100
AcDbSymbolTableRecord
100
AcDbBlockTableRecord
  2
*D1
340
0
  0
BLOCK_RECORD
  5
AA
330
1
100
AcDbSymbolTableRecord
100
AcDbBlockTableRecord
  2
*D2
340
0
  0
BLOCK_RECORD
  5
B5
330
1
100
AcDbSymbolTableRecord
100
AcDbBlockTableRecord
  2
*D3
340
0
  0
BLOCK_RECORD
  5
C0
330
1
100
AcDbSymbolTableRecord
100
AcDbBlockTableRecord
  2
*D4
340
0
  0
BLOCK_RECORD
  5
CC
330
1
100
AcDbSymbolTableRecord
100
AcDbBlockTableRecord
  2
*D5
340
0
  0
BLOCK_RECORD
  5
D8
330
1
100
AcDbSymbolTableRecord
100
AcDbBlockTableRecord
  2
*D6
340
0
  0
BLOCK_RECORD
  5
E7
330
1
100
AcDbSymbolTableRecord
100
AcDbBlockTableRecord
  2
*D7
340
0
  0
BLOCK_RECORD
  5
F3
330
1
100
AcDbSymbolTableRecord
100
AcDbBlockTableRecord
  2
*D8
340
0
  0
BLOCK_RECORD
  5
FE
330
1
100
AcDbSymbolTableRecord
100
AcDbBlockTableRecord
  2
*D9
340
0
  0
BLOCK_RECORD
  5
10A
330
1
100
AcDbSymbolTableRecord
100
AcDbBlockTableRecord
  2
*D10
340
0
  0
BLOCK_RECORD
  5
115
330
1
100
AcDbSymbolTableRecord
100
AcDbBlockTableRecord
  2
*D11
340
0
  0
BLOCK_RECORD
  5
120
330
1
100
AcDbSymbolTableRecord
100
AcDbBlockTableRecord
  2
*D12
340
0
  0
ENDTAB
  0
ENDSEC
  0
SECTION
  2
BLOCKS
  0
BLOCK
  5
20
330
1F
100
AcDbEntity
  8
0
100
AcDbBlockBegin
  2
*Model_Space
 70
     0
 71
     0
 10
0.0
 20
0.0
 30
0.0
  3
*Model_Space
  1

  0
ENDBLK
  5
21
330
1F
100
AcDbEntity
  8
0
100
AcDbBlockEnd
  0
BLOCK
  5
1C
330
1B
100
AcDbEntity
 67
     1
  8
0
100
AcDbBlockBegin
  2
*Paper_Space
 70
     0
 71
     0
 10
0.0
 20
0.0
 30
0.0
  3
*Paper_Space
  1

  0
ENDBLK
  5
1D
330
1B
100
AcDbEntity
 67
     1
  8
0
100
AcDbBlockEnd
  0
BLOCK
  5
24
330
23
100
AcDbEntity
  8
0
100
AcDbBlockBegin
  2
*Paper_Space0
 70
     0
 71
     0
 10
0.0
 20
0.0
 30
0.0
  3
*Paper_Space0
  1

  0
ENDBLK
  5
25
330
23
100
AcDbEntity
  8
0
100
AcDbBlockEnd
  0
BLOCK
  5
A6
330
9E
100
AcDbEntity
  8
0
100
AcDbBlockBegin
  2
*D1
 70
     1
 71
     0
 10
0.0
 20
0.0
 30
0.0
  3
*D1
  1

  0
LINE
  5
9F
330
9E
100
AcDbEntity
  8
1
  6
Continuous
 62
     2
100
AcDbLine
 10
65.8692574121
 20
242.323817555707
 30
0.0
 11
44.8692574121
 21
242.323817555707
 31
0.0
  0
LINE
  5
A0
330
9E
100
AcDbEntity
  8
1
  6
Continuous
 62
     2
100
AcDbLine
 10
44.8692574121
 20
233.0506276151
 30
0.0
 11
44.8692574121
 21
244.323817555707
 31
0.0
  0
LINE
  5
A1
330
9E
100
AcDbEntity
  8
1
  6
Continuous
 62
     2
100
AcDbLine
 10
65.8692574121
 20
210.7756276151
 30
0.0
 11
65.8692574121
 21
244.323817555707
 31
0.0
  0
SOLID
  5
A2
330
9E
100
AcDbEntity
  8
1
 62
     2
100
AcDbTrace
 10
62.3692574121
 20
241.8630338141511
 30
0.0
 11
62.3692574121
 21
242.7846012972629
 31
0.0
 12
65.8692574121
 22
242.323817555707
 32
0.0
 13
65.8692574121
 23
242.323817555707
 33
0.0
  0
SOLID
  5
A3
330
9E
100
AcDbEntity
  8
1
 62
     2
100
AcDbTrace
 10
48.3692574121
 20
242.7846012972629
 30
0.0
 11
48.3692574121
 21
241.8630338141511
 31
0.0
 12
44.8692574121
 22
242.323817555707
 32
0.0
 13
44.8692574121
 23
242.323817555707
 33
0.0
  0
MTEXT
  5
A5
330
9E
100
AcDbEntity
  8
1
 62
     2
100
AcDbMText
 10
53.68084137791601
 20
244.323817555707
 30
0.0
 40
3.5
 41
0.0
 71
     7
 72
     1
  1
21
  7
CONVERTER_11
 11
0.9999999999970621
 21
2.424068405545307E-6
 31
0.0
 73
     1
 44
0.60024009603842
  0
ENDBLK
  5
A7
330
9E
100
AcDbEntity
  8
0
100
AcDbBlockEnd
  0
BLOCK
  5
B1
330
AA
100
AcDbEntity
  8
0
100
AcDbBlockBegin
  2
*D2
 70
     1
 71
     0
 10
0.0
 20
0.0
 30
0.0
  3
*D2
  1

  0
LINE
  5
AB
330
AA
100
AcDbEntity
  8
1
  6
Continuous
 62
     2
100
AcDbLine
 10
82.0151096737275
 20
216.2756276151
 30
0.0
 11
82.0151096737275
 21
188.2756276151
 31
0.0
  0
LINE
  5
AC
330
AA
100
AcDbEntity
  8
1
  6
Continuous
 62
     2
100
AcDbLine
 10
83.6192574121
 20
216.2756276151
 30
0.0
 11
80.0151096737275
 21
216.2756276151
 31
0.0
  0
LINE
  5
AD
330
AA
100
AcDbEntity
  8
1
  6
Continuous
 62
     2
100
AcDbLine
 10
83.6192574121
 20
188.2756276151
 30
0.0
 11
80.0151096737275
 21
188.2756276151
 31
0.0
  0
SOLID
  5
AE
330
AA
100
AcDbEntity
  8
1
 62
     2
100
AcDbTrace
 10
82.47589341528338
 20
212.7756276151
 30
0.0
 11
81.55432593217161
 21
212.7756276151
 31
0.0
 12
82.0151096737275
 22
216.2756276151
 32
0.0
 13
82.0151096737275
 23
216.2756276151
 33
0.0
  0
SOLID
  5
AF
330
AA
100
AcDbEntity
  8
1
 62
     2
100
AcDbTrace
 10
81.55432593217161
 20
191.7756276151
 30
0.0
 11
82.47589341528338
 21
191.7756276151
 31
0.0
 12
82.0151096737275
 22
188.2756276151
 32
0.0
 13
82.0151096737275
 23
188.2756276151
 33
0.0
  0
MTEXT
  5
B0
330
AA
100
AcDbEntity
  8
1
 62
     2
100
AcDbMText
 10
80.0151096737275
 20
199.630173461245
 30
0.0
 40
3.5
 41
0.0
 71
     7
 72
     1
  1
28
  7
CONVERTER_11
 11
0.0
 21
1.0
 31
0.0
 73
     1
 44
0.60024009603842
  0
ENDBLK
  5
B2
330
AA
100
AcDbEntity
  8
0
100
AcDbBlockEnd
  0
BLOCK
  5
BC
330
B5
100
AcDbEntity
  8
0
100
AcDbBlockBegin
  2
*D3
 70
     1
 71
     0
 10
0.0
 20
0.0
 30
0.0
  3
*D3
  1

  0
LINE
  5
B6
330
B5
100
AcDbEntity
  8
1
  6
Continuous
 62
     2
100
AcDbLine
 10
74.050705517446
 20
213.2756276151
 30
0.0
 11
74.050705517446
 21
191.2756276151
 31
0.0
  0
LINE
  5
B7
330
B5
100
AcDbEntity
  8
1
  6
Continuous
 62
     2
100
AcDbLine
 10
70.5670291725623
 20
191.2756276151
 30
0.0
 11
76.050705517446
 21
191.2756276151
 31
0.0
  0
LINE
  5
B8
330
B5
100
AcDbEntity
  8
1
  6
Continuous
 62
     2
100
AcDbLine
 10
70.4816198491195
 20
213.2756276151
 30
0.0
 11
76.050705517446
 21
213.2756276151
 31
0.0
  0
SOLID
  5
B9
330
B5
100
AcDbEntity
  8
1
 62
     2
100
AcDbTrace
 10
74.51148925900189
 20
209.7756276151
 30
0.0
 11
73.58992177589012
 21
209.7756276151
 31
0.0
 12
74.050705517446
 22
213.2756276151
 32
0.0
 13
74.050705517446
 23
213.2756276151
 33
0.0
  0
SOLID
  5
BA
330
B5
100
AcDbEntity
  8
1
 62
     2
100
AcDbTrace
 10
73.58992177589012
 20
194.7756276151
 30
0.0
 11
74.51148925900189
 21
194.7756276151
 31
0.0
 12
74.050705517446
 22
191.2756276151
 32
0.0
 13
74.050705517446
 23
191.2756276151
 33
0.0
  0
MTEXT
  5
BB
330
B5
100
AcDbEntity
  8
1
 62
     2
100
AcDbMText
 10
72.050705517446
 20
199.843442151424
 30
0.0
 40
3.5
 41
0.0
 71
     7
 72
     1
  1
22
  7
CONVERTER_11
 11
0.0
 21
1.0
 31
0.0
 73
     1
 44
0.60024009603842
  0
ENDBLK
  5
BD
330
B5
100
AcDbEntity
  8
0
100
AcDbBlockEnd
  0
BLOCK
  5
C8
330
C0
100
AcDbEntity
  8
0
100
AcDbBlockBegin
  2
*D4
 70
     1
 71
     0
 10
0.0
 20
0.0
 30
0.0
  3
*D4
  1

  0
LINE
  5
C1
330
C0
100
AcDbEntity
  8
1
  6
Continuous
 62
     2
100
AcDbLine
 10
165.196885208646
 20
175.2756276151
 30
0.0
 11
165.196885208646
 21
123.2756276151
 31
0.0
  0
LINE
  5
C2
330
C0
100
AcDbEntity
  8
1
  6
Continuous
 62
     2
100
AcDbLine
 10
57.8692574121
 20
175.2756276151
 30
0.0
 11
135.659113646131
 21
175.2756276151
 31
0.0
  0
LINE
  5
C3
330
C0
100
AcDbEntity
  8
1
  6
Continuous
 62
     2
100
AcDbLine
 10
152.160627917164
 20
175.2756276151
 30
0.0
 11
167.196885208646
 21
175.2756276151
 31
0.0
  0
LINE
  5
C4
330
C0
100
AcDbEntity
  8
1
  6
Continuous
 62
     2
100
AcDbLine
 10
56.8692574121
 20
123.2756276151
 30
0.0
 11
167.196885208646
 21
123.2756276151
 31
0.0
  0
SOLID
  5
C5
330
C0
100
AcDbEntity
  8
1
 62
     2
100
AcDbTrace
 10
165.6576689502019
 20
171.7756276151
 30
0.0
 11
164.7361014670901
 21
171.7756276151
 31
0.0
 12
165.196885208646
 22
175.2756276151
 32
0.0
 13
165.196885208646
 23
175.2756276151
 33
0.0
  0
SOLID
  5
C6
330
C0
100
AcDbEntity
  8
1
 62
     2
100
AcDbTrace
 10
164.7361014670901
 20
126.7756276151
 30
0.0
 11
165.6576689502019
 21
126.7756276151
 31
0.0
 12
165.196885208646
 22
123.2756276151
 32
0.0
 13
165.196885208646
 23
123.2756276151
 33
0.0
  0
MTEXT
  5
C7
330
C0
100
AcDbEntity
  8
1
 62
     2
100
AcDbMText
 10
163.196885208646
 20
146.768497531515
 30
0.0
 40
3.5
 41
0.0
 71
     7
 72
     1
  1
52
  7
CONVERTER_11
 11
0.0
 21
1.0
 31
0.0
 73
     1
 44
0.60024009603842
  0
ENDBLK
  5
C9
330
C0
100
AcDbEntity
  8
0
100
AcDbBlockEnd
  0
BLOCK
  5
D4
330
CC
100
AcDbEntity
  8
0
100
AcDbBlockBegin
  2
*D5
 70
     1
 71
     0
 10
0.0
 20
0.0
 30
0.0
  3
*D5
  1

  0
LINE
  5
CD
330
CC
100
AcDbEntity
  8
1
  6
Continuous
 62
     2
100
AcDbLine
 10
165.30893573416
 20
228.2756276151
 30
0.0
 11
165.30893573416
 21
176.2756276151
 31
0.0
  0
LINE
  5
CE
330
CC
100
AcDbEntity
  8
1
  6
Continuous
 62
     2
100
AcDbLine
 10
129.8692574121
 20
228.2756276151
 30
0.0
 11
167.30893573416
 21
228.2756276151
 31
0.0
  0
LINE
  5
CF
330
CC
100
AcDbEntity
  8
1
  6
Continuous
 62
     2
100
AcDbLine
 10
129.8692574121
 20
176.2756276151
 30
0.0
 11
138.859407322937
 21
176.2756276151
 31
0.0
  0
LINE
  5
D0
330
CC
100
AcDbEntity
  8
1
  6
Continuous
 62
     2
100
AcDbLine
 10
150.860508610962
 20
176.2756276151
 30
0.0
 11
167.30893573416
 21
176.2756276151
 31
0.0
  0
SOLID
  5
D1
330
CC
100
AcDbEntity
  8
1
 62
     2
100
AcDbTrace
 10
165.7697194757159
 20
224.7756276151
 30
0.0
 11
164.8481519926041
 21
224.7756276151
 31
0.0
 12
165.30893573416
 22
228.2756276151
 32
0.0
 13
165.30893573416
 23
228.2756276151
 33
0.0
  0
SOLID
  5
D2
330
CC
100
AcDbEntity
  8
1
 62
     2
100
AcDbTrace
 10
164.8481519926041
 20
179.7756276151
 30
0.0
 11
165.7697194757159
 21
179.7756276151
 31
0.0
 12
165.30893573416
 22
176.2756276151
 32
0.0
 13
165.30893573416
 23
176.2756276151
 33
0.0
  0
MTEXT
  5
D3
330
CC
100
AcDbEntity
  8
1
 62
     2
100
AcDbMText
 10
163.30893573416
 20
200.235964356257
 30
0.0
 40
3.5
 41
0.0
 71
     7
 72
     1
  1
52
  7
CONVERTER_11
 11
0.0
 21
1.0
 31
0.0
 73
     1
 44
0.60024009603842
  0
ENDBLK
  5
D5
330
CC
100
AcDbEntity
  8
0
100
AcDbBlockEnd
  0
BLOCK
  5
E3
330
D8
100
AcDbEntity
  8
0
100
AcDbBlockBegin
  2
*D6
 70
     1
 71
     0
 10
0.0
 20
0.0
 30
0.0
  3
*D6
  1

  0
LINE
  5
D9
330
D8
100
AcDbEntity
  8
1
  6
Continuous
 62
     2
100
AcDbLine
 10
155.408617945015
 20
175.2756276151
 30
0.0
 11
155.408617945015
 21
168.2756276151
 31
0.0
  0
LINE
  5
DA
330
D8
100
AcDbEntity
  8
1
  6
Continuous
 62
     2
100
AcDbLine
 10
155.408617945015
 20
176.2756276151
 30
0.0
 11
155.408617945015
 21
175.2756276151
 31
0.0
  0
LINE
  5
DB
330
D8
100
AcDbEntity
  8
1
  6
Continuous
 62
     2
100
AcDbLine
 10
155.408617945015
 20
183.2756276151
 30
0.0
 11
155.408617945015
 21
176.2756276151
 31
0.0
  0
LINE
  5
DC
330
D8
100
AcDbEntity
  8
1
  6
Continuous
 62
     2
100
AcDbLine
 10
56.8692574121
 20
176.2756276151
 30
0.0
 11
143.732330195901
 21
176.2756276151
 31
0.0
  0
LINE
  5
DD
330
D8
100
AcDbEntity
  8
1
  6
Continuous
 62
     2
100
AcDbLine
 10
145.884585418328
 20
176.2756276151
 30
0.0
 11
157.408617945015
 21
176.2756276151
 31
0.0
  0
LINE
  5
DE
330
D8
100
AcDbEntity
  8
1
  6
Continuous
 62
     2
100
AcDbLine
 10
57.8692574121
 20
175.2756276151
 30
0.0
 11
143.822007496835
 21
175.2756276151
 31
0.0
  0
LINE
  5
DF
330
D8
100
AcDbEntity
  8
1
  6
Continuous
 62
     2
100
AcDbLine
 10
146.332971923
 20
175.2756276151
 30
0.0
 11
157.408617945015
 21
175.2756276151
 31
0.0
  0
SOLID
  5
E0
330
D8
100
AcDbEntity
  8
1
 62
     2
100
AcDbTrace
 10
154.9478342034591
 20
179.7756276151
 30
0.0
 11
155.8694016865709
 21
179.7756276151
 31
0.0
 12
155.408617945015
 22
176.2756276151
 32
0.0
 13
155.408617945015
 23
176.2756276151
 33
0.0
  0
SOLID
  5
E1
330
D8
100
AcDbEntity
  8
1
 62
     2
100
AcDbTrace
 10
155.8694016865709
 20
171.7756276151
 30
0.0
 11
154.9478342034591
 21
171.7756276151
 31
0.0
 12
155.408617945015
 22
175.2756276151
 32
0.0
 13
155.408617945015
 23
175.2756276151
 33
0.0
  0
MTEXT
  5
E2
330
D8
100
AcDbEntity
  8
1
 62
     2
100
AcDbMText
 10
153.408617945015
 20
180.369634261591
 30
0.0
 40
3.5
 41
0.0
 71
     7
 72
     1
  1
1
  7
CONVERTER_11
 11
0.0
 21
1.0
 31
0.0
 73
     1
 44
0.60024009603842
  0
ENDBLK
  5
E4
330
D8
100
AcDbEntity
  8
0
100
AcDbBlockEnd
  0
BLOCK
  5
EF
330
E7
100
AcDbEntity
  8
0
100
AcDbBlockBegin
  2
*D7
 70
     1
 71
     0
 10
0.0
 20
0.0
 30
0.0
  3
*D7
  1

  0
LINE
  5
E8
330
E7
100
AcDbEntity
  8
1
  6
Continuous
 62
     2
100
AcDbLine
 10
56.8692574121
 20
110.223135051405
 30
0.0
 11
144.8692574121
 21
110.223135051405
 31
0.0
  0
LINE
  5
E9
330
E7
100
AcDbEntity
  8
1
  6
Continuous
 62
     2
100
AcDbLine
 10
56.8692574121
 20
123.2756276151
 30
0.0
 11
56.8692574121
 21
108.223135051405
 31
0.0
  0
LINE
  5
EA
330
E7
100
AcDbEntity
  8
1
  6
Continuous
 62
     2
100
AcDbLine
 10
144.8692574121
 20
191.2756276151
 30
0.0
 11
144.8692574121
 21
126.879224506678
 31
0.0
  0
LINE
  5
EB
330
E7
100
AcDbEntity
  8
1
  6
Continuous
 62
     2
100
AcDbLine
 10
144.8692574121
 20
119.232353192035
 30
0.0
 11
144.8692574121
 21
108.223135051405
 31
0.0
  0
SOLID
  5
EC
330
E7
100
AcDbEntity
  8
1
 62
     2
100
AcDbTrace
 10
60.3692574121
 20
110.6839187929609
 30
0.0
 11
60.3692574121
 21
109.7623513098491
 31
0.0
 12
56.8692574121
 22
110.223135051405
 32
0.0
 13
56.8692574121
 23
110.223135051405
 33
0.0
  0
SOLID
  5
ED
330
E7
100
AcDbEntity
  8
1
 62
     2
100
AcDbTrace
 10
141.3692574121
 20
109.7623513098491
 30
0.0
 11
141.3692574121
 21
110.6839187929609
 31
0.0
 12
144.8692574121
 22
110.223135051405
 32
0.0
 13
144.8692574121
 23
110.223135051405
 33
0.0
  0
MTEXT
  5
EE
330
E7
100
AcDbEntity
  8
1
 62
     2
100
AcDbMText
 10
92.11736385699642
 20
112.223135051405
 30
0.0
 40
3.5
 41
0.0
 71
     7
 72
     1
  1
88
  7
CONVERTER_11
 11
0.9999999999970621
 21
2.424068405545307E-6
 31
0.0
 73
     1
 44
0.60024009603842
  0
ENDBLK
  5
F0
330
E7
100
AcDbEntity
  8
0
100
AcDbBlockEnd
  0
BLOCK
  5
FA
330
F3
100
AcDbEntity
  8
0
100
AcDbBlockBegin
  2
*D8
 70
     1
 71
     0
 10
0.0
 20
0.0
 30
0.0
  3
*D8
  1

  0
LINE
  5
F4
330
F3
100
AcDbEntity
  8
1
  6
Continuous
 62
     2
100
AcDbLine
 10
23.2971859506731
 20
221.7756276151
 30
0.0
 11
23.2971859506731
 21
182.7756276151
 31
0.0
  0
LINE
  5
F5
330
F3
100
AcDbEntity
  8
1
  6
Continuous
 62
     2
100
AcDbLine
 10
37.5942574121
 20
221.7756276151
 30
0.0
 11
21.2971859506731
 21
221.7756276151
 31
0.0
  0
LINE
  5
F6
330
F3
100
AcDbEntity
  8
1
  6
Continuous
 62
     2
100
AcDbLine
 10
37.5942574121
 20
182.7756276151
 30
0.0
 11
21.2971859506731
 21
182.7756276151
 31
0.0
  0
SOLID
  5
F7
330
F3
100
AcDbEntity
  8
1
 62
     2
100
AcDbTrace
 10
23.75796969222898
 20
218.2756276151
 30
0.0
 11
22.83640220911721
 21
218.2756276151
 31
0.0
 12
23.2971859506731
 22
221.7756276151
 32
0.0
 13
23.2971859506731
 23
221.7756276151
 33
0.0
  0
SOLID
  5
F8
330
F3
100
AcDbEntity
  8
1
 62
     2
100
AcDbTrace
 10
22.83640220911721
 20
186.2756276151
 30
0.0
 11
23.75796969222899
 21
186.2756276151
 31
0.0
 12
23.2971859506731
 22
182.7756276151
 32
0.0
 13
23.2971859506731
 23
182.7756276151
 33
0.0
  0
MTEXT
  5
F9
330
F3
100
AcDbEntity
  8
1
 62
     2
100
AcDbMText
 10
21.2971859506731
 20
199.435098182535
 30
0.0
 40
3.5
 41
0.0
 71
     7
 72
     1
  1
39
  7
CONVERTER_11
 11
0.0
 21
1.0
 31
0.0
 73
     1
 44
0.60024009603842
  0
ENDBLK
  5
FB
330
F3
100
AcDbEntity
  8
0
100
AcDbBlockEnd
  0
BLOCK
  5
106
330
FE
100
AcDbEntity
  8
0
100
AcDbBlockBegin
  2
*D9
 70
     1
 71
     0
 10
0.0
 20
0.0
 30
0.0
  3
*D9
  1

  0
LINE
  5
FF
330
FE
100
AcDbEntity
  8
1
  6
Continuous
 62
     2
100
AcDbLine
 10
11.7477820622008
 20
202.2756276151
 30
0.0
 11
11.7477820622008
 21
138.7756276151
 31
0.0
  0
LINE
  5
100
330
FE
100
AcDbEntity
  8
1
  6
Continuous
 62
     2
100
AcDbLine
 10
40.6192574121
 20
202.2756276151
 30
0.0
 11
26.7191190435463
 21
202.2756276151
 31
0.0
  0
LINE
  5
101
330
FE
100
AcDbEntity
  8
1
  6
Continuous
 62
     2
100
AcDbLine
 10
16.0048067662236
 20
202.2756276151
 30
0.0
 11
9.7477820622008
 21
202.2756276151
 31
0.0
  0
LINE
  5
102
330
FE
100
AcDbEntity
  8
1
  6
Continuous
 62
     2
100
AcDbLine
 10
40.6192574121
 20
138.7756276151
 30
0.0
 11
9.7477820622008
 21
138.7756276151
 31
0.0
  0
SOLID
  5
103
330
FE
100
AcDbEntity
  8
1
 62
     2
100
AcDbTrace
 10
12.20856580375668
 20
198.7756276151
 30
0.0
 11
11.28699832064491
 21
198.7756276151
 31
0.0
 12
11.7477820622008
 22
202.2756276151
 32
0.0
 13
11.7477820622008
 23
202.2756276151
 33
0.0
  0
SOLID
  5
104
330
FE
100
AcDbEntity
  8
1
 62
     2
100
AcDbTrace
 10
11.28699832064491
 20
142.2756276151
 30
0.0
 11
12.20856580375669
 21
142.2756276151
 31
0.0
 12
11.7477820622008
 22
138.7756276151
 32
0.0
 13
11.7477820622008
 23
138.7756276151
 33
0.0
  0
MTEXT
  5
105
330
FE
100
AcDbEntity
  8
1
 62
     2
100
AcDbMText
 10
9.7477820622008
 20
166.144521175414
 30
0.0
 40
3.5
 41
0.0
 71
     7
 72
     1
  1
63.5
  7
CONVERTER_11
 11
0.0
 21
1.0
 31
0.0
 73
     1
 44
0.60024009603842
  0
ENDBLK
  5
107
330
FE
100
AcDbEntity
  8
0
100
AcDbBlockEnd
  0
BLOCK
  5
111
330
10A
100
AcDbEntity
  8
0
100
AcDbBlockBegin
  2
*D10
 70
     1
 71
     0
 10
0.0
 20
0.0
 30
0.0
  3
*D10
  1

  0
LINE
  5
10B
330
10A
100
AcDbEntity
  8
1
  6
Continuous
 62
     2
100
AcDbLine
 10
32.8692574121
 20
110.343436247176
 30
0.0
 11
56.8692574121
 21
110.343436247176
 31
0.0
  0
LINE
  5
10C
330
10A
100
AcDbEntity
  8
1
  6
Continuous
 62
     2
100
AcDbLine
 10
32.8692574121
 20
123.2756276151
 30
0.0
 11
32.8692574121
 21
108.343436247176
 31
0.0
  0
LINE
  5
10D
330
10A
100
AcDbEntity
  8
1
  6
Continuous
 62
     2
100
AcDbLine
 10
56.8692574121
 20
123.2756276151
 30
0.0
 11
56.8692574121
 21
108.343436247176
 31
0.0
  0
SOLID
  5
10E
330
10A
100
AcDbEntity
  8
1
 62
     2
100
AcDbTrace
 10
36.3692574121
 20
110.8042199887319
 30
0.0
 11
36.3692574121
 21
109.8826525056201
 31
0.0
 12
32.8692574121
 22
110.343436247176
 32
0.0
 13
32.8692574121
 23
110.343436247176
 33
0.0
  0
SOLID
  5
10F
330
10A
100
AcDbEntity
  8
1
 62
     2
100
AcDbTrace
 10
53.3692574121
 20
109.8826525056201
 30
0.0
 11
53.3692574121
 21
110.8042199887319
 31
0.0
 12
56.8692574121
 22
110.343436247176
 32
0.0
 13
56.8692574121
 23
110.343436247176
 33
0.0
  0
MTEXT
  5
110
330
10A
100
AcDbEntity
  8
1
 62
     2
100
AcDbMText
 10
41.07275026829242
 20
112.3434292900997
 30
0.0
 40
3.5
 41
0.0
 71
     7
 72
     1
  1
\C2;ø\C2;24
  7
CONVERTER_11
 11
0.9999999999970621
 21
2.424068405545307E-6
 31
0.0
 73
     1
 44
0.60024009603842
  0
ENDBLK
  5
112
330
10A
100
AcDbEntity
  8
0
100
AcDbBlockEnd
  0
BLOCK
  5
11C
330
115
100
AcDbEntity
  8
0
100
AcDbBlockBegin
  2
*D11
 70
     1
 71
     0
 10
0.0
 20
0.0
 30
0.0
  3
*D11
  1

  0
LINE
  5
116
330
115
100
AcDbEntity
  8
1
  6
Continuous
 62
     2
100
AcDbLine
 10
98.1608387252978
 20
213.7756276151
 30
0.0
 11
98.1608387252978
 21
190.7756276151
 31
0.0
  0
LINE
  5
117
330
115
100
AcDbEntity
  8
1
  6
Continuous
 62
     2
100
AcDbLine
 10
107.0942574121
 20
190.7756276151
 30
0.0
 11
96.1608387252978
 21
190.7756276151
 31
0.0
  0
LINE
  5
118
330
115
100
AcDbEntity
  8
1
  6
Continuous
 62
     2
100
AcDbLine
 10
107.0942574121
 20
213.7756276151
 30
0.0
 11
96.1608387252978
 21
213.7756276151
 31
0.0
  0
SOLID
  5
119
330
115
100
AcDbEntity
  8
1
 62
     2
100
AcDbTrace
 10
98.62162246685368
 20
210.2756276151
 30
0.0
 11
97.70005498374191
 21
210.2756276151
 31
0.0
 12
98.1608387252978
 22
213.7756276151
 32
0.0
 13
98.1608387252978
 23
213.7756276151
 33
0.0
  0
SOLID
  5
11A
330
115
100
AcDbEntity
  8
1
 62
     2
100
AcDbTrace
 10
97.70005498374191
 20
194.2756276151
 30
0.0
 11
98.62162246685368
 21
194.2756276151
 31
0.0
 12
98.1608387252978
 22
190.7756276151
 32
0.0
 13
98.1608387252978
 23
190.7756276151
 33
0.0
  0
MTEXT
  5
11B
330
115
100
AcDbEntity
  8
1
 62
     2
100
AcDbMText
 10
96.1608387252978
 20
199.35691984656
 30
0.0
 40
3.5
 41
0.0
 71
     7
 72
     1
  1
23
  7
CONVERTER_11
 11
0.0
 21
1.0
 31
0.0
 73
     1
 44
0.60024009603842
  0
ENDBLK
  5
11D
330
115
100
AcDbEntity
  8
0
100
AcDbBlockEnd
  0
BLOCK
  5
127
330
120
100
AcDbEntity
  8
0
100
AcDbBlockBegin
  2
*D12
 70
     1
 71
     0
 10
0.0
 20
0.0
 30
0.0
  3
*D12
  1

  0
LINE
  5
121
330
120
100
AcDbEntity
  8
1
  6
Continuous
 62
     2
100
AcDbLine
 10
138.323985000032
 20
219.7756276151
 30
0.0
 11
138.323985000032
 21
184.7756276151
 31
0.0
  0
LINE
  5
122
330
120
100
AcDbEntity
  8
1
  6
Continuous
 62
     2
100
AcDbLine
 10
131.1442574121
 20
184.7756276151
 30
0.0
 11
140.323985000032
 21
184.7756276151
 31
0.0
  0
LINE
  5
123
330
120
100
AcDbEntity
  8
1
  6
Continuous
 62
     2
100
AcDbLine
 10
131.1442574121
 20
219.7756276151
 30
0.0
 11
140.323985000032
 21
219.7756276151
 31
0.0
  0
SOLID
  5
124
330
120
100
AcDbEntity
  8
1
 62
     2
100
AcDbTrace
 10
138.7847687415879
 20
216.2756276151
 30
0.0
 11
137.8632012584761
 21
216.2756276151
 31
0.0
 12
138.323985000032
 22
219.7756276151
 32
0.0
 13
138.323985000032
 23
219.7756276151
 33
0.0
  0
SOLID
  5
125
330
120
100
AcDbEntity
  8
1
 62
     2
100
AcDbTrace
 10
137.8632012584761
 20
188.2756276151
 30
0.0
 11
138.7847687415879
 21
188.2756276151
 31
0.0
 12
138.323985000032
 22
184.7756276151
 32
0.0
 13
138.323985000032
 23
184.7756276151
 33
0.0
  0
MTEXT
  5
126
330
120
100
AcDbEntity
  8
1
 62
     2
100
AcDbMText
 10
136.323985000032
 20
199.653326830137
 30
0.0
 40
3.5
 41
0.0
 71
     7
 72
     1
  1
35
  7
CONVERTER_11
 11
0.0
 21
1.0
 31
0.0
 73
     1
 44
0.60024009603842
  0
ENDBLK
  5
128
330
120
100
AcDbEntity
  8
0
100
AcDbBlockEnd
  0
ENDSEC
  0
SECTION
  2
ENTITIES
  0
POINT
  5
34
330
1F
100
AcDbEntity
  8
1
 62
     3
 60
     1
100
AcDbPoint
 10
56.8692574121
 20
228.2756276151
 30
0.0
  0
POINT
  5
35
330
1F
100
AcDbEntity
  8
1
 62
     3
 60
     1
100
AcDbPoint
 10
56.8692574121
 20
176.2756276151
 30
0.0
  0
LINE
  5
36
330
1F
100
AcDbEntity
  8
0
  6
Continuous
 62
     7
100
AcDbLine
 10
56.8692574121
 20
228.2756276151
 30
0.0
 11
129.8692574121
 21
228.2756276151
 31
0.0
  0
LINE
  5
37
330
1F
100
AcDbEntity
  8
1
  6
DASHED
 62
     2
100
AcDbLine
 10
56.8692574121
 20
228.2756276151
 30
0.0
 11
56.8692574121
 21
176.2756276151
 31
0.0
  0
LINE
  5
38
330
1F
100
AcDbEntity
  8
0
  6
Continuous
 62
     7
100
AcDbLine
 10
56.8692574121
 20
176.2756276151
 30
0.0
 11
129.8692574121
 21
176.2756276151
 31
0.0
  0
LINE
  5
39
330
1F
100
AcDbEntity
  8
0
  6
Continuous
 62
     7
100
AcDbLine
 10
56.7442574121
 20
228.2756276151
 30
0.0
 11
56.8692574121
 21
228.2756276151
 31
0.0
  0
LINE
  5
3A
330
1F
100
AcDbEntity
  8
1
  6
Continuous
 62
     7
100
AcDbLine
 10
32.8692574121
 20
176.2756276151
 30
0.0
 11
33.1192574121
 21
176.2756276151
 31
0.0
  0
LINE
  5
3B
330
1F
100
AcDbEntity
  8
0
  6
Continuous
 62
     7
100
AcDbLine
 10
57.8692574121
 20
175.2756276151
 30
0.0
 11
57.8692574121
 21
167.7756276151
 31
0.0
  0
LINE
  5
3C
330
1F
100
AcDbEntity
  8
0
  6
Continuous
 62
     7
100
AcDbLine
 10
33.1192574121
 20
176.2756276151
 30
0.0
 11
56.8692574121
 21
176.2756276151
 31
0.0
  0
LINE
  5
3D
330
1F
100
AcDbEntity
  8
0
  6
Continuous
 62
     7
100
AcDbLine
 10
32.8694070125
 20
228.2756276151
 30
0.0
 11
56.7442574121
 21
228.2756276151
 31
0.0
  0
LINE
  5
3E
330
1F
100
AcDbEntity
  8
1
  6
DOT_CENTER
 62
     2
100
AcDbLine
 10
44.8692574121
 20
206.5256276151
 30
0.0
 11
44.8692574121
 21
190.0506276151
 31
0.0
  0
LINE
  5
3F
330
1F
100
AcDbEntity
  8
1
  6
DOT_CENTER
 62
     2
100
AcDbLine
 10
49.1192574121
 20
202.2756276151
 30
0.0
 11
40.6192574121
 21
202.2756276151
 31
0.0
  0
LINE
  5
40
330
1F
100
AcDbEntity
  8
DEFAULT_2
  6
DASHED
 62
     2
100
AcDbLine
 10
68.8692574121
 20
193.7756276151
 30
0.0
 11
65.8692574121
 21
193.7756276151
 31
0.0
  0
LINE
  5
41
330
1F
100
AcDbEntity
  8
DEFAULT_2
  6
DASHED
 62
     2
100
AcDbLine
 10
68.8692574121
 20
188.7756276151
 30
0.0
 11
65.8692574121
 21
188.7756276151
 31
0.0
  0
LINE
  5
42
330
1F
100
AcDbEntity
  8
DEFAULT_2
  6
DASHED
 62
     2
100
AcDbLine
 10
68.8692574121
 20
188.7756276151
 30
0.0
 11
68.8692574121
 21
193.7756276151
 31
0.0
  0
LINE
  5
43
330
1F
100
AcDbEntity
  8
DEFAULT_2
  6
DASHED
 62
     2
100
AcDbLine
 10
65.8692574121
 20
215.7756276151
 30
0.0
 11
65.8692574121
 21
225.7756276151
 31
0.0
  0
LINE
  5
44
330
1F
100
AcDbEntity
  8
DEFAULT_2
  6
DASHED
 62
     2
100
AcDbLine
 10
65.8692574121
 20
210.7756276151
 30
0.0
 11
65.8692574121
 21
215.7756276151
 31
0.0
  0
LINE
  5
45
330
1F
100
AcDbEntity
  8
DEFAULT_2
  6
DASHED
 62
     2
100
AcDbLine
 10
68.8692574121
 20
210.7756276151
 30
0.0
 11
68.8692574121
 21
215.7756276151
 31
0.0
  0
LINE
  5
46
330
1F
100
AcDbEntity
  8
DEFAULT_2
  6
DASHED
 62
     2
100
AcDbLine
 10
68.8692574121
 20
210.7756276151
 30
0.0
 11
65.8692574121
 21
210.7756276151
 31
0.0
  0
LINE
  5
47
330
1F
100
AcDbEntity
  8
DEFAULT_2
  6
DASHED
 62
     2
100
AcDbLine
 10
68.8692574121
 20
215.7756276151
 30
0.0
 11
65.8692574121
 21
215.7756276151
 31
0.0
  0
LINE
  5
48
330
1F
100
AcDbEntity
  8
1
  6
DOT_CENTER
 62
     2
100
AcDbLine
 10
62.5670291725623
 20
191.2756276151
 30
0.0
 11
70.5670291725623
 21
191.2756276151
 31
0.0
  0
LINE
  5
49
330
1F
100
AcDbEntity
  8
1
  6
DOT_CENTER
 62
     2
100
AcDbLine
 10
62.4816198491195
 20
213.2756276151
 30
0.0
 11
70.4816198491195
 21
213.2756276151
 31
0.0
  0
LINE
  5
4A
330
1F
100
AcDbEntity
  8
DEFAULT_2
  6
DASHED
 62
     2
100
AcDbLine
 10
65.8692574121
 20
178.7756276151
 30
0.0
 11
65.8692574121
 21
210.7756276151
 31
0.0
  0
LINE
  5
4B
330
1F
100
AcDbEntity
  8
DEFAULT_2
  6
DASHED
 62
     2
100
AcDbLine
 10
125.8692574121
 20
225.7756276151
 30
0.0
 11
63.36925741209999
 21
225.7756276151
 31
0.0
  0
LINE
  5
4C
330
1F
100
AcDbEntity
  8
DEFAULT_2
  6
DASHED
 62
     2
100
AcDbLine
 10
129.8692574121
 20
182.7756276151
 30
0.0
 11
129.8692574121
 21
221.7756276151
 31
0.0
  0
LINE
  5
4D
330
1F
100
AcDbEntity
  8
DEFAULT_2
  6
DASHED
 62
     2
100
AcDbLine
 10
63.3692574121
 20
178.7756276151
 30
0.0
 11
125.8692574121
 21
178.7756276151
 31
0.0
  0
LINE
  5
4E
330
1F
100
AcDbEntity
  8
DEFAULT_2
  6
DASHED
 62
     2
100
AcDbLine
 10
63.3692574121
 20
178.7756276151
 30
0.0
 11
63.36925741209999
 21
225.7756276151
 31
0.0
  0
LINE
  5
4F
330
1F
100
AcDbEntity
  8
1
  6
DOT_CENTER
 62
     2
100
AcDbLine
 10
123.8692574121
 20
192.0506276151
 30
0.0
 11
123.8692574121
 21
177.5006276151
 31
0.0
  0
LINE
  5
50
330
1F
100
AcDbEntity
  8
1
  6
DOT_CENTER
 62
     2
100
AcDbLine
 10
116.5942574121
 20
184.7756276151
 30
0.0
 11
131.1442574121
 21
184.7756276151
 31
0.0
  0
LINE
  5
51
330
1F
100
AcDbEntity
  8
1
  6
DOT_CENTER
 62
     2
100
AcDbLine
 10
114.3692574121
 20
198.0506276151
 30
0.0
 11
114.3692574121
 21
183.5006276151
 31
0.0
  0
LINE
  5
52
330
1F
100
AcDbEntity
  8
1
  6
DOT_CENTER
 62
     2
100
AcDbLine
 10
107.0942574121
 20
190.7756276151
 30
0.0
 11
121.6442574121
 21
190.7756276151
 31
0.0
  0
LINE
  5
53
330
1F
100
AcDbEntity
  8
1
  6
DOT_CENTER
 62
     2
100
AcDbLine
 10
104.8692574121
 20
192.0506276151
 30
0.0
 11
104.8692574121
 21
177.5006276151
 31
0.0
  0
LINE
  5
54
330
1F
100
AcDbEntity
  8
1
  6
DOT_CENTER
 62
     2
100
AcDbLine
 10
97.5942574121
 20
184.7756276151
 30
0.0
 11
112.1442574121
 21
184.7756276151
 31
0.0
  0
LINE
  5
55
330
1F
100
AcDbEntity
  8
1
  6
DOT_CENTER
 62
     2
100
AcDbLine
 10
44.8692574121
 20
190.0506276151
 30
0.0
 11
44.8692574121
 21
143.0256276151
 31
0.0
  0
LINE
  5
56
330
1F
100
AcDbEntity
  8
1
  6
DOT_CENTER
 62
     2
100
AcDbLine
 10
52.1442574121
 20
182.7756276151
 30
0.0
 11
37.5942574121
 21
182.7756276151
 31
0.0
  0
LINE
  5
57
330
1F
100
AcDbEntity
  8
1
  6
DOT_CENTER
 62
     2
100
AcDbLine
 10
44.8692574121
 20
233.0506276151
 30
0.0
 11
44.8692574121
 21
206.5256276151
 31
0.0
  0
LINE
  5
58
330
1F
100
AcDbEntity
  8
1
  6
DOT_CENTER
 62
     2
100
AcDbLine
 10
52.1442574121
 20
221.7756276151
 30
0.0
 11
37.5942574121
 21
221.7756276151
 31
0.0
  0
LINE
  5
59
330
1F
100
AcDbEntity
  8
1
  6
DOT_CENTER
 62
     2
100
AcDbLine
 10
123.8692574121
 20
227.0506276151
 30
0.0
 11
123.8692574121
 21
212.5006276151
 31
0.0
  0
LINE
  5
5A
330
1F
100
AcDbEntity
  8
1
  6
DOT_CENTER
 62
     2
100
AcDbLine
 10
131.1442574121
 20
219.7756276151
 30
0.0
 11
116.5942574121
 21
219.7756276151
 31
0.0
  0
LINE
  5
5B
330
1F
100
AcDbEntity
  8
1
  6
DOT_CENTER
 62
     2
100
AcDbLine
 10
104.8692574121
 20
227.0506276151
 30
0.0
 11
104.8692574121
 21
212.5006276151
 31
0.0
  0
LINE
  5
5C
330
1F
100
AcDbEntity
  8
1
  6
DOT_CENTER
 62
     2
100
AcDbLine
 10
112.1442574121
 20
219.7756276151
 30
0.0
 11
97.5942574121
 21
219.7756276151
 31
0.0
  0
LINE
  5
5D
330
1F
100
AcDbEntity
  8
1
  6
DOT_CENTER
 62
     2
100
AcDbLine
 10
114.3692574121
 20
221.0506276151
 30
0.0
 11
114.3692574121
 21
206.5006276151
 31
0.0
  0
LINE
  5
5E
330
1F
100
AcDbEntity
  8
1
  6
DOT_CENTER
 62
     2
100
AcDbLine
 10
121.6442574121
 20
213.7756276151
 30
0.0
 11
107.0942574121
 21
213.7756276151
 31
0.0
  0
LINE
  5
5F
330
1F
100
AcDbEntity
  8
1
  6
DOT_CENTER
 62
     2
100
AcDbLine
 10
44.8692574121
 20
143.0256276151
 30
0.0
 11
44.8692574121
 21
117.5256276151
 31
0.0
  0
LINE
  5
60
330
1F
100
AcDbEntity
  8
1
  6
DOT_CENTER
 62
     2
100
AcDbLine
 10
49.1192574121
 20
138.7756276151
 30
0.0
 11
40.6192574121
 21
138.7756276151
 31
0.0
  0
LINE
  5
61
330
1F
100
AcDbEntity
  8
1
  6
DOT_CENTER
 62
     2
100
AcDbLine
 10
87.8692574121
 20
220.5256276151
 30
0.0
 11
87.8692574121
 21
212.0256276151
 31
0.0
  0
LINE
  5
62
330
1F
100
AcDbEntity
  8
1
  6
DOT_CENTER
 62
     2
100
AcDbLine
 10
92.1192574121
 20
216.2756276151
 30
0.0
 11
83.6192574121
 21
216.2756276151
 31
0.0
  0
LINE
  5
63
330
1F
100
AcDbEntity
  8
1
  6
DOT_CENTER
 62
     2
100
AcDbLine
 10
87.8692574121
 20
192.5256276151
 30
0.0
 11
87.8692574121
 21
184.0256276151
 31
0.0
  0
LINE
  5
64
330
1F
100
AcDbEntity
  8
1
  6
DOT_CENTER
 62
     2
100
AcDbLine
 10
92.1192574121
 20
188.2756276151
 30
0.0
 11
83.6192574121
 21
188.2756276151
 31
0.0
  0
LINE
  5
65
330
1F
100
AcDbEntity
  8
0
  6
Continuous
 62
     7
100
AcDbLine
 10
34.4942871208
 20
231.2756276151
 30
0.0
 11
55.2442277035
 21
231.2756276151
 31
0.0
  0
LINE
  5
66
330
1F
100
AcDbEntity
  8
0
  6
Continuous
 62
     7
100
AcDbLine
 10
144.8692574121
 20
191.2756276151
 30
0.0
 11
144.8692574121
 21
213.2756276151
 31
0.0
  0
LINE
  5
67
330
1F
100
AcDbEntity
  8
0
  6
Continuous
 62
     7
100
AcDbLine
 10
31.8692574121
 20
175.2756276151
 30
0.0
 11
57.8692574121
 21
175.2756276151
 31
0.0
  0
LINE
  5
68
330
1F
100
AcDbEntity
  8
0
  6
Continuous
 62
     7
100
AcDbLine
 10
57.8692574121
 20
167.7756276151
 30
0.0
 11
31.8692574121
 21
167.7756276151
 31
0.0
  0
LINE
  5
69
330
1F
100
AcDbEntity
  8
0
  6
Continuous
 62
     7
100
AcDbLine
 10
56.8692574121
 20
123.2756276151
 30
0.0
 11
32.8692574121
 21
123.2756276151
 31
0.0
  0
LINE
  5
6A
330
1F
100
AcDbEntity
  8
0
  6
Continuous
 62
     7
100
AcDbLine
 10
55.244189591
 20
120.2756276151
 30
0.0
 11
34.4943252333
 21
120.2756276151
 31
0.0
  0
LINE
  5
6B
330
1F
100
AcDbEntity
  8
0
  6
Continuous
 62
     7
100
AcDbLine
 10
56.8692574121
 20
123.2756276151
 30
0.0
 11
56.8692574121
 21
167.7756276151
 31
0.0
  0
LINE
  5
6C
330
1F
100
AcDbEntity
  8
0
  6
Continuous
 62
     7
100
AcDbLine
 10
56.7442574121
 20
228.2756276151
 30
0.0
 11
56.74425741210001
 21
229.7756276151
 31
0.0
  0
LINE
  5
6D
330
1F
100
AcDbEntity
  8
0
  6
Continuous
 62
     7
100
AcDbLine
 10
56.7442574121
 20
123.2756276151
 30
0.0
 11
56.7442574121
 21
121.7756276151
 31
0.0
  0
LINE
  5
6E
330
1F
100
AcDbEntity
  8
0
  6
Continuous
 62
     7
100
AcDbLine
 10
56.6192574121
 20
176.2756276151
 30
0.0
 11
56.6192574121
 21
175.2756276151
 31
0.0
  0
LINE
  5
6F
330
1F
100
AcDbEntity
  8
0
  6
Continuous
 62
     7
100
AcDbLine
 10
54.9698208996
 20
227.7192837118
 30
0.0
 11
54.9698208996
 21
228.2756276151
 31
0.0
  0
LINE
  5
70
330
1F
100
AcDbEntity
  8
DEFAULT_2
  6
HIDDEN_1
 62
   252
420
  8685188
100
AcDbLine
 10
54.228784432
 20
176.2756276151
 30
0.0
 11
54.228784432
 21
180.7756276151
 31
0.0
  0
LINE
  5
71
330
1F
100
AcDbEntity
  8
DEFAULT_2
  6
HIDDEN_1
 62
   252
420
  8685188
100
AcDbLine
 10
54.228784432
 20
228.2756276151
 30
0.0
 11
54.228784432
 21
223.7756276151
 31
0.0
  0
LINE
  5
72
330
1F
100
AcDbEntity
  8
0
  6
Continuous
 62
     7
100
AcDbLine
 10
54.2192574121
 20
176.2756276151
 30
0.0
 11
54.2192574121
 21
228.2756276151
 31
0.0
  0
LINE
  5
73
330
1F
100
AcDbEntity
  8
0
  6
Continuous
 62
     7
100
AcDbLine
 10
32.99425741210001
 20
228.2756276151
 30
0.0
 11
32.99425741209999
 21
229.7756276151
 31
0.0
  0
LINE
  5
74
330
1F
100
AcDbEntity
  8
0
  6
Continuous
 62
     7
100
AcDbLine
 10
32.8692574121
 20
176.2756276151
 30
0.0
 11
32.8692574121
 21
228.2756276151
 31
0.0
  0
LINE
  5
75
330
1F
100
AcDbEntity
  8
0
  6
Continuous
 62
     7
100
AcDbLine
 10
33.1192574121
 20
176.2756276151
 30
0.0
 11
33.1192574121
 21
175.2756276151
 31
0.0
  0
LINE
  5
76
330
1F
100
AcDbEntity
  8
0
  6
Continuous
 62
     7
100
AcDbLine
 10
32.9942574121
 20
123.2756276151
 30
0.0
 11
32.9942574121
 21
121.7756276151
 31
0.0
  0
LINE
  5
77
330
1F
100
AcDbEntity
  8
0
  6
Continuous
 62
     7
100
AcDbLine
 10
32.8692574121
 20
123.2756276151
 30
0.0
 11
32.8692574121
 21
167.7756276151
 31
0.0
  0
LINE
  5
78
330
1F
100
AcDbEntity
  8
0
  6
Continuous
 62
     7
100
AcDbLine
 10
31.8692574121
 20
175.2756276151
 30
0.0
 11
31.8692574121
 21
167.7756276151
 31
0.0
  0
ARC
  5
79
330
1F
100
AcDbEntity
  8
0
  6
Continuous
 62
     7
100
AcDbCircle
 10
129.8692574121
 20
191.2756276151
 30
0.0
 40
15.0
100
AcDbArc
 50
-90.0
 51
0.0
  0
ARC
  5
7A
330
1F
100
AcDbEntity
  8
0
  6
Continuous
 62
     7
100
AcDbCircle
 10
129.8692574121
 20
213.2756276151
 30
0.0
 40
15.0
100
AcDbArc
 50
0.0
 51
90.0
  0
ARC
  5
7B
330
1F
100
AcDbEntity
  8
0
  6
Continuous
 62
     7
100
AcDbCircle
 10
34.4942574121
 20
121.7756276151
 30
0.0
 40
1.5
100
AcDbArc
 50
180.0
 51
-90.0
  0
ARC
  5
7C
330
1F
100
AcDbEntity
  8
0
  6
Continuous
 62
     7
100
AcDbCircle
 10
55.2442574121
 20
121.7756276151
 30
0.0
 40
1.5
100
AcDbArc
 50
-90.0
 51
0.0
  0
ARC
  5
7D
330
1F
100
AcDbEntity
  8
0
  6
Continuous
 62
     7
100
AcDbCircle
 10
55.2442574121
 20
229.7756276151
 30
0.0
 40
1.500000000000014
100
AcDbArc
 50
0.0
 51
90.00000000000028
  0
ARC
  5
7E
330
1F
100
AcDbEntity
  8
0
  6
Continuous
 62
     7
100
AcDbCircle
 10
34.4942574121
 20
229.7756276151
 30
0.0
 40
1.5
100
AcDbArc
 50
90.0
 51
180.0
  0
ARC
  5
7F
330
1F
100
AcDbEntity
  8
0
  6
Continuous
 62
     7
100
AcDbCircle
 10
136.7321068745
 20
202.2756276151
 30
0.0
 40
9.067150537600044
100
AcDbArc
 50
-26.1774655793964
 51
26.17746557940188
  0
ARC
  5
80
330
1F
100
AcDbEntity
  8
DEFAULT_2
  6
DASHED
 62
     2
100
AcDbCircle
 10
89.3692574121
 20
188.2756276151
 30
0.0
 40
2.536802234300304
100
AcDbArc
 50
108.6632064361969
 51
-108.6632064361969
  0
ARC
  5
81
330
1F
100
AcDbEntity
  8
DEFAULT_2
  6
DASHED
 62
     2
100
AcDbCircle
 10
89.3692574121
 20
216.2756276151
 30
0.0
 40
2.536802234300304
100
AcDbArc
 50
108.6632064361969
 51
-108.6632064361969
  0
CIRCLE
  5
82
330
1F
100
AcDbEntity
  8
DEFAULT_2
  6
DASHED
 62
     2
100
AcDbCircle
 10
123.8692574121
 20
184.7756276151
 30
0.0
 40
5.250000000000014
  0
CIRCLE
  5
83
330
1F
100
AcDbEntity
  8
DEFAULT_2
  6
DASHED
 62
     2
100
AcDbCircle
 10
114.3692574121
 20
190.7756276151
 30
0.0
 40
3.0
  0
CIRCLE
  5
84
330
1F
100
AcDbEntity
  8
DEFAULT_2
  6
DASHED
 62
     2
100
AcDbCircle
 10
114.3692574121
 20
190.7756276151
 30
0.0
 40
5.25
  0
CIRCLE
  5
85
330
1F
100
AcDbEntity
  8
DEFAULT_2
  6
DASHED
 62
     2
100
AcDbCircle
 10
104.8692574121
 20
184.7756276151
 30
0.0
 40
5.25
  0
CIRCLE
  5
86
330
1F
100
AcDbEntity
  8
DEFAULT_2
  6
DASHED
 62
     2
100
AcDbCircle
 10
104.8692574121
 20
184.7756276151
 30
0.0
 40
3.0
  0
CIRCLE
  5
87
330
1F
100
AcDbEntity
  8
DEFAULT_2
  6
DASHED
 62
     2
100
AcDbCircle
 10
123.8692574121
 20
184.7756276151
 30
0.0
 40
3.0
  0
CIRCLE
  5
88
330
1F
100
AcDbEntity
  8
DEFAULT_2
  6
DASHED
 62
     2
100
AcDbCircle
 10
44.8692574121
 20
182.7756276151
 30
0.0
 40
3.0
  0
CIRCLE
  5
89
330
1F
100
AcDbEntity
  8
DEFAULT_2
  6
DASHED
 62
     2
100
AcDbCircle
 10
44.8692574121
 20
182.7756276151
 30
0.0
 40
5.25
  0
CIRCLE
  5
8A
330
1F
100
AcDbEntity
  8
DEFAULT_2
  6
DASHED
 62
     2
100
AcDbCircle
 10
44.8692574121
 20
221.7756276151
 30
0.0
 40
3.0
  0
CIRCLE
  5
8B
330
1F
100
AcDbEntity
  8
DEFAULT_2
  6
DASHED
 62
     2
100
AcDbCircle
 10
44.8692574121
 20
221.7756276151
 30
0.0
 40
5.25
  0
CIRCLE
  5
8C
330
1F
100
AcDbEntity
  8
DEFAULT_2
  6
DASHED
 62
     2
100
AcDbCircle
 10
123.8692574121
 20
219.7756276151
 30
0.0
 40
3.0
  0
CIRCLE
  5
8D
330
1F
100
AcDbEntity
  8
DEFAULT_2
  6
DASHED
 62
     2
100
AcDbCircle
 10
123.8692574121
 20
219.7756276151
 30
0.0
 40
5.250000000000014
  0
CIRCLE
  5
8E
330
1F
100
AcDbEntity
  8
DEFAULT_2
  6
DASHED
 62
     2
100
AcDbCircle
 10
104.8692574121
 20
219.7756276151
 30
0.0
 40
3.0
  0
CIRCLE
  5
8F
330
1F
100
AcDbEntity
  8
DEFAULT_2
  6
DASHED
 62
     2
100
AcDbCircle
 10
104.8692574121
 20
219.7756276151
 30
0.0
 40
5.25
  0
CIRCLE
  5
90
330
1F
100
AcDbEntity
  8
DEFAULT_2
  6
DASHED
 62
     2
100
AcDbCircle
 10
114.3692574121
 20
213.7756276151
 30
0.0
 40
5.25
  0
CIRCLE
  5
91
330
1F
100
AcDbEntity
  8
DEFAULT_2
  6
DASHED
 62
     2
100
AcDbCircle
 10
114.3692574121
 20
213.7756276151
 30
0.0
 40
3.0
  0
CIRCLE
  5
92
330
1F
100
AcDbEntity
  8
DEFAULT_2
  6
DASHED
 62
     2
100
AcDbCircle
 10
44.8692574121
 20
138.7756276151
 30
0.0
 40
2.5
  0
CIRCLE
  5
93
330
1F
100
AcDbEntity
  8
DEFAULT_2
  6
DASHED
 62
     2
100
AcDbCircle
 10
44.8692574121
 20
202.2756276151
 30
0.0
 40
2.5
  0
CIRCLE
  5
94
330
1F
100
AcDbEntity
  8
DEFAULT_2
  6
DASHED
 62
     2
100
AcDbCircle
 10
87.8692574121
 20
188.2756276151
 30
0.0
 40
2.5
  0
CIRCLE
  5
95
330
1F
100
AcDbEntity
  8
DEFAULT_2
  6
DASHED
 62
     2
100
AcDbCircle
 10
87.8692574121
 20
216.2756276151
 30
0.0
 40
2.5
  0
SPLINE
  5
96
330
1F
100
AcDbEntity
  8
0
  6
Continuous
 62
     7
100
AcDbSpline
210
0.0
220
0.0
230
1.0
 70
     8
 71
     3
 72
     9
 73
     5
 74
     3
 42
0.0000000001
 43
0.0000000001
 44
0.00000001
 40
0.0
 40
0.0
 40
0.0
 40
0.0
 40
0.086134952994643
 40
0.1722699059888551
 40
0.1722699059888551
 40
0.1722699059888551
 40
0.1722699059888551
 10
55.1624198992
 20
176.6925977038
 30
0.0
 10
55.14018153361268
 20
176.7107849006968
 30
0.0
 10
55.09570480243814
 20
176.7471592944901
 30
0.0
 10
55.05473987554602
 20
176.7874476414968
 30
0.0
 10
55.0342574121
 20
176.807591815
 30
0.0
 11
55.1624198992
 21
176.6925977038
 31
0.0
 11
55.09658275350863
 21
176.7481377827935
 31
0.0
 11
55.0342574121
 21
176.807591815
 31
0.0
  0
SPLINE
  5
97
330
1F
100
AcDbEntity
  8
0
  6
Continuous
 62
     7
100
AcDbSpline
210
0.0
220
0.0
230
1.0
 70
     8
 71
     3
 72
    63
 73
    59
 74
    57
 42
0.0000000001
 43
0.0000000001
 44
0.00000001
 40
0.0
 40
0.0
 40
0.0
 40
0.0
 40
0.0427274276103391
 40
0.0854548493462865
 40
0.1051275381248611
 40
0.1248002234315317
 40
0.1439249765214326
 40
0.1630497414204272
 40
0.1909414686224555
 40
0.2188333818571321
 40
0.2455004060467564
 40
0.2721672656200508
 40
0.2885051851852106
 40
0.3048430445313131
 40
0.3211652719069248
 40
0.3374875322738071
 40
0.3527284033481939
 40
0.3679692623872377
 40
0.3837007815090167
 40
0.3994323066354956
 40
0.4153608288680504
 40
0.4312893486159343
 40
0.4473617966950559
 40
0.4634342555821732
 40
0.4795944002643875
 40
0.4957545470469948
 40
0.5119283065544639
 40
0.528102013967688
 40
0.5442704327954938
 40
0.5604389029564893
 40
0.576592699384623
 40
0.5927464916110746
 40
0.6088176516924417
 40
0.6248887983764613
 40
0.6409537310490673
 40
0.6570186825869513
 40
0.6731744605583188
 40
0.6893302262320209
 40
0.7055069764600246
 40
0.7216837178623826
 40
0.7379032652436459
 40
0.7541228485524171
 40
0.7698844835178063
 40
0.7856460979337322
 40
0.8006656883705999
 40
0.8156851368710558
 40
0.8306049329227648
 40
0.8455249606962719
 40
0.8670190188339734
 40
0.8885134940801277
 40
0.910741626807621
 40
0.9329690940129658
 40
0.9474669172620033
 40
0.9619646082593726
 40
0.9768725704050141
 40
0.9917805530379648
 40
1.024351364403294
 40
1.05692230307772
 40
1.05692230307772
 40
1.05692230307772
 40
1.05692230307772
 10
55.1624198992
 20
176.6925977038
 30
0.0
 10
55.17375157054051
 20
176.6839696860785
 30
0.0
 10
55.19641491166358
 20
176.6667136518216
 30
0.0
 10
55.22449862207721
 20
176.6457532975535
 30
0.0
 10
55.24654960424429
 20
176.629560777559
 30
0.0
 10
55.2623260252435
 20
176.6181165068499
 30
0.0
 10
55.27802540050828
 20
176.6068777170515
 30
0.0
 10
55.29603597163887
 20
176.5941615861394
 30
0.0
 10
55.31655481500769
 20
176.579932287943
 30
0.0
 10
55.33928953890798
 20
176.5644888397806
 30
0.0
 10
55.36182363386436
 20
176.5494787128723
 30
0.0
 10
55.38127143004699
 20
176.5367841494988
 30
0.0
 10
55.39792029065195
 20
176.5261022425686
 30
0.0
 10
55.41172472925504
 20
176.5173730964435
 30
0.0
 10
55.42558718471714
 20
176.5087462534174
 30
0.0
 10
55.43919708415292
 20
176.5004064012632
 30
0.0
 10
55.45255151984197
 20
176.492340202036
 30
0.0
 10
55.46578586140581
 20
176.4844566020666
 30
0.0
 10
55.47920945153486
 20
176.4765716747958
 30
0.0
 10
55.49288168013558
 20
176.4686580903539
 30
0.0
 10
55.50666298664954
 20
176.4608025407829
 30
0.0
 10
55.5205976843714
 20
176.4529873690338
 30
0.0
 10
55.53463094923808
 20
176.4452506942663
 30
0.0
 10
55.5487913568472
 20
176.4375856822469
 30
0.0
 10
55.56303944494377
 20
176.4300222988068
 30
0.0
 10
55.57738509346768
 20
176.4225719870291
 30
0.0
 10
55.59180765439411
 20
176.4152615774347
 30
0.0
 10
55.60631043983812
 20
176.4081052720265
 30
0.0
 10
55.62089375026339
 20
176.4011185671168
 30
0.0
 10
55.63554882698463
 20
176.3942994678953
 30
0.0
 10
55.6502730967859
 20
176.3876429571309
 30
0.0
 10
55.6650374694169
 20
176.381156150355
 30
0.0
 10
55.6798423807632
 20
176.3748322501502
 30
0.0
 10
55.69468372984167
 20
176.3686711919194
 30
0.0
 10
55.70958503437866
 20
176.362662132808
 30
0.0
 10
55.72457246267207
 20
176.3567934220764
 30
0.0
 10
55.73964636712904
 20
176.3510647142831
 30
0.0
 10
55.75481386985795
 20
176.3454797802346
 30
0.0
 10
55.77004677751918
 20
176.3400548716347
 30
0.0
 10
55.78535836137769
 20
176.3347903600534
 30
0.0
 10
55.8007417686261
 20
176.3296939375872
 30
0.0
 10
55.81605033113736
 20
176.3248149000077
 30
0.0
 10
55.83126725045098
 20
176.3201543361
 30
0.0
 10
55.84615625294697
 20
176.3157927123875
 30
0.0
 10
55.86086235089606
 20
176.3116912787926
 30
0.0
 10
55.87535222158218
 20
176.3078640285087
 30
0.0
 10
55.88986485885344
 20
176.3042592630621
 30
0.0
 10
55.90652785679648
 20
176.3003660736208
 30
0.0
 10
55.92539372639459
 20
176.2962762659434
 30
0.0
 10
55.94672473651775
 20
176.2920781537178
 30
0.0
 10
55.96837530577348
 20
176.2882586195299
 30
0.0
 10
55.98779869857366
 20
176.2852638234838
 30
0.0
 10
56.004721104953
 20
176.2829864204392
 30
0.0
 10
56.01925448290642
 20
176.281263829697
 30
0.0
 10
56.03395056652015
 20
176.2797680144917
 30
0.0
 10
56.0546721583254
 20
176.2780100596072
 30
0.0
 10
56.08131347227399
 20
176.2763891615209
 30
0.0
 10
56.10302278914887
 20
176.2758814642377
 30
0.0
 10
56.1138774688
 20
176.2756276151
 30
0.0
 11
55.1624198992
 21
176.6925977038
 31
0.0
 11
55.19645616784238
 21
176.6667681570154
 31
0.0
 11
55.23070240258768
 21
176.6412176585081
 31
0.0
 11
55.246560860852
 21
176.6295761815718
 31
0.0
 11
55.26248606064391
 21
176.6180261790279
 31
0.0
 11
55.27803746740143
 21
176.6068946953617
 31
0.0
 11
55.29366124578441
 21
176.5958649999225
 31
0.0
 11
55.31658012030336
 21
176.5799692886425
 31
0.0
 11
55.33965135642589
 21
176.5642952053306
 31
0.0
 11
55.36184646711585
 21
176.5495132149169
 31
0.0
 11
55.38417807973315
 21
176.5349385630373
 31
0.0
 11
55.39792994632219
 21
176.5261173510437
 31
0.0
 11
55.4117395497072
 21
176.5173869156387
 31
0.0
 11
55.42559704358183
 21
176.5087622434701
 31
0.0
 11
55.43951379121587
 21
176.5002334499578
 31
0.0
 11
55.45255951423385
 21
176.4923535221635
 31
0.0
 11
55.46565317461391
 21
176.4845535322853
 31
0.0
 11
55.47921791297707
 21
176.4765861884984
 31
0.0
 11
55.49283342901132
 21
176.4687059216295
 31
0.0
 11
55.50667207040873
 21
176.460818601122
 31
0.0
 11
55.52056519407402
 21
176.4530276540564
 31
0.0
 11
55.53464084946231
 21
176.4452688195662
 31
0.0
 11
55.54877591539364
 21
176.4376187316062
 31
0.0
 11
55.5630507303017
 21
176.4300437771186
 31
0.0
 11
55.57739320463337
 21
176.4225977194985
 31
0.0
 11
55.59182063218223
 21
176.4152874643096
 31
0.0
 11
55.60632571030793
 21
176.4081326393602
 31
0.0
 11
55.62090669736475
 21
176.4011460390539
 31
0.0
 11
55.6355655436823
 21
176.3943241879865
 31
0.0
 11
55.65028472791217
 21
176.3876690580367
 31
0.0
 11
55.66507371338927
 21
176.3811705265215
 31
0.0
 11
55.67985299910745
 21
176.3748574527835
 31
0.0
 11
55.69469595871325
 21
176.3686956100495
 31
0.0
 11
55.70959500308035
 21
176.362687237664
 31
0.0
 11
55.72455392096394
 21
176.3568294698582
 31
0.0
 11
55.73965616044595
 21
176.3510908703349
 31
0.0
 11
55.75481709879009
 21
176.3455092296238
 31
0.0
 11
55.77005654625366
 21
176.340082767706
 31
0.0
 11
55.78535455798794
 21
176.3348236994068
 31
0.0
 11
55.80075126444736
 21
176.3297231947792
 31
0.0
 11
55.81620504443468
 21
176.3247982006865
 31
0.0
 11
55.83127649414391
 21
176.3201851170709
 31
0.0
 11
55.84640323287173
 21
176.3157567692462
 31
0.0
 11
55.86087142847402
 21
176.3117244730139
 31
0.0
 11
55.87539355237356
 21
176.3078914910541
 31
0.0
 11
55.889872882399
 21
176.3042929752157
 31
0.0
 11
55.90440117941342
 21
176.300896533751
 31
0.0
 11
55.92540747443532
 21
176.2963435012802
 31
0.0
 11
55.94649753867179
 21
176.2921936028948
 31
0.0
 11
55.96838867113667
 21
176.2883376718845
 31
0.0
 11
55.99035745697975
 21
176.2849564373548
 31
0.0
 11
56.0047259530239
 21
176.2830242881914
 31
0.0
 11
56.01912301459456
 21
176.2813191012849
 31
0.0
 11
56.03395435626397
 21
176.2798095849316
 31
0.0
 11
56.04880859763644
 21
176.2785448875635
 31
0.0
 11
56.08132081028228
 21
176.2765919969195
 31
0.0
 11
56.1138774688
 21
176.2756276151
 31
0.0
  0
SPLINE
  5
98
330
1F
100
AcDbEntity
  8
0
  6
Continuous
 62
     7
100
AcDbSpline
210
0.0
220
0.0
230
1.0
 70
     8
 71
     3
 72
   129
 73
   125
 74
   123
 42
0.0000000001
 43
0.0000000001
 44
0.00000001
 40
0.0
 40
0.0
 40
0.0
 40
0.0
 40
0.0215945371592971
 40
0.0431890507641677
 40
0.0530707872026872
 40
0.0629525133679396
 40
0.072565565327914
 40
0.0821786624692382
 40
0.0968876523343353
 40
0.1115969112082803
 40
0.1257972060093536
 40
0.1399973006014817
 40
0.149645402931635
 40
0.1592933793436547
 40
0.1690009695866759
 40
0.178708626064338
 40
0.1887701065173892
 40
0.1988316189555517
 40
0.2091989586452261
 40
0.2195662689022689
 40
0.229816353794792
 40
0.2400664454721293
 40
0.2503055029231191
 40
0.2605445620739064
 40
0.2705214084706768
 40
0.2804982452681173
 40
0.2904066519445825
 40
0.3003150633438998
 40
0.3099942566841846
 40
0.3196734342573471
 40
0.3293437529514943
 40
0.3390140625498494
 40
0.3493597176274673
 40
0.3597054272732566
 40
0.3700786293421122
 40
0.3804518213776133
 40
0.391594447996689
 40
0.4027370841958269
 40
0.4139342853797618
 40
0.4251315213793116
 40
0.4378066135137194
 40
0.450481717452924
 40
0.4631806453566431
 40
0.4758795732456588
 40
0.4892341940174904
 40
0.5025888098910545
 40
0.5159266738214967
 40
0.529264562160373
 40
0.5439132249686786
 40
0.558561921301121
 40
0.5732563517091203
 40
0.5879507748536976
 40
0.6032700282476497
 40
0.6185892874658746
 40
0.6339122425500217
 40
0.6492352145505548
 40
0.6652756268775424
 40
0.6813160519723317
 40
0.6973765503820544
 40
0.7134370462900381
 40
0.7294456248624568
 40
0.745454197370206
 40
0.761411664256411
 40
0.7773691274909397
 40
0.7930349793213437
 40
0.8087008260343409
 40
0.8243614068642631
 40
0.8400219877688202
 40
0.8553962454965477
 40
0.8707705008335487
 40
0.8861351453849927
 40
0.9014997798135433
 40
0.9163569165189349
 40
0.931214046285762
 40
0.9460849252527578
 40
0.9609557979995486
 40
0.9754558504707732
 40
0.9899559057997521
 40
1.004442066947135
 40
1.018928228589844
 40
1.032613592028558
 40
1.046298932084217
 40
1.05994531978795
 40
1.073591696959721
 40
1.086705876968558
 40
1.099820067128171
 40
1.112907327115676
 40
1.125994545233002
 40
1.138680492098628
 40
1.15136645850768
 40
1.164058355249151
 40
1.176750265856954
 40
1.189648329748471
 40
1.202546378018046
 40
1.215567010151465
 40
1.228587657780038
 40
1.241999708937114
 40
1.255411764706716
 40
1.268839808382604
 40
1.282267834631647
 40
1.294857332728663
 40
1.307446828809308
 40
1.319955939619065
 40
1.332465033245434
 40
1.344054991525298
 40
1.355644964116007
 40
1.366806180527958
 40
1.377967375217653
 40
1.387810250628652
 40
1.397653097931359
 40
1.407449827334736
 40
1.417246588401181
 40
1.426947497576852
 40
1.436648394282922
 40
1.446730053424919
 40
1.456811719145209
 40
1.46708707755485
 40
1.477362429465216
 40
1.487386516318103
 40
1.497410603920162
 40
1.507706895490913
 40
1.518003185885487
 40
1.540475045286029
 40
1.562946910873526
 40
1.562946910873526
 40
1.562946910873526
 40
1.562946910873526
 10
55.0342574121
 20
176.807591815
 30
0.0
 10
55.0272176985476
 20
176.809094547203
 30
0.0
 10
55.01313827912143
 20
176.8121000099698
 30
0.0
 10
54.99592034205119
 20
176.8161682983298
 30
0.0
 10
54.98255422094967
 20
176.8195453854879
 30
0.0
 10
54.97308750629129
 20
176.8220498899746
 30
0.0
 10
54.96373646519178
 20
176.8246389045966
 30
0.0
 10
54.95286971591959
 20
176.8277811526846
 30
0.0
 10
54.94042399476925
 20
176.8315750236061
 30
0.0
 10
54.92658859586493
 20
176.836046895435
 30
0.0
 10
54.91298607536104
 20
176.8406817198052
 30
0.0
 10
54.90104800193632
 20
176.8449656413806
 30
0.0
 10
54.89059272084446
 20
176.8488846319196
 30
0.0
 10
54.88158361850779
 20
176.852393200564
 30
0.0
 10
54.87260663934666
 20
176.8560363296581
 30
0.0
 10
54.86355330101526
 20
176.8598553262931
 30
0.0
 10
54.85444379123613
 20
176.8638424075024
 30
0.0
 10
54.84518518931359
 20
176.86803512143
 30
0.0
 10
54.83588463105485
 20
176.8723805600745
 30
0.0
 10
54.82658048359166
 20
176.8768650539346
 30
0.0
 10
54.81736578459233
 20
176.8814433890229
 30
0.0
 10
54.80824392066144
 20
176.8861108719931
 30
0.0
 10
54.79918063766044
 20
176.8908832196252
 30
0.0
 10
54.79025350686948
 20
176.8957171640403
 30
0.0
 10
54.78145833937876
 20
176.9006098516153
 30
0.0
 10
54.77281529296313
 20
176.9055479527614
 30
0.0
 10
54.7642496049463
 20
176.9105741398379
 30
0.0
 10
54.75582902472563
 20
176.9156502384574
 30
0.0
 10
54.74753507644522
 20
176.9207870375657
 30
0.0
 10
54.73937295738104
 20
176.925984576168
 30
0.0
 10
54.73128222749182
 20
176.9312871912559
 30
0.0
 10
54.72307921159232
 20
176.9368221749297
 30
0.0
 10
54.71477077013574
 20
176.9426016819649
 30
0.0
 10
54.70635343096973
 20
176.9486330966974
 30
0.0
 10
54.69800949959082
 20
176.9547811160507
 30
0.0
 10
54.68953344383344
 20
176.9611961284264
 30
0.0
 10
54.68093811997065
 20
176.9678771103532
 30
0.0
 10
54.67221399817018
 20
176.9748384364148
 30
0.0
 10
54.6635613995709
 20
176.9819172082505
 30
0.0
 10
54.65459820489352
 20
176.9894217949501
 30
0.0
 10
54.64534542680677
 20
176.9973468040832
 30
0.0
 10
54.63580866922499
 20
177.0057084250278
 30
0.0
 10
54.62636091135121
 20
177.0141823783897
 30
0.0
 10
54.61684333216482
 20
177.0229164783242
 30
0.0
 10
54.60726993495633
 20
177.0319117280519
 30
0.0
 10
54.59765339652458
 20
177.041170659516
 30
0.0
 10
54.58815532838959
 20
177.0505431395974
 30
0.0
 10
54.57846729517208
 20
177.0603357927748
 30
0.0
 10
54.5685974508498
 20
177.0705617971986
 30
0.0
 10
54.55854722652195
 20
177.0812405032255
 30
0.0
 10
54.54861845949421
 20
177.0920529399717
 30
0.0
 10
54.53867347538397
 20
177.1031524342974
 30
0.0
 10
54.52873010177689
 20
177.1145315040747
 30
0.0
 10
54.51879477628991
 20
177.1261942214632
 30
0.0
 10
54.50900493352994
 20
177.1379809226
 30
0.0
 10
54.49920809190851
 20
177.1500727720843
 30
0.0
 10
54.48941080615059
 20
177.1624705981883
 30
0.0
 10
54.4796158367371
 20
177.1751820468602
 30
0.0
 10
54.46997040033472
 20
177.1880156987204
 30
0.0
 10
54.46048563561514
 20
177.2009553837314
 30
0.0
 10
54.45116563995198
 20
177.2139929729448
 30
0.0
 10
54.44202219160979
 20
177.2271131504529
 30
0.0
 10
54.43304729703102
 20
177.2403286092075
 30
0.0
 10
54.42429628101981
 20
177.2535566111312
 30
0.0
 10
54.41575843419337
 20
177.2668076836818
 30
0.0
 10
54.40743306471924
 20
177.2800765917095
 30
0.0
 10
54.39926928589399
 20
177.2934434679465
 30
0.0
 10
54.39131691070483
 20
177.3068242402066
 30
0.0
 10
54.38357268600505
 20
177.3202163913764
 30
0.0
 10
54.37603657283213
 20
177.3336136838217
 30
0.0
 10
54.3686625151983
 20
177.3470972005845
 30
0.0
 10
54.3615325148518
 20
177.3605164725588
 30
0.0
 10
54.35464149019214
 20
177.3738698974068
 30
0.0
 10
54.34798336831798
 20
177.38715712861
 30
0.0
 10
54.34148300158247
 20
177.4005273384618
 30
0.0
 10
54.33519409286521
 20
177.4138668292724
 30
0.0
 10
54.32911480447263
 20
177.4271673285031
 30
0.0
 10
54.32324130724955
 20
177.4404198190483
 30
0.0
 10
54.31752092839393
 20
177.4537340737511
 30
0.0
 10
54.31205689986589
 20
177.4668618927805
 30
0.0
 10
54.30683852971715
 20
177.4798018559863
 30
0.0
 10
54.3018674521698
 20
177.4925388158928
 30
0.0
 10
54.29704980631173
 20
177.5053207289912
 30
0.0
 10
54.29245102740136
 20
177.5179806573799
 30
0.0
 10
54.28806481146986
 20
177.5305279959811
 30
0.0
 10
54.28388992513294
 20
177.5429507718747
 30
0.0
 10
54.27987044374552
 20
177.5554152624412
 30
0.0
 10
54.27604950301888
 20
177.5677927452946
 30
0.0
 10
54.27242276504018
 20
177.5800890807234
 30
0.0
 10
54.26897750589735
 20
177.5923005939428
 30
0.0
 10
54.26566931497827
 20
177.6045519805186
 30
0.0
 10
54.26247287467811
 20
177.6169060024766
 30
0.0
 10
54.25938274715382
 20
177.6293578472037
 30
0.0
 10
54.25638919868397
 20
177.6419459130647
 30
0.0
 10
54.25350748933566
 20
177.6546019556106
 30
0.0
 10
54.25070735431769
 20
177.6674516916979
 30
0.0
 10
54.24799806406881
 20
177.6804542018501
 30
0.0
 10
54.24538227452808
 20
177.6936143261679
 30
0.0
 10
54.2428863514082
 20
177.7068031322973
 30
0.0
 10
54.24056300932735
 20
177.7197449648253
 30
0.0
 10
54.23840730417944
 20
177.7324323121651
 30
0.0
 10
54.23641645873413
 20
177.7448364455639
 30
0.0
 10
54.23454464612387
 20
177.7572319916588
 30
0.0
 10
54.23283414632319
 20
177.7693144131667
 30
0.0
 10
54.23127154033902
 20
177.7811078234026
 30
0.0
 10
54.22986167909992
 20
177.7924678439836
 30
0.0
 10
54.22855695714008
 20
177.8036965370426
 30
0.0
 10
54.22740543808815
 20
177.8143564105399
 30
0.0
 10
54.22638280556931
 20
177.8245878341073
 30
0.0
 10
54.22548173763005
 20
177.8343740304146
 30
0.0
 10
54.22466126673723
 20
177.8441518783869
 30
0.0
 10
54.22391445554918
 20
177.8538881493458
 30
0.0
 10
54.22323036122991
 20
177.8635969915824
 30
0.0
 10
54.22259694722324
 20
177.8734044322733
 30
0.0
 10
54.22201127133974
 20
177.8833419832068
 30
0.0
 10
54.22147197497804
 20
177.8934739222403
 30
0.0
 10
54.22098736128677
 20
177.9036732653521
 30
0.0
 10
54.22056403049393
 20
177.9138561308157
 30
0.0
 10
54.22020507644393
 20
177.923957657411
 30
0.0
 10
54.21990586250859
 20
177.9340681102175
 30
0.0
 10
54.21966474452449
 20
177.9442708842386
 30
0.0
 10
54.21940860042321
 20
177.9586234568797
 30
0.0
 10
54.21922737894091
 20
177.9770363963194
 30
0.0
 10
54.21924740104606
 20
177.9920177004191
 30
0.0
 10
54.2192574121
 20
177.9995083535
 30
0.0
 11
55.0342574121
 21
176.807591815
 31
0.0
 11
55.01315513344079
 21
176.8121763401132
 31
0.0
 11
54.99213887717736
 21
176.8171402086147
 31
0.0
 11
54.98255879631199
 21
176.819563174907
 31
0.0
 11
54.97300593298898
 21
176.8220912797974
 31
0.0
 11
54.96374144736793
 21
176.8246564453208
 31
0.0
 11
54.9545066821163
 21
176.8273267912527
 31
0.0
 11
54.9404363919486
 21
176.8316141351214
 31
0.0
 11
54.92643956334197
 21
176.83613642277
 31
0.0
 11
54.9129986054558
 21
176.8407178006784
 31
0.0
 11
54.89963351830821
 21
176.8455154179998
 31
0.0
 11
54.89059998614291
 21
176.848903806288
 31
0.0
 11
54.8816105121859
 21
176.8524070628906
 31
0.0
 11
54.87261511747737
 21
176.8560567453924
 31
0.0
 11
54.86367036719017
 21
176.8598290174648
 31
0.0
 11
54.85445243978858
 21
176.8638617836774
 31
0.0
 11
54.84528624803603
 21
176.8680108753008
 31
0.0
 11
54.83589354924138
 21
176.8723993763654
 31
0.0
 11
54.8265544435902
 21
176.8769007347828
 31
0.0
 11
54.81737488128625
 21
176.881461422912
 31
0.0
 11
54.80824987601759
 21
176.8861303262351
 31
0.0
 11
54.79918997764054
 21
176.8909007076541
 31
0.0
 11
54.79018610956084
 21
176.8957760221974
 31
0.0
 11
54.7814676582003
 21
176.9006263902142
 31
0.0
 11
54.77280515616363
 21
176.9055759690799
 31
0.0
 11
54.76425960593807
 21
176.9105909560399
 31
0.0
 11
54.75577406659326
 21
176.9157068370477
 31
0.0
 11
54.74754580124418
 21
176.9208041336904
 31
0.0
 11
54.73938196064907
 21
176.9260039591904
 31
0.0
 11
54.73129420086587
 21
176.9313052048304
 31
0.0
 11
54.72327832044999
 21
176.9367145069005
 31
0.0
 11
54.71478468069136
 21
176.9426213387617
 31
0.0
 11
54.70637431691965
 21
176.9486462445122
 31
0.0
 11
54.69802279115447
 21
176.9547989137341
 31
0.0
 11
54.68975101254683
 21
176.9610583699143
 31
0.0
 11
54.6809527771638
 21
176.9678957072701
 31
0.0
 11
54.67224242621248
 21
176.9748446732199
 31
0.0
 11
54.66357494291049
 21
176.9819335410818
 31
0.0
 11
54.65498858731637
 21
176.9891205148288
 31
0.0
 11
54.64536145415545
 21
176.9973652869735
 31
0.0
 11
54.63583043488522
 21
177.0057209994829
 31
0.0
 11
54.62637709938949
 21
177.0142002222014
 31
0.0
 11
54.61702089604226
 21
177.0227865036116
 31
0.0
 11
54.60728862076333
 21
177.0319313772496
 31
0.0
 11
54.5976684771916
 21
177.0411941307705
 31
0.0
 11
54.58817422779542
 21
177.0505620463674
 31
0.0
 11
54.57879330203801
 21
177.0600434754408
 31
0.0
 11
54.56861971083136
 21
177.0705829898524
 31
0.0
 11
54.55857958018776
 21
177.0812497644773
 31
0.0
 11
54.5486406380969
 21
177.0920730594992
 31
0.0
 11
54.53883477701143
 21
177.1030170605922
 31
0.0
 11
54.52875441958376
 21
177.11455248077
 31
0.0
 11
54.51881994943616
 21
177.1262137845514
 31
0.0
 11
54.50902899415986
 21
177.1380006478868
 31
0.0
 11
54.49938234882154
 21
177.149905928423
 31
0.0
 11
54.48943658904888
 21
177.162490708523
 31
0.0
 11
54.47964548678336
 21
177.1751962015732
 31
0.0
 11
54.46999614319132
 21
177.1880348065368
 31
0.0
 11
54.46050125784919
 21
177.2009880563664
 31
0.0
 11
54.45119176239294
 21
177.2140114154669
 31
0.0
 11
54.44203901890813
 21
177.2271454049765
 31
0.0
 11
54.43307407537775
 21
177.2403465616273
 31
0.0
 11
54.42426981335593
 21
177.2536554159406
 31
0.0
 11
54.4157849156736
 21
177.2668245246763
 31
0.0
 11
54.40745891843255
 21
177.2800946611932
 31
0.0
 11
54.3992962404065
 21
177.2934597081207
 31
0.0
 11
54.39129528959783
 21
177.3069221960195
 31
0.0
 11
54.38359914596047
 21
177.3202314850235
 31
0.0
 11
54.37606176883783
 21
177.3336313235777
 31
0.0
 11
54.36868970404164
 21
177.3471118637313
 31
0.0
 11
54.3614807942169
 21
177.360680342285
 31
0.0
 11
54.35466771846056
 21
177.3738832400662
 31
0.0
 11
54.34801202722711
 21
177.3871661644096
 31
0.0
 11
54.34150979227465
 21
177.4005401683678
 31
0.0
 11
54.33516831051922
 21
177.4139911335896
 31
0.0
 11
54.32914022646985
 21
177.4271787688727
 31
0.0
 11
54.32326466585956
 21
177.4404350651903
 31
0.0
 11
54.31754625308487
 21
177.4537447842003
 31
0.0
 11
54.3119797886558
 21
177.4671187646437
 31
0.0
 11
54.30686231549981
 21
177.4798113073734
 31
0.0
 11
54.3018875982993
 21
177.4925604532748
 31
0.0
 11
54.29707542443246
 21
177.5053302175653
 31
0.0
 11
54.29241698274583
 21
177.5181568512222
 31
0.0
 11
54.28808980080048
 21
177.5305365609811
 31
0.0
 11
54.2839125501413
 21
177.5429676735811
 31
0.0
 11
54.27989649395285
 21
177.5554235022035
 31
0.0
 11
54.27603678718066
 21
177.5679286188237
 31
0.0
 11
54.27244679636217
 21
177.5800960020181
 31
0.0
 11
54.26900096482621
 21
177.5923050146218
 31
0.0
 11
54.26569089622922
 21
177.6045576750994
 31
0.0
 11
54.26251029099594
 21
177.6168445927449
 31
0.0
 11
54.25940317644718
 21
177.6293628151159
 31
0.0
 11
54.25641864552328
 21
177.6419108119412
 31
0.0
 11
54.25352722820978
 21
177.6546063452925
 31
0.0
 11
54.25075422900258
 21
177.6673282846126
 31
0.0
 11
54.24801825669662
 21
177.6804583101945
 31
0.0
 11
54.245403436278
 21
177.693613003431
 31
0.0
 11
54.24290704730314
 21
177.7068069565553
 31
0.0
 11
54.24053484666094
 21
177.7200237849592
 31
0.0
 11
54.23842626945297
 21
177.7324354473979
 31
0.0
 11
54.23643148669137
 21
177.7448659040789
 31
0.0
 11
54.23456370610447
 21
177.7572347863619
 31
0.0
 11
54.2328102937994
 21
177.7696203815693
 31
0.0
 11
54.23128735754363
 21
177.7811098462257
 31
0.0
 11
54.22985931694141
 21
177.7926115054404
 31
0.0
 11
54.22857187475409
 21
177.8036982202112
 31
0.0
 11
54.22737394830385
 21
177.8147949422101
 31
0.0
 11
54.22639554625059
 21
177.8245890693166
 31
0.0
 11
54.2254935985076
 21
177.8343905045836
 31
0.0
 11
54.22467292283815
 21
177.8441527993164
 31
0.0
 11
54.223922173265
 21
177.8539207521455
 31
0.0
 11
54.22323979670024
 21
177.8635976318625
 31
0.0
 11
54.22261403465163
 21
177.8732783249555
 31
0.0
 11
54.22202081790095
 21
177.883342516177
 31
0.0
 11
54.22148487897913
 21
177.8934099266269
 31
0.0
 11
54.22099750587853
 21
177.9036737201706
 31
0.0
 11
54.22057099707648
 21
177.9139402165118
 31
0.0
 11
54.22021498476315
 21
177.9239579793592
 31
0.0
 11
54.21991836319228
 21
177.9339776773535
 31
0.0
 11
54.21967466734402
 21
177.9442710845855
 31
0.0
 11
54.21948964924185
 21
177.9545657125142
 31
0.0
 11
54.21926924529329
 21
177.9770364910281
 31
0.0
 11
54.2192574121
 21
177.9995083535
 31
0.0
  0
SPLINE
  5
99
330
1F
100
AcDbEntity
  8
0
  6
Continuous
 62
     7
100
AcDbSpline
210
0.0
220
0.0
230
1.0
 70
     8
 71
     3
 72
   129
 73
   125
 74
   123
 42
0.0000000001
 43
0.0000000001
 44
0.00000001
 40
0.0
 40
0.0
 40
0.0
 40
0.0
 40
0.0224718825828133
 40
0.0449437589778909
 40
0.0552400571857865
 40
0.0655363565700587
 40
0.0755604517836986
 40
0.0855845462484397
 40
0.0958599060226867
 40
0.106135272296163
 40
0.1162169457341314
 40
0.1262986125935995
 40
0.1359995167317955
 40
0.1457004333398121
 40
0.1554972020624248
 40
0.1652939391214371
 40
0.1751367941035896
 40
0.1849796771945701
 40
0.1961408808284281
 40
0.2073021061846747
 40
0.2188920880535312
 40
0.2304820556111166
 40
0.2429911595634125
 40
0.2555002806994791
 40
0.2680897871309919
 40
0.2806792955788544
 40
0.2941073333126042
 40
0.3075353884736586
 40
0.3209474557439344
 40
0.3343595184015805
 40
0.3473801783836055
 40
0.3604008228701601
 40
0.3732988836469101
 40
0.3861969600457253
 40
0.3988888842926244
 40
0.4115807946731356
 40
0.4242667747856518
 40
0.4369527353546502
 40
0.4500399657434408
 40
0.4631272380029348
 40
0.4762414404334478
 40
0.4893556327130952
 40
0.5030020200926941
 40
0.5166484180044475
 40
0.5303337680679123
 40
0.5440191415146776
 40
0.5585053080101947
 40
0.5729914740100429
 40
0.5874915341438645
 40
0.6019915914197163
 40
0.6168624667481813
 40
0.631733348297255
 40
0.6465904806450209
 40
0.6614476199311422
 40
0.6768122512372523
 40
0.6921768926662374
 40
0.7075511446360901
 40
0.7229253989967425
 40
0.7385859741372478
 40
0.754246549203009
 40
0.7699123901590342
 40
0.7855782362323588
 40
0.8015356912550929
 40
0.8174931499294913
 40
0.8335017144151083
 40
0.8495102849653944
 40
0.8655707739600901
 40
0.8816312654566417
 40
0.8976716838951176
 40
0.9137120895658531
 40
0.929035053475289
 40
0.9443580004683071
 40
0.9596772516287528
 40
0.9749964969650007
 40
0.9896909106120746
 40
1.004385331522466
 40
1.019034018150603
 40
1.033682671254743
 40
1.047020546237623
 40
1.060358396812335
 40
1.073712999375071
 40
1.087067606836263
 40
1.099766520166215
 40
1.112465433510519
 40
1.125140522803394
 40
1.137815600291675
 40
1.149012818537171
 40
1.16021000196748
 40
1.171352620333581
 40
1.182495229119696
 40
1.192868402194487
 40
1.203241585302355
 40
1.213587275968069
 40
1.223932912066117
 40
1.233603201760826
 40
1.243273500551245
 40
1.252952658250975
 40
1.262631831717622
 40
1.272540223687597
 40
1.282448610934868
 40
1.29242542840585
 40
1.302402255476118
 40
1.312641295511718
 40
1.322880333847605
 40
1.333130406405912
 40
1.343380472179448
 40
1.353747763489221
 40
1.364115084231461
 40
1.374176578258484
 40
1.384238040300621
 40
1.393945679222853
 40
1.403653251910664
 40
1.41330121086082
 40
1.422949295728656
 40
1.437149365017618
 40
1.451349634514929
 40
1.466058867200166
 40
1.480767830877183
 40
1.490380910949527
 40
1.499993945840692
 40
1.509875654455191
 40
1.51975737334295
 40
1.541351848608325
 40
1.562946347428089
 40
1.562946347428089
 40
1.562946347428089
 40
1.562946347428089
 10
54.2192574121
 20
226.5517468766
 30
0.0
 10
54.21924739121679
 20
226.5592375353338
 30
0.0
 10
54.21922734945312
 20
226.5742188507388
 30
0.0
 10
54.21940854924257
 20
226.5926318043385
 30
0.0
 10
54.21966467772027
 20
226.6069843881347
 30
0.0
 10
54.21990578524873
 20
226.6171871701526
 30
0.0
 10
54.22020498946966
 20
226.6272976309302
 30
0.0
 10
54.22056393444314
 20
226.6373991655497
 30
0.0
 10
54.22098725671542
 20
226.6475820391554
 30
0.0
 10
54.22147186248536
 20
226.6577813904685
 30
0.0
 10
54.22201115155524
 20
226.6679133376686
 30
0.0
 10
54.2225968208445
 20
226.6778508966274
 30
0.0
 10
54.22323022888028
 20
226.6876583452479
 30
0.0
 10
54.22391431783598
 20
226.6973671953889
 30
0.0
 10
54.22466112422017
 20
226.7071034743213
 30
0.0
 10
54.22548159093789
 20
226.7168813303363
 30
0.0
 10
54.22638265541465
 20
226.7266675346685
 30
0.0
 10
54.22740528502904
 20
226.7368989666692
 30
0.0
 10
54.22855680180487
 20
226.747558848987
 30
0.0
 10
54.22986152215015
 20
226.7587875513518
 30
0.0
 10
54.23127138249647
 20
226.7701475812827
 30
0.0
 10
54.23283398836615
 20
226.7819410012473
 30
0.0
 10
54.23454448893369
 20
226.7940234327255
 30
0.0
 10
54.23641630326186
 20
226.8064189890152
 30
0.0
 10
54.23840715133662
 20
226.8188231324697
 30
0.0
 10
54.24056286011
 20
226.8315104900788
 30
0.0
 10
54.24288620685741
 20
226.8444523330564
 30
0.0
 10
54.24538213571932
 20
226.8576411497962
 30
0.0
 10
54.24799793191197
 20
226.8708012845148
 30
0.0
 10
54.25070722971416
 20
226.8838038051338
 30
0.0
 10
54.25350737315519
 20
226.8966535517406
 30
0.0
 10
54.25638909177792
 20
226.9093096048997
 30
0.0
 10
54.25938265037205
 20
226.9218976811589
 30
0.0
 10
54.26247278890718
 20
226.9343495364317
 30
0.0
 10
54.26566924110938
 20
226.9467035690114
 30
0.0
 10
54.26897744485285
 20
226.9589549662776
 30
0.0
 10
54.2724227177213
 20
226.9711664898441
 30
0.0
 10
54.276049470331
 20
226.983462834751
 30
0.0
 10
54.27987042662315
 20
226.9958403261462
 30
0.0
 10
54.28388992449003
 20
227.0083048242963
 30
0.0
 10
54.28806482820445
 20
227.0207276072993
 30
0.0
 10
54.29245106234011
 20
227.0332749518111
 30
0.0
 10
54.29704986023952
 20
227.0459348848977
 30
0.0
 10
54.30186752581954
 20
227.0587168014038
 30
0.0
 10
54.30683862380825
 20
227.0714537641502
 30
0.0
 10
54.31205701477467
 20
227.0843937279019
 30
0.0
 10
54.3175210644436
 20
227.0975215452527
 30
0.0
 10
54.32324146472211
 20
227.1108357960183
 30
0.0
 10
54.32911498394556
 20
227.1240882820889
 30
0.0
 10
54.33519429475552
 20
227.1373887755441
 30
0.0
 10
54.34148322626554
 20
227.1507282592854
 30
0.0
 10
54.34798361608108
 20
227.1640984607891
 30
0.0
 10
54.35464176139309
 20
227.1773856831372
 30
0.0
 10
54.36153280918518
 20
227.1907390968147
 30
0.0
 10
54.36866283225757
 20
227.2041583553327
 30
0.0
 10
54.37603691207154
 20
227.2176418563149
 30
0.0
 10
54.3835730474675
 20
227.2310391324908
 30
0.0
 10
54.39131729412333
 20
227.2444312661528
 30
0.0
 10
54.39926969095323
 20
227.257812019776
 30
0.0
 10
54.40743349102588
 20
227.2711788762853
 30
0.0
 10
54.41575888156203
 20
227.2844477642985
 30
0.0
 10
54.42429674893048
 20
227.2976988157915
 30
0.0
 10
54.4330477848867
 20
227.3109267956549
 30
0.0
 10
54.44202269879405
 20
227.324142231432
 30
0.0
 10
54.45116616610861
 20
227.337262385862
 30
0.0
 10
54.46048618057236
 20
227.3502999522273
 30
0.0
 10
54.4699709638151
 20
227.3632396146291
 30
0.0
 10
54.47961641845337
 20
227.3760732442404
 30
0.0
 10
54.48941140551494
 20
227.3887846707993
 30
0.0
 10
54.49920870767011
 20
227.401182474849
 30
0.0
 10
54.50900556436035
 20
227.4132743023234
 30
0.0
 10
54.51879542083907
 20
227.4250609815582
 30
0.0
 10
54.52873075925751
 20
227.4367236773265
 30
0.0
 10
54.53867414441855
 20
227.4481027256649
 30
0.0
 10
54.54861913868434
 20
227.4592021987791
 30
0.0
 10
54.55854791439337
 20
227.4700146145605
 30
0.0
 10
54.56859814644167
 20
227.4806933000843
 30
0.0
 10
54.57846799623732
 20
227.4909192840405
 30
0.0
 10
54.58815603275844
 20
227.5007119168687
 30
0.0
 10
54.59765410206257
 20
227.5100843767656
 30
0.0
 10
54.60727064072962
 20
227.5193432887658
 30
0.0
 10
54.61684403677474
 20
227.5283385196785
 30
0.0
 10
54.62636161340895
 20
227.5370726014704
 30
0.0
 10
54.63580936740591
 20
227.5455465373001
 30
0.0
 10
54.64534612027821
 20
227.5539081414382
 30
0.0
 10
54.65459889185372
 20
227.5618331340604
 30
0.0
 10
54.6635620783356
 20
227.5693377045018
 30
0.0
 10
54.67221466708894
 20
227.5764164602876
 30
0.0
 10
54.68093877839087
 20
227.583377770952
 30
0.0
 10
54.6895340907554
 20
227.5900587379952
 30
0.0
 10
54.69801013408264
 20
227.5964737359937
 30
0.0
 10
54.70635405213842
 20
227.6026217414487
 30
0.0
 10
54.71477137746754
 20
227.6086531429113
 30
0.0
 10
54.72307980431124
 20
227.6144326371717
 30
0.0
 10
54.73128280486144
 20
227.6199676085547
 30
0.0
 10
54.73937351873319
 20
227.6252702117858
 30
0.0
 10
54.74753562142968
 20
227.6304677390696
 30
0.0
 10
54.75582955316216
 20
227.6356045274303
 30
0.0
 10
54.76425011668509
 20
227.6406806158254
 30
0.0
 10
54.77281578790185
 20
227.6457067932065
 30
0.0
 10
54.78145881730575
 20
227.6506448850976
 30
0.0
 10
54.79025396764912
 20
227.6555375638837
 30
0.0
 10
54.79918108114314
 20
227.6603714999473
 30
0.0
 10
54.80824434670555
 20
227.6651438396647
 30
0.0
 10
54.81736619300855
 20
227.6698113151136
 30
0.0
 10
54.82658087425038
 20
227.6743896430995
 30
0.0
 10
54.83588500383882
 20
227.6788741302718
 30
0.0
 10
54.84518554428781
 20
227.6832195626932
 30
0.0
 10
54.85444412843343
 20
227.6874122708101
 30
0.0
 10
54.86355362074548
 20
227.691399346718
 30
0.0
 10
54.87260694175745
 20
227.6952183385063
 30
0.0
 10
54.88158390379023
 20
227.6988614632012
 30
0.0
 10
54.89059298892404
 20
227.7023700278114
 30
0.0
 10
54.90104825016876
 20
227.706289014099
 30
0.0
 10
54.91298630104761
 20
227.7105729313201
 30
0.0
 10
54.92658879598845
 20
227.7152077513394
 30
0.0
 10
54.9404241689312
 20
227.7196796192925
 30
0.0
 10
54.95286986678758
 20
227.7234734872349
 30
0.0
 10
54.96373659577266
 20
227.7266157330894
 30
0.0
 10
54.97308761945949
 20
227.7292047460299
 30
0.0
 10
54.98255431651845
 20
227.7317092490445
 30
0.0
 10
54.99592041281877
 20
227.7350863344263
 30
0.0
 10
55.01313831802911
 20
227.7391546210177
 30
0.0
 10
55.02721771151683
 20
227.7421600828596
 30
0.0
 10
55.0342574121
 20
227.7436628146
 30
0.0
 11
54.2192574121
 21
226.5517468766
 31
0.0
 11
54.21926921630774
 21
226.5742187560825
 31
0.0
 11
54.21948959374051
 21
226.5966895518517
 31
0.0
 11
54.21967460064937
 21
226.6069841877962
 31
0.0
 11
54.21991828595087
 21
226.6172776030936
 31
0.0
 11
54.22021489789307
 21
226.6272973089879
 31
0.0
 11
54.22057090120216
 21
226.637315079772
 31
0.0
 11
54.22099740141022
 21
226.6475815843408
 31
0.0
 11
54.22148476653504
 21
226.6578453861359
 31
0.0
 11
54.22202069821093
 21
226.6679128047002
 31
0.0
 11
54.22261390828265
 21
226.6779770040462
 31
0.0
 11
54.22323966444131
 21
226.6876577049676
 31
0.0
 11
54.22392203566026
 21
226.6973345925124
 31
0.0
 11
54.22467278042902
 21
226.7071025533895
 31
0.0
 11
54.2254934519416
 21
226.7168648561543
 31
0.0
 11
54.22639539620933
 21
226.726666299453
 31
0.0
 11
54.22737379546792
 21
226.7364604345569
 31
0.0
 11
54.22857171954684
 21
226.7475571658079
 31
0.0
 11
54.22985916013084
 21
226.7586438897693
 31
0.0
 11
54.23128719983099
 21
226.7701455584454
 31
0.0
 11
54.23281013596411
 21
226.7816350324769
 31
0.0
 11
54.23456354906698
 21
226.7940206380003
 31
0.0
 11
54.23643133136811
 21
226.8063895304678
 31
0.0
 11
54.23842611675842
 21
226.8188199972102
 31
0.0
 11
54.24053469748469
 21
226.8312316695504
 31
0.0
 11
54.24290690291093
 21
226.8444485087639
 31
0.0
 11
54.24540329762159
 21
226.8576424724919
 31
0.0
 11
54.24801812468892
 21
226.8707971761324
 31
0.0
 11
54.25075410453827
 21
226.8839272118901
 31
0.0
 11
54.25352711217235
 21
226.8966491620169
 31
0.0
 11
54.2564185387706
 21
226.909344705923
 31
0.0
 11
54.25940307980689
 21
226.9218927131992
 31
0.0
 11
54.26251020531706
 21
226.9344109457363
 31
0.0
 11
54.26569082250533
 21
226.9466978743758
 31
0.0
 11
54.26900090392701
 21
226.9589505455167
 31
0.0
 11
54.27244674919707
 21
226.971159568483
 31
0.0
 11
54.27603675467201
 21
226.9833269616404
 31
0.0
 11
54.27989647698444
 21
226.9958320863067
 31
0.0
 11
54.28391254963771
 21
227.0082879225146
 31
0.0
 11
54.2880898176772
 21
227.0207190422194
 31
0.0
 11
54.29241701785541
 21
227.0330987586041
 31
0.0
 11
54.29707547848935
 21
227.0459253962397
 31
0.0
 11
54.30188767207856
 21
227.0586951640068
 31
0.0
 11
54.30686240970559
 21
227.0714443126805
 31
0.0
 11
54.31197990397681
 21
227.0841368576877
 31
0.0
 11
54.31754638923339
 21
227.0975108347187
 31
0.0
 11
54.32326482342841
 21
227.110820549807
 31
0.0
 11
54.32914040603445
 21
227.124076841631
 31
0.0
 11
54.33516851262934
 21
227.1372644718914
 31
0.0
 11
54.34151001702949
 21
227.1507154292914
 31
0.0
 11
54.348012275058
 21
227.1640894249014
 31
0.0
 11
54.3546679897143
 21
227.1773723403952
 31
0.0
 11
54.3614810892101
 21
227.1905752288302
 31
0.0
 11
54.36869002112109
 21
227.2041436921137
 31
0.0
 11
54.37606210812478
 21
227.2176242165638
 31
0.0
 11
54.38359950742618
 21
227.2310240387792
 31
0.0
 11
54.39129567326218
 21
227.2443333110572
 31
0.0
 11
54.39929664544287
 21
227.2577957795491
 31
0.0
 11
54.40745934470365
 21
227.2711608067533
 31
0.0
 11
54.41578536300404
 21
227.2844309232607
 31
0.0
 11
54.42427028151636
 21
227.297600011727
 31
0.0
 11
54.43307456317123
 21
227.3109088432063
 31
0.0
 11
54.44203952596169
 21
227.3241099768512
 31
0.0
 11
54.45119228847071
 21
227.3372439433253
 31
0.0
 11
54.46050180247828
 21
227.3502672793038
 31
0.0
 11
54.46999670657625
 21
227.3632205068135
 31
0.0
 11
54.47964606835191
 21
227.3760590894624
 31
0.0
 11
54.4894371882995
 21
227.3887645604829
 31
0.0
 11
54.49938296507221
 21
227.4013493186637
 31
0.0
 11
54.50902962486538
 21
227.4132545770736
 31
0.0
 11
54.5188205938475
 21
227.4250414185055
 31
0.0
 11
54.52875507692591
 21
227.4367027006855
 31
0.0
 11
54.53883544645391
 21
227.4482380995885
 31
0.0
 11
54.54864131714278
 21
227.4591820793246
 31
0.0
 11
54.55858026797164
 21
227.4700053534278
 31
0.0
 11
54.56862040626685
 21
227.4806721075237
 31
0.0
 11
54.57879400418742
 21
227.4912116019668
 31
0.0
 11
54.58817493201122
 21
227.5006930102074
 31
0.0
 11
54.59766918255644
 21
227.510060905624
 31
0.0
 11
54.60728932637605
 21
227.5193236396966
 31
0.0
 11
54.61702160093992
 21
227.5284684946575
 31
0.0
 11
54.62637780130417
 21
227.5370547577856
 31
0.0
 11
54.63583113295751
 21
227.5455339629829
 31
0.0
 11
54.64536214749835
 21
227.5538896586694
 31
0.0
 11
54.65498927515915
 21
227.5621344147202
 31
0.0
 11
54.66357562156935
 21
227.5693213717787
 31
0.0
 11
54.67224309505345
 21
227.5764102236021
 31
0.0
 11
54.68095343548252
 21
227.5833591741461
 31
0.0
 11
54.68975165973467
 21
227.5901964967631
 31
0.0
 11
54.69802342555825
 21
227.5964559384155
 31
0.0
 11
54.70637493801053
 21
227.6026085937405
 31
0.0
 11
54.71478528794144
 21
227.6086334862201
 31
0.0
 11
54.72327891337036
 21
227.6145403054442
 31
0.0
 11
54.73129477816867
 21
227.6199495950754
 31
0.0
 11
54.73938252193278
 21
227.6252508288471
 31
0.0
 11
54.74754634617594
 21
227.6304506430268
 31
0.0
 11
54.75577459485607
 21
227.6355479288394
 31
0.0
 11
54.76426011763363
 21
227.6406637996961
 31
0.0
 11
54.77280565103286
 21
227.6456787769407
 31
0.0
 11
54.78146813609002
 21
227.6506283465669
 31
0.0
 11
54.79018657024725
 21
227.6554787057532
 31
0.0
 11
54.79919042109012
 21
227.6603540119846
 31
0.0
 11
54.80825030203173
 21
227.6651243854886
 31
0.0
 11
54.81737528967297
 21
227.6697932812893
 31
0.0
 11
54.82655483417258
 21
227.6743539622846
 31
0.0
 11
54.83589392199978
 21
227.6788553140435
 31
0.0
 11
54.84528660281664
 21
227.6832438088248
 31
0.0
 11
54.85445277696363
 21
227.6873928946955
 31
0.0
 11
54.86367068662717
 21
227.6914256555191
 31
0.0
 11
54.87261541986925
 21
227.695197922831
 31
0.0
 11
54.88161079742006
 21
227.6988476009275
 31
0.0
 11
54.89060025420844
 21
227.7023508534952
 31
0.0
 11
54.89963376911912
 21
227.7057392380625
 31
0.0
 11
54.91299883112262
 21
227.7105368505368
 31
0.0
 11
54.92643976374386
 21
227.7151182241373
 31
0.0
 11
54.94043656609462
 21
227.7196405078682
 31
0.0
 11
54.95450682991287
 21
227.7239278483651
 31
0.0
 11
54.96374157794391
 21
227.7265981924029
 31
0.0
 11
54.9730060463155
 21
227.7291633562594
 31
0.0
 11
54.98255889187764
 21
227.7316914596607
 31
0.0
 11
54.99213895496325
 21
227.7341144246734
 31
0.0
 11
55.01315517234534
 21
227.7390782910028
 31
0.0
 11
55.0342574121
 21
227.7436628146
 31
0.0
  0
SPLINE
  5
9A
330
1F
100
AcDbEntity
  8
0
  6
Continuous
 62
     7
100
AcDbSpline
210
0.0
220
0.0
230
1.0
 70
     8
 71
     3
 72
     9
 73
     5
 74
     3
 42
0.0000000001
 43
0.0000000001
 44
0.00000001
 40
0.0
 40
0.0
 40
0.0
 40
0.0
 40
0.0861382853110845
 40
0.17227657062203
 40
0.17227657062203
 40
0.17227657062203
 40
0.17227657062203
 10
55.0342574121
 20
227.7436628146
 30
0.0
 10
55.05474127365371
 20
227.7638071173458
 30
0.0
 10
55.09570899676113
 20
227.8040957228375
 30
0.0
 10
55.14018614765372
 20
227.8404730388125
 30
0.0
 10
55.1624247231
 20
227.8586616968
 30
0.0
 11
55.0342574121
 21
227.7436628146
 31
0.0
 11
55.09658635370745
 21
227.8031179004584
 31
0.0
 11
55.1624247231
 21
227.8586616968
 31
0.0
  0
SPLINE
  5
9B
330
1F
100
AcDbEntity
  8
0
  6
Continuous
 62
     7
100
AcDbSpline
210
0.0
220
0.0
230
1.0
 70
     8
 71
     3
 72
    63
 73
    59
 74
    57
 42
0.0000000001
 43
0.0000000001
 44
0.00000001
 40
0.0
 40
0.0
 40
0.0
 40
0.0
 40
0.0325707599821476
 40
0.0651413926592426
 40
0.0800492933419872
 40
0.0949571735378476
 40
0.1094547848497657
 40
0.1239525284099286
 40
0.1461798731453167
 40
0.1684078833865228
 40
0.1899022397721216
 40
0.2113961790586534
 40
0.2263161209886642
 40
0.2412358312017248
 40
0.2562551932502172
 40
0.2712746972319612
 40
0.287036218714708
 40
0.3027977607469566
 40
0.3190172487278774
 40
0.3352367007817905
 40
0.351413344635462
 40
0.3675899973145916
 40
0.3837456655096367
 40
0.3999013460021916
 40
0.415966194589114
 40
0.4320310243110599
 40
0.4481020674414839
 40
0.4641731239689216
 40
0.4803268061944873
 40
0.4964804926217274
 40
0.5126488522825517
 40
0.5288171606108686
 40
0.5449907560548577
 40
0.5611644035922934
 40
0.5773244387922621
 40
0.5934844718918583
 40
0.6095568241682829
 40
0.6256291656370107
 40
0.6415575801932435
 40
0.657485997234094
 40
0.6732174226356212
 40
0.6889488420324313
 40
0.7041896043346902
 40
0.7194303786722621
 40
0.7357525383211927
 40
0.7520746649792124
 40
0.7684124233125716
 40
0.784750241864443
 40
0.8114169434469783
 40
0.8380838096447214
 40
0.8659755583428482
 40
0.893867121009781
 40
0.9129917753411203
 40
0.9321164178634339
 40
0.9517889895322295
 40
0.9714615646729234
 40
1.014188739649377
 40
1.056915920500246
 40
1.056915920500246
 40
1.056915920500246
 40
1.056915920500246
 10
56.1138774688
 20
228.2756276151
 30
0.0
 10
56.10302284899484
 20
228.2753737554946
 30
0.0
 10
56.08131365181058
 20
228.2748660372761
 30
0.0
 10
56.05467248526752
 20
228.2732451314164
 30
0.0
 10
56.03395100788153
 20
228.2714871788701
 30
0.0
 10
56.01925500531455
 20
228.2699913694643
 30
0.0
 10
56.00472170723737
 20
228.2682687883788
 30
0.0
 10
55.98779939358108
 20
228.2659914008541
 30
0.0
 10
55.96837610667627
 20
228.2629966284374
 30
0.0
 10
55.94672565469128
 20
228.2591771277627
 30
0.0
 10
55.92539475923283
 20
228.2549790548429
 30
0.0
 10
55.90652899130205
 20
228.2508892873775
 30
0.0
 10
55.88986608358773
 20
228.2469961374589
 30
0.0
 10
55.87535352567203
 20
228.2433914095141
 30
0.0
 10
55.86086373357094
 20
228.239564199482
 30
0.0
 10
55.84615771546201
 20
228.2354628094993
 30
0.0
 10
55.83126879387426
 20
228.2311012325135
 30
0.0
 10
55.81605195721153
 20
228.2264407188377
 30
0.0
 10
55.80074347714444
 20
228.2215617338966
 30
0.0
 10
55.78536015279528
 20
228.2164653666984
 30
0.0
 10
55.77004865157697
 20
228.21120091252
 30
0.0
 10
55.75481582627603
 20
228.2057760633668
 30
0.0
 10
55.73964840492809
 20
228.2001911904951
 30
0.0
 10
55.72457458261782
 20
228.1944625460903
 30
0.0
 10
55.70958723725741
 20
228.1885939009275
 30
0.0
 10
55.69468601659493
 20
228.1825849096468
 30
0.0
 10
55.67984475060003
 20
228.1764239208534
 30
0.0
 10
55.66503992349332
 20
228.1701000925367
 30
0.0
 10
55.65027563603681
 20
228.1636133600347
 30
0.0
 10
55.63555145242466
 20
228.1569569260666
 30
0.0
 10
55.62089646092508
 20
228.1501379052372
 30
0.0
 10
55.60631323515174
 20
228.143151280528
 30
0.0
 10
55.59181053359382
 20
228.1359950570579
 30
0.0
 10
55.57738805575008
 20
228.1286847309337
 30
0.0
 10
55.56304248915834
 20
228.121234503782
 30
0.0
 10
55.54879448050144
 20
228.1136712051445
 30
0.0
 10
55.53463415006609
 20
228.1060062779952
 30
0.0
 10
55.52060095980286
 20
228.0982696877489
 30
0.0
 10
55.50666633557917
 20
228.0904546009646
 30
0.0
 10
55.4928850999875
 20
228.0825991357119
 30
0.0
 10
55.47921294014096
 20
228.0746856351976
 30
0.0
 10
55.46578941597683
 20
228.0668007905591
 30
0.0
 10
55.45255513911945
 20
228.0589172729374
 30
0.0
 10
55.43920076756962
 20
228.0508511571954
 30
0.0
 10
55.42559093230822
 20
228.0425113905438
 30
0.0
 10
55.41172854106606
 20
228.0338846351349
 30
0.0
 10
55.39792416603348
 20
228.0251555772982
 30
0.0
 10
55.38127537975006
 20
228.0144737767612
 30
0.0
 10
55.3618276681364
 20
228.0017793381295
 30
0.0
 10
55.33929366866967
 20
227.9867693567963
 30
0.0
 10
55.31655903994402
 20
227.9713260574659
 30
0.0
 10
55.29604028071672
 20
227.9570968951064
 30
0.0
 10
55.27802978198633
 20
227.9443808845445
 30
0.0
 10
55.26233046847889
 20
227.9331422001865
 30
0.0
 10
55.24655410895622
 20
227.92169803652
 30
0.0
 10
55.22450321189462
 20
227.9055056675957
 30
0.0
 10
55.19641960848864
 20
227.8845455083359
 30
0.0
 10
55.17375635208221
 20
227.8672896343741
 30
0.0
 10
55.1624247231
 20
227.8586616968
 30
0.0
 11
56.1138774688
 21
228.2756276151
 31
0.0
 11
56.08132098987499
 21
228.2746632055293
 31
0.0
 11
56.04880895684853
 21
228.2727103047451
 31
0.0
 11
56.03395479757391
 21
228.2714456091253
 31
0.0
 11
56.0191235376841
 21
228.2699360986037
 31
0.0
 11
56.0047265552272
 21
228.2682309212266
 31
0.0
 11
55.99035813782427
 21
228.2662987851881
 31
0.0
 11
55.96838947179758
 21
228.2629175772688
 31
0.0
 11
55.94649845776193
 21
228.2590616799965
 31
0.0
 11
55.92540850702405
 21
228.2549118204441
 31
0.0
 11
55.90440232397769
 21
228.2503588324278
 31
0.0
 11
55.88987410699004
 21
228.2469624257451
 31
0.0
 11
55.87539485611563
 21
228.2433639473226
 31
0.0
 11
55.86087281099398
 21
228.2395310056548
 31
0.0
 11
55.84640469325216
 21
228.2354987520831
 31
0.0
 11
55.83127803741269
 21
228.2310704518939
 31
0.0
 11
55.81620666966677
 21
228.2264574180222
 31
0.0
 11
55.80075297280867
 21
228.2215324770296
 31
0.0
 11
55.78535634853504
 21
228.2164320274508
 31
0.0
 11
55.7700584201497
 21
228.2111730167562
 31
0.0
 11
55.75481905506564
 21
228.205746614289
 31
0.0
 11
55.73965819808796
 21
228.2001650347159
 31
0.0
 11
55.7245560390313
 21
228.1944264979682
 31
0.0
 11
55.70959720579871
 21
228.1885687963336
 31
0.0
 11
55.6946982451195
 21
228.1825604916913
 31
0.0
 11
55.67985536878048
 21
228.1763987184656
 31
0.0
 11
55.66507616534739
 21
228.1700857157101
 31
0.0
 11
55.65028726698358
 21
228.1635872593834
 31
0.0
 11
55.63556816878975
 21
228.1569322061492
 31
0.0
 11
55.62090940783395
 21
228.1501104335524
 31
0.0
 11
55.60632850498187
 21
228.1431239132299
 31
0.0
 11
55.59182351119328
 21
228.1359691704128
 31
0.0
 11
55.57739616685248
 21
228.1286589987365
 31
0.0
 11
55.56305377435781
 21
228.1212130256507
 31
0.0
 11
55.5487790403366
 21
228.1136381567804
 31
0.0
 11
55.53464405015936
 21
228.1059881528335
 31
0.0
 11
55.52056846973875
 21
228.0982294031849
 31
0.0
 11
55.50667541921926
 21
228.0904385407462
 31
0.0
 11
55.49283685025337
 21
228.0825513055904
 31
0.0
 11
55.47922140147747
 21
228.0746711215954
 31
0.0
 11
55.46565672973863
 21
228.0667038612849
 31
0.0
 11
55.45256313341227
 21
228.058903952901
 31
0.0
 11
55.43951747385359
 21
228.0510241071482
 31
0.0
 11
55.42560079105667
 21
228.0424954005912
 31
0.0
 11
55.41174336132075
 21
228.0338708159778
 31
0.0
 11
55.39793382159255
 21
228.025140468914
 31
0.0
 11
55.38418201799462
 21
228.0163193458087
 31
0.0
 11
55.36185050113588
 21
228.0017448362774
 31
0.0
 11
55.3396554846949
 21
227.98696298937
 31
0.0
 11
55.31658434495332
 21
227.9712890569833
 31
0.0
 11
55.29366556509393
 21
227.9553934979255
 31
0.0
 11
55.27804184874132
 21
227.9443639063362
 31
0.0
 11
55.26249050318596
 21
227.9332325271303
 31
0.0
 11
55.24656536542762
 21
227.9216826326095
 31
0.0
 11
55.2307069683909
 21
227.9100412643011
 31
0.0
 11
55.19646086410215
 21
227.8844910035879
 31
0.0
 11
55.1624247231
 21
227.8586616968
 31
0.0
  0
ARC
  5
9C
330
1F
100
AcDbEntity
  8
1
  6
DASHED
 62
     2
100
AcDbCircle
 10
125.8692574121
 20
182.7756276151
 30
0.0
 40
4.0
100
AcDbArc
 50
-90.0
 51
0.0
  0
ARC
  5
9D
330
1F
100
AcDbEntity
  8
1
  6
DASHED
 62
     2
100
AcDbCircle
 10
125.8692574121
 20
221.7756276151
 30
0.0
 40
4.000000000000014
100
AcDbArc
 50
0.0
 51
90.0
  0
DIMENSION
  5
A9
330
1F
100
AcDbEntity
  8
1
100
AcDbDimension
  2
*D1
 10
65.8692574121
 20
242.323817555707
 30
0.0
 11
55.78084137791601
 21
246.073817555707
 31
0.0
 70
    32
  1
<>
 71
     5
 42
-1.0
 53
0.00013888888889
  3
ME10_DIM_10
100
AcDbAlignedDimension
 13
44.8692574121
 23
233.0506276151
 33
0.0
 14
65.8692574121
 24
210.7756276151
 34
0.0
100
AcDbRotatedDimension
  0
DIMENSION
  5
B4
330
1F
100
AcDbEntity
  8
1
100
AcDbDimension
  2
*D2
 10
82.0151096737275
 20
216.2756276151
 30
0.0
 11
78.2651096737275
 21
202.255173461245
 31
0.0
 70
    32
  1
<>
 71
     5
 42
-1.0
 53
90.0
  3
ME10_DIM_11
100
AcDbAlignedDimension
 13
83.6192574121
 23
188.2756276151
 33
0.0
 14
83.6192574121
 24
216.2756276151
 34
0.0
 50
90.0
100
AcDbRotatedDimension
  0
DIMENSION
  5
BF
330
1F
100
AcDbEntity
  8
1
100
AcDbDimension
  2
*D3
 10
74.050705517446
 20
213.2756276151
 30
0.0
 11
70.300705517446
 21
202.468442151424
 31
0.0
 70
    32
  1
<>
 71
     5
 42
-1.0
 53
90.0
  3
ME10_DIM_12
100
AcDbAlignedDimension
 13
70.5670291725623
 23
191.2756276151
 33
0.0
 14
70.4816198491195
 24
213.2756276151
 34
0.0
 50
90.0
100
AcDbRotatedDimension
  0
DIMENSION
  5
CB
330
1F
100
AcDbEntity
  8
1
100
AcDbDimension
  2
*D4
 10
165.196885208646
 20
175.2756276151
 30
0.0
 11
161.446885208646
 21
149.393497531515
 31
0.0
 70
    32
  1
<>
 71
     5
 42
-1.0
 53
90.0
  3
ME10_DIM_13
100
AcDbAlignedDimension
 13
56.8692574121
 23
123.2756276151
 33
0.0
 14
57.8692574121
 24
175.2756276151
 34
0.0
 50
90.0
100
AcDbRotatedDimension
  0
DIMENSION
  5
D7
330
1F
100
AcDbEntity
  8
1
100
AcDbDimension
  2
*D5
 10
165.30893573416
 20
228.2756276151
 30
0.0
 11
161.55893573416
 21
202.860964356257
 31
0.0
 70
    32
  1
<>
 71
     5
 42
-1.0
 53
90.0
  3
ME10_DIM_14
100
AcDbAlignedDimension
 13
129.8692574121
 23
176.2756276151
 33
0.0
 14
129.8692574121
 24
228.2756276151
 34
0.0
 50
90.0
100
AcDbRotatedDimension
  0
DIMENSION
  5
E6
330
1F
100
AcDbEntity
  8
1
100
AcDbDimension
  2
*D6
 10
155.408617945015
 20
176.2756276151
 30
0.0
 11
151.658617945015
 21
180.894634261591
 31
0.0
 70
    32
  1
<>
 71
     5
 42
-1.0
 53
90.0
  3
ME10_DIM_15
100
AcDbAlignedDimension
 13
57.8692574121
 23
175.2756276151
 33
0.0
 14
56.8692574121
 24
176.2756276151
 34
0.0
 50
90.0
100
AcDbRotatedDimension
  0
DIMENSION
  5
F2
330
1F
100
AcDbEntity
  8
1
100
AcDbDimension
  2
*D7
 10
56.8692574121
 20
110.223135051405
 30
0.0
 11
94.74236385699642
 21
113.973135051405
 31
0.0
 70
    32
  1
<>
 71
     5
 42
-1.0
 53
0.00013888888889
  3
ME10_DIM_16
100
AcDbAlignedDimension
 13
144.8692574121
 23
191.2756276151
 33
0.0
 14
56.8692574121
 24
123.2756276151
 34
0.0
100
AcDbRotatedDimension
  0
DIMENSION
  5
FD
330
1F
100
AcDbEntity
  8
1
100
AcDbDimension
  2
*D8
 10
23.2971859506731
 20
221.7756276151
 30
0.0
 11
19.5471859506731
 21
202.060098182535
 31
0.0
 70
    32
  1
<>
 71
     5
 42
-1.0
 53
90.0
  3
ME10_DIM_17
100
AcDbAlignedDimension
 13
37.5942574121
 23
182.7756276151
 33
0.0
 14
37.5942574121
 24
221.7756276151
 34
0.0
 50
90.0
100
AcDbRotatedDimension
  0
DIMENSION
  5
109
330
1F
100
AcDbEntity
  8
1
100
AcDbDimension
  2
*D9
 10
11.7477820622008
 20
202.2756276151
 30
0.0
 11
7.9977820622008
 21
170.913271175414
 31
0.0
 70
    32
  1
<>
 71
     5
 42
-1.0
 53
90.0
  3
ME10_DIM_18
100
AcDbAlignedDimension
 13
40.6192574121
 23
138.7756276151
 33
0.0
 14
40.6192574121
 24
202.2756276151
 34
0.0
 50
90.0
100
AcDbRotatedDimension
  0
DIMENSION
  5
114
330
1F
100
AcDbEntity
  8
1
100
AcDbDimension
  2
*D10
 10
32.8692574121
 20
110.343436247176
 30
0.0
 11
44.642750268284
 21
114.093436247176
 31
0.0
 70
    32
  1
<>
 71
     5
 42
-1.0
 53
0.00013888888889
  3
ME10_DIM_19
100
AcDbAlignedDimension
 13
56.8692574121
 23
123.2756276151
 33
0.0
 14
32.8692574121
 24
123.2756276151
 34
0.0
100
AcDbRotatedDimension
  0
DIMENSION
  5
11F
330
1F
100
AcDbEntity
  8
1
100
AcDbDimension
  2
*D11
 10
98.1608387252978
 20
213.7756276151
 30
0.0
 11
94.4108387252978
 21
201.98191984656
 31
0.0
 70
    32
  1
<>
 71
     5
 42
-1.0
 53
90.0
  3
ME10_DIM_20
100
AcDbAlignedDimension
 13
107.0942574121
 23
190.7756276151
 33
0.0
 14
107.0942574121
 24
213.7756276151
 34
0.0
 50
90.0
100
AcDbRotatedDimension
  0
DIMENSION
  5
12A
330
1F
100
AcDbEntity
  8
1
100
AcDbDimension
  2
*D12
 10
138.323985000032
 20
219.7756276151
 30
0.0
 11
134.573985000032
 21
202.278326830137
 31
0.0
 70
    32
  1
<>
 71
     5
 42
-1.0
 53
90.0
  3
ME10_DIM_21
100
AcDbAlignedDimension
 13
131.1442574121
 23
184.7756276151
 33
0.0
 14
131.1442574121
 24
219.7756276151
 34
0.0
 50
90.0
100
AcDbRotatedDimension
  0
ENDSEC
  0
SECTION
  2
OBJECTS
  0
DICTIONARY
  5
C
330
0
100
AcDbDictionary
281
     1
  3
ACAD_GROUP
350
D
  3
ACAD_LAYOUT
350
1A
  3
ACAD_MLINESTYLE
350
17
  3
ACAD_PLOTSETTINGS
350
19
  3
ACAD_PLOTSTYLENAME
350
E
  0
DICTIONARY
  5
D
102
{ACAD_REACTORS
330
C
102
}
330
C
100
AcDbDictionary
281
     1
  0
DICTIONARY
  5
1A
102
{ACAD_REACTORS
330
C
102
}
330
C
100
AcDbDictionary
281
     1
  3
Layout1
350
1E
  3
Layout2
350
26
  3
Model
350
22
  0
DICTIONARY
  5
17
102
{ACAD_REACTORS
330
C
102
}
330
C
100
AcDbDictionary
281
     1
  3
Standard
350
18
  0
DICTIONARY
  5
19
102
{ACAD_REACTORS
330
C
102
}
330
C
100
AcDbDictionary
281
     1
  0
ACDBDICTIONARYWDFLT
  5
E
102
{ACAD_REACTORS
330
C
102
}
330
C
100
AcDbDictionary
281
     1
  3
Normal
350
F
100
AcDbDictionaryWithDefault
340
F
  0
LAYOUT
  5
1E
102
{ACAD_REACTORS
330
1A
102
}
330
1A
100
AcDbPlotSettings
  1

  2

  4

  6

 40
0.0
 41
0.0
 42
0.0
 43
0.0
 44
0.0
 45
0.0
 46
0.0
 47
0.0
 48
0.0
 49
0.0
140
0.0
141
0.0
142
1.0
143
1.0
 70
   688
 72
     0
 73
     0
 74
     5
  7

 75
    16
 76
     0
 77
     2
 78
   300
147
1.0
148
0.0
149
0.0
100
AcDbLayout
  1
Layout1
 70
     1
 71
     1
 10
0.0
 20
0.0
 11
0.0
 21
0.0
 12
0.0
 22
0.0
 32
0.0
 14
0.0
 24
0.0
 34
0.0
 15
0.0
 25
0.0
 35
0.0
146
0.0
 13
0.0
 23
0.0
 33
0.0
 16
1.0
 26
0.0
 36
0.0
 17
0.0
 27
1.0
 37
0.0
 76
     0
330
1B
  0
LAYOUT
  5
26
102
{ACAD_REACTORS
330
1A
102
}
330
1A
100
AcDbPlotSettings
  1

  2

  4

  6

 40
0.0
 41
0.0
 42
0.0
 43
0.0
 44
0.0
 45
0.0
 46
0.0
 47
0.0
 48
0.0
 49
0.0
140
0.0
141
0.0
142
1.0
143
1.0
 70
   688
 72
     0
 73
     0
 74
     5
  7

 75
    16
 76
     0
 77
     2
 78
   300
147
1.0
148
0.0
149
0.0
100
AcDbLayout
  1
Layout2
 70
     1
 71
     2
 10
0.0
 20
0.0
 11
0.0
 21
0.0
 12
0.0
 22
0.0
 32
0.0
 14
0.0
 24
0.0
 34
0.0
 15
0.0
 25
0.0
 35
0.0
146
0.0
 13
0.0
 23
0.0
 33
0.0
 16
1.0
 26
0.0
 36
0.0
 17
0.0
 27
1.0
 37
0.0
 76
     0
330
23
  0
LAYOUT
  5
22
102
{ACAD_REACTORS
330
1A
102
}
330
1A
100
AcDbPlotSettings
  1

  2

  4

  6

 40
0.0
 41
0.0
 42
0.0
 43
0.0
 44
0.0
 45
0.0
 46
0.0
 47
0.0
 48
0.0
 49
0.0
140
0.0
141
0.0
142
1.0
143
1.0
 70
  1712
 72
     0
 73
     0
 74
     0
  7

 75
     0
 76
     0
 77
     2
 78
   300
147
1.0
148
0.0
149
0.0
100
AcDbLayout
  1
Model
 70
     1
 71
     0
 10
0.0
 20
0.0
 11
0.0
 21
0.0
 12
0.0
 22
0.0
 32
0.0
 14
6.2477820622008
 24
108.223135051405
 34
0.0
 15
167.30893573416
 25
247.823817555707
 35
0.0
146
0.0
 13
0.0
 23
0.0
 33
0.0
 16
1.0
 26
0.0
 36
0.0
 17
0.0
 27
1.0
 37
0.0
 76
     0
330
1F
  0
MLINESTYLE
  5
18
102
{ACAD_REACTORS
330
17
102
}
330
17
100
AcDbMlineStyle
  2
Standard
 70
     0
  3

 62
   256
 51
90.0
 52
90.0
 71
     2
 49
0.5
 62
   256
  6
BYLAYER
 49
-0.5
 62
   256
  6
BYLAYER
  0
ACDBPLACEHOLDER
  5
F
102
{ACAD_REACTORS
330
E
102
}
330
E
  0
ENDSEC
  0
EOF
