  0
SECTION
  2
HEADER
  9
$ACADVER
  1
AC1018
  9
$ACADMAINTVER
 70
     0
  9
$DWGCODEPAGE
  3
ANSI_1252
  9
$INSBASE
 10
0.0
 20
0.0
 30
0.0
  9
$EXTMIN
 10
-34.72039535841838
 20
-26.2242976330694
 30
0.0
  9
$EXTMAX
 10
40.1912127429576
 20
70.02275170997663
 30
0.0
  9
$LIMMIN
 10
0.0
 20
0.0
  9
$LIMMAX
 10
12.0
 20
9.0
  9
$ORTHOMODE
 70
     0
  9
$REGENMODE
 70
     1
  9
$FILLMODE
 70
     1
  9
$QTEXTMODE
 70
     0
  9
$MIRRTEXT
 70
     1
  9
$LTSCALE
 40
1.0
  9
$ATTMODE
 70
     1
  9
$TEXTSIZE
 40
0.2
  9
$TRACEWID
 40
0.05
  9
$TEXTSTYLE
  7
Standard
  9
$CLAYER
  8
0
  9
$CELTYPE
  6
ByLayer
  9
$CECOLOR
 62
   256
  9
$CELTSCALE
 40
1.0
  9
$DISPSILH
 70
     0
  9
$DIMSCALE
 40
1.0
  9
$DIMASZ
 40
0.18
  9
$DIMEXO
 40
0.0625
  9
$DIMDLI
 40
0.38
  9
$DIMRND
 40
0.0
  9
$DIMDLE
 40
0.0
  9
$DIMEXE
 40
0.18
  9
$DIMTP
 40
0.0
  9
$DIMTM
 40
0.0
  9
$DIMTXT
 40
0.18
  9
$DIMCEN
 40
0.09
  9
$DIMTSZ
 40
0.0
  9
$DIMTOL
 70
     0
  9
$DIMLIM
 70
     0
  9
$DIMTIH
 70
     1
  9
$DIMTOH
 70
     1
  9
$DIMSE1
 70
     0
  9
$DIMSE2
 70
     0
  9
$DIMTAD
 70
     0
  9
$DIMZIN
 70
     0
  9
$DIMBLK
  1

  9
$DIMASO
 70
     1
  9
$DIMSHO
 70
     1
  9
$DIMPOST
  1

  9
$DIMAPOST
  1

  9
$DIMALT
 70
     0
  9
$DIMALTD
 70
     2
  9
$DIMALTF
 40
25.4
  9
$DIMLFAC
 40
1.0
  9
$DIMTOFL
 70
     0
  9
$DIMTVP
 40
0.0
  9
$DIMTIX
 70
     0
  9
$DIMSOXD
 70
     0
  9
$DIMSAH
 70
     0
  9
$DIMBLK1
  1

  9
$DIMBLK2
  1

  9
$DIMSTYLE
  2
Standard
  9
$DIMCLRD
 70
     0
  9
$DIMCLRE
 70
     0
  9
$DIMCLRT
 70
     0
  9
$DIMTFAC
 40
1.0
  9
$DIMGAP
 40
0.09
  9
$DIMJUST
 70
     0
  9
$DIMSD1
 70
     0
  9
$DIMSD2
 70
     0
  9
$DIMTOLJ
 70
     1
  9
$DIMTZIN
 70
     0
  9
$DIMALTZ
 70
     0
  9
$DIMALTTZ
 70
     0
  9
$DIMUPT
 70
     0
  9
$DIMDEC
 70
     4
  9
$DIMTDEC
 70
     4
  9
$DIMALTU
 70
     2
  9
$DIMALTTD
 70
     2
  9
$DIMTXSTY
  7
Standard
  9
$DIMAUNIT
 70
     0
  9
$DIMADEC
 70
     0
  9
$DIMALTRND
 40
0.0
  9
$DIMAZIN
 70
     0
  9
$DIMDSEP
 70
    46
  9
$DIMATFIT
 70
     3
  9
$DIMFRAC
 70
     0
  9
$DIMLDRBLK
  1

  9
$DIMLUNIT
 70
     2
  9
$DIMLWD
 70
    -2
  9
$DIMLWE
 70
    -2
  9
$DIMTMOVE
 70
     0
  9
$LUNITS
 70
     2
  9
$LUPREC
 70
     4
  9
$SKETCHINC
 40
0.1
  9
$FILLETRAD
 40
0.5
  9
$AUNITS
 70
     0
  9
$AUPREC
 70
     0
  9
$MENU
  1
.
  9
$ELEVATION
 40
0.0
  9
$PELEVATION
 40
0.0
  9
$THICKNESS
 40
0.0
  9
$LIMCHECK
 70
     0
  9
$CHAMFERA
 40
0.5
  9
$CHAMFERB
 40
0.5
  9
$CHAMFERC
 40
1.0
  9
$CHAMFERD
 40
0.0
  9
$SKPOLY
 70
     0
  9
$TDCREATE
 40
2456220.475615139
  9
$TDUCREATE
 40
2456220.392281806
  9
$TDUPDATE
 40
2456220.47561515
  9
$TDUUPDATE
 40
2456220.392281817
  9
$TDINDWG
 40
0.0000000116
  9
$TDUSRTIMER
 40
0.0000000116
  9
$USRTIMER
 70
     1
  9
$ANGBASE
 50
0.0
  9
$ANGDIR
 70
     0
  9
$PDMODE
 70
     0
  9
$PDSIZE
 40
0.0
  9
$PLINEWID
 40
0.0
  9
$SPLFRAME
 70
     0
  9
$SPLINETYPE
 70
     6
  9
$SPLINESEGS
 70
     8
  9
$HANDSEED
  5
C0
  9
$SURFTAB1
 70
     6
  9
$SURFTAB2
 70
     6
  9
$SURFTYPE
 70
     6
  9
$SURFU
 70
     6
  9
$SURFV
 70
     6
  9
$UCSBASE
  2

  9
$UCSNAME
  2

  9
$UCSORG
 10
0.0
 20
0.0
 30
0.0
  9
$UCSXDIR
 10
1.0
 20
0.0
 30
0.0
  9
$UCSYDIR
 10
0.0
 20
1.0
 30
0.0
  9
$UCSORTHOREF
  2

  9
$UCSORTHOVIEW
 70
     0
  9
$UCSORGTOP
 10
0.0
 20
0.0
 30
0.0
  9
$UCSORGBOTTOM
 10
0.0
 20
0.0
 30
0.0
  9
$UCSORGLEFT
 10
0.0
 20
0.0
 30
0.0
  9
$UCSORGRIGHT
 10
0.0
 20
0.0
 30
0.0
  9
$UCSORGFRONT
 10
0.0
 20
0.0
 30
0.0
  9
$UCSORGBACK
 10
0.0
 20
0.0
 30
0.0
  9
$PUCSBASE
  2

  9
$PUCSNAME
  2

  9
$PUCSORG
 10
0.0
 20
0.0
 30
0.0
  9
$PUCSXDIR
 10
1.0
 20
0.0
 30
0.0
  9
$PUCSYDIR
 10
0.0
 20
1.0
 30
0.0
  9
$PUCSORTHOREF
  2

  9
$PUCSORTHOVIEW
 70
     0
  9
$PUCSORGTOP
 10
0.0
 20
0.0
 30
0.0
  9
$PUCSORGBOTTOM
 10
0.0
 20
0.0
 30
0.0
  9
$PUCSORGLEFT
 10
0.0
 20
0.0
 30
0.0
  9
$PUCSORGRIGHT
 10
0.0
 20
0.0
 30
0.0
  9
$PUCSORGFRONT
 10
0.0
 20
0.0
 30
0.0
  9
$PUCSORGBACK
 10
0.0
 20
0.0
 30
0.0
  9
$USERI1
 70
     0
  9
$USERI2
 70
     0
  9
$USERI3
 70
     0
  9
$USERI4
 70
     0
  9
$USERI5
 70
     0
  9
$USERR1
 40
14.5
  9
$USERR2
 40
0.0
  9
$USERR3
 40
0.0
  9
$USERR4
 40
0.0
  9
$USERR5
 40
0.0
  9
$WORLDVIEW
 70
     1
  9
$SHADEDGE
 70
     3
  9
$SHADEDIF
 70
    70
  9
$TILEMODE
 70
     1
  9
$MAXACTVP
 70
    64
  9
$PINSBASE
 10
0.0
 20
0.0
 30
0.0
  9
$PLIMCHECK
 70
     0
  9
$PEXTMIN
 10
1.00000000000000E+20
 20
1.00000000000000E+20
 30
1.00000000000000E+20
  9
$PEXTMAX
 10
-1.00000000000000E+20
 20
-1.00000000000000E+20
 30
-1.00000000000000E+20
  9
$PLIMMIN
 10
0.0
 20
0.0
  9
$PLIMMAX
 10
12.0
 20
9.0
  9
$UNITMODE
 70
     0
  9
$VISRETAIN
 70
     1
  9
$PLINEGEN
 70
     0
  9
$PSLTSCALE
 70
     1
  9
$TREEDEPTH
 70
  3020
  9
$CMLSTYLE
  2
Standard
  9
$CMLJUST
 70
     0
  9
$CMLSCALE
 40
1.0
  9
$PROXYGRAPHICS
 70
     1
  9
$MEASUREMENT
 70
     1
  9
$CELWEIGHT
370
    -1
  9
$ENDCAPS
280
     0
  9
$JOINSTYLE
280
     0
  9
$LWDISPLAY
290
     0
  9
$INSUNITS
 70
     1
  9
$HYPERLINKBASE
  1

  9
$STYLESHEET
  1

  9
$XEDIT
290
     1
  9
$CEPSNTYPE
380
     0
  9
$PSTYLEMODE
290
     1
  9
$FINGERPRINTGUID
  2
{77F49FF7-A61A-4B36-B4B1-2766EEA5C88F}
  9
$VERSIONGUID
  2
{FAEB1C32-E019-11D5-929B-00C0DF256EC4}
  9
$EXTNAMES
290
     1
  9
$PSVPSCALE
 40
0.0
  9
$OLESTARTUP
290
     0
  9
$SORTENTS
280
   127
  9
$INDEXCTL
280
     0
  9
$HIDETEXT
280
     1
  9
$XCLIPFRAME
290
     0
  9
$HALOGAP
280
     0
  9
$OBSCOLOR
 70
   257
  9
$OBSLTYPE
280
     0
  9
$INTERSECTIONDISPLAY
280
     0
  9
$INTERSECTIONCOLOR
 70
   257
  9
$DIMASSOC
280
     2
  9
$PROJECTNAME
  1

  0
ENDSEC
  0
SECTION
  2
CLASSES
  0
CLASS
  1
ACDBDICTIONARYWDFLT
  2
AcDbDictionaryWithDefault
  3
ObjectDBX Classes
 90
        0
 91
        3
280
     0
281
     0
  0
ENDSEC
  0
SECTION
  2
TABLES
  0
TABLE
  2
VPORT
  5
8
330
0
100
AcDbSymbolTable
 70
     1
  0
VPORT
  5
29
330
8
100
AcDbSymbolTableRecord
100
AcDbViewportTableRecord
  2
*Active
 70
     0
 10
0.0
 20
0.0
 11
1.0
 21
1.0
 12
2.73540869226961
 22
21.89922703845362
 13
0.0
 23
0.0
 14
0.5
 24
0.5
 15
0.5
 25
0.5
 16
0.0
 26
0.0
 36
1.0
 17
0.0
 27
0.0
 37
0.0
 40
105.8717542773506
 41
1.60267857142857
 42
50.0
 43
0.0
 44
0.0
 50
0.0
 51
0.0
 71
     0
 72
   100
 73
     1
 74
     3
 75
     0
 76
     0
 77
     0
 78
     0
281
     0
 65
     1
110
0.0
120
0.0
130
0.0
111
1.0
121
0.0
131
0.0
112
0.0
122
1.0
132
0.0
 79
     0
146
0.0
  0
ENDTAB
  0
TABLE
  2
LTYPE
  5
5
330
0
100
AcDbSymbolTable
 70
     8
  0
LTYPE
  5
14
330
5
100
AcDbSymbolTableRecord
100
AcDbLinetypeTableRecord
  2
ByBlock
 70
     0
  3

 72
    65
 73
     0
 40
0.0
  0
LTYPE
  5
15
330
5
100
AcDbSymbolTableRecord
100
AcDbLinetypeTableRecord
  2
ByLayer
 70
     0
  3

 72
    65
 73
     0
 40
0.0
  0
LTYPE
  5
16
330
5
100
AcDbSymbolTableRecord
100
AcDbLinetypeTableRecord
  2
Continuous
 70
     0
  3
Solid line
 72
    65
 73
     0
 40
0.0
  0
LTYPE
  5
2A
330
5
100
AcDbSymbolTableRecord
100
AcDbLinetypeTableRecord
  2
DASHED
 70
     0
  3
Dashed
 72
    65
 73
     2
 40
15.0
 49
7.0
 74
     0
 49
-8.0
 74
     0
  0
LTYPE
  5
2B
330
5
100
AcDbSymbolTableRecord
100
AcDbLinetypeTableRecord
  2
DOTTED
 70
     0
  3
Dotted
 72
    65
 73
     2
 40
1.0
 49
0.0
 74
     0
 49
-1.0
 74
     0
  0
LTYPE
  5
2C
330
5
100
AcDbSymbolTableRecord
100
AcDbLinetypeTableRecord
  2
DOT_CENTER
 70
     0
  3
Dot_Center
 72
    65
 73
     4
 40
14.0
 49
12.0
 74
     0
 49
-1.0
 74
     0
 49
0.0
 74
     0
 49
-1.0
 74
     0
  0
LTYPE
  5
2D
330
5
100
AcDbSymbolTableRecord
100
AcDbLinetypeTableRecord
  2
LONG_DASHED
 70
     0
  3
Long_Dashed
 72
    65
 73
     2
 40
15.0
 49
10.0
 74
     0
 49
-5.0
 74
     0
  0
LTYPE
  5
2E
330
5
100
AcDbSymbolTableRecord
100
AcDbLinetypeTableRecord
  2
DASH_CENTER
 70
     0
  3
Dash_Center
 72
    65
 73
     4
 40
14.0
 49
11.0
 74
     0
 49
-1.0
 74
     0
 49
1.0
 74
     0
 49
-1.0
 74
     0
  0
LTYPE
  5
2F
330
5
100
AcDbSymbolTableRecord
100
AcDbLinetypeTableRecord
  2
PHANTOM
 70
     0
  3
Phantom
 72
    65
 73
     6
 40
13.0
 49
10.0
 74
     0
 49
-1.0
 74
     0
 49
0.0
 74
     0
 49
-1.0
 74
     0
 49
0.0
 74
     0
 49
-1.0
 74
     0
  0
LTYPE
  5
30
330
5
100
AcDbSymbolTableRecord
100
AcDbLinetypeTableRecord
  2
CENTER_DASH_DASH
 70
     0
  3
Center_Dash_Dash
 72
    65
 73
     6
 40
14.0
 49
9.0
 74
     0
 49
-1.0
 74
     0
 49
1.0
 74
     0
 49
-1.0
 74
     0
 49
1.0
 74
     0
 49
-1.0
 74
     0
  0
ENDTAB
  0
TABLE
  2
LAYER
  5
2
330
0
100
AcDbSymbolTable
 70
     2
  0
LAYER
  5
10
330
2
100
AcDbSymbolTableRecord
100
AcDbLayerTableRecord
  2
0
 70
     0
 62
     7
  6
Continuous
370
    -3
390
F
  0
LAYER
  5
31
330
2
100
AcDbSymbolTableRecord
100
AcDbLayerTableRecord
  2
1
 70
     0
 62
     7
  6
Continuous
370
    -3
390
F
  0
ENDTAB
  0
TABLE
  2
STYLE
  5
3
330
0
100
AcDbSymbolTable
 70
     2
  0
STYLE
  5
11
330
3
100
AcDbSymbolTableRecord
100
AcDbTextStyleTableRecord
  2
Standard
 70
     0
 40
0.0
 41
1.0
 50
0.0
 71
     0
 42
0.2
  3
txt
  4

  0
STYLE
  5
87
330
3
100
AcDbSymbolTableRecord
100
AcDbTextStyleTableRecord
  2
CONVERTER_11
 70
     0
 40
0.0
 41
0.9
 50
0.0
 71
     0
 42
0.2
  3
txt.shx
  4

  0
ENDTAB
  0
TABLE
  2
VIEW
  5
6
330
0
100
AcDbSymbolTable
 70
     0
  0
ENDTAB
  0
TABLE
  2
UCS
  5
7
330
0
100
AcDbSymbolTable
 70
     0
  0
ENDTAB
  0
TABLE
  2
APPID
  5
9
330
0
100
AcDbSymbolTable
 70
     1
  0
APPID
  5
12
330
9
100
AcDbSymbolTableRecord
100
AcDbRegAppTableRecord
  2
ACAD
 70
     0
  0
ENDTAB
  0
TABLE
  2
DIMSTYLE
  5
A
330
0
100
AcDbSymbolTable
 70
     6
100
AcDbDimStyleTable
  0
DIMSTYLE
105
27
330
A
100
AcDbSymbolTableRecord
100
AcDbDimStyleTableRecord
  2
Standard
 70
     0
340
11
  0
DIMSTYLE
105
92
102
{ACAD_REACTORS
330
93
102
}
330
A
100
AcDbSymbolTableRecord
100
AcDbDimStyleTableRecord
  2
ME10_DIM_10
 70
     0
 41
3.5
 42
0.0
 44
2.0
 73
     0
 74
     0
 77
     1
 78
     8
140
3.5
147
2.0
172
     1
173
     1
176
     2
177
     2
178
     2
271
     2
340
87
  0
DIMSTYLE
105
9D
102
{ACAD_REACTORS
330
9E
102
}
330
A
100
AcDbSymbolTableRecord
100
AcDbDimStyleTableRecord
  2
ME10_DIM_11
 70
     0
  3
ø<>
 41
3.5
 42
0.0
 44
2.0
 73
     0
 74
     0
 77
     1
 78
     8
140
3.5
147
2.0
172
     1
173
     1
176
     2
177
     2
178
     2
271
     2
340
87
  0
DIMSTYLE
105
A8
102
{ACAD_REACTORS
330
A9
102
}
330
A
100
AcDbSymbolTableRecord
100
AcDbDimStyleTableRecord
  2
ME10_DIM_12
 70
     0
  3
ø<>
 41
3.5
 42
0.0
 44
2.0
 73
     0
 74
     0
 77
     1
 78
     8
140
3.5
147
2.0
172
     1
173
     1
176
     2
177
     2
178
     2
271
     2
340
87
  0
DIMSTYLE
105
B3
102
{ACAD_REACTORS
330
B4
102
}
330
A
100
AcDbSymbolTableRecord
100
AcDbDimStyleTableRecord
  2
ME10_DIM_13
 70
     0
 41
3.5
 42
0.0
 44
2.0
 73
     0
 74
     0
 77
     1
 78
     8
140
3.5
147
2.0
172
     1
173
     1
176
     2
177
     2
178
     2
271
     2
340
87
  0
DIMSTYLE
105
BE
102
{ACAD_REACTORS
330
BF
102
}
330
A
100
AcDbSymbolTableRecord
100
AcDbDimStyleTableRecord
  2
ME10_DIM_14
 70
     0
 41
3.5
 42
0.0
 44
2.0
 73
     0
 74
     0
 77
     1
 78
     8
140
3.5
147
2.0
172
     1
173
     1
176
     2
177
     2
178
     2
271
     2
340
87
  0
ENDTAB
  0
TABLE
  2
BLOCK_RECORD
  5
1
330
0
100
AcDbSymbolTable
 70
     6
  0
BLOCK_RECORD
  5
1F
330
1
100
AcDbSymbolTableRecord
100
AcDbBlockTableRecord
  2
*Model_Space
340
22
  0
BLOCK_RECORD
  5
1B
330
1
100
AcDbSymbolTableRecord
100
AcDbBlockTableRecord
  2
*Paper_Space
340
1E
  0
BLOCK_RECORD
  5
23
330
1
100
AcDbSymbolTableRecord
100
AcDbBlockTableRecord
  2
*Paper_Space0
340
26
  0
BLOCK_RECORD
  5
89
330
1
100
AcDbSymbolTableRecord
100
AcDbBlockTableRecord
  2
*D1
340
0
  0
BLOCK_RECORD
  5
94
330
1
100
AcDbSymbolTableRecord
100
AcDbBlockTableRecord
  2
*D2
340
0
  0
BLOCK_RECORD
  5
9F
330
1
100
AcDbSymbolTableRecord
100
AcDbBlockTableRecord
  2
*D3
340
0
  0
BLOCK_RECORD
  5
AA
330
1
100
AcDbSymbolTableRecord
100
AcDbBlockTableRecord
  2
*D4
340
0
  0
BLOCK_RECORD
  5
B5
330
1
100
AcDbSymbolTableRecord
100
AcDbBlockTableRecord
  2
*D5
340
0
  0
ENDTAB
  0
ENDSEC
  0
SECTION
  2
BLOCKS
  0
BLOCK
  5
20
330
1F
100
AcDbEntity
  8
0
100
AcDbBlockBegin
  2
*Model_Space
 70
     0
 71
     0
 10
0.0
 20
0.0
 30
0.0
  3
*Model_Space
  1

  0
ENDBLK
  5
21
330
1F
100
AcDbEntity
  8
0
100
AcDbBlockEnd
  0
BLOCK
  5
1C
330
1B
100
AcDbEntity
 67
     1
  8
0
100
AcDbBlockBegin
  2
*Paper_Space
 70
     0
 71
     0
 10
0.0
 20
0.0
 30
0.0
  3
*Paper_Space
  1

  0
ENDBLK
  5
1D
330
1B
100
AcDbEntity
 67
     1
  8
0
100
AcDbBlockEnd
  0
BLOCK
  5
24
330
23
100
AcDbEntity
  8
0
100
AcDbBlockBegin
  2
*Paper_Space0
 70
     0
 71
     0
 10
0.0
 20
0.0
 30
0.0
  3
*Paper_Space0
  1

  0
ENDBLK
  5
25
330
23
100
AcDbEntity
  8
0
100
AcDbBlockEnd
  0
BLOCK
  5
90
330
89
100
AcDbEntity
  8
0
100
AcDbBlockBegin
  2
*D1
 70
     1
 71
     0
 10
0.0
 20
0.0
 30
0.0
  3
*D1
  1

  0
LINE
  5
8A
330
89
100
AcDbEntity
  8
1
  6
Continuous
 62
     2
100
AcDbLine
 10
-29.22039535841838
 20
54.22891593844042
 30
0.0
 11
-29.22039535841838
 21
30.72891593844042
 31
0.0
  0
LINE
  5
8B
330
89
100
AcDbEntity
  8
1
  6
Continuous
 62
     2
100
AcDbLine
 10
-17.22362302631939
 20
30.72891593844042
 30
0.0
 11
-31.22039535841838
 21
30.72891593844042
 31
0.0
  0
LINE
  5
8C
330
89
100
AcDbEntity
  8
1
  6
Continuous
 62
     2
100
AcDbLine
 10
-12.97362302631939
 20
54.22891593844042
 30
0.0
 11
-31.22039535841838
 21
54.22891593844042
 31
0.0
  0
SOLID
  5
8D
330
89
100
AcDbEntity
  8
1
 62
     2
100
AcDbTrace
 10
-28.7596116168625
 20
50.72891593844042
 30
0.0
 11
-29.68117909997427
 21
50.72891593844042
 31
0.0
 12
-29.22039535841838
 22
54.22891593844042
 32
0.0
 13
-29.22039535841838
 23
54.22891593844042
 33
0.0
  0
SOLID
  5
8E
330
89
100
AcDbEntity
  8
1
 62
     2
100
AcDbTrace
 10
-29.68117909997427
 20
34.22891593844042
 30
0.0
 11
-28.75961161686249
 21
34.22891593844042
 31
0.0
 12
-29.22039535841838
 22
30.72891593844042
 32
0.0
 13
-29.22039535841838
 23
30.72891593844042
 33
0.0
  0
MTEXT
  5
8F
330
89
100
AcDbEntity
  8
1
 62
     2
100
AcDbMText
 10
-31.22039535841838
 20
38.01786722855746
 30
0.0
 40
3.5
 41
0.0
 71
     7
 72
     1
  1
23.5
  7
CONVERTER_11
 11
0.0
 21
1.0
 31
0.0
 73
     1
 44
0.60024009603842
  0
ENDBLK
  5
91
330
89
100
AcDbEntity
  8
0
100
AcDbBlockEnd
  0
BLOCK
  5
9B
330
94
100
AcDbEntity
  8
0
100
AcDbBlockBegin
  2
*D2
 70
     1
 71
     0
 10
0.0
 20
0.0
 30
0.0
  3
*D2
  1

  0
LINE
  5
95
330
94
100
AcDbEntity
  8
1
  6
Continuous
 62
     2
100
AcDbLine
 10
-17.97362302631939
 20
-24.2242976330694
 30
0.0
 11
-2.97362302631939
 21
-24.2242976330694
 31
0.0
  0
LINE
  5
96
330
94
100
AcDbEntity
  8
1
  6
Continuous
 62
     2
100
AcDbLine
 10
-17.97362302631939
 20
-13.27108406155959
 30
0.0
 11
-17.97362302631939
 21
-26.2242976330694
 31
0.0
  0
LINE
  5
97
330
94
100
AcDbEntity
  8
1
  6
Continuous
 62
     2
100
AcDbLine
 10
-2.97362302631939
 20
-13.27108406155959
 30
0.0
 11
-2.97362302631939
 21
-26.2242976330694
 31
0.0
  0
SOLID
  5
98
330
94
100
AcDbEntity
  8
1
 62
     2
100
AcDbTrace
 10
-14.47362302631939
 20
-23.76351389151352
 30
0.0
 11
-14.47362302631939
 21
-24.68508137462529
 31
0.0
 12
-17.97362302631939
 22
-24.2242976330694
 32
0.0
 13
-17.97362302631939
 23
-24.2242976330694
 33
0.0
  0
SOLID
  5
99
330
94
100
AcDbEntity
  8
1
 62
     2
100
AcDbTrace
 10
-6.47362302631939
 20
-24.68508137462529
 30
0.0
 11
-6.47362302631939
 21
-23.76351389151352
 31
0.0
 12
-2.97362302631939
 22
-24.2242976330694
 32
0.0
 13
-2.97362302631939
 23
-24.2242976330694
 33
0.0
  0
MTEXT
  5
9A
330
94
100
AcDbEntity
  8
1
 62
     2
100
AcDbMText
 10
-12.71161924646896
 20
-22.22430459014572
 30
0.0
 40
3.5
 41
0.0
 71
     7
 72
     1
  1
\C2;ø\C2;15
  7
CONVERTER_11
 11
0.9999999999970621
 21
2.424068405545307E-6
 31
0.0
 73
     1
 44
0.60024009603842
  0
ENDBLK
  5
9C
330
94
100
AcDbEntity
  8
0
100
AcDbBlockEnd
  0
BLOCK
  5
A6
330
9F
100
AcDbEntity
  8
0
100
AcDbBlockBegin
  2
*D3
 70
     1
 71
     0
 10
0.0
 20
0.0
 30
0.0
  3
*D3
  1

  0
LINE
  5
A0
330
9F
100
AcDbEntity
  8
1
  6
Continuous
 62
     2
100
AcDbLine
 10
-15.47362302631939
 20
64.52275170997663
 30
0.0
 11
-5.47362302631939
 21
64.52275170997663
 31
0.0
  0
LINE
  5
A1
330
9F
100
AcDbEntity
  8
1
  6
Continuous
 62
     2
100
AcDbLine
 10
-15.47362302631939
 20
51.63083972708711
 30
0.0
 11
-15.47362302631939
 21
66.52275170997663
 31
0.0
  0
LINE
  5
A2
330
9F
100
AcDbEntity
  8
1
  6
Continuous
 62
     2
100
AcDbLine
 10
-5.47362302631939
 20
51.63083972708711
 30
0.0
 11
-5.47362302631939
 21
66.52275170997663
 31
0.0
  0
SOLID
  5
A3
330
9F
100
AcDbEntity
  8
1
 62
     2
100
AcDbTrace
 10
-11.97362302631939
 20
64.98353545153252
 30
0.0
 11
-11.97362302631939
 21
64.06196796842075
 31
0.0
 12
-15.47362302631939
 22
64.52275170997663
 32
0.0
 13
-15.47362302631939
 23
64.52275170997663
 33
0.0
  0
SOLID
  5
A4
330
9F
100
AcDbEntity
  8
1
 62
     2
100
AcDbTrace
 10
-8.97362302631939
 20
64.06196796842075
 30
0.0
 11
-8.97362302631939
 21
64.98353545153252
 31
0.0
 12
-5.47362302631939
 22
64.52275170997663
 32
0.0
 13
-5.47362302631939
 23
64.52275170997663
 33
0.0
  0
MTEXT
  5
A5
330
9F
100
AcDbEntity
  8
1
 62
     2
100
AcDbMText
 10
-13.66001192606296
 20
66.52274475290031
 30
0.0
 40
3.5
 41
0.0
 71
     7
 72
     1
  1
\C2;ø\C2;10
  7
CONVERTER_11
 11
0.9999999999970621
 21
2.424068405545307E-6
 31
0.0
 73
     1
 44
0.60024009603842
  0
ENDBLK
  5
A7
330
9F
100
AcDbEntity
  8
0
100
AcDbBlockEnd
  0
BLOCK
  5
B1
330
AA
100
AcDbEntity
  8
0
100
AcDbBlockBegin
  2
*D4
 70
     1
 71
     0
 10
0.0
 20
0.0
 30
0.0
  3
*D4
  1

  0
LINE
  5
AB
330
AA
100
AcDbEntity
  8
1
  6
Continuous
 62
     2
100
AcDbLine
 10
38.1912127429576
 20
26.72891593844041
 30
0.0
 11
38.1912127429576
 21
-7.77108406155968
 31
0.0
  0
LINE
  5
AC
330
AA
100
AcDbEntity
  8
1
  6
Continuous
 62
     2
100
AcDbLine
 10
21.02637697368061
 20
-7.77108406155968
 30
0.0
 11
40.1912127429576
 21
-7.77108406155968
 31
0.0
  0
LINE
  5
AD
330
AA
100
AcDbEntity
  8
1
  6
Continuous
 62
     2
100
AcDbLine
 10
34.22977954579311
 20
26.72891593844041
 30
0.0
 11
40.1912127429576
 21
26.72891593844041
 31
0.0
  0
SOLID
  5
AE
330
AA
100
AcDbEntity
  8
1
 62
     2
100
AcDbTrace
 10
38.65199648451349
 20
23.22891593844041
 30
0.0
 11
37.73042900140172
 21
23.22891593844041
 31
0.0
 12
38.1912127429576
 22
26.72891593844041
 32
0.0
 13
38.1912127429576
 23
26.72891593844041
 33
0.0
  0
SOLID
  5
AF
330
AA
100
AcDbEntity
  8
1
 62
     2
100
AcDbTrace
 10
37.73042900140172
 20
-4.27108406155968
 30
0.0
 11
38.65199648451349
 21
-4.27108406155968
 31
0.0
 12
38.1912127429576
 22
-7.77108406155968
 32
0.0
 13
38.1912127429576
 23
-7.77108406155968
 33
0.0
  0
MTEXT
  5
B0
330
AA
100
AcDbEntity
  8
1
 62
     2
100
AcDbMText
 10
36.1912127429576
 20
5.97587597172136
 30
0.0
 40
3.5
 41
0.0
 71
     7
 72
     1
  1
34.5
  7
CONVERTER_11
 11
0.0
 21
1.0
 31
0.0
 73
     1
 44
0.60024009603842
  0
ENDBLK
  5
B2
330
AA
100
AcDbEntity
  8
0
100
AcDbBlockEnd
  0
BLOCK
  5
BC
330
B5
100
AcDbEntity
  8
0
100
AcDbBlockBegin
  2
*D5
 70
     1
 71
     0
 10
0.0
 20
0.0
 30
0.0
  3
*D5
  1

  0
LINE
  5
B6
330
B5
100
AcDbEntity
  8
1
  6
Continuous
 62
     2
100
AcDbLine
 10
-29.22039535841838
 20
-13.27108406155959
 30
0.0
 11
-29.22039535841838
 21
26.72891593844041
 31
0.0
  0
LINE
  5
B7
330
B5
100
AcDbEntity
  8
1
  6
Continuous
 62
     2
100
AcDbLine
 10
-26.17966903051738
 20
26.72891593844041
 30
0.0
 11
-31.22039535841838
 21
26.72891593844041
 31
0.0
  0
LINE
  5
B8
330
B5
100
AcDbEntity
  8
1
  6
Continuous
 62
     2
100
AcDbLine
 10
-17.97362302631939
 20
-13.27108406155959
 30
0.0
 11
-31.22039535841838
 21
-13.27108406155959
 31
0.0
  0
SOLID
  5
B9
330
B5
100
AcDbEntity
  8
1
 62
     2
100
AcDbTrace
 10
-28.7596116168625
 20
23.22891593844041
 30
0.0
 11
-29.68117909997427
 21
23.22891593844041
 31
0.0
 12
-29.22039535841838
 22
26.72891593844041
 32
0.0
 13
-29.22039535841838
 23
26.72891593844041
 33
0.0
  0
SOLID
  5
BA
330
B5
100
AcDbEntity
  8
1
 62
     2
100
AcDbTrace
 10
-29.68117909997427
 20
-9.77108406155959
 30
0.0
 11
-28.75961161686249
 21
-9.77108406155959
 31
0.0
 12
-29.22039535841838
 22
-13.27108406155959
 32
0.0
 13
-29.22039535841838
 23
-13.27108406155959
 33
0.0
  0
MTEXT
  5
BB
330
B5
100
AcDbEntity
  8
1
 62
     2
100
AcDbMText
 10
-31.22039535841838
 20
4.10391593844041
 30
0.0
 40
3.5
 41
0.0
 71
     7
 72
     1
  1
40
  7
CONVERTER_11
 11
0.0
 21
1.0
 31
0.0
 73
     1
 44
0.60024009603842
  0
ENDBLK
  5
BD
330
B5
100
AcDbEntity
  8
0
100
AcDbBlockEnd
  0
ENDSEC
  0
SECTION
  2
ENTITIES
  0
LINE
  5
32
330
1F
100
AcDbEntity
  8
1
  6
DASHED
 62
     2
100
AcDbLine
 10
-14.47362302631939
 20
40.22891593844042
 30
0.0
 11
-6.47362302631939
 21
40.22891593844042
 31
0.0
  0
LINE
  5
33
330
1F
100
AcDbEntity
  8
1
  6
DASHED
 62
     2
100
AcDbLine
 10
-6.6722910083445
 20
39.72891593844042
 30
0.0
 11
-14.2749550442943
 21
39.72891593844042
 31
0.0
  0
LINE
  5
34
330
1F
100
AcDbEntity
  8
1
  6
DASHED
 62
     2
100
AcDbLine
 10
-14.2749550442943
 20
35.72891593844042
 30
0.0
 11
-6.6722910083445
 21
35.72891593844042
 31
0.0
  0
LINE
  5
35
330
1F
100
AcDbEntity
  8
1
  6
DASHED
 62
     2
100
AcDbLine
 10
-6.47362302631939
 20
35.22891593844042
 30
0.0
 11
-14.47362302631939
 21
35.22891593844042
 31
0.0
  0
LINE
  5
36
330
1F
100
AcDbEntity
  8
1
  6
DOT_CENTER
 62
     2
100
AcDbLine
 10
-16.7725519572279
 20
37.72891593844042
 30
0.0
 11
-3.82322780240989
 21
37.72891593844042
 31
0.0
  0
LINE
  5
37
330
1F
100
AcDbEntity
  8
1
  6
DASHED
 62
     2
100
AcDbLine
 10
-11.0095214111814
 20
36.99045209131008
 30
0.0
 11
-13.00952141118148
 21
36.99045209130848
 31
0.0
  0
LINE
  5
38
330
1F
100
AcDbEntity
  8
1
  6
DASHED
 62
     2
100
AcDbLine
 10
-11.00952141118128
 20
38.44045209130876
 30
0.0
 11
-13.00952141118069
 21
38.44045209130898
 31
0.0
  0
LINE
  5
39
330
1F
100
AcDbEntity
  8
1
  6
DASHED
 62
     2
100
AcDbLine
 10
-11.00952141118199
 20
36.26545209130926
 30
0.0
 11
-11.0095214111816
 21
39.16545209130923
 31
0.0
  0
LINE
  5
3A
330
1F
100
AcDbEntity
  8
1
  6
DASHED
 62
     2
100
AcDbLine
 10
-13.00952141118259
 20
36.26545209131074
 30
0.0
 11
-11.00952141118199
 21
36.26545209130926
 31
0.0
  0
LINE
  5
3B
330
1F
100
AcDbEntity
  8
1
  6
DASHED
 62
     2
100
AcDbLine
 10
-11.00952141118199
 20
36.26545209130926
 30
0.0
 11
-10.1723635208559
 21
37.71545209130908
 31
0.0
  0
LINE
  5
3C
330
1F
100
AcDbEntity
  8
1
  6
DASHED
 62
     2
100
AcDbLine
 10
-10.1723635208559
 20
37.71545209130908
 30
0.0
 11
-11.0095214111816
 21
39.16545209130923
 31
0.0
  0
LINE
  5
3D
330
1F
100
AcDbEntity
  8
1
  6
DASHED
 62
     2
100
AcDbLine
 10
-11.0095214111816
 20
39.16545209130923
 30
0.0
 11
-13.00952141118128
 21
39.16545209130992
 31
0.0
  0
LINE
  5
3E
330
1F
100
AcDbEntity
  8
1
  6
DASHED
 62
     2
100
AcDbLine
 10
-12.50952141118179
 20
35.21545209130873
 30
0.0
 11
-12.50952141118219
 21
40.2154520913093
 31
0.0
  0
LINE
  5
3F
330
1F
100
AcDbEntity
  8
1
  6
DASHED
 62
     2
100
AcDbLine
 10
-12.50952141118179
 20
35.21545209130873
 30
0.0
 11
-13.00952141118179
 21
35.71545209130976
 31
0.0
  0
LINE
  5
40
330
1F
100
AcDbEntity
  8
1
  6
DASHED
 62
     2
100
AcDbLine
 10
-13.00952141118211
 20
39.71545209131067
 30
0.0
 11
-12.50952141118219
 21
40.2154520913093
 31
0.0
  0
LINE
  5
41
330
1F
100
AcDbEntity
  8
1
  6
DASHED
 62
     2
100
AcDbLine
 10
-13.00952141118211
 20
39.71545209131067
 30
0.0
 11
-13.00952141118179
 21
35.71545209130976
 31
0.0
  0
LINE
  5
42
330
1F
100
AcDbEntity
  8
1
  6
DASHED
 62
     2
100
AcDbLine
 10
-7.00952141118259
 20
35.72632865205286
 30
0.0
 11
-7.50952141118179
 21
35.22885194540207
 31
0.0
  0
LINE
  5
43
330
1F
100
AcDbEntity
  8
1
  6
DASHED
 62
     2
100
AcDbLine
 10
-7.00952141118159
 20
39.72637984648439
 30
0.0
 11
-7.00952141118259
 21
35.72632865205286
 31
0.0
  0
LINE
  5
44
330
1F
100
AcDbEntity
  8
1
  6
DASHED
 62
     2
100
AcDbLine
 10
-7.50952141118179
 20
40.22891593844018
 30
0.0
 11
-7.00952141118159
 21
39.72637984648439
 31
0.0
  0
LINE
  5
45
330
1F
100
AcDbEntity
  8
1
  6
DASHED
 62
     2
100
AcDbLine
 10
-7.50952141118179
 20
40.22891593844018
 30
0.0
 11
-7.50952141118179
 21
35.22885194540207
 31
0.0
  0
LINE
  5
46
330
1F
100
AcDbEntity
  8
1
  6
DASHED
 62
     2
100
AcDbLine
 10
-15.47362302631939
 20
39.97891593844042
 30
0.0
 11
-14.47362302631939
 21
39.97891593844042
 31
0.0
  0
LINE
  5
47
330
1F
100
AcDbEntity
  8
1
  6
DASHED
 62
     2
100
AcDbLine
 10
-14.47362302631939
 20
39.97891593844042
 30
0.0
 11
-14.47362302631939
 21
35.47891593844042
 31
0.0
  0
LINE
  5
48
330
1F
100
AcDbEntity
  8
1
  6
DASHED
 62
     2
100
AcDbLine
 10
-15.47362302631939
 20
35.47891593844042
 30
0.0
 11
-14.47362302631939
 21
35.47891593844042
 31
0.0
  0
LINE
  5
49
330
1F
100
AcDbEntity
  8
1
  6
DASHED
 62
     2
100
AcDbLine
 10
-6.63491519039241
 20
48.77249380981428
 30
0.0
 11
-6.51167604540248
 21
47.36386393683192
 31
0.0
  0
LINE
  5
4A
330
1F
100
AcDbEntity
  8
1
  6
DASHED
 62
     2
100
AcDbLine
 10
-14.4355700072374
 20
47.36386393683192
 30
0.0
 11
-14.31233086224751
 21
48.77249380981428
 31
0.0
  0
LINE
  5
4B
330
1F
100
AcDbEntity
  8
1
  6
DASHED
 62
     2
100
AcDbLine
 10
-13.8142335132016
 20
49.22891593844047
 30
0.0
 11
-7.1330125394382
 21
49.22891593844047
 31
0.0
  0
LINE
  5
4C
330
1F
100
AcDbEntity
  8
1
  6
DASHED
 62
     2
100
AcDbLine
 10
-6.4736230263199
 20
46.49230650935535
 30
0.0
 11
-6.47362302631939
 21
30.72891593844042
 31
0.0
  0
LINE
  5
4D
330
1F
100
AcDbEntity
  8
1
  6
DASHED
 62
     2
100
AcDbLine
 10
-14.47362302631939
 20
35.47891593844042
 30
0.0
 11
-14.47362302631939
 21
30.72891593844042
 31
0.0
  0
LINE
  5
4E
330
1F
100
AcDbEntity
  8
1
  6
DASHED
 62
     2
100
AcDbLine
 10
-14.4736230263199
 20
46.49230650935535
 30
0.0
 11
-14.47362302631939
 21
39.97891593844042
 31
0.0
  0
LINE
  5
4F
330
1F
100
AcDbEntity
  8
1
  6
Continuous
 62
     7
100
AcDbLine
 10
-2.97362302631939
 20
20.62891593844041
 30
0.0
 11
-2.97362302631939
 21
26.72891593844041
 31
0.0
  0
LINE
  5
50
330
1F
100
AcDbEntity
  8
1
  6
Continuous
 62
     7
100
AcDbLine
 10
-0.97362302631939
 20
20.62891593844041
 30
0.0
 11
-2.97362302631939
 21
20.62891593844041
 31
0.0
  0
LINE
  5
51
330
1F
100
AcDbEntity
  8
1
  6
Continuous
 62
     7
100
AcDbLine
 10
-0.97362302631939
 20
26.72891593844041
 30
0.0
 11
21.02637697368061
 21
26.72891593844034
 31
0.0
  0
LINE
  5
52
330
1F
100
AcDbEntity
  8
1
  6
Continuous
 62
     7
100
AcDbLine
 10
-0.97362302631939
 20
26.72891593844041
 30
0.0
 11
-0.97362302631939
 21
20.62891593844041
 31
0.0
  0
LINE
  5
53
330
1F
100
AcDbEntity
  8
1
  6
Continuous
 62
     7
100
AcDbLine
 10
-2.97362302631939
 20
26.72891593844041
 30
0.0
 11
-17.22362302631939
 21
26.72891593844041
 31
0.0
  0
LINE
  5
54
330
1F
100
AcDbEntity
  8
1
  6
Continuous
 62
     7
100
AcDbLine
 10
-17.22362302631939
 20
26.72891593844041
 30
0.0
 11
-17.97362302631939
 21
26.72891593844041
 31
0.0
  0
LINE
  5
55
330
1F
100
AcDbEntity
  8
1
  6
Continuous
 62
     7
100
AcDbLine
 10
-17.97362302631939
 20
-13.27108406155959
 30
0.0
 11
-2.97362302631939
 21
-13.27108406155959
 31
0.0
  0
LINE
  5
56
330
1F
100
AcDbEntity
  8
1
  6
Continuous
 62
     7
100
AcDbLine
 10
-2.97362302631939
 20
-13.27108406155959
 30
0.0
 11
-2.97362302631939
 21
20.62891593844041
 31
0.0
  0
LINE
  5
57
330
1F
100
AcDbEntity
  8
1
  6
DOT_CENTER
 62
     2
100
AcDbLine
 10
-10.47362302631939
 20
55.25048171277801
 30
0.0
 11
-10.47362302631939
 21
-15.90394952217159
 31
0.0
  0
LINE
  5
58
330
1F
100
AcDbEntity
  8
1
  6
Continuous
 62
     7
100
AcDbLine
 10
-17.97362302631939
 20
26.72891593844041
 30
0.0
 11
-17.97362302631939
 21
-13.27108406155959
 31
0.0
  0
LINE
  5
59
330
1F
100
AcDbEntity
  8
1
  6
PHANTOM
 62
     7
100
AcDbLine
 10
-17.97362302631939
 20
26.72891593844041
 30
0.0
 11
-26.17966903051738
 21
26.72891593844041
 31
0.0
  0
LINE
  5
5A
330
1F
100
AcDbEntity
  8
1
  6
Continuous
 62
     7
100
AcDbLine
 10
-3.72362302631939
 20
30.72891593844041
 30
0.0
 11
-3.72362302631939
 21
26.72891593844041
 31
0.0
  0
LINE
  5
5B
330
1F
100
AcDbEntity
  8
1
  6
Continuous
 62
     7
100
AcDbLine
 10
-17.22362302631939
 20
26.72891593844041
 30
0.0
 11
-17.22362302631939
 21
30.72891593844041
 31
0.0
  0
LINE
  5
5C
330
1F
100
AcDbEntity
  8
1
  6
Continuous
 62
     7
100
AcDbLine
 10
-17.22362302631939
 20
30.72891593844041
 30
0.0
 11
-15.47362302631939
 21
30.72891593844041
 31
0.0
  0
LINE
  5
5D
330
1F
100
AcDbEntity
  8
1
  6
Continuous
 62
     7
100
AcDbLine
 10
-5.47362302631939
 20
30.72891593844041
 30
0.0
 11
-3.72362302631939
 21
30.72891593844041
 31
0.0
  0
LINE
  5
5E
330
1F
100
AcDbEntity
  8
1
  6
Continuous
 62
     7
100
AcDbLine
 10
-15.47362302631939
 20
30.72891593844041
 30
0.0
 11
-5.47362302631939
 21
30.72891593844041
 31
0.0
  0
LINE
  5
5F
330
1F
100
AcDbEntity
  8
1
  6
Continuous
 62
     7
100
AcDbLine
 10
-15.47362302631939
 20
30.72891593844041
 30
0.0
 11
-15.47362302631939
 21
51.63083972708711
 31
0.0
  0
LINE
  5
60
330
1F
100
AcDbEntity
  8
1
  6
Continuous
 62
     7
100
AcDbLine
 10
-5.47362302631939
 20
51.63083972708711
 30
0.0
 11
-5.47362302631939
 21
30.72891593844041
 31
0.0
  0
LINE
  5
61
330
1F
100
AcDbEntity
  8
1
  6
Continuous
 62
     7
100
AcDbLine
 10
-14.47362302631939
 20
53.36289053465592
 30
0.0
 11
-12.97362302631939
 21
54.22891593844041
 31
0.0
  0
LINE
  5
62
330
1F
100
AcDbEntity
  8
1
  6
Continuous
 62
     7
100
AcDbLine
 10
-7.97362302631939
 20
54.22891593844041
 30
0.0
 11
-6.47362302631939
 21
53.36289053465592
 31
0.0
  0
LINE
  5
63
330
1F
100
AcDbEntity
  8
1
  6
Continuous
 62
     7
100
AcDbLine
 10
-12.97362302631939
 20
54.22891593844041
 30
0.0
 11
-7.97362302631939
 21
54.22891593844041
 31
0.0
  0
LINE
  5
64
330
1F
100
AcDbEntity
  8
1
  6
Continuous
 62
     7
100
AcDbLine
 10
-15.10661618817477
 20
52.78554026546631
 30
0.0
 11
-5.84062986446387
 21
52.78554026546631
 31
0.0
  0
LINE
  5
65
330
1F
100
AcDbEntity
  8
1
  6
Continuous
 62
     7
100
AcDbLine
 10
20.42637697368063
 20
0.27891593844041
 30
0.0
 11
9.62637697368062
 21
0.27891593844041
 31
0.0
  0
LINE
  5
66
330
1F
100
AcDbEntity
  8
1
  6
Continuous
 62
     7
100
AcDbLine
 10
20.42637697368063
 20
-2.92108406155959
 30
0.0
 11
9.62637697368062
 21
-2.92108406155959
 31
0.0
  0
LINE
  5
67
330
1F
100
AcDbEntity
  8
1
  6
Continuous
 62
     7
100
AcDbLine
 10
9.62637697368062
 20
18.87891593844041
 30
0.0
 11
20.42637697368063
 21
18.87891593844041
 31
0.0
  0
LINE
  5
68
330
1F
100
AcDbEntity
  8
1
  6
Continuous
 62
     7
100
AcDbLine
 10
9.62637697368062
 20
22.07891593844042
 30
0.0
 11
20.42637697368063
 21
22.07891593844042
 31
0.0
  0
LINE
  5
69
330
1F
100
AcDbEntity
  8
1
  6
Continuous
 62
     7
100
AcDbLine
 10
23.52637697368062
 20
12.97891593844041
 30
0.0
 11
23.52637697368061
 21
25.81899035277485
 31
0.0
  0
LINE
  5
6A
330
1F
100
AcDbEntity
  8
1
  6
Continuous
 62
     7
100
AcDbLine
 10
23.52637697368062
 20
5.97891593844041
 30
0.0
 11
23.52637697368061
 21
-6.86115847589411
 31
0.0
  0
LINE
  5
6B
330
1F
100
AcDbEntity
  8
1
  6
DOT_CENTER
 62
     2
100
AcDbLine
 10
7.52637697368061
 20
14.47028052177371
 30
0.0
 11
7.52637697368061
 21
4.80196802177371
 31
0.0
  0
LINE
  5
6C
330
1F
100
AcDbEntity
  8
1
  6
Continuous
 62
     7
100
AcDbLine
 10
23.52637697368062
 20
5.97891593844041
 30
0.0
 11
7.52637697368061
 21
5.97891593844041
 31
0.0
  0
LINE
  5
6D
330
1F
100
AcDbEntity
  8
1
  6
Continuous
 62
     7
100
AcDbLine
 10
7.52637697368061
 20
12.97891593844041
 30
0.0
 11
23.52637697368062
 21
12.97891593844041
 31
0.0
  0
LINE
  5
6E
330
1F
100
AcDbEntity
  8
1
  6
DOT_CENTER
 62
     2
100
AcDbLine
 10
1.41959391934132
 20
9.47891593844041
 30
0.0
 11
25.02898813735142
 21
9.47891593844041
 31
0.0
  0
LINE
  5
6F
330
1F
100
AcDbEntity
  8
1
  6
PHANTOM
 62
     7
100
AcDbLine
 10
23.52637697368062
 20
26.72891593844041
 30
0.0
 11
34.2297795457931
 21
26.72891593844041
 31
0.0
  0
LINE
  5
70
330
1F
100
AcDbEntity
  8
1
  6
Continuous
 62
     7
100
AcDbLine
 10
21.02637697368061
 20
-7.77108406155968
 30
0.0
 11
-2.97362302631939
 21
-7.77108406155959
 31
0.0
  0
LINE
  5
71
330
1F
100
AcDbEntity
  8
1
  6
Continuous
 62
     7
100
AcDbLine
 10
21.02637697368061
 20
26.72891593844034
 30
0.0
 11
23.52637697368061
 21
25.81899035277485
 31
0.0
  0
LINE
  5
72
330
1F
100
AcDbEntity
  8
1
  6
Continuous
 62
     7
100
AcDbLine
 10
21.02637697368061
 20
-7.77108406155968
 30
0.0
 11
23.52637697368061
 21
-6.86115847589411
 31
0.0
  0
LINE
  5
73
330
1F
100
AcDbEntity
  8
1
  6
PHANTOM
 62
     7
100
AcDbLine
 10
21.02637697368061
 20
26.72891593844034
 30
0.0
 11
23.52637697368062
 21
26.72891593844041
 31
0.0
  0
ARC
  5
74
330
1F
100
AcDbEntity
  8
1
  6
DASHED
 62
     2
100
AcDbCircle
 10
-20.03700322071481
 20
37.72891593844042
 30
0.0
 40
6.099278579257624
100
AcDbArc
 50
19.1418264192017
 51
24.19758204563994
  0
ARC
  5
75
330
1F
100
AcDbEntity
  8
1
  6
DASHED
 62
     2
100
AcDbCircle
 10
-0.91024283192399
 20
37.72891593844042
 30
0.0
 40
6.099278579257624
100
AcDbArc
 50
-160.8581735807983
 51
-155.80241795436
  0
ARC
  5
76
330
1F
100
AcDbEntity
  8
1
  6
DASHED
 62
     2
100
AcDbCircle
 10
-20.03700322071481
 20
37.72891593844042
 30
0.0
 40
6.099278579257624
100
AcDbArc
 50
-19.1418264192017
 51
19.1418264192017
  0
ARC
  5
77
330
1F
100
AcDbEntity
  8
1
  6
DASHED
 62
     2
100
AcDbCircle
 10
-0.91024283192399
 20
37.72891593844042
 30
0.0
 40
6.099278579257626
100
AcDbArc
 50
155.80241795436
 51
160.8581735807983
  0
ARC
  5
78
330
1F
100
AcDbEntity
  8
1
  6
DASHED
 62
     2
100
AcDbCircle
 10
-0.91024283192399
 20
37.72891593844042
 30
0.0
 40
6.099278579257624
100
AcDbArc
 50
160.8581735807983
 51
-160.8581735807983
  0
ARC
  5
79
330
1F
100
AcDbEntity
  8
1
  6
DASHED
 62
     2
100
AcDbCircle
 10
-20.03700322071481
 20
37.72891593844042
 30
0.0
 40
6.09927857925765
100
AcDbArc
 50
-24.19758204563994
 51
-19.1418264192017
  0
ARC
  5
7A
330
1F
100
AcDbEntity
  8
1
  6
Continuous
 62
     7
100
AcDbCircle
 10
9.62637697368062
 20
-1.32108406155959
 30
0.0
 40
1.599999999999997
100
AcDbArc
 50
90.0
 51
-90.0
  0
ARC
  5
7B
330
1F
100
AcDbEntity
  8
1
  6
Continuous
 62
     7
100
AcDbCircle
 10
9.62637697368062
 20
20.47891593844041
 30
0.0
 40
1.600000000000012
100
AcDbArc
 50
90.0
 51
180.0
  0
ARC
  5
7C
330
1F
100
AcDbEntity
  8
1
  6
Continuous
 62
     7
100
AcDbCircle
 10
9.62637697368062
 20
20.47891593844041
 30
0.0
 40
1.600000000000009
100
AcDbArc
 50
180.0
 51
-90.0
  0
ARC
  5
7D
330
1F
100
AcDbEntity
  8
1
  6
Continuous
 62
     7
100
AcDbCircle
 10
7.52637697368061
 20
9.47891593844041
 30
0.0
 40
3.500000000000002
100
AcDbArc
 50
90.0
 51
-90.0
  0
ARC
  5
7E
330
1F
100
AcDbEntity
  8
1
  6
DASHED
 62
     2
100
AcDbCircle
 10
-16.4736230263199
 20
46.49230650935535
 30
0.0
 40
10.0
100
AcDbArc
 50
0.0
 51
4.99999999999994
  0
ARC
  5
7F
330
1F
100
AcDbEntity
  8
1
  6
DASHED
 62
     2
100
AcDbCircle
 10
-4.4736230263199
 20
46.49230650935535
 30
0.0
 40
10.00000000000004
100
AcDbArc
 50
175.0000000000001
 51
180.0
  0
ARC
  5
80
330
1F
100
AcDbEntity
  8
1
  6
DASHED
 62
     2
100
AcDbCircle
 10
-7.1330125394382
 20
48.72891593844047
 30
0.0
 40
0.4999999999999182
100
AcDbArc
 50
4.99999999999816
 51
90.0
  0
ARC
  5
81
330
1F
100
AcDbEntity
  8
1
  6
DASHED
 62
     2
100
AcDbCircle
 10
-13.8142335132016
 20
48.72891593844047
 30
0.0
 40
0.5
100
AcDbArc
 50
90.0
 51
175.000000000003
  0
ARC
  5
82
330
1F
100
AcDbEntity
  8
1
  6
Continuous
 62
     7
100
AcDbCircle
 10
-13.47362302631939
 20
51.63083972708711
 30
0.0
 40
1.999999999999942
100
AcDbArc
 50
120.000000000001
 51
180.0
  0
ARC
  5
83
330
1F
100
AcDbEntity
  8
1
  6
Continuous
 62
     7
100
AcDbCircle
 10
-7.47362302631939
 20
51.63083972708711
 30
0.0
 40
1.999999999999998
100
AcDbArc
 50
0.0
 51
59.99999999999909
  0
ARC
  5
84
330
1F
100
AcDbEntity
  8
1
  6
Continuous
 62
     7
100
AcDbCircle
 10
20.42637697368063
 20
20.47891593844041
 30
0.0
 40
1.599999999999991
100
AcDbArc
 50
0.0
 51
90.0
  0
ARC
  5
85
330
1F
100
AcDbEntity
  8
1
  6
Continuous
 62
     7
100
AcDbCircle
 10
20.42637697368063
 20
20.47891593844041
 30
0.0
 40
1.599999999999998
100
AcDbArc
 50
-90.0
 51
0.0
  0
ARC
  5
86
330
1F
100
AcDbEntity
  8
1
  6
Continuous
 62
     7
100
AcDbCircle
 10
20.42637697368063
 20
-1.32108406155959
 30
0.0
 40
1.599999999999999
100
AcDbArc
 50
-90.0
 51
90.0
  0
MTEXT
  5
88
330
1F
100
AcDbEntity
  8
1
 62
     2
100
AcDbMText
 10
31.11027949291082
 20
28.80315173510431
 30
0.0
 40
2.5
 41
0.0
 71
     5
 72
     1
  1
BBL
  7
CONVERTER_11
 73
     1
 44
1.32052821128451
  0
DIMENSION
  5
93
330
1F
100
AcDbEntity
  8
1
100
AcDbDimension
  2
*D1
 10
-29.22039535841838
 20
54.22891593844042
 30
0.0
 11
-32.97039535841838
 21
42.78661722855745
 31
0.0
 70
    32
  1
<>
 71
     5
 42
-1.0
 53
90.0
  3
ME10_DIM_10
100
AcDbAlignedDimension
 13
-17.22362302631939
 23
30.72891593844041
 33
0.0
 14
-12.97362302631939
 24
54.22891593844041
 34
0.0
 50
90.0
100
AcDbRotatedDimension
  0
DIMENSION
  5
9E
330
1F
100
AcDbEntity
  8
1
100
AcDbDimension
  2
*D2
 10
-17.97362302631939
 20
-24.2242976330694
 30
0.0
 11
-9.66661924647739
 21
-20.4742976330694
 31
0.0
 70
    32
  1
<>
 71
     5
 42
-1.0
 53
0.00013888888889
  3
ME10_DIM_11
100
AcDbAlignedDimension
 13
-2.97362302631939
 23
-13.27108406155959
 33
0.0
 14
-17.97362302631939
 24
-13.27108406155959
 34
0.0
100
AcDbRotatedDimension
  0
DIMENSION
  5
A9
330
1F
100
AcDbEntity
  8
1
100
AcDbDimension
  2
*D3
 10
-15.47362302631939
 20
64.52275170997663
 30
0.0
 11
-10.61501192607139
 21
68.27275170997663
 31
0.0
 70
    32
  1
<>
 71
     5
 42
-1.0
 53
0.00013888888889
  3
ME10_DIM_12
100
AcDbAlignedDimension
 13
-5.47362302631939
 23
51.63083972708711
 33
0.0
 14
-15.47362302631939
 24
51.63083972708711
 34
0.0
100
AcDbRotatedDimension
  0
DIMENSION
  5
B4
330
1F
100
AcDbEntity
  8
1
100
AcDbDimension
  2
*D4
 10
38.1912127429576
 20
26.72891593844041
 30
0.0
 11
34.4412127429576
 21
10.74462597172136
 31
0.0
 70
    32
  1
34.5
 71
     5
 42
-1.0
 53
90.0
  3
ME10_DIM_13
100
AcDbAlignedDimension
 13
21.02637697368061
 23
-7.77108406155968
 33
0.0
 14
34.2297795457931
 24
26.72891593844041
 34
0.0
 50
90.0
100
AcDbRotatedDimension
  0
DIMENSION
  5
BF
330
1F
100
AcDbEntity
  8
1
100
AcDbDimension
  2
*D5
 10
-29.22039535841838
 20
26.72891593844041
 30
0.0
 11
-32.97039535841838
 21
6.72891593844041
 31
0.0
 70
    32
  1
<>
 71
     5
 42
-1.0
 53
90.0
  3
ME10_DIM_14
100
AcDbAlignedDimension
 13
-17.97362302631939
 23
-13.27108406155959
 33
0.0
 14
-26.17966903051738
 24
26.72891593844041
 34
0.0
 50
90.0
100
AcDbRotatedDimension
  0
ENDSEC
  0
SECTION
  2
OBJECTS
  0
DICTIONARY
  5
C
330
0
100
AcDbDictionary
281
     1
  3
ACAD_GROUP
350
D
  3
ACAD_LAYOUT
350
1A
  3
ACAD_MLINESTYLE
350
17
  3
ACAD_PLOTSETTINGS
350
19
  3
ACAD_PLOTSTYLENAME
350
E
  0
DICTIONARY
  5
D
102
{ACAD_REACTORS
330
C
102
}
330
C
100
AcDbDictionary
281
     1
  0
DICTIONARY
  5
1A
102
{ACAD_REACTORS
330
C
102
}
330
C
100
AcDbDictionary
281
     1
  3
Layout1
350
1E
  3
Layout2
350
26
  3
Model
350
22
  0
DICTIONARY
  5
17
102
{ACAD_REACTORS
330
C
102
}
330
C
100
AcDbDictionary
281
     1
  3
Standard
350
18
  0
DICTIONARY
  5
19
102
{ACAD_REACTORS
330
C
102
}
330
C
100
AcDbDictionary
281
     1
  0
ACDBDICTIONARYWDFLT
  5
E
102
{ACAD_REACTORS
330
C
102
}
330
C
100
AcDbDictionary
281
     1
  3
Normal
350
F
100
AcDbDictionaryWithDefault
340
F
  0
LAYOUT
  5
1E
102
{ACAD_REACTORS
330
1A
102
}
330
1A
100
AcDbPlotSettings
  1

  2

  4

  6

 40
0.0
 41
0.0
 42
0.0
 43
0.0
 44
0.0
 45
0.0
 46
0.0
 47
0.0
 48
0.0
 49
0.0
140
0.0
141
0.0
142
1.0
143
1.0
 70
   688
 72
     0
 73
     0
 74
     5
  7

 75
    16
 76
     0
 77
     2
 78
   300
147
1.0
148
0.0
149
0.0
100
AcDbLayout
  1
Layout1
 70
     1
 71
     1
 10
0.0
 20
0.0
 11
0.0
 21
0.0
 12
0.0
 22
0.0
 32
0.0
 14
0.0
 24
0.0
 34
0.0
 15
0.0
 25
0.0
 35
0.0
146
0.0
 13
0.0
 23
0.0
 33
0.0
 16
1.0
 26
0.0
 36
0.0
 17
0.0
 27
1.0
 37
0.0
 76
     0
330
1B
  0
LAYOUT
  5
26
102
{ACAD_REACTORS
330
1A
102
}
330
1A
100
AcDbPlotSettings
  1

  2

  4

  6

 40
0.0
 41
0.0
 42
0.0
 43
0.0
 44
0.0
 45
0.0
 46
0.0
 47
0.0
 48
0.0
 49
0.0
140
0.0
141
0.0
142
1.0
143
1.0
 70
   688
 72
     0
 73
     0
 74
     5
  7

 75
    16
 76
     0
 77
     2
 78
   300
147
1.0
148
0.0
149
0.0
100
AcDbLayout
  1
Layout2
 70
     1
 71
     2
 10
0.0
 20
0.0
 11
0.0
 21
0.0
 12
0.0
 22
0.0
 32
0.0
 14
0.0
 24
0.0
 34
0.0
 15
0.0
 25
0.0
 35
0.0
146
0.0
 13
0.0
 23
0.0
 33
0.0
 16
1.0
 26
0.0
 36
0.0
 17
0.0
 27
1.0
 37
0.0
 76
     0
330
23
  0
LAYOUT
  5
22
102
{ACAD_REACTORS
330
1A
102
}
330
1A
100
AcDbPlotSettings
  1

  2

  4

  6

 40
0.0
 41
0.0
 42
0.0
 43
0.0
 44
0.0
 45
0.0
 46
0.0
 47
0.0
 48
0.0
 49
0.0
140
0.0
141
0.0
142
1.0
143
1.0
 70
  1712
 72
     0
 73
     0
 74
     0
  7

 75
     0
 76
     0
 77
     2
 78
   300
147
1.0
148
0.0
149
0.0
100
AcDbLayout
  1
Model
 70
     1
 71
     0
 10
0.0
 20
0.0
 11
0.0
 21
0.0
 12
0.0
 22
0.0
 32
0.0
 14
-34.72039535841838
 24
-26.2242976330694
 34
0.0
 15
40.1912127429576
 25
70.02275170997663
 35
0.0
146
0.0
 13
0.0
 23
0.0
 33
0.0
 16
1.0
 26
0.0
 36
0.0
 17
0.0
 27
1.0
 37
0.0
 76
     0
330
1F
  0
MLINESTYLE
  5
18
102
{ACAD_REACTORS
330
17
102
}
330
17
100
AcDbMlineStyle
  2
Standard
 70
     0
  3

 62
   256
 51
90.0
 52
90.0
 71
     2
 49
0.5
 62
   256
  6
BYLAYER
 49
-0.5
 62
   256
  6
BYLAYER
  0
ACDBPLACEHOLDER
  5
F
102
{ACAD_REACTORS
330
E
102
}
330
E
  0
ENDSEC
  0
EOF
