999
DXF file: d:\tmp\workingDir\0000063232\vx_7531_3d_v01_01.dxf
999
Pro/ENGINEER 2016380 by Parametric Technology Corporation
  0
SECTION
  2
HEADER
  9
$ACADVER
  1
AC1014
  9
$DWGCODEPAGE
  3
ANSI_1252
  9
$EXTMAX
 10
80.01
 20
200.0
 30
0.0
  9
$EXTMIN
 10
0.0
 20
0.0
 30
0.0
  9
$LIMMIN
 10
0.0
 20
0.0
  9
$LIMMAX
 10
80.01
 20
200.0
  9
$VIEWCTR
 10
40.005
 20
100.0
  9
$VIEWSIZE
 40
200.0
  9
$CLAYER
  8
0
  9
$LTSCALE
 40
13.037037037
  9
$CELTYPE
  6
BYLAYER
  9
$DIMSCALE
 40
1.0
  9
$DIMASZ
 40
3.5
  9
$DIMEXO
 40
0.0
  9
$DIMDLI
 40
9.0074074074
  9
$DIMEXE
 40
2.0
  9
$DIMCEN
 40
2.1333333333
  9
$DIMLFAC
 40
1.0
  9
$DIMBLK
  1
_ARROW_FILLED
  9
$DIMALT
 70
0
  9
$DIMALTF
 40
25.4
  9
$DIMTXT
 40
3.5
  9
$DIMTOL
 70
1
  9
$DIMLIM
 70
0
  9
$DIMTFAC
 40
1.0
  9
$DIMTP
 40
0.01
  9
$DIMTM
 40
0.01
  9
$DIMGAP
 40
0.625
  9
$AUNITS
 70
0
  9
$PDMODE
 70
0
  9
$PDSIZE
 40
0.04
  9
$HANDSEED
  5
366
  9
$TILEMODE
 70
1
  9
$MEASUREMENT
 70
1
  0
ENDSEC
  0
SECTION
  2
CLASSES
  0
ENDSEC
  0
SECTION
  2
TABLES
  0
TABLE
  2
VPORT
  5
8
100
AcDbSymbolTable
 70
2
  0
VPORT
  5
1F4
100
AcDbSymbolTableRecord
100
AcDbViewportTableRecord
  2
*ACTIVE
 70
0
 10
0.0
 20
0.0
 11
1.0
 21
1.0
 12
40.005
 22
100.0
 13
0.0
 23
0.0
 14
1.0
 24
1.0
 15
0.0
 25
0.0
 16
0.0
 26
0.0
 36
1.0
 17
0.0
 27
0.0
 37
0.0
 40
200.0
 41
0.40005
 42
50.0
 43
0.0
 44
0.0
 50
0.0
 51
0.0
 71
0
 72
100
 73
1
 74
1
 75
0
 76
0
 77
0
 78
0
  0
ENDTAB
  0
TABLE
  2
LTYPE
  5
5
100
AcDbSymbolTable
 70
6
  0
LTYPE
  5
14
100
AcDbSymbolTableRecord
100
AcDbLinetypeTableRecord
  2
BYBLOCK
 70
0
  3

 72
65
 73
0
 40
0.0
  0
LTYPE
  5
15
100
AcDbSymbolTableRecord
100
AcDbLinetypeTableRecord
  2
BYLAYER
 70
0
  3

 72
65
 73
0
 40
0.0
  0
LTYPE
  5
16
100
AcDbSymbolTableRecord
100
AcDbLinetypeTableRecord
  2
CONTINUOUS
 70
64
  3
Solid line
 72
65
 73
0
 40
0.0
  0
LTYPE
  5
1F5
100
AcDbSymbolTableRecord
100
AcDbLinetypeTableRecord
  2
CENTER
 70
64
  3
____ _ ____ _ ____ _ ____ _ ____ _ ____ _ ____
 72
65
 73
4
 40
0.6
 49
0.375
 74
0
 49
-0.075
 74
0
 49
0.075
 74
0
 49
-0.075
 74
0
  0
LTYPE
  5
1F6
100
AcDbSymbolTableRecord
100
AcDbLinetypeTableRecord
  2
HIDDEN
 70
64
  3
- - - - - - - - - - - - - - - - - - - -
 72
65
 73
2
 40
0.2
 49
0.1
 74
0
 49
-0.1
 74
0
  0
LTYPE
  5
1F7
100
AcDbSymbolTableRecord
100
AcDbLinetypeTableRecord
  2
PHANTOM
 70
64
  3
_____ _ _ _____ _ _ _____ _ _ _____
 72
65
 73
6
 40
0.8
 49
0.45
 74
0
 49
-0.05
 74
0
 49
0.1
 74
0
 49
-0.05
 74
0
 49
0.1
 74
0
 49
-0.05
 74
0
  0
LTYPE
  5
1F8
100
AcDbSymbolTableRecord
100
AcDbLinetypeTableRecord
  2
DOT
 70
64
  3
. . . . . . . . . . . . . . . . . . . .
 72
65
 73
2
 40
0.2
 49
0.1
 74
0
 49
-0.1
 74
0
  0
LTYPE
  5
1F9
100
AcDbSymbolTableRecord
100
AcDbLinetypeTableRecord
  2
DASHED
 70
64
  3
- - - - - - - - - - - - - - - - - - - -
 72
65
 73
2
 40
0.2
 49
0.1
 74
0
 49
-0.1
 74
0
  0
ENDTAB
  0
TABLE
  2
LAYER
  5
2
100
AcDbSymbolTable
 70
36
  0
LAYER
  5
10
100
AcDbSymbolTableRecord
100
AcDbLayerTableRecord
  2
0
 70
0
 62
7
  6
CONTINUOUS
  0
LAYER
  5
1FA
100
AcDbSymbolTableRecord
100
AcDbLayerTableRecord
  2
DEFAULT_1
 70
0
 62
7
  6
CENTER
  0
LAYER
  5
1FB
100
AcDbSymbolTableRecord
100
AcDbLayerTableRecord
  2
DEFAULT_2
 70
0
 62
8
  6
HIDDEN
  0
LAYER
  5
1FC
100
AcDbSymbolTableRecord
100
AcDbLayerTableRecord
  2
DEFAULT_3
 70
0
 62
7
  6
PHANTOM
  0
LAYER
  5
1FD
100
AcDbSymbolTableRecord
100
AcDbLayerTableRecord
  2
A_ACHSEN
 70
0
 62
7
  6
CONTINUOUS
  0
LAYER
  5
1FE
100
AcDbSymbolTableRecord
100
AcDbLayerTableRecord
  2
A_BASISEBENEN
 70
0
 62
7
  6
CONTINUOUS
  0
LAYER
  5
1FF
100
AcDbSymbolTableRecord
100
AcDbLayerTableRecord
  2
A_BEMASSUNGEN
 70
0
 62
7
  6
CONTINUOUS
  0
LAYER
  5
200
100
AcDbSymbolTableRecord
100
AcDbLayerTableRecord
  2
A_BOHRUNGEN
 70
0
 62
7
  6
CONTINUOUS
  0
LAYER
  5
201
100
AcDbSymbolTableRecord
100
AcDbLayerTableRecord
  2
A_EBENEN
 70
0
 62
7
  6
CONTINUOUS
  0
LAYER
  5
202
100
AcDbSymbolTableRecord
100
AcDbLayerTableRecord
  2
A_FASEN
 70
0
 62
7
  6
CONTINUOUS
  0
LAYER
  5
203
100
AcDbSymbolTableRecord
100
AcDbLayerTableRecord
  2
A_FLAECHEN
 70
0
 62
7
  6
CONTINUOUS
  0
LAYER
  5
204
100
AcDbSymbolTableRecord
100
AcDbLayerTableRecord
  2
A_FL_VERBAENDE
 70
0
 62
7
  6
CONTINUOUS
  0
LAYER
  5
205
100
AcDbSymbolTableRecord
100
AcDbLayerTableRecord
  2
A_KURVEN
 70
0
 62
7
  6
CONTINUOUS
  0
LAYER
  5
206
100
AcDbSymbolTableRecord
100
AcDbLayerTableRecord
  2
A_NOTIZEN_SYMB
 70
0
 62
7
  6
CONTINUOUS
  0
LAYER
  5
207
100
AcDbSymbolTableRecord
100
AcDbLayerTableRecord
  2
A_PUNKTE
 70
0
 62
7
  6
CONTINUOUS
  0
LAYER
  5
208
100
AcDbSymbolTableRecord
100
AcDbLayerTableRecord
  2
A_RUNDUNGEN
 70
0
 62
7
  6
CONTINUOUS
  0
LAYER
  5
209
100
AcDbSymbolTableRecord
100
AcDbLayerTableRecord
  2
A_TABELLEN
 70
0
 62
7
  6
CONTINUOUS
  0
LAYER
  5
20A
100
AcDbSymbolTableRecord
100
AcDbLayerTableRecord
  2
BASISEBENEN
 70
0
 62
7
  6
CONTINUOUS
  0
LAYER
  5
20B
100
AcDbSymbolTableRecord
100
AcDbLayerTableRecord
  2
XSEC_DATUMS
 70
0
 62
7
  6
CONTINUOUS
  0
ENDTAB
  0
TABLE
  2
STYLE
  5
3
100
AcDbSymbolTable
 70
1
  0
STYLE
  5
11
100
AcDbSymbolTableRecord
100
AcDbTextStyleTableRecord
  2
STANDARD
 70
0
 40
0.0
 41
1.0
 50
0.0
 71
0
 42
0.2
  3
txt
  4

  0
STYLE
  5
20C
100
AcDbSymbolTableRecord
100
AcDbTextStyleTableRecord
  2
TEXTSTYLE_1
 70
0
 40
0.0
 41
0.8
 50
0.0
 71
0
 42
0.2
  3
gdt
  4

  0
STYLE
  5
20D
100
AcDbSymbolTableRecord
100
AcDbTextStyleTableRecord
  2
TEXTSTYLE_2
 70
0
 40
0.0
 41
1.0
 50
0.0
 71
0
 42
0.2
  3
txt
  4

  0
ENDTAB
  0
TABLE
  2
VIEW
  5
6
100
AcDbSymbolTable
 70
0
  0
ENDTAB
  0
TABLE
  2
UCS
  5
7
100
AcDbSymbolTable
 70
0
  0
ENDTAB
  0
TABLE
  2
APPID
  5
9
100
AcDbSymbolTable
 70
1
  0
APPID
  5
20E
100
AcDbSymbolTableRecord
100
AcDbRegAppTableRecord
  2
ACAD
 70
0
  0
ENDTAB
  0
TABLE
  2
BLOCK_RECORD
  5
1
100
AcDbSymbolTable
 70
0
  0
BLOCK_RECORD
  5
1F
100
AcDbSymbolTableRecord
100
AcDbBlockTableRecord
  2
*MODEL_SPACE
  0
BLOCK_RECORD
  5
1B
100
AcDbSymbolTableRecord
100
AcDbBlockTableRecord
  2
*PAPER_SPACE
  0
BLOCK_RECORD
  5
20F
100
AcDbSymbolTableRecord
100
AcDbBlockTableRecord
  2
_ARROW_FILLED
  0
BLOCK_RECORD
  5
210
100
AcDbSymbolTableRecord
100
AcDbBlockTableRecord
  2
*D0
  0
BLOCK_RECORD
  5
211
100
AcDbSymbolTableRecord
100
AcDbBlockTableRecord
  2
*D1
  0
BLOCK_RECORD
  5
212
100
AcDbSymbolTableRecord
100
AcDbBlockTableRecord
  2
*D2
  0
BLOCK_RECORD
  5
213
100
AcDbSymbolTableRecord
100
AcDbBlockTableRecord
  2
*D3
  0
ENDTAB
  0
TABLE
  2
DIMSTYLE
  5
A
100
AcDbSymbolTable
 70
1
  0
DIMSTYLE
105
214
100
AcDbSymbolTableRecord
100
AcDbDimStyleTableRecord
  2
STANDARD
 70
0
  3

  4

  5
_ARROW_FILLED
  6
_ARROW_FILLED
  7
_ARROW_FILLED
 40
1.0
 41
3.5
 42
0.0
 43
0.38
 44
2.0
 45
0.0
 46
0.0
 47
0.01
 48
0.01
140
3.5
141
0.09
142
0.0
143
25.4
144
1.0
145
0.0
146
1.0
147
0.625
 71
1.0
 72
0.0
 73
0
 74
0
 75
0
 76
0
 77
1
 78
8
170
0
171
1
172
0
173
0
174
0
175
0
176
0
177
0
178
5
270
2
271
2
272
2
273
2
274
2
275
0
280
0
281
0
282
0
283
1
284
8
285
0
286
0
287
3
288
0
340
11
  0
DIMSTYLE
105
215
100
AcDbSymbolTableRecord
100
AcDbDimStyleTableRecord
  2
DIMSTYLE_1
 70
0
  3

  4

  5
_ARROW_FILLED
  6
_ARROW_FILLED
  7
_ARROW_FILLED
 40
1.0
 41
3.5
 42
0.0
 43
0.38
 44
2.0
 45
0.0
 46
0.0
 47
0.2
 48
0.2
140
3.5
141
0.09
142
0.0
143
25.4
144
1.0
145
0.0
146
1.0
147
0.875
 71
0.0
 72
0.0
 73
0
 74
0
 75
0
 76
0
 77
1
 78
8
170
0
171
1
172
0
173
0
174
0
175
0
176
0
177
0
178
5
270
2
271
4
272
-1
273
2
274
2
275
0
280
0
281
0
282
0
283
1
284
8
285
0
286
0
287
3
288
0
340
20D
  0
DIMSTYLE
105
216
100
AcDbSymbolTableRecord
100
AcDbDimStyleTableRecord
  2
DIMSTYLE_2
 70
0
  3

  4

  5
_ARROW_FILLED
  6
_ARROW_FILLED
  7
_ARROW_FILLED
 40
1.0
 41
3.5
 42
0.0
 43
0.38
 44
2.0
 45
0.0
 46
0.0
 47
0.5
 48
0.5
140
3.5
141
0.09
142
0.0
143
25.4
144
1.0
145
0.0
146
1.0
147
0.875
 71
0.0
 72
0.0
 73
0
 74
0
 75
0
 76
0
 77
1
 78
8
170
0
171
1
172
0
173
0
174
0
175
0
176
0
177
0
178
5
270
2
271
4
272
-1
273
2
274
2
275
0
280
0
281
0
282
0
283
1
284
8
285
0
286
0
287
3
288
0
340
20D
  0
ENDTAB
  0
ENDSEC
  0
SECTION
  2
BLOCKS
  0
BLOCK
  5
20
100
AcDbEntity
  8
0
100
AcDbBlockBegin
  2
*MODEL_SPACE
 70
0
 10
0.0
 20
0.0
 30
0.0
  3
*MODEL_SPACE
  1

  0
ENDBLK
  5
21
100
AcDbEntity
  8
0
100
AcDbBlockEnd
  0
BLOCK
  5
1C
100
AcDbEntity
  8
0
100
AcDbBlockBegin
  2
*PAPER_SPACE
 70
0
 10
0.0
 20
0.0
 30
0.0
  3
*PAPER_SPACE
  1

  0
ENDBLK
  5
1D
100
AcDbEntity
  8
0
100
AcDbBlockEnd
  0
BLOCK
  5
217
100
AcDbEntity
  8
0
100
AcDbBlockBegin
  2
_ARROW_FILLED
 70
64
 10
0.0
 20
0.0
  3
_ARROW_FILLED
  1

  0
SOLID
  5
218
100
AcDbEntity
  8
0
  6
BYBLOCK
 62
0
100
AcDbTrace
 10
0.0
 20
0.0
 11
-1.0
 21
0.0940374286
 12
-1.0
 22
-0.0940374286
 13
-1.0
 23
-0.0940374286
  0
ENDBLK
  5
219
100
AcDbEntity
  8
0
  6
BYBLOCK
 62
0
100
AcDbBlockEnd
  0
BLOCK
  5
21A
100
AcDbEntity
  8
A_BEMASSUNGEN
100
AcDbBlockBegin
 62
2
  6
CONTINUOUS
  2
*D0
 70
65
 10
0.0
 20
0.0
  3
*D0
  1

  0
MTEXT
  5
21B
100
AcDbEntity
  8
A_BEMASSUNGEN
100
AcDbMText
 62
5
  6
CONTINUOUS
  7
TEXTSTYLE_2
 71
2
 72
1
 10
37.0266317441
 20
7.3208833845
 30
0.0
 11
1.0
 21
0.0
 31
0.0
  1
24
 40
3.5
 41
8.25
  0
LINE
  5
21C
100
AcDbEntity
  8
A_BEMASSUNGEN
100
AcDbLine
 62
2
  6
CONTINUOUS
 10
49.0266317441
 20
29.4947981367
 11
49.0266317441
 21
0.9458833845
  0
LINE
  5
21D
100
AcDbEntity
  8
A_BEMASSUNGEN
100
AcDbLine
 62
2
  6
CONTINUOUS
 10
25.0266317441
 20
29.4948866229
 11
25.0266317441
 21
0.9458833845
  0
LINE
  5
21E
100
AcDbEntity
  8
A_BEMASSUNGEN
100
AcDbLine
 62
2
  6
CONTINUOUS
 10
49.0266317441
 20
2.9458833845
 11
37.0266317441
 21
2.9458833845
  0
LINE
  5
21F
100
AcDbEntity
  8
A_BEMASSUNGEN
100
AcDbLine
 62
2
  6
CONTINUOUS
 10
25.0266317441
 20
2.9458833845
 11
37.0266317441
 21
2.9458833845
  0
INSERT
  5
220
100
AcDbEntity
  8
A_BEMASSUNGEN
100
AcDbBlockReference
 62
2
  6
CONTINUOUS
  2
_ARROW_FILLED
 10
49.0266317441
 20
2.9458833845
 41
3.5
 42
3.5
 43
3.5
  0
INSERT
  5
221
100
AcDbEntity
  8
A_BEMASSUNGEN
100
AcDbBlockReference
 62
2
  6
CONTINUOUS
  2
_ARROW_FILLED
 10
25.0266317441
 20
2.9458833845
 41
3.5
 42
3.5
 43
3.5
 50
180.0
  0
ENDBLK
  5
222
100
AcDbEntity
  8
0
  6
BYBLOCK
 62
0
100
AcDbBlockEnd
  0
BLOCK
  5
223
100
AcDbEntity
  8
A_BEMASSUNGEN
100
AcDbBlockBegin
 62
2
  6
CONTINUOUS
  2
*D1
 70
65
 10
0.0
 20
0.0
  3
*D1
  1

  0
MTEXT
  5
224
100
AcDbEntity
  8
A_BEMASSUNGEN
100
AcDbMText
 62
5
  6
CONTINUOUS
  7
TEXTSTYLE_2
 71
2
 72
1
 10
10.4787542805
 20
102.4021533307
 30
0.0
 11
0.0
 21
1.0
 31
0.0
  1
180
 40
3.5
 41
11.25
  0
LINE
  5
225
100
AcDbEntity
  8
A_BEMASSUNGEN
100
AcDbLine
 62
2
  6
CONTINUOUS
 10
37.0266317441
 20
192.4021533307
 11
12.8537542805
 21
192.4021533307
  0
LINE
  5
226
100
AcDbEntity
  8
A_BEMASSUNGEN
100
AcDbLine
 62
2
  6
CONTINUOUS
 10
37.0266317441
 20
12.4021533307
 11
12.8537542805
 21
12.4021533307
  0
LINE
  5
227
100
AcDbEntity
  8
A_BEMASSUNGEN
100
AcDbLine
 62
2
  6
CONTINUOUS
 10
14.8537542805
 20
192.4021533307
 11
14.8537542805
 21
102.4021533307
  0
LINE
  5
228
100
AcDbEntity
  8
A_BEMASSUNGEN
100
AcDbLine
 62
2
  6
CONTINUOUS
 10
14.8537542805
 20
12.4021533307
 11
14.8537542805
 21
102.4021533307
  0
INSERT
  5
229
100
AcDbEntity
  8
A_BEMASSUNGEN
100
AcDbBlockReference
 62
2
  6
CONTINUOUS
  2
_ARROW_FILLED
 10
14.8537542805
 20
192.4021533307
 41
3.5
 42
3.5
 43
3.5
 50
90.0
  0
INSERT
  5
22A
100
AcDbEntity
  8
A_BEMASSUNGEN
100
AcDbBlockReference
 62
2
  6
CONTINUOUS
  2
_ARROW_FILLED
 10
14.8537542805
 20
12.4021533307
 41
3.5
 42
3.5
 43
3.5
 50
270.0
  0
ENDBLK
  5
22B
100
AcDbEntity
  8
0
  6
BYBLOCK
 62
0
100
AcDbBlockEnd
  0
BLOCK
  5
22C
100
AcDbEntity
  8
A_BEMASSUNGEN
100
AcDbBlockBegin
 62
2
  6
CONTINUOUS
  2
*D2
 70
65
 10
0.0
 20
0.0
  3
*D2
  1

  0
MTEXT
  5
22D
100
AcDbEntity
  8
A_BEMASSUNGEN
100
AcDbMText
 62
5
  6
CONTINUOUS
  7
TEXTSTYLE_2
 71
2
 72
1
 10
68.6445244163
 20
102.4021533307
 30
0.0
 11
0.0
 21
1.0
 31
0.0
  1
162
 40
3.5
 41
11.25
  0
LINE
  5
22E
100
AcDbEntity
  8
A_BEMASSUNGEN
100
AcDbLine
 62
2
  6
CONTINUOUS
 10
48.2259886112
 20
183.4021533307
 11
75.0195244163
 21
183.4021533307
  0
LINE
  5
22F
100
AcDbEntity
  8
A_BEMASSUNGEN
100
AcDbLine
 62
2
  6
CONTINUOUS
 10
46.4321634392
 20
21.4021533307
 11
75.0195244163
 21
21.4021533307
  0
LINE
  5
230
100
AcDbEntity
  8
A_BEMASSUNGEN
100
AcDbLine
 62
2
  6
CONTINUOUS
 10
73.0195244163
 20
183.4021533307
 11
73.0195244163
 21
102.4021533307
  0
LINE
  5
231
100
AcDbEntity
  8
A_BEMASSUNGEN
100
AcDbLine
 62
2
  6
CONTINUOUS
 10
73.0195244163
 20
21.4021533307
 11
73.0195244163
 21
102.4021533307
  0
INSERT
  5
232
100
AcDbEntity
  8
A_BEMASSUNGEN
100
AcDbBlockReference
 62
2
  6
CONTINUOUS
  2
_ARROW_FILLED
 10
73.0195244163
 20
183.4021533307
 41
3.5
 42
3.5
 43
3.5
 50
90.0
  0
INSERT
  5
233
100
AcDbEntity
  8
A_BEMASSUNGEN
100
AcDbBlockReference
 62
2
  6
CONTINUOUS
  2
_ARROW_FILLED
 10
73.0195244163
 20
21.4021533307
 41
3.5
 42
3.5
 43
3.5
 50
270.0
  0
ENDBLK
  5
234
100
AcDbEntity
  8
0
  6
BYBLOCK
 62
0
100
AcDbBlockEnd
  0
BLOCK
  5
235
100
AcDbEntity
  8
A_BEMASSUNGEN
100
AcDbBlockBegin
 62
2
  6
CONTINUOUS
  2
*D3
 70
65
 10
0.0
 20
0.0
  3
*D3
  1

  0
MTEXT
  5
236
100
AcDbEntity
  8
A_BEMASSUNGEN
100
AcDbMText
 62
5
  6
CONTINUOUS
  7
TEXTSTYLE_2
 71
2
 72
1
 10
56.8182800724
 20
102.4021533307
 30
0.0
 11
0.0
 21
1.0
 31
0.0
  1
152
 40
3.5
 41
10.875
  0
LINE
  5
237
100
AcDbEntity
  8
A_BEMASSUNGEN
100
AcDbLine
 62
2
  6
CONTINUOUS
 10
46.264290263
 20
178.4021533307
 11
63.1932800724
 21
178.4021533307
  0
LINE
  5
238
100
AcDbEntity
  8
A_BEMASSUNGEN
100
AcDbLine
 62
2
  6
CONTINUOUS
 10
46.5023046717
 20
26.4021533307
 11
63.1932800724
 21
26.4021533307
  0
LINE
  5
239
100
AcDbEntity
  8
A_BEMASSUNGEN
100
AcDbLine
 62
2
  6
CONTINUOUS
 10
61.1932800724
 20
178.4021533307
 11
61.1932800724
 21
102.4021533307
  0
LINE
  5
23A
100
AcDbEntity
  8
A_BEMASSUNGEN
100
AcDbLine
 62
2
  6
CONTINUOUS
 10
61.1932800724
 20
26.4021533307
 11
61.1932800724
 21
102.4021533307
  0
INSERT
  5
23B
100
AcDbEntity
  8
A_BEMASSUNGEN
100
AcDbBlockReference
 62
2
  6
CONTINUOUS
  2
_ARROW_FILLED
 10
61.1932800724
 20
178.4021533307
 41
3.5
 42
3.5
 43
3.5
 50
90.0
  0
INSERT
  5
23C
100
AcDbEntity
  8
A_BEMASSUNGEN
100
AcDbBlockReference
 62
2
  6
CONTINUOUS
  2
_ARROW_FILLED
 10
61.1932800724
 20
26.4021533307
 41
3.5
 42
3.5
 43
3.5
 50
270.0
  0
ENDBLK
  5
23D
100
AcDbEntity
  8
0
  6
BYBLOCK
 62
0
100
AcDbBlockEnd
  0
ENDSEC
  0
SECTION
  2
ENTITIES
  0
DIMENSION
  5
23E
100
AcDbEntity
  8
A_BEMASSUNGEN
100
AcDbDimension
 62
2
  6
CONTINUOUS
  2
*D0
 10
25.0266317441
 20
2.9458833845
 11
36.5266290509
 21
2.9458833845
 70
160
  3
DIMSTYLE_1
100
AcDbAlignedDimension
 13
49.0266317441
 23
29.4947981367
 14
25.0266317441
 24
29.4948866229
 50
180.0
100
AcDbRotatedDimension
  0
DIMENSION
  5
23F
100
AcDbEntity
  8
A_BEMASSUNGEN
100
AcDbDimension
 62
2
  6
CONTINUOUS
  2
*D1
 10
14.8537542805
 20
12.4021533307
 11
14.8537542805
 21
101.9021548372
 70
160
  3
DIMSTYLE_2
100
AcDbAlignedDimension
 13
37.0266317441
 23
192.4021533307
 14
37.0266317441
 24
12.4021533307
 50
270.0
100
AcDbRotatedDimension
  0
DIMENSION
  5
240
100
AcDbEntity
  8
A_BEMASSUNGEN
100
AcDbDimension
 62
2
  6
CONTINUOUS
  2
*D2
 10
73.0195244163
 20
21.4021533307
 11
73.0195244163
 21
101.9021543774
 70
160
  3
DIMSTYLE_2
100
AcDbAlignedDimension
 13
48.2259886112
 23
183.4021533307
 14
46.4321634392
 24
21.4021533307
 50
270.0
100
AcDbRotatedDimension
  0
DIMENSION
  5
241
100
AcDbEntity
  8
A_BEMASSUNGEN
100
AcDbDimension
 62
2
  6
CONTINUOUS
  2
*D3
 10
61.1932800724
 20
26.4021533307
 11
61.1932800724
 21
101.9021545083
 70
160
  3
DIMSTYLE_2
100
AcDbAlignedDimension
 13
46.264290263
 23
178.4021533307
 14
46.5023046717
 24
26.4021533307
 50
270.0
100
AcDbRotatedDimension
  0
LINE
  5
242
100
AcDbEntity
  8
A_ACHSEN
100
AcDbLine
 62
7
  6
CENTER
 10
42.0266317441
 20
21.4021533307
 11
37.6211000491
 21
21.4021533307
  0
LINE
  5
243
100
AcDbEntity
  8
A_ACHSEN
100
AcDbLine
 62
7
  6
CENTER
 10
32.0266317441
 20
21.4021533307
 11
27.3005901247
 21
21.4021533307
  0
LINE
  5
244
100
AcDbEntity
  8
A_ACHSEN
100
AcDbLine
 62
7
  6
CENTER
 10
32.0266317441
 20
21.4021533307
 11
36.7526733636
 21
21.4021533307
  0
LINE
  5
245
100
AcDbEntity
  8
A_ACHSEN
100
AcDbLine
 62
7
  6
CENTER
 10
42.0266317441
 20
21.4021533307
 11
46.4321634392
 21
21.4021533307
  0
LINE
  5
246
100
AcDbEntity
  8
A_ACHSEN
100
AcDbLine
 62
7
  6
CENTER
 10
42.0266317441
 20
26.4021533307
 11
37.5509588166
 21
26.4021533307
  0
LINE
  5
247
100
AcDbEntity
  8
A_ACHSEN
100
AcDbLine
 62
7
  6
CENTER
 10
32.0266317441
 20
26.4021533307
 11
27.8617199842
 21
26.4021533307
  0
LINE
  5
248
100
AcDbEntity
  8
A_ACHSEN
100
AcDbLine
 62
7
  6
CENTER
 10
32.0266317441
 20
26.4021533307
 11
36.1915435041
 21
26.4021533307
  0
LINE
  5
249
100
AcDbEntity
  8
A_ACHSEN
100
AcDbLine
 62
7
  6
CENTER
 10
42.0266317441
 20
26.4021533307
 11
46.5023046717
 21
26.4021533307
  0
LINE
  5
24A
100
AcDbEntity
  8
A_ACHSEN
100
AcDbLine
 62
7
  6
CENTER
 10
37.0266317441
 20
43.4021533307
 11
27.7266317441
 21
43.4021533307
  0
LINE
  5
24B
100
AcDbEntity
  8
A_ACHSEN
100
AcDbLine
 62
7
  6
CENTER
 10
37.0266317441
 20
43.4021533307
 11
46.3266317441
 21
43.4021533307
  0
LINE
  5
24C
100
AcDbEntity
  8
0
100
AcDbLine
 62
7
  6
CONTINUOUS
 10
25.0266317441
 20
46.4021533307
 11
26.0266317441
 21
46.4021533307
  0
LINE
  5
24D
100
AcDbEntity
  8
A_ACHSEN
100
AcDbLine
 62
7
  6
CENTER
 10
37.0266317441
 20
54.4021533307
 11
30.9266317441
 21
54.4021533307
  0
LINE
  5
24E
100
AcDbEntity
  8
A_ACHSEN
100
AcDbLine
 62
7
  6
CENTER
 10
37.0266317441
 20
54.4021533307
 11
43.0712135606
 21
54.4021533307
  0
LINE
  5
24F
100
AcDbEntity
  8
A_RUNDUNGEN
100
AcDbLine
 62
7
  6
CONTINUOUS
 10
49.0266317441
 20
168.1643950098
 11
48.6881667957
 21
167.8259300613
  0
LINE
  5
250
100
AcDbEntity
  8
A_RUNDUNGEN
100
AcDbLine
 62
7
  6
CONTINUOUS
 10
48.2068736503
 20
165.2613035827
 11
47.0508495099
 21
164.1052794423
  0
LINE
  5
251
100
AcDbEntity
  8
A_RUNDUNGEN
100
AcDbLine
 62
7
  6
CONTINUOUS
 10
49.0266317441
 20
36.6399116516
 11
48.687834192
 21
36.9787092037
  0
LINE
  5
252
100
AcDbEntity
  8
A_RUNDUNGEN
100
AcDbLine
 62
7
  6
CONTINUOUS
 10
47.0508498269
 20
40.6990269022
 11
48.2068736503
 21
39.5430030787
  0
LINE
  5
253
100
AcDbEntity
  8
A_ACHSEN
100
AcDbLine
 62
7
  6
CENTER
 10
34.0266317441
 20
74.4021533307
 11
27.7766317441
 21
74.4021533307
  0
LINE
  5
254
100
AcDbEntity
  8
A_ACHSEN
100
AcDbLine
 62
7
  6
CENTER
 10
34.0266317441
 20
74.4021533307
 11
40.2766317441
 21
74.4021533307
  0
LINE
  5
255
100
AcDbEntity
  8
A_RUNDUNGEN
100
AcDbLine
 62
7
  6
CONTINUOUS
 10
25.0266317441
 20
24.4021533307
 11
25.0266317441
 21
37.3600935939
  0
LINE
  5
256
100
AcDbEntity
  8
0
100
AcDbLine
 62
7
  6
CONTINUOUS
 10
25.0266317441
 20
43.9021533307
 11
25.0266317441
 21
160.9021533307
  0
LINE
  5
257
100
AcDbEntity
  8
A_RUNDUNGEN
100
AcDbLine
 62
7
  6
CONTINUOUS
 10
25.0266317441
 20
168.1643950098
 11
25.0266317441
 21
180.4021533307
  0
LINE
  5
258
100
AcDbEntity
  8
0
100
AcDbLine
 62
7
  6
CONTINUOUS
 10
39.0991331247
 20
119.1464639944
 11
38.7461109823
 21
118.9679838714
  0
LINE
  5
259
100
AcDbEntity
  8
0
100
AcDbLine
 62
7
  6
CONTINUOUS
 10
33.99646014
 20
117.000614076
 11
33.620631284
 21
116.8771942304
  0
LINE
  5
25A
100
AcDbEntity
  8
0
100
AcDbLine
 62
7
  6
CONTINUOUS
 10
40.0568033483
 20
115.8036925854
 11
40.4326322043
 21
115.927112431
  0
LINE
  5
25B
100
AcDbEntity
  8
A_ACHSEN
100
AcDbLine
 62
7
  6
CENTER
 10
37.0266317441
 20
88.4021533307
 11
28.5266317441
 21
88.4021533307
  0
LINE
  5
25C
100
AcDbEntity
  8
A_ACHSEN
100
AcDbLine
 62
7
  6
CENTER
 10
37.0266317441
 20
88.4021533307
 11
45.5266317441
 21
88.4021533307
  0
LINE
  5
25D
100
AcDbEntity
  8
0
100
AcDbLine
 62
7
  6
CONTINUOUS
 10
33.620631284
 20
87.927112431
 11
33.99646014
 21
87.8036925854
  0
LINE
  5
25E
100
AcDbEntity
  8
0
100
AcDbLine
 62
7
  6
CONTINUOUS
 10
40.4326322043
 20
88.8771942304
 11
40.0568033483
 21
89.000614076
  0
LINE
  5
25F
100
AcDbEntity
  8
0
100
AcDbLine
 62
7
  6
CONTINUOUS
 10
38.7461109823
 20
85.83632279
 11
39.0991331247
 21
85.657842667
  0
LINE
  5
260
100
AcDbEntity
  8
0
100
AcDbLine
 62
7
  6
CONTINUOUS
 10
26.0266317441
 20
159.4021533307
 11
26.0266317441
 21
158.4021533307
  0
LINE
  5
261
100
AcDbEntity
  8
0
100
AcDbLine
 62
7
  6
CONTINUOUS
 10
26.0266317441
 20
46.4021533307
 11
26.0266317441
 21
45.4021533307
  0
LINE
  5
262
100
AcDbEntity
  8
A_RUNDUNGEN
100
AcDbLine
 62
7
  6
CONTINUOUS
 10
26.660487094
 20
166.3012130203
 11
26.6604755358
 21
164.5118154265
  0
LINE
  5
263
100
AcDbEntity
  8
A_ACHSEN
100
AcDbLine
 62
7
  6
CONTINUOUS
 10
29.0266317441
 20
26.4021533307
 11
29.0266317441
 21
21.4021533307
  0
LINE
  5
264
100
AcDbEntity
  8
A_ACHSEN
100
AcDbLine
 62
7
  6
CONTINUOUS
 10
29.0266317441
 20
178.4021533307
 11
29.0266317441
 21
183.4021533307
  0
LINE
  5
265
100
AcDbEntity
  8
0
100
AcDbLine
 62
7
  6
CONTINUOUS
 10
36.5515908444
 20
119.8081537909
 11
36.4281709988
 21
119.4323249349
  0
LINE
  5
266
100
AcDbEntity
  8
0
100
AcDbLine
 62
7
  6
CONTINUOUS
 10
34.4608012034
 20
114.6826740925
 11
34.2823210805
 21
114.3296519501
  0
LINE
  5
267
100
AcDbEntity
  8
0
100
AcDbLine
 62
7
  6
CONTINUOUS
 10
34.9541303636
 20
113.657842667
 11
35.307152506
 21
113.83632279
  0
LINE
  5
268
100
AcDbEntity
  8
0
100
AcDbLine
 62
7
  6
CONTINUOUS
 10
35.307152506
 20
90.9679838714
 11
34.9541303636
 21
91.1464639944
  0
LINE
  5
269
100
AcDbEntity
  8
0
100
AcDbLine
 62
7
  6
CONTINUOUS
 10
34.2823210805
 20
90.4746547113
 11
34.4608012034
 21
90.1216325689
  0
LINE
  5
26A
100
AcDbEntity
  8
0
100
AcDbLine
 62
7
  6
CONTINUOUS
 10
36.4281709988
 20
85.3719817266
 11
36.5515908444
 21
84.9961528705
  0
LINE
  5
26B
100
AcDbEntity
  8
A_ACHSEN
100
AcDbLine
 62
7
  6
CENTER
 10
32.0266317441
 20
183.4021533307
 11
32.0266317441
 21
179.6015101978
  0
LINE
  5
26C
100
AcDbEntity
  8
A_ACHSEN
100
AcDbLine
 62
7
  6
CENTER
 10
32.0266317441
 20
178.4021533307
 11
32.0266317441
 21
173.9842673524
  0
LINE
  5
26D
100
AcDbEntity
  8
A_ACHSEN
100
AcDbLine
 62
7
  6
CENTER
 10
32.0266317441
 20
26.4021533307
 11
32.0266317441
 21
22.2372415708
  0
LINE
  5
26E
100
AcDbEntity
  8
A_ACHSEN
100
AcDbLine
 62
7
  6
CENTER
 10
32.0266317441
 20
21.4021533307
 11
32.0266317441
 21
16.6761117113
  0
LINE
  5
26F
100
AcDbEntity
  8
A_ACHSEN
100
AcDbLine
 62
7
  6
CENTER
 10
32.0266317441
 20
21.4021533307
 11
32.0266317441
 21
22.2372415708
  0
LINE
  5
270
100
AcDbEntity
  8
A_ACHSEN
100
AcDbLine
 62
7
  6
CENTER
 10
32.0266317441
 20
26.4021533307
 11
32.0266317441
 21
30.5670650907
  0
LINE
  5
271
100
AcDbEntity
  8
A_ACHSEN
100
AcDbLine
 62
7
  6
CENTER
 10
32.0266317441
 20
178.4021533307
 11
32.0266317441
 21
179.6015101978
  0
LINE
  5
272
100
AcDbEntity
  8
A_ACHSEN
100
AcDbLine
 62
7
  6
CENTER
 10
32.0266317441
 20
183.4021533307
 11
32.0266317441
 21
187.2027964636
  0
LINE
  5
273
100
AcDbEntity
  8
A_ACHSEN
100
AcDbLine
 62
7
  6
CENTER
 10
34.0266317441
 20
130.4021533307
 11
34.0266317441
 21
124.1521533307
  0
LINE
  5
274
100
AcDbEntity
  8
A_ACHSEN
100
AcDbLine
 62
7
  6
CENTER
 10
34.0266317441
 20
102.4021533307
 11
34.0266317441
 21
96.1521533307
  0
LINE
  5
275
100
AcDbEntity
  8
A_ACHSEN
100
AcDbLine
 62
7
  6
CENTER
 10
34.0266317441
 20
74.4021533307
 11
34.0266317441
 21
68.1521533307
  0
LINE
  5
276
100
AcDbEntity
  8
A_ACHSEN
100
AcDbLine
 62
7
  6
CENTER
 10
34.0266317441
 20
74.4021533307
 11
34.0266317441
 21
80.6521533307
  0
LINE
  5
277
100
AcDbEntity
  8
A_ACHSEN
100
AcDbLine
 62
7
  6
CENTER
 10
34.0266317441
 20
102.4021533307
 11
34.0266317441
 21
108.6521533307
  0
LINE
  5
278
100
AcDbEntity
  8
A_ACHSEN
100
AcDbLine
 62
7
  6
CENTER
 10
34.0266317441
 20
130.4021533307
 11
34.0266317441
 21
136.6521533307
  0
LINE
  5
279
100
AcDbEntity
  8
A_ACHSEN
100
AcDbLine
 62
7
  6
CONTINUOUS
 10
35.0266317441
 20
183.4021533307
 11
35.0266317441
 21
178.4021533307
  0
LINE
  5
27A
100
AcDbEntity
  8
A_ACHSEN
100
AcDbLine
 62
7
  6
CONTINUOUS
 10
35.0266317441
 20
21.4021533307
 11
35.0266317441
 21
26.4021533307
  0
LINE
  5
27B
100
AcDbEntity
  8
A_ACHSEN
100
AcDbLine
 62
7
  6
CENTER
 10
37.0266317441
 20
161.4021533307
 11
37.0266317441
 21
152.1021533307
  0
LINE
  5
27C
100
AcDbEntity
  8
A_ACHSEN
100
AcDbLine
 62
7
  6
CENTER
 10
37.0266317441
 20
150.4021533307
 11
37.0266317441
 21
143.8577110299
  0
LINE
  5
27D
100
AcDbEntity
  8
A_ACHSEN
100
AcDbLine
 62
7
  6
CENTER
 10
37.0266317441
 20
116.4021533307
 11
37.0266317441
 21
107.9021533307
  0
LINE
  5
27E
100
AcDbEntity
  8
A_ACHSEN
100
AcDbLine
 62
7
  6
CENTER
 10
37.0266317441
 20
88.4021533307
 11
37.0266317441
 21
79.9021533307
  0
LINE
  5
27F
100
AcDbEntity
  8
A_ACHSEN
100
AcDbLine
 62
7
  6
CENTER
 10
37.0266317441
 20
54.4021533307
 11
37.0266317441
 21
48.3021533307
  0
LINE
  5
280
100
AcDbEntity
  8
A_ACHSEN
100
AcDbLine
 62
7
  6
CENTER
 10
37.0266317441
 20
43.4021533307
 11
37.0266317441
 21
34.1021533307
  0
LINE
  5
281
100
AcDbEntity
  8
A_ACHSEN
100
AcDbLine
 62
7
  6
CENTER
 10
37.0266317441
 20
43.4021533307
 11
37.0266317441
 21
48.3021533307
  0
LINE
  5
282
100
AcDbEntity
  8
A_ACHSEN
100
AcDbLine
 62
7
  6
CENTER
 10
37.0266317441
 20
54.4021533307
 11
37.0266317441
 21
60.5021533307
  0
LINE
  5
283
100
AcDbEntity
  8
A_ACHSEN
100
AcDbLine
 62
7
  6
CENTER
 10
37.0266317441
 20
88.4021533307
 11
37.0266317441
 21
96.9021533307
  0
LINE
  5
284
100
AcDbEntity
  8
A_ACHSEN
100
AcDbLine
 62
7
  6
CENTER
 10
37.0266317441
 20
116.4021533307
 11
37.0266317441
 21
124.9021533307
  0
LINE
  5
285
100
AcDbEntity
  8
A_ACHSEN
100
AcDbLine
 62
7
  6
CENTER
 10
37.0266317441
 20
150.4021533307
 11
37.0266317441
 21
152.1021533307
  0
LINE
  5
286
100
AcDbEntity
  8
A_ACHSEN
100
AcDbLine
 62
7
  6
CENTER
 10
37.0266317441
 20
161.4021533307
 11
37.0266317441
 21
170.7021533307
  0
LINE
  5
287
100
AcDbEntity
  8
0
100
AcDbLine
 62
7
  6
CONTINUOUS
 10
37.5016726439
 20
112.9961528705
 11
37.6250924895
 21
113.3719817266
  0
LINE
  5
288
100
AcDbEntity
  8
0
100
AcDbLine
 62
7
  6
CONTINUOUS
 10
39.5924622849
 20
118.1216325689
 11
39.7709424078
 21
118.4746547113
  0
LINE
  5
289
100
AcDbEntity
  8
A_ACHSEN
100
AcDbLine
 62
7
  6
CENTER
 10
34.0266317441
 20
102.4021533307
 11
23.3955345522
 21
102.4021533307
  0
LINE
  5
28A
100
AcDbEntity
  8
A_ACHSEN
100
AcDbLine
 62
7
  6
CENTER
 10
34.0266317441
 20
102.4021533307
 11
50.3978818355
 21
102.4021533307
  0
LINE
  5
28B
100
AcDbEntity
  8
0
100
AcDbLine
 62
7
  6
CONTINUOUS
 10
39.7709424078
 20
86.3296519501
 11
39.5924622849
 21
86.6826740925
  0
LINE
  5
28C
100
AcDbEntity
  8
0
100
AcDbLine
 62
7
  6
CONTINUOUS
 10
37.6250924895
 20
91.4323249349
 11
37.5016726439
 21
91.8081537909
  0
LINE
  5
28D
100
AcDbEntity
  8
A_ACHSEN
100
AcDbLine
 62
7
  6
CONTINUOUS
 10
39.0266317441
 20
26.4021533307
 11
39.0266317441
 21
21.4021533307
  0
LINE
  5
28E
100
AcDbEntity
  8
A_ACHSEN
100
AcDbLine
 62
7
  6
CONTINUOUS
 10
39.0266317441
 20
178.4021533307
 11
39.0266317441
 21
183.4021533307
  0
LINE
  5
28F
100
AcDbEntity
  8
A_ACHSEN
100
AcDbLine
 62
7
  6
CENTER
 10
42.0266317441
 20
183.4021533307
 11
42.0266317441
 21
177.2027964636
  0
LINE
  5
290
100
AcDbEntity
  8
A_ACHSEN
100
AcDbLine
 62
7
  6
CENTER
 10
42.0266317441
 20
177.2027964636
 11
42.0266317441
 21
174.1644948118
  0
LINE
  5
291
100
AcDbEntity
  8
A_ACHSEN
100
AcDbLine
 62
7
  6
CENTER
 10
42.0266317441
 20
26.4021533307
 11
42.0266317441
 21
21.9264804032
  0
LINE
  5
292
100
AcDbEntity
  8
A_ACHSEN
100
AcDbLine
 62
7
  6
CENTER
 10
42.0266317441
 20
21.4021533307
 11
42.0266317441
 21
16.9966216356
  0
LINE
  5
293
100
AcDbEntity
  8
A_ACHSEN
100
AcDbLine
 62
7
  6
CENTER
 10
42.0266317441
 20
21.4021533307
 11
42.0266317441
 21
21.9264804032
  0
LINE
  5
294
100
AcDbEntity
  8
A_ACHSEN
100
AcDbLine
 62
7
  6
CENTER
 10
42.0266317441
 20
26.4021533307
 11
42.0266317441
 21
30.8778262582
  0
LINE
  5
295
100
AcDbEntity
  8
A_ACHSEN
100
AcDbLine
 62
7
  6
CENTER
 10
42.0266317441
 20
183.4021533307
 11
42.0266317441
 21
189.6015101978
  0
LINE
  5
296
100
AcDbEntity
  8
0
100
AcDbLine
 62
7
  6
CONTINUOUS
 10
36.5515908444
 20
91.8081537909
 11
36.4281709988
 21
91.4323249349
  0
LINE
  5
297
100
AcDbEntity
  8
0
100
AcDbLine
 62
7
  6
CONTINUOUS
 10
37.5016726439
 20
84.9961528705
 11
37.6250924895
 21
85.3719817266
  0
LINE
  5
298
100
AcDbEntity
  8
0
100
AcDbLine
 62
7
  6
CONTINUOUS
 10
34.4608012034
 20
86.6826740925
 11
34.2823210805
 21
86.3296519501
  0
LINE
  5
299
100
AcDbEntity
  8
0
100
AcDbLine
 62
7
  6
CONTINUOUS
 10
34.2823210805
 20
118.4746547113
 11
34.4608012034
 21
118.1216325689
  0
LINE
  5
29A
100
AcDbEntity
  8
0
100
AcDbLine
 62
7
  6
CONTINUOUS
 10
36.4281709988
 20
113.3719817266
 11
36.5515908444
 21
112.9961528705
  0
LINE
  5
29B
100
AcDbEntity
  8
0
100
AcDbLine
 62
7
  6
CONTINUOUS
 10
37.6250924895
 20
119.4323249349
 11
37.5016726439
 21
119.8081537909
  0
LINE
  5
29C
100
AcDbEntity
  8
A_ACHSEN
100
AcDbLine
 62
7
  6
CONTINUOUS
 10
45.0266317441
 20
183.4021533307
 11
45.0266317441
 21
178.4021533307
  0
LINE
  5
29D
100
AcDbEntity
  8
A_ACHSEN
100
AcDbLine
 62
7
  6
CONTINUOUS
 10
45.0266317441
 20
21.4021533307
 11
45.0266317441
 21
26.4021533307
  0
LINE
  5
29E
100
AcDbEntity
  8
A_RUNDUNGEN
100
AcDbLine
 62
7
  6
CONTINUOUS
 10
47.3927879525
 20
164.5118154265
 11
47.3927879525
 21
166.3012424687
  0
LINE
  5
29F
100
AcDbEntity
  8
A_RUNDUNGEN
100
AcDbLine
 62
7
  6
CONTINUOUS
 10
47.3927762239
 20
38.5030940751
 11
47.3927879525
 21
40.2924912349
  0
LINE
  5
2A0
100
AcDbEntity
  8
0
100
AcDbLine
 62
7
  6
CONTINUOUS
 10
48.0266317441
 20
159.4021533307
 11
48.0266317441
 21
45.4021533307
  0
LINE
  5
2A1
100
AcDbEntity
  8
0
100
AcDbLine
 62
7
  6
CONTINUOUS
 10
49.0266317441
 20
160.9021533307
 11
49.0266317441
 21
153.5779766028
  0
LINE
  5
2A2
100
AcDbEntity
  8
0
100
AcDbLine
 62
7
  6
CONTINUOUS
 10
49.0266317441
 20
145.2263300586
 11
49.0266317441
 21
59.5779766028
  0
LINE
  5
2A3
100
AcDbEntity
  8
0
100
AcDbLine
 62
7
  6
CONTINUOUS
 10
49.0266317441
 20
51.2263300586
 11
49.0266317441
 21
43.9021533307
  0
LINE
  5
2A4
100
AcDbEntity
  8
A_RUNDUNGEN
100
AcDbLine
 62
7
  6
CONTINUOUS
 10
49.0266317441
 20
36.6399116516
 11
49.0266317441
 21
24.4021533307
  0
LINE
  5
2A5
100
AcDbEntity
  8
A_RUNDUNGEN
100
AcDbLine
 62
7
  6
CONTINUOUS
 10
49.0266317441
 20
168.1643950098
 11
49.0266317441
 21
180.4021533307
  0
LINE
  5
2A6
100
AcDbEntity
  8
0
100
AcDbLine
 62
7
  6
CONTINUOUS
 10
39.5924622849
 20
90.1216325689
 11
39.7709424078
 21
90.4746547113
  0
LINE
  5
2A7
100
AcDbEntity
  8
0
100
AcDbLine
 62
7
  6
CONTINUOUS
 10
39.0991331247
 20
91.1464639944
 11
38.7461109823
 21
90.9679838714
  0
LINE
  5
2A8
100
AcDbEntity
  8
0
100
AcDbLine
 62
7
  6
CONTINUOUS
 10
33.99646014
 20
89.000614076
 11
33.620631284
 21
88.8771942304
  0
LINE
  5
2A9
100
AcDbEntity
  8
0
100
AcDbLine
 62
7
  6
CONTINUOUS
 10
33.620631284
 20
115.927112431
 11
33.99646014
 21
115.8036925854
  0
LINE
  5
2AA
100
AcDbEntity
  8
0
100
AcDbLine
 62
7
  6
CONTINUOUS
 10
38.7461109823
 20
113.83632279
 11
39.0991331247
 21
113.657842667
  0
LINE
  5
2AB
100
AcDbEntity
  8
0
100
AcDbLine
 62
7
  6
CONTINUOUS
 10
39.7709424078
 20
114.3296519501
 11
39.5924622849
 21
114.6826740925
  0
LINE
  5
2AC
100
AcDbEntity
  8
0
100
AcDbLine
 62
7
  6
CONTINUOUS
 10
34.9541303636
 20
85.657842667
 11
35.307152506
 21
85.83632279
  0
LINE
  5
2AD
100
AcDbEntity
  8
0
100
AcDbLine
 62
7
  6
CONTINUOUS
 10
40.0568033483
 20
87.8036925854
 11
40.4326322043
 21
87.927112431
  0
LINE
  5
2AE
100
AcDbEntity
  8
A_ACHSEN
100
AcDbLine
 62
7
  6
CENTER
 10
37.0266317441
 20
116.4021533307
 11
28.5266317441
 21
116.4021533307
  0
LINE
  5
2AF
100
AcDbEntity
  8
A_ACHSEN
100
AcDbLine
 62
7
  6
CENTER
 10
37.0266317441
 20
116.4021533307
 11
45.5266317441
 21
116.4021533307
  0
LINE
  5
2B0
100
AcDbEntity
  8
0
100
AcDbLine
 62
7
  6
CONTINUOUS
 10
40.4326322043
 20
116.8771942304
 11
40.0568033483
 21
117.000614076
  0
LINE
  5
2B1
100
AcDbEntity
  8
0
100
AcDbLine
 62
7
  6
CONTINUOUS
 10
35.307152506
 20
118.9679838714
 11
34.9541303636
 21
119.1464639944
  0
LINE
  5
2B2
100
AcDbEntity
  8
A_ACHSEN
100
AcDbLine
 62
7
  6
CENTER
 10
34.0266317441
 20
130.4021533307
 11
27.7766317441
 21
130.4021533307
  0
LINE
  5
2B3
100
AcDbEntity
  8
A_ACHSEN
100
AcDbLine
 62
7
  6
CENTER
 10
34.0266317441
 20
130.4021533307
 11
40.2766317441
 21
130.4021533307
  0
LINE
  5
2B4
100
AcDbEntity
  8
A_RUNDUNGEN
100
AcDbLine
 62
7
  6
CONTINUOUS
 10
25.846389838
 20
39.5430030787
 11
27.0027432973
 21
40.6993565381
  0
LINE
  5
2B5
100
AcDbEntity
  8
A_RUNDUNGEN
100
AcDbLine
 62
7
  6
CONTINUOUS
 10
27.0024125109
 20
164.1052809098
 11
25.846389838
 21
165.2613035827
  0
LINE
  5
2B6
100
AcDbEntity
  8
A_RUNDUNGEN
100
AcDbLine
 62
7
  6
CONTINUOUS
 10
25.3661326821
 20
167.8248940718
 11
25.0266317441
 21
168.1643950098
  0
LINE
  5
2B7
100
AcDbEntity
  8
A_RUNDUNGEN
100
AcDbLine
 62
7
  6
CONTINUOUS
 10
25.0266317441
 20
37.3600935939
 11
25.1896565523
 21
37.4644146406
  0
LINE
  5
2B8
100
AcDbEntity
  8
A_ACHSEN
100
AcDbLine
 62
7
  6
CENTER
 10
37.0266317441
 20
150.4021533307
 11
30.9266317441
 21
150.4021533307
  0
LINE
  5
2B9
100
AcDbEntity
  8
A_ACHSEN
100
AcDbLine
 62
7
  6
CENTER
 10
37.0266317441
 20
150.4021533307
 11
43.1266317441
 21
150.4021533307
  0
LINE
  5
2BA
100
AcDbEntity
  8
0
100
AcDbLine
 62
7
  6
CONTINUOUS
 10
26.0266317441
 20
158.4021533307
 11
25.0266317441
 21
158.4021533307
  0
LINE
  5
2BB
100
AcDbEntity
  8
A_ACHSEN
100
AcDbLine
 62
7
  6
CENTER
 10
37.0266317441
 20
161.4021533307
 11
27.7266317441
 21
161.4021533307
  0
LINE
  5
2BC
100
AcDbEntity
  8
A_ACHSEN
100
AcDbLine
 62
7
  6
CENTER
 10
37.0266317441
 20
161.4021533307
 11
46.3266317441
 21
161.4021533307
  0
LINE
  5
2BD
100
AcDbEntity
  8
A_ACHSEN
100
AcDbLine
 62
7
  6
CENTER
 10
42.0266317441
 20
178.4021533307
 11
37.7889732253
 21
178.4021533307
  0
LINE
  5
2BE
100
AcDbEntity
  8
A_ACHSEN
100
AcDbLine
 62
7
  6
CENTER
 10
32.0266317441
 20
178.4021533307
 11
27.6087457658
 21
178.4021533307
  0
LINE
  5
2BF
100
AcDbEntity
  8
A_ACHSEN
100
AcDbLine
 62
7
  6
CENTER
 10
32.0266317441
 20
178.4021533307
 11
36.4445177225
 21
178.4021533307
  0
LINE
  5
2C0
100
AcDbEntity
  8
A_ACHSEN
100
AcDbLine
 62
7
  6
CENTER
 10
42.0266317441
 20
178.4021533307
 11
46.264290263
 21
178.4021533307
  0
LINE
  5
2C1
100
AcDbEntity
  8
A_ACHSEN
100
AcDbLine
 62
7
  6
CENTER
 10
42.0266317441
 20
183.4021533307
 11
35.8272748771
 21
183.4021533307
  0
LINE
  5
2C2
100
AcDbEntity
  8
A_ACHSEN
100
AcDbLine
 62
7
  6
CENTER
 10
32.0266317441
 20
183.4021533307
 11
28.2259886112
 21
183.4021533307
  0
LINE
  5
2C3
100
AcDbEntity
  8
A_ACHSEN
100
AcDbLine
 62
7
  6
CENTER
 10
32.0266317441
 20
183.4021533307
 11
35.8272748771
 21
183.4021533307
  0
LINE
  5
2C4
100
AcDbEntity
  8
A_ACHSEN
100
AcDbLine
 62
7
  6
CENTER
 10
42.0266317441
 20
183.4021533307
 11
48.2259886112
 21
183.4021533307
  0
ARC
  5
2C5
100
AcDbEntity
  8
A_RUNDUNGEN
100
AcDbCircle
 62
7
  6
CONTINUOUS
 10
-707.2282673538
 20
-0.5926813418
 40
756.5005786038
100
AcDbArc
 50
2.8798466963
 51
3.0412210761
  0
ARC
  5
2C6
100
AcDbEntity
  8
A_RUNDUNGEN
100
AcDbCircle
 62
7
  6
CONTINUOUS
 10
-238.145937487
 20
46.754174284
 40
264.8836641423
100
AcDbArc
 50
358.2333190176
 51
358.6027246891
  0
ARC
  5
2C7
100
AcDbEntity
  8
A_RUNDUNGEN
100
AcDbCircle
 62
7
  6
CONTINUOUS
 10
19.5496325286
 20
45.7727841833
 40
10.190115969
100
AcDbArc
 50
307.0286609966
 51
307.241626758
  0
ARC
  5
2C8
100
AcDbEntity
  8
A_ACHSEN
100
AcDbCircle
 62
7
  6
CONTINUOUS
 10
32.0266317441
 20
21.4021533307
 40
3.0
100
AcDbArc
 50
180.0
 51
360.0
  0
ARC
  5
2C9
100
AcDbEntity
  8
A_RUNDUNGEN
100
AcDbCircle
 62
7
  6
CONTINUOUS
 10
32.0266317441
 20
26.4021533307
 40
3.0
100
AcDbArc
 50
0.0
 51
180.0
  0
ARC
  5
2CA
100
AcDbEntity
  8
0
100
AcDbCircle
 62
7
  6
CONTINUOUS
 10
34.0306317441
 20
43.4021533307
 40
0.98
100
AcDbArc
 50
313.4120116047
 51
46.5879883953
  0
ARC
  5
2CB
100
AcDbEntity
  8
0
100
AcDbCircle
 62
7
  6
CONTINUOUS
 10
35.5286317441
 20
40.807541221
 40
0.98
100
AcDbArc
 50
13.4120116047
 51
106.5879883953
  0
ARC
  5
2CC
100
AcDbEntity
  8
0
100
AcDbCircle
 62
7
  6
CONTINUOUS
 10
35.5286317441
 20
45.9967654404
 40
0.98
100
AcDbArc
 50
253.4120116047
 51
346.5879883953
  0
ARC
  5
2CD
100
AcDbEntity
  8
0
100
AcDbCircle
 62
7
  6
CONTINUOUS
 10
35.0889810613
 20
42.2834501873
 40
0.56
100
AcDbArc
 50
133.4120116047
 51
286.5879883953
  0
ARC
  5
2CE
100
AcDbEntity
  8
0
100
AcDbCircle
 62
7
  6
CONTINUOUS
 10
35.0889810613
 20
44.5208564741
 40
0.56
100
AcDbArc
 50
73.4120116047
 51
226.5879883953
  0
ARC
  5
2CF
100
AcDbEntity
  8
A_RUNDUNGEN
100
AcDbCircle
 62
7
  6
CONTINUOUS
 10
-73.2476713331
 20
51.9299058552
 40
99.8652508122
100
AcDbArc
 50
351.8563807466
 51
352.8749010285
  0
ARC
  5
2D0
100
AcDbEntity
  8
A_RUNDUNGEN
100
AcDbCircle
 62
7
  6
CONTINUOUS
 10
15.1280162804
 20
51.9908816468
 40
17.8209689018
100
AcDbArc
 50
303.7415539805
 51
304.1168111788
  0
ARC
  5
2D1
100
AcDbEntity
  8
A_RUNDUNGEN
100
AcDbCircle
 62
7
  6
CONTINUOUS
 10
15.8755536618
 20
50.8882606048
 40
16.4888333656
100
AcDbArc
 50
304.1152723905
 51
304.8217279313
  0
CIRCLE
  5
2D2
100
AcDbEntity
  8
A_RUNDUNGEN
100
AcDbCircle
 62
7
  6
CONTINUOUS
 10
34.0266317441
 20
74.4021533307
 40
5.0
  0
CIRCLE
  5
2D3
100
AcDbEntity
  8
0
100
AcDbCircle
 62
7
  6
CONTINUOUS
 10
34.0266317441
 20
74.4021533307
 40
2.7974062867
  0
ARC
  5
2D4
100
AcDbEntity
  8
0
100
AcDbCircle
 62
7
  6
CONTINUOUS
 10
31.4320196344
 20
72.9041533307
 40
0.98
100
AcDbArc
 50
343.4120116047
 51
76.5879883953
  0
ARC
  5
2D5
100
AcDbEntity
  8
0
100
AcDbCircle
 62
7
  6
CONTINUOUS
 10
34.0266317441
 20
71.4061533307
 40
0.98
100
AcDbArc
 50
43.4120116047
 51
136.5879883953
  0
ARC
  5
2D6
100
AcDbEntity
  8
0
100
AcDbCircle
 62
7
  6
CONTINUOUS
 10
36.6212438539
 20
72.9041533307
 40
0.98
100
AcDbArc
 50
103.4120116047
 51
196.5879883953
  0
ARC
  5
2D7
100
AcDbEntity
  8
0
100
AcDbCircle
 62
7
  6
CONTINUOUS
 10
36.2640380309
 20
74.4021533307
 40
0.56
100
AcDbArc
 50
283.4120116047
 51
76.5879883953
  0
ARC
  5
2D8
100
AcDbEntity
  8
0
100
AcDbCircle
 62
7
  6
CONTINUOUS
 10
31.7892254574
 20
74.4021533307
 40
0.56
100
AcDbArc
 50
103.4120116047
 51
256.5879883953
  0
ARC
  5
2D9
100
AcDbEntity
  8
0
100
AcDbCircle
 62
7
  6
CONTINUOUS
 10
32.9079286008
 20
72.4645026478
 40
0.56
100
AcDbArc
 50
163.4120116047
 51
316.5879883953
  0
ARC
  5
2DA
100
AcDbEntity
  8
0
100
AcDbCircle
 62
7
  6
CONTINUOUS
 10
35.1453348875
 20
72.4645026478
 40
0.56
100
AcDbArc
 50
223.4120116047
 51
16.5879883953
  0
ARC
  5
2DB
100
AcDbEntity
  8
0
100
AcDbCircle
 62
7
  6
CONTINUOUS
 10
36.6212438539
 20
75.9001533307
 40
0.98
100
AcDbArc
 50
163.4120116047
 51
256.5879883953
  0
ARC
  5
2DC
100
AcDbEntity
  8
0
100
AcDbCircle
 62
7
  6
CONTINUOUS
 10
34.0266317441
 20
77.3981533307
 40
0.98
100
AcDbArc
 50
223.4120116047
 51
316.5879883953
  0
ARC
  5
2DD
100
AcDbEntity
  8
0
100
AcDbCircle
 62
7
  6
CONTINUOUS
 10
31.4320196344
 20
75.9001533307
 40
0.98
100
AcDbArc
 50
283.4120116047
 51
16.5879883953
  0
ARC
  5
2DE
100
AcDbEntity
  8
0
100
AcDbCircle
 62
7
  6
CONTINUOUS
 10
31.4320196344
 20
100.9041533307
 40
0.98
100
AcDbArc
 50
343.4120116047
 51
76.5879883953
  0
ARC
  5
2DF
100
AcDbEntity
  8
0
100
AcDbCircle
 62
7
  6
CONTINUOUS
 10
34.0266317441
 20
99.4061533307
 40
0.98
100
AcDbArc
 50
43.4120116047
 51
136.5879883953
  0
ARC
  5
2E0
100
AcDbEntity
  8
0
100
AcDbCircle
 62
7
  6
CONTINUOUS
 10
36.6212438539
 20
100.9041533307
 40
0.98
100
AcDbArc
 50
103.4120116047
 51
196.5879883953
  0
ARC
  5
2E1
100
AcDbEntity
  8
0
100
AcDbCircle
 62
7
  6
CONTINUOUS
 10
33.7468594037
 20
89.7606795156
 40
0.8
100
AcDbArc
 50
288.1798566915
 51
26.8201433085
  0
ARC
  5
2E2
100
AcDbEntity
  8
0
100
AcDbCircle
 62
7
  6
CONTINUOUS
 10
35.6681055593
 20
91.6819256711
 40
0.8
100
AcDbArc
 50
243.1798566915
 51
341.8201433085
  0
ARC
  5
2E3
100
AcDbEntity
  8
0
100
AcDbCircle
 62
7
  6
CONTINUOUS
 10
35.6681055593
 20
85.1223809903
 40
0.8
100
AcDbArc
 50
18.1798566915
 51
116.8201433085
  0
ARC
  5
2E4
100
AcDbEntity
  8
0
100
AcDbCircle
 62
7
  6
CONTINUOUS
 10
33.7468594037
 20
87.0436271458
 40
0.8
100
AcDbArc
 50
333.1798566915
 51
71.8201433085
  0
ARC
  5
2E5
100
AcDbEntity
  8
0
100
AcDbCircle
 62
7
  6
CONTINUOUS
 10
35.1453348875
 20
76.3398040136
 40
0.56
100
AcDbArc
 50
343.4120116047
 51
136.5879883953
  0
ARC
  5
2E6
100
AcDbEntity
  8
0
100
AcDbCircle
 62
7
  6
CONTINUOUS
 10
32.9079286008
 20
76.3398040136
 40
0.56
100
AcDbArc
 50
43.4120116047
 51
196.5879883953
  0
ARC
  5
2E7
100
AcDbEntity
  8
0
100
AcDbCircle
 62
7
  6
CONTINUOUS
 10
32.9079286008
 20
100.4645026478
 40
0.56
100
AcDbArc
 50
163.4120116047
 51
316.5879883953
  0
ARC
  5
2E8
100
AcDbEntity
  8
0
100
AcDbCircle
 62
7
  6
CONTINUOUS
 10
35.1453348875
 20
100.4645026478
 40
0.56
100
AcDbArc
 50
223.4120116047
 51
16.5879883953
  0
ARC
  5
2E9
100
AcDbEntity
  8
0
100
AcDbCircle
 62
7
  6
CONTINUOUS
 10
34.7285347053
 20
90.7002503696
 40
0.5
100
AcDbArc
 50
63.1798566915
 51
206.8201433085
  0
ARC
  5
2EA
100
AcDbEntity
  8
0
100
AcDbCircle
 62
7
  6
CONTINUOUS
 10
34.7285347053
 20
86.1040562919
 40
0.5
100
AcDbArc
 50
153.1798566915
 51
296.8201433085
  0
ARC
  5
2EB
100
AcDbEntity
  8
0
100
AcDbCircle
 62
7
  6
CONTINUOUS
 10
33.7766317441
 20
88.4021533307
 40
0.5
100
AcDbArc
 50
108.1798566915
 51
251.8201433085
  0
ARC
  5
2EC
100
AcDbEntity
  8
A_RUNDUNGEN
100
AcDbCircle
 62
7
  6
CONTINUOUS
 10
-701.578823588
 20
205.1048151841
 40
750.8435903701
100
AcDbArc
 50
356.9581710104
 51
357.120761214
  0
ARC
  5
2ED
100
AcDbEntity
  8
0
100
AcDbCircle
 62
7
  6
CONTINUOUS
 10
31.4320196344
 20
103.9001533307
 40
0.98
100
AcDbArc
 50
283.4120116047
 51
16.5879883953
  0
ARC
  5
2EE
100
AcDbEntity
  8
0
100
AcDbCircle
 62
7
  6
CONTINUOUS
 10
33.7468594037
 20
117.7606795156
 40
0.8
100
AcDbArc
 50
288.1798566914
 51
26.8201433085
  0
ARC
  5
2EF
100
AcDbEntity
  8
0
100
AcDbCircle
 62
7
  6
CONTINUOUS
 10
33.7468594037
 20
115.0436271458
 40
0.8
100
AcDbArc
 50
333.1798566915
 51
71.8201433085
  0
ARC
  5
2F0
100
AcDbEntity
  8
0
100
AcDbCircle
 62
7
  6
CONTINUOUS
 10
32.9079286008
 20
104.3398040136
 40
0.56
100
AcDbArc
 50
43.4120116047
 51
196.5879883953
  0
ARC
  5
2F1
100
AcDbEntity
  8
0
100
AcDbCircle
 62
7
  6
CONTINUOUS
 10
31.7892254574
 20
102.4021533307
 40
0.56
100
AcDbArc
 50
103.4120116047
 51
256.5879883953
  0
ARC
  5
2F2
100
AcDbEntity
  8
0
100
AcDbCircle
 62
7
  6
CONTINUOUS
 10
33.7766317441
 20
116.4021533307
 40
0.5
100
AcDbArc
 50
108.1798566914
 51
251.8201433085
  0
ARC
  5
2F3
100
AcDbEntity
  8
0
100
AcDbCircle
 62
7
  6
CONTINUOUS
 10
31.4320196344
 20
131.9001533307
 40
0.98
100
AcDbArc
 50
283.4120116047
 51
16.5879883953
  0
ARC
  5
2F4
100
AcDbEntity
  8
0
100
AcDbCircle
 62
7
  6
CONTINUOUS
 10
31.4320196344
 20
128.9041533307
 40
0.98
100
AcDbArc
 50
343.4120116047
 51
76.5879883953
  0
ARC
  5
2F5
100
AcDbEntity
  8
0
100
AcDbCircle
 62
7
  6
CONTINUOUS
 10
32.9079286008
 20
132.3398040136
 40
0.56
100
AcDbArc
 50
43.4120116047
 51
196.5879883953
  0
ARC
  5
2F6
100
AcDbEntity
  8
0
100
AcDbCircle
 62
7
  6
CONTINUOUS
 10
31.7892254574
 20
130.4021533307
 40
0.56
100
AcDbArc
 50
103.4120116047
 51
256.5879883953
  0
ARC
  5
2F7
100
AcDbEntity
  8
0
100
AcDbCircle
 62
7
  6
CONTINUOUS
 10
32.9079286008
 20
128.4645026478
 40
0.56
100
AcDbArc
 50
163.4120116047
 51
316.5879883953
  0
CIRCLE
  5
2F8
100
AcDbEntity
  8
A_RUNDUNGEN
100
AcDbCircle
 62
7
  6
CONTINUOUS
 10
34.0266317441
 20
102.4021533307
 40
5.0
  0
CIRCLE
  5
2F9
100
AcDbEntity
  8
0
100
AcDbCircle
 62
7
  6
CONTINUOUS
 10
34.0266317441
 20
102.4021533307
 40
2.7974062867
  0
ARC
  5
2FA
100
AcDbEntity
  8
0
100
AcDbCircle
 62
7
  6
CONTINUOUS
 10
36.6212438539
 20
103.9001533307
 40
0.98
100
AcDbArc
 50
163.4120116047
 51
256.5879883953
  0
ARC
  5
2FB
100
AcDbEntity
  8
0
100
AcDbCircle
 62
7
  6
CONTINUOUS
 10
34.0266317441
 20
105.3981533307
 40
0.98
100
AcDbArc
 50
223.4120116047
 51
316.5879883953
  0
ARC
  5
2FC
100
AcDbEntity
  8
0
100
AcDbCircle
 62
7
  6
CONTINUOUS
 10
35.6681055593
 20
113.1223809903
 40
0.8
100
AcDbArc
 50
18.1798566915
 51
116.8201433085
  0
ARC
  5
2FD
100
AcDbEntity
  8
0
100
AcDbCircle
 62
7
  6
CONTINUOUS
 10
36.2640380309
 20
102.4021533307
 40
0.56
100
AcDbArc
 50
283.4120116047
 51
76.5879883953
  0
ARC
  5
2FE
100
AcDbEntity
  8
0
100
AcDbCircle
 62
7
  6
CONTINUOUS
 10
35.1453348875
 20
104.3398040136
 40
0.56
100
AcDbArc
 50
343.4120116047
 51
136.5879883953
  0
ARC
  5
2FF
100
AcDbEntity
  8
0
100
AcDbCircle
 62
7
  6
CONTINUOUS
 10
34.7285347053
 20
114.1040562919
 40
0.5
100
AcDbArc
 50
153.1798566915
 51
296.8201433085
  0
CIRCLE
  5
300
100
AcDbEntity
  8
A_RUNDUNGEN
100
AcDbCircle
 62
7
  6
CONTINUOUS
 10
34.0266317441
 20
130.4021533307
 40
5.0
  0
CIRCLE
  5
301
100
AcDbEntity
  8
0
100
AcDbCircle
 62
7
  6
CONTINUOUS
 10
34.0266317441
 20
130.4021533307
 40
2.7974062867
  0
ARC
  5
302
100
AcDbEntity
  8
0
100
AcDbCircle
 62
7
  6
CONTINUOUS
 10
36.6212438539
 20
131.9001533307
 40
0.98
100
AcDbArc
 50
163.4120116047
 51
256.5879883953
  0
ARC
  5
303
100
AcDbEntity
  8
0
100
AcDbCircle
 62
7
  6
CONTINUOUS
 10
34.0266317441
 20
133.3981533307
 40
0.98
100
AcDbArc
 50
223.4120116047
 51
316.5879883953
  0
ARC
  5
304
100
AcDbEntity
  8
0
100
AcDbCircle
 62
7
  6
CONTINUOUS
 10
34.0266317441
 20
127.4061533307
 40
0.98
100
AcDbArc
 50
43.4120116047
 51
136.5879883953
  0
ARC
  5
305
100
AcDbEntity
  8
0
100
AcDbCircle
 62
7
  6
CONTINUOUS
 10
36.6212438539
 20
128.9041533307
 40
0.98
100
AcDbArc
 50
103.4120116047
 51
196.5879883953
  0
ARC
  5
306
100
AcDbEntity
  8
0
100
AcDbCircle
 62
7
  6
CONTINUOUS
 10
35.6681055593
 20
119.6819256711
 40
0.8
100
AcDbArc
 50
243.1798566915
 51
341.8201433085
  0
ARC
  5
307
100
AcDbEntity
  8
0
100
AcDbCircle
 62
7
  6
CONTINUOUS
 10
36.2640380309
 20
130.4021533307
 40
0.56
100
AcDbArc
 50
283.4120116047
 51
76.5879883953
  0
ARC
  5
308
100
AcDbEntity
  8
0
100
AcDbCircle
 62
7
  6
CONTINUOUS
 10
35.1453348875
 20
132.3398040136
 40
0.56
100
AcDbArc
 50
343.4120116047
 51
136.5879883953
  0
ARC
  5
309
100
AcDbEntity
  8
0
100
AcDbCircle
 62
7
  6
CONTINUOUS
 10
35.1453348875
 20
128.4645026478
 40
0.56
100
AcDbArc
 50
223.4120116047
 51
16.5879883953
  0
ARC
  5
30A
100
AcDbEntity
  8
0
100
AcDbCircle
 62
7
  6
CONTINUOUS
 10
34.7285347053
 20
118.7002503696
 40
0.5
100
AcDbArc
 50
63.1798566915
 51
206.8201433085
  0
ARC
  5
30B
100
AcDbEntity
  8
A_ACHSEN
100
AcDbCircle
 62
7
  6
CONTINUOUS
 10
32.0266317441
 20
183.4021533307
 40
3.0
100
AcDbArc
 50
0.0
 51
180.0
  0
ARC
  5
30C
100
AcDbEntity
  8
A_RUNDUNGEN
100
AcDbCircle
 62
7
  6
CONTINUOUS
 10
32.0266317441
 20
178.4021533307
 40
3.0
100
AcDbArc
 50
180.0
 51
360.0
  0
ARC
  5
30D
100
AcDbEntity
  8
0
100
AcDbCircle
 62
7
  6
CONTINUOUS
 10
34.0306317441
 20
161.4021533307
 40
0.98
100
AcDbArc
 50
313.4120116047
 51
46.5879883953
  0
ARC
  5
30E
100
AcDbEntity
  8
0
100
AcDbCircle
 62
7
  6
CONTINUOUS
 10
35.5286317441
 20
158.807541221
 40
0.98
100
AcDbArc
 50
13.4120116047
 51
106.5879883953
  0
ARC
  5
30F
100
AcDbEntity
  8
0
100
AcDbCircle
 62
7
  6
CONTINUOUS
 10
35.5286317441
 20
163.9967654404
 40
0.98
100
AcDbArc
 50
253.4120116047
 51
346.5879883953
  0
ARC
  5
310
100
AcDbEntity
  8
0
100
AcDbCircle
 62
7
  6
CONTINUOUS
 10
35.0889810613
 20
160.2834501873
 40
0.56
100
AcDbArc
 50
133.4120116047
 51
286.5879883953
  0
ARC
  5
311
100
AcDbEntity
  8
0
100
AcDbCircle
 62
7
  6
CONTINUOUS
 10
35.0889810613
 20
162.5208564741
 40
0.56
100
AcDbArc
 50
73.4120116047
 51
226.5879883953
  0
ARC
  5
312
100
AcDbEntity
  8
0
100
AcDbCircle
 62
7
  6
CONTINUOUS
 10
37.0266317441
 20
24.4021533307
 40
12.0
100
AcDbArc
 50
180.0
 51
360.0
  0
ARC
  5
313
100
AcDbEntity
  8
0
100
AcDbCircle
 62
7
  6
CONTINUOUS
 10
37.0266317441
 20
45.4021533307
 40
11.0
100
AcDbArc
 50
180.0
 51
360.0
  0
CIRCLE
  5
314
100
AcDbEntity
  8
0
100
AcDbCircle
 62
7
  6
CONTINUOUS
 10
37.0266317441
 20
43.4021533307
 40
7.0
  0
CIRCLE
  5
315
100
AcDbEntity
  8
0
100
AcDbCircle
 62
7
  6
CONTINUOUS
 10
37.0266317441
 20
43.4021533307
 40
6.5
  0
ARC
  5
316
100
AcDbEntity
  8
0
100
AcDbCircle
 62
2
  6
CONTINUOUS
 10
37.0266317441
 20
43.4021533307
 40
5.385
100
AcDbArc
 50
255.0
 51
195.0
  0
CIRCLE
  5
317
100
AcDbEntity
  8
0
100
AcDbCircle
 62
7
  6
CONTINUOUS
 10
37.0266317441
 20
43.4021533307
 40
3.95
  0
CIRCLE
  5
318
100
AcDbEntity
  8
A_ACHSEN
100
AcDbCircle
 62
7
  6
CONTINUOUS
 10
37.0266317441
 20
54.4021533307
 40
3.1
  0
ARC
  5
319
100
AcDbEntity
  8
0
100
AcDbCircle
 62
2
  6
CONTINUOUS
 10
37.0266317441
 20
54.4021533307
 40
3.0
100
AcDbArc
 50
255.0
 51
195.0
  0
ARC
  5
31A
100
AcDbEntity
  8
A_ACHSEN
100
AcDbCircle
 62
7
  6
CONTINUOUS
 10
42.0266317441
 20
21.4021533307
 40
3.0
100
AcDbArc
 50
180.0
 51
360.0
  0
ARC
  5
31B
100
AcDbEntity
  8
A_RUNDUNGEN
100
AcDbCircle
 62
7
  6
CONTINUOUS
 10
42.0266317441
 20
26.4021533307
 40
3.0
100
AcDbArc
 50
0.0
 51
180.0
  0
CIRCLE
  5
31C
100
AcDbEntity
  8
0
100
AcDbCircle
 62
7
  6
CONTINUOUS
 10
37.0266317441
 20
54.4021533307
 40
2.3
  0
ARC
  5
31D
100
AcDbEntity
  8
0
100
AcDbCircle
 62
7
  6
CONTINUOUS
 10
38.5246317441
 20
40.807541221
 40
0.98
100
AcDbArc
 50
73.4120116047
 51
166.5879883953
  0
ARC
  5
31E
100
AcDbEntity
  8
0
100
AcDbCircle
 62
7
  6
CONTINUOUS
 10
40.0226317441
 20
43.4021533307
 40
0.98
100
AcDbArc
 50
133.4120116047
 51
226.5879883953
  0
ARC
  5
31F
100
AcDbEntity
  8
0
100
AcDbCircle
 62
7
  6
CONTINUOUS
 10
38.5246317441
 20
45.9967654404
 40
0.98
100
AcDbArc
 50
193.4120116047
 51
286.5879883953
  0
ARC
  5
320
100
AcDbEntity
  8
0
100
AcDbCircle
 62
7
  6
CONTINUOUS
 10
37.0266317441
 20
45.6395596174
 40
0.56
100
AcDbArc
 50
13.4120116047
 51
166.5879883953
  0
ARC
  5
321
100
AcDbEntity
  8
0
100
AcDbCircle
 62
7
  6
CONTINUOUS
 10
38.964282427
 20
44.5208564741
 40
0.56
100
AcDbArc
 50
313.4120116047
 51
106.5879883953
  0
ARC
  5
322
100
AcDbEntity
  8
0
100
AcDbCircle
 62
7
  6
CONTINUOUS
 10
38.964282427
 20
42.2834501873
 40
0.56
100
AcDbArc
 50
253.4120116047
 51
46.5879883953
  0
ARC
  5
323
100
AcDbEntity
  8
0
100
AcDbCircle
 62
7
  6
CONTINUOUS
 10
37.0266317441
 20
41.164747044
 40
0.56
100
AcDbArc
 50
193.4120116047
 51
346.5879883953
  0
CIRCLE
  5
324
100
AcDbEntity
  8
A_ACHSEN
100
AcDbCircle
 62
7
  6
CONTINUOUS
 10
37.0266317441
 20
88.4021533307
 40
5.5
  0
CIRCLE
  5
325
100
AcDbEntity
  8
A_ACHSEN
100
AcDbCircle
 62
7
  6
CONTINUOUS
 10
37.0266317441
 20
88.4021533307
 40
5.0
  0
ARC
  5
326
100
AcDbEntity
  8
0
100
AcDbCircle
 62
7
  6
CONTINUOUS
 10
38.385157929
 20
91.6819256711
 40
0.8
100
AcDbArc
 50
198.1798566915
 51
296.8201433085
  0
ARC
  5
327
100
AcDbEntity
  8
0
100
AcDbCircle
 62
7
  6
CONTINUOUS
 10
40.3064040846
 20
89.7606795156
 40
0.8
100
AcDbArc
 50
153.1798566915
 51
251.8201433085
  0
ARC
  5
328
100
AcDbEntity
  8
0
100
AcDbCircle
 62
7
  6
CONTINUOUS
 10
40.3064040846
 20
87.0436271458
 40
0.8
100
AcDbArc
 50
108.1798566915
 51
206.8201433085
  0
ARC
  5
329
100
AcDbEntity
  8
0
100
AcDbCircle
 62
7
  6
CONTINUOUS
 10
38.385157929
 20
85.1223809903
 40
0.8
100
AcDbArc
 50
63.1798566915
 51
161.8201433085
  0
ARC
  5
32A
100
AcDbEntity
  8
0
100
AcDbCircle
 62
7
  6
CONTINUOUS
 10
37.0266317441
 20
91.6521533307
 40
0.5
100
AcDbArc
 50
18.1798566915
 51
161.8201433085
  0
ARC
  5
32B
100
AcDbEntity
  8
0
100
AcDbCircle
 62
7
  6
CONTINUOUS
 10
39.324728783
 20
90.7002503696
 40
0.5
100
AcDbArc
 50
333.1798566915
 51
116.8201433085
  0
ARC
  5
32C
100
AcDbEntity
  8
0
100
AcDbCircle
 62
7
  6
CONTINUOUS
 10
40.2766317441
 20
88.4021533307
 40
0.5
100
AcDbArc
 50
288.1798566915
 51
71.8201433085
  0
ARC
  5
32D
100
AcDbEntity
  8
0
100
AcDbCircle
 62
7
  6
CONTINUOUS
 10
39.324728783
 20
86.1040562919
 40
0.5
100
AcDbArc
 50
243.1798566915
 51
26.8201433085
  0
ARC
  5
32E
100
AcDbEntity
  8
0
100
AcDbCircle
 62
7
  6
CONTINUOUS
 10
37.0266317441
 20
85.1521533307
 40
0.5
100
AcDbArc
 50
198.1798566915
 51
341.8201433085
  0
ARC
  5
32F
100
AcDbEntity
  8
0
100
AcDbCircle
 62
7
  6
CONTINUOUS
 10
51.7766317441
 20
55.4021533307
 40
5.0
100
AcDbArc
 50
123.3670129692
 51
138.7479962683
  0
ARC
  5
330
100
AcDbEntity
  8
0
100
AcDbCircle
 62
7
  6
CONTINUOUS
 10
51.7766317441
 20
55.4021533307
 40
5.0
100
AcDbArc
 50
221.2520037317
 51
236.6329870308
  0
CIRCLE
  5
331
100
AcDbEntity
  8
A_ACHSEN
100
AcDbCircle
 62
7
  6
CONTINUOUS
 10
37.0266317441
 20
116.4021533307
 40
5.5
  0
ARC
  5
332
100
AcDbEntity
  8
0
100
AcDbCircle
 62
7
  6
CONTINUOUS
 10
51.7766317441
 20
149.4021533307
 40
5.0
100
AcDbArc
 50
123.3670129692
 51
138.7479962683
  0
ARC
  5
333
100
AcDbEntity
  8
0
100
AcDbCircle
 62
7
  6
CONTINUOUS
 10
51.7766317441
 20
149.4021533307
 40
5.0
100
AcDbArc
 50
221.2520037317
 51
236.6329870308
  0
CIRCLE
  5
334
100
AcDbEntity
  8
A_ACHSEN
100
AcDbCircle
 62
7
  6
CONTINUOUS
 10
37.0266317441
 20
116.4021533307
 40
5.0
  0
CIRCLE
  5
335
100
AcDbEntity
  8
A_ACHSEN
100
AcDbCircle
 62
7
  6
CONTINUOUS
 10
37.0266317441
 20
150.4021533307
 40
3.1
  0
ARC
  5
336
100
AcDbEntity
  8
0
100
AcDbCircle
 62
2
  6
CONTINUOUS
 10
37.0266317441
 20
150.4021533307
 40
3.0
100
AcDbArc
 50
255.0
 51
195.0
  0
CIRCLE
  5
337
100
AcDbEntity
  8
0
100
AcDbCircle
 62
7
  6
CONTINUOUS
 10
37.0266317441
 20
150.4021533307
 40
2.3
  0
ARC
  5
338
100
AcDbEntity
  8
0
100
AcDbCircle
 62
7
  6
CONTINUOUS
 10
38.5246317441
 20
158.807541221
 40
0.98
100
AcDbArc
 50
73.4120116047
 51
166.5879883953
  0
ARC
  5
339
100
AcDbEntity
  8
0
100
AcDbCircle
 62
7
  6
CONTINUOUS
 10
38.385157929
 20
119.6819256711
 40
0.8
100
AcDbArc
 50
198.1798566915
 51
296.8201433085
  0
ARC
  5
33A
100
AcDbEntity
  8
0
100
AcDbCircle
 62
7
  6
CONTINUOUS
 10
40.3064040846
 20
117.7606795156
 40
0.8
100
AcDbArc
 50
153.1798566915
 51
251.8201433085
  0
ARC
  5
33B
100
AcDbEntity
  8
0
100
AcDbCircle
 62
7
  6
CONTINUOUS
 10
40.3064040846
 20
115.0436271458
 40
0.8
100
AcDbArc
 50
108.1798566915
 51
206.8201433086
  0
ARC
  5
33C
100
AcDbEntity
  8
0
100
AcDbCircle
 62
7
  6
CONTINUOUS
 10
38.385157929
 20
113.1223809903
 40
0.8
100
AcDbArc
 50
63.1798566915
 51
161.8201433085
  0
ARC
  5
33D
100
AcDbEntity
  8
0
100
AcDbCircle
 62
7
  6
CONTINUOUS
 10
37.0266317441
 20
159.164747044
 40
0.56
100
AcDbArc
 50
193.4120116047
 51
346.5879883953
  0
ARC
  5
33E
100
AcDbEntity
  8
0
100
AcDbCircle
 62
7
  6
CONTINUOUS
 10
37.0266317441
 20
119.6521533307
 40
0.5
100
AcDbArc
 50
18.1798566915
 51
161.8201433085
  0
ARC
  5
33F
100
AcDbEntity
  8
0
100
AcDbCircle
 62
7
  6
CONTINUOUS
 10
39.324728783
 20
118.7002503696
 40
0.5
100
AcDbArc
 50
333.1798566915
 51
116.8201433085
  0
ARC
  5
340
100
AcDbEntity
  8
0
100
AcDbCircle
 62
7
  6
CONTINUOUS
 10
40.2766317441
 20
116.4021533307
 40
0.5
100
AcDbArc
 50
288.1798566915
 51
71.8201433085
  0
ARC
  5
341
100
AcDbEntity
  8
0
100
AcDbCircle
 62
7
  6
CONTINUOUS
 10
39.324728783
 20
114.1040562919
 40
0.5
100
AcDbArc
 50
243.1798566915
 51
26.8201433086
  0
ARC
  5
342
100
AcDbEntity
  8
0
100
AcDbCircle
 62
7
  6
CONTINUOUS
 10
37.0266317441
 20
113.1521533307
 40
0.5
100
AcDbArc
 50
198.1798566915
 51
341.8201433085
  0
ARC
  5
343
100
AcDbEntity
  8
0
100
AcDbCircle
 62
7
  6
CONTINUOUS
 10
37.0266317441
 20
180.4021533307
 40
12.0
100
AcDbArc
 50
0.0
 51
180.0
  0
ARC
  5
344
100
AcDbEntity
  8
0
100
AcDbCircle
 62
7
  6
CONTINUOUS
 10
37.0266317441
 20
159.4021533307
 40
11.0
100
AcDbArc
 50
0.0
 51
180.0
  0
CIRCLE
  5
345
100
AcDbEntity
  8
0
100
AcDbCircle
 62
7
  6
CONTINUOUS
 10
37.0266317441
 20
161.4021533307
 40
7.0
  0
CIRCLE
  5
346
100
AcDbEntity
  8
0
100
AcDbCircle
 62
7
  6
CONTINUOUS
 10
37.0266317441
 20
161.4021533307
 40
6.5
  0
ARC
  5
347
100
AcDbEntity
  8
0
100
AcDbCircle
 62
2
  6
CONTINUOUS
 10
37.0266317441
 20
161.4021533307
 40
5.385
100
AcDbArc
 50
255.0
 51
195.0
  0
CIRCLE
  5
348
100
AcDbEntity
  8
0
100
AcDbCircle
 62
7
  6
CONTINUOUS
 10
37.0266317441
 20
161.4021533307
 40
3.95
  0
ARC
  5
349
100
AcDbEntity
  8
A_ACHSEN
100
AcDbCircle
 62
7
  6
CONTINUOUS
 10
42.0266317441
 20
183.4021533307
 40
3.0
100
AcDbArc
 50
0.0
 51
180.0
  0
ARC
  5
34A
100
AcDbEntity
  8
A_RUNDUNGEN
100
AcDbCircle
 62
7
  6
CONTINUOUS
 10
42.0266317441
 20
178.4021533307
 40
3.0
100
AcDbArc
 50
180.0
 51
360.0
  0
ARC
  5
34B
100
AcDbEntity
  8
0
100
AcDbCircle
 62
7
  6
CONTINUOUS
 10
40.0226317441
 20
161.4021533307
 40
0.98
100
AcDbArc
 50
133.4120116047
 51
226.5879883953
  0
ARC
  5
34C
100
AcDbEntity
  8
0
100
AcDbCircle
 62
7
  6
CONTINUOUS
 10
38.5246317441
 20
163.9967654404
 40
0.98
100
AcDbArc
 50
193.4120116047
 51
286.5879883953
  0
ARC
  5
34D
100
AcDbEntity
  8
0
100
AcDbCircle
 62
7
  6
CONTINUOUS
 10
37.0266317441
 20
163.6395596174
 40
0.56
100
AcDbArc
 50
13.4120116047
 51
166.5879883953
  0
ARC
  5
34E
100
AcDbEntity
  8
0
100
AcDbCircle
 62
7
  6
CONTINUOUS
 10
38.964282427
 20
162.5208564741
 40
0.56
100
AcDbArc
 50
313.4120116047
 51
106.5879883953
  0
ARC
  5
34F
100
AcDbEntity
  8
0
100
AcDbCircle
 62
7
  6
CONTINUOUS
 10
38.964282427
 20
160.2834501873
 40
0.56
100
AcDbArc
 50
253.4120116047
 51
46.5879883953
  0
ARC
  5
350
100
AcDbEntity
  8
A_RUNDUNGEN
100
AcDbCircle
 62
7
  6
CONTINUOUS
 10
781.2813535033
 20
205.3969785647
 40
756.5004010139
100
AcDbArc
 50
182.8798466573
 51
183.0412210748
  0
SPLINE
  5
351
100
AcDbEntity
  8
A_RUNDUNGEN
100
AcDbSpline
 62
7
  6
CONTINUOUS
 70
0
 71
3
 72
14
 73
10
 74
0
 42
0.0000001
 43
0.0000001
 44
0.0000000001
 40
0.0
 40
0.0
 40
0.0
 40
0.0
 40
0.3459664813
 40
0.5071190936
 40
0.6537672888
 40
0.7813199786
 40
0.8846735212
 40
0.9587570102
 40
1.0
 40
1.0
 40
1.0
 40
1.0
 10
25.3661149124
 20
167.8249118416
 30
0.0
 10
25.4129296846
 20
167.7780970683
 30
0.0
 10
25.480492967
 20
167.7083894471
 30
0.0
 10
25.5650929379
 20
167.61623655
 30
0.0
 10
25.6201874374
 20
167.5536753295
 30
0.0
 10
25.6662911085
 20
167.4981957012
 30
0.0
 10
25.7023425119
 20
167.4518462208
 30
0.0
 10
25.7247528926
 20
167.4172833912
 30
0.0
 10
25.7359471888
 20
167.397036333
 30
0.0
 10
25.736343599
 20
167.3891538045
 30
0.0
  0
SPLINE
  5
352
100
AcDbEntity
  8
A_RUNDUNGEN
100
AcDbSpline
 62
7
  6
CONTINUOUS
 70
0
 71
3
 72
14
 73
10
 74
0
 42
0.0000001
 43
0.0000001
 44
0.0000000001
 40
0.0
 40
0.0
 40
0.0
 40
0.0
 40
0.0412145988
 40
0.1152534665
 40
0.2186132129
 40
0.3461942962
 40
0.4928555492
 40
0.6540137412
 40
1.0
 40
1.0
 40
1.0
 40
1.0
 10
48.3169198902
 20
167.3891538062
 30
0.0
 10
48.3173166422
 20
167.3970309217
 30
0.0
 10
48.3284880361
 20
167.4172705771
 30
0.0
 10
48.3508905321
 20
167.4518271253
 30
0.0
 10
48.3869424604
 20
167.4981729795
 30
0.0
 10
48.4330559627
 20
167.5536572197
 30
0.0
 10
48.488157034
 20
167.6162250746
 30
0.0
 10
48.5727630612
 20
167.708383426
 30
0.0
 10
48.640331043
 20
167.7780939544
 30
0.0
 10
48.6871485759
 20
167.8249118416
 30
0.0
  0
SPLINE
  5
353
100
AcDbEntity
  8
A_RUNDUNGEN
100
AcDbSpline
 62
7
  6
CONTINUOUS
 70
0
 71
3
 72
14
 73
10
 74
0
 42
0.0000001
 43
0.0000001
 44
0.0000000001
 40
0.0
 40
0.0
 40
0.0
 40
0.0
 40
0.3459821051
 40
0.5071420556
 40
0.6538066212
 40
0.7813913034
 40
0.8847564511
 40
0.9587926463
 40
1.0
 40
1.0
 40
1.0
 40
1.0
 10
48.6871485759
 20
36.9793948198
 30
0.0
 10
48.6403315416
 20
37.0262120547
 30
0.0
 10
48.5727642424
 20
37.095922564
 30
0.0
 10
48.488158001
 20
37.1880809155
 30
0.0
 10
48.4330558891
 20
37.2506500093
 30
0.0
 10
48.3869421109
 20
37.3061371876
 30
0.0
 10
48.3508907389
 20
37.3524846798
 30
0.0
 10
48.3284851523
 20
37.3870384635
 30
0.0
 10
48.3173165569
 20
37.4072771261
 30
0.0
 10
48.3169198901
 20
37.4151528553
 30
0.0
  0
SPLINE
  5
354
100
AcDbEntity
  8
A_RUNDUNGEN
100
AcDbSpline
 62
7
  6
CONTINUOUS
 70
0
 71
3
 72
14
 73
10
 74
0
 42
0.0000001
 43
0.0000001
 44
0.0000000001
 40
0.0
 40
0.0
 40
0.0
 40
0.0
 40
0.0357385392
 40
0.1038430488
 40
0.2025229791
 40
0.3278882961
 40
0.4754958773
 40
0.6405033933
 40
1.0
 40
1.0
 40
1.0
 40
1.0
 10
25.6105504737
 20
37.7835050491
 30
0.0
 10
25.6096576898
 20
37.7772558386
 30
0.0
 10
25.5968329422
 20
37.7623160628
 30
0.0
 10
25.5723831456
 20
37.7374450745
 30
0.0
 10
25.5324279322
 20
37.7040188661
 30
0.0
 10
25.480814955
 20
37.6637321803
 30
0.0
 10
25.4183186019
 20
37.6180115962
 30
0.0
 10
25.3210467331
 20
37.5499866993
 30
0.0
 10
25.2436689235
 20
37.4989777406
 30
0.0
 10
25.1901828924
 20
37.4647515145
 30
0.0
  0
SPLINE
  5
355
100
AcDbEntity
  8
A_RUNDUNGEN
100
AcDbSpline
 62
7
  6
CONTINUOUS
 70
0
 71
3
 72
15
 73
11
 74
0
 42
0.0000001
 43
0.0000001
 44
0.0000000001
 40
0.0
 40
0.0
 40
0.0
 40
0.0
 40
0.0185135493
 40
0.0431224102
 40
0.1115564655
 40
0.2055140768
 40
0.3236804201
 40
0.4643416117
 40
0.6255439864
 40
1.0
 40
1.0
 40
1.0
 40
1.0
 10
26.660487094
 20
166.3012130203
 30
0.0
 10
26.6604879151
 20
166.3181886051
 30
0.0
 10
26.6534509001
 20
166.3575808893
 30
0.0
 10
26.6194354619
 20
166.4541537806
 30
0.0
 10
26.5382607842
 20
166.6060617526
 30
0.0
 10
26.3989343553
 20
166.8222584244
 30
0.0
 10
26.2094253827
 20
167.0846351201
 30
0.0
 10
25.973096962
 20
167.3887735657
 30
0.0
 10
25.5797467245
 20
167.8682745204
 30
0.0
 10
25.2561657309
 20
168.2379600345
 30
0.0
 10
25.0266317441
 20
168.4933082829
 30
0.0
  0
SPLINE
  5
356
100
AcDbEntity
  8
A_RUNDUNGEN
100
AcDbSpline
 62
7
  6
CONTINUOUS
 70
0
 71
3
 72
15
 73
11
 74
0
 42
0.0000001
 43
0.0000001
 44
0.0000000001
 40
0.0
 40
0.0
 40
0.0
 40
0.0
 40
0.3744511827
 40
0.5356520663
 40
0.6763124103
 40
0.7944786976
 40
0.888438038
 40
0.9568758146
 40
0.9814860918
 40
1.0
 40
1.0
 40
1.0
 40
1.0
 10
49.0266317441
 20
168.493308364
 30
0.0
 10
48.7971033949
 20
168.2379664805
 30
0.0
 10
48.4735299615
 20
167.8682898077
 30
0.0
 10
48.0801880697
 20
167.3888000268
 30
0.0
 10
47.8438632865
 20
167.0846673307
 30
0.0
 10
47.6543553255
 20
166.822293702
 30
0.0
 10
47.5150266748
 20
166.6060962717
 30
0.0
 10
47.4338465466
 20
166.4541864874
 30
0.0
 10
47.3998260038
 20
166.3576114792
 30
0.0
 10
47.3927871201
 20
166.3182181812
 30
0.0
 10
47.3927879525
 20
166.3012424687
 30
0.0
  0
SPLINE
  5
357
100
AcDbEntity
  8
A_RUNDUNGEN
100
AcDbSpline
 62
7
  6
CONTINUOUS
 70
0
 71
3
 72
14
 73
10
 74
0
 42
0.0000001
 43
0.0000001
 44
0.0000000001
 40
0.0
 40
0.0
 40
0.0
 40
0.0
 40
0.0391536655
 40
0.1095910008
 40
0.2095203614
 40
0.3351065836
 40
0.4819751587
 40
0.6453841311
 40
1.0
 40
1.0
 40
1.0
 40
1.0
 10
47.3927879525
 20
164.5118154265
 30
0.0
 10
47.3927881427
 20
164.5048500384
 30
0.0
 10
47.3835489817
 20
164.4865423151
 30
0.0
 10
47.3641202227
 20
164.4554453789
 30
0.0
 10
47.3321226382
 20
164.4132080341
 30
0.0
 10
47.290247757
 20
164.3620165029
 30
0.0
 10
47.2392702128
 20
164.3035217573
 30
0.0
 10
47.1595655279
 20
164.2161394533
 30
0.0
 10
47.0954578499
 20
164.1498877823
 30
0.0
 10
47.0508495099
 20
164.1052794423
 30
0.0
  0
SPLINE
  5
358
100
AcDbEntity
  8
A_RUNDUNGEN
100
AcDbSpline
 62
7
  6
CONTINUOUS
 70
0
 71
3
 72
14
 73
10
 74
0
 42
0.0000001
 43
0.0000001
 44
0.0000000001
 40
0.0
 40
0.0
 40
0.0
 40
0.0
 40
0.3546163786
 40
0.5180267732
 40
0.664897345
 40
0.7904853567
 40
0.890416089
 40
0.9608504198
 40
1.0
 40
1.0
 40
1.0
 40
1.0
 10
27.0024125109
 20
164.1052809098
 30
0.0
 10
26.9578042704
 20
164.1498891502
 30
0.0
 10
26.8936966282
 20
164.2161408601
 30
0.0
 10
26.8139917148
 20
164.3035233202
 30
0.0
 10
26.7630137867
 20
164.3620185708
 30
0.0
 10
26.7211388352
 20
164.4132109708
 30
0.0
 10
26.6891417175
 20
164.4554483243
 30
0.0
 10
26.6697125337
 20
164.486543839
 30
0.0
 10
26.6604752334
 20
164.5048507907
 30
0.0
 10
26.6604755358
 20
164.5118154265
 30
0.0
  0
SPLINE
  5
359
100
AcDbEntity
  8
A_RUNDUNGEN
100
AcDbSpline
 62
7
  6
CONTINUOUS
 70
0
 71
3
 72
14
 73
10
 74
0
 42
0.0000001
 43
0.0000001
 44
0.0000000001
 40
0.0
 40
0.0
 40
0.0
 40
0.0
 40
0.0384719472
 40
0.1085469028
 40
0.2083591556
 40
0.3340119571
 40
0.4810726482
 40
0.6447575895
 40
1.0
 40
1.0
 40
1.0
 40
1.0
 10
26.6589642765
 20
40.2950823838
 30
0.0
 10
26.6591310916
 20
40.3019075484
 30
0.0
 10
26.6687292758
 20
40.3197442332
 30
0.0
 10
26.688402645
 20
40.3503213197
 30
0.0
 10
26.720712118
 20
40.3920644534
 30
0.0
 10
26.7628198387
 20
40.4428794927
 30
0.0
 10
26.8139595535
 20
40.5011029779
 30
0.0
 10
26.8937732015
 20
40.5882509414
 30
0.0
 10
26.9578359901
 20
40.6544492309
 30
0.0
 10
27.0024127451
 20
40.6990259859
 30
0.0
  0
SPLINE
  5
35A
100
AcDbEntity
  8
A_RUNDUNGEN
100
AcDbSpline
 62
7
  6
CONTINUOUS
 70
0
 71
3
 72
15
 73
11
 74
0
 42
0.0000001
 43
0.0000001
 44
0.0000000001
 40
0.0
 40
0.0
 40
0.0
 40
0.0
 40
0.0185135214
 40
0.0431223173
 40
0.1115562213
 40
0.2055137721
 40
0.3236801262
 40
0.4643413529
 40
0.6255437873
 40
1.0
 40
1.0
 40
1.0
 40
1.0
 10
47.3927762239
 20
38.5030940751
 30
0.0
 10
47.3927753919
 20
38.4861185125
 30
0.0
 10
47.3998123193
 20
38.4467262963
 30
0.0
 10
47.4338275387
 20
38.3501535388
 30
0.0
 10
47.5150019959
 20
38.1982456928
 30
0.0
 10
47.6543283273
 20
37.9820491154
 30
0.0
 10
47.8438373193
 20
37.7196723714
 30
0.0
 10
48.0801658432
 20
37.4155337868
 30
0.0
 10
48.4735163385
 20
36.9360325364
 30
0.0
 10
48.7970975749
 20
36.5663467899
 30
0.0
 10
49.0266317441
 20
36.310998369
 30
0.0
  0
SPLINE
  5
35B
100
AcDbEntity
  8
A_RUNDUNGEN
100
AcDbSpline
 62
7
  6
CONTINUOUS
 70
0
 71
3
 72
9
 73
5
 74
0
 42
0.0000001
 43
0.0000001
 44
0.0000000001
 40
0.0
 40
0.0
 40
0.0
 40
0.0
 40
0.261820435
 40
1.0
 40
1.0
 40
1.0
 40
1.0
 10
25.2910885155
 20
37.35203775
 30
0.0
 10
25.3260191921
 20
37.3763445658
 30
0.0
 10
25.4590444558
 20
37.4697384568
 30
0.0
 10
25.5904828678
 20
37.5654088897
 30
0.0
 10
25.6862675949
 20
37.6376644224
 30
0.0
  0
SPLINE
  5
35C
100
AcDbEntity
  8
A_RUNDUNGEN
100
AcDbSpline
 62
7
  6
CONTINUOUS
 70
0
 71
3
 72
13
 73
9
 74
0
 42
0.0000001
 43
0.0000001
 44
0.0000000001
 40
0.0
 40
0.0
 40
0.0
 40
0.0
 40
0.3791540473
 40
0.674204057
 40
0.788648374
 40
0.8806113379
 40
0.9504855086
 40
1.0
 40
1.0
 40
1.0
 40
1.0
 10
25.7164629979
 20
37.6605301548
 30
0.0
 10
25.8479213307
 20
37.7604650283
 30
0.0
 10
26.0774724782
 20
37.9437533775
 30
0.0
 10
26.3306018198
 20
38.1768882664
 30
0.0
 10
26.4767085402
 20
38.3393636273
 30
0.0
 10
26.5494415948
 20
38.4356477645
 30
0.0
 10
26.5952705268
 20
38.5154951406
 30
0.0
 10
26.6111676392
 20
38.5664168129
 30
0.0
 10
26.6118379109
 20
38.5879711938
 30
0.0
  0
SPLINE
  5
35D
100
AcDbEntity
  8
A_RUNDUNGEN
100
AcDbSpline
 62
7
  6
CONTINUOUS
 70
0
 71
3
 72
14
 73
10
 74
0
 42
0.0000001
 43
0.0000001
 44
0.0000000001
 40
0.0
 40
0.0
 40
0.0
 40
0.0
 40
0.3546160634
 40
0.5180263871
 40
0.6648971666
 40
0.7904857553
 40
0.8904167458
 40
0.9608504964
 40
1.0
 40
1.0
 40
1.0
 40
1.0
 10
47.0508498269
 20
40.6990269022
 30
0.0
 10
47.0954581644
 20
40.6544185646
 30
0.0
 10
47.1595659585
 20
40.5881667062
 30
0.0
 10
47.2392711163
 20
40.5007840173
 30
0.0
 10
47.290249298
 20
40.4422885136
 30
0.0
 10
47.3321245691
 20
40.391095848
 30
0.0
 10
47.3641218095
 20
40.3488583931
 30
0.0
 10
47.3835511399
 20
40.3177627788
 30
0.0
 10
47.3927880834
 20
40.2994558784
 30
0.0
 10
47.3927879525
 20
40.2924912349
 30
0.0
  0
ELLIPSE
  5
35E
100
AcDbEntity
  8
0
100
AcDbEllipse
 62
7
  6
CONTINUOUS
 10
37.0266317441
 20
43.9021533307
 30
0.0
 11
12.0
 21
-0.0
 31
0.0
 40
1.0
 41
-3.1415926536
 42
-2.7698254046
  0
ELLIPSE
  5
35F
100
AcDbEntity
  8
0
100
AcDbEllipse
 62
7
  6
CONTINUOUS
 10
37.0266317441
 20
160.9021533307
 30
0.0
 11
12.0
 21
0.0
 31
0.0
 40
1.0
 41
2.7698254046
 42
3.1415926536
  0
ELLIPSE
  5
360
100
AcDbEntity
  8
0
100
AcDbEllipse
 62
7
  6
CONTINUOUS
 10
37.0266317441
 20
160.9021533307
 30
0.0
 11
-0.0
 21
12.0
 31
0.0
 40
1.0
 41
-1.5707963268
 42
-1.1990290778
  0
ELLIPSE
  5
361
100
AcDbEntity
  8
0
100
AcDbEllipse
 62
7
  6
CONTINUOUS
 10
37.0266317441
 20
43.9021533307
 30
0.0
 11
12.0
 21
-0.0
 31
0.0
 40
1.0
 41
-0.371767249
 42
0.0
  0
ENDSEC
  0
SECTION
  2
OBJECTS
  0
DICTIONARY
  5
362
100
AcDbDictionary
  3
ACAD_GROUP
350
363
  3
ACAD_MLINESTYLE
350
364
  0
DICTIONARY
  5
363
102
{ACAD_REACTORS
330
362
102
}
100
AcDbDictionary
  0
DICTIONARY
  5
364
102
{ACAD_REACTORS
330
362
102
}
100
AcDbDictionary
  3
STANDARD
350
365
  0
MLINESTYLE
  5
365
102
{ACAD_REACTORS
330
364
102
}
100
AcDbMlineStyle
  2
STANDARD
 70
0
  3

 62
256
 51
90.0
 52
90.0
 71
2
 49
0.5
 62
256
  6
BYLAYER
 49
-0.5
 62
256
  6
BYLAYER
  0
ENDSEC
  0
EOF
