  0
SECTION
  2
HEADER
  9
$ACADVER
  1
AC1018
  9
$ACADMAINTVER
 70
     0
  9
$DWGCODEPAGE
  3
ANSI_1252
  9
$INSBASE
 10
0.0
 20
0.0
 30
0.0
  9
$EXTMIN
 10
19536.1637422216
 20
-11475.53851195179
 30
0.0
  9
$EXTMAX
 10
19711.6578364447
 20
-11297.0464664143
 30
0.0
  9
$LIMMIN
 10
0.0
 20
0.0
  9
$LIMMAX
 10
12.0
 20
9.0
  9
$ORTHOMODE
 70
     0
  9
$REGENMODE
 70
     1
  9
$FILLMODE
 70
     1
  9
$QTEXTMODE
 70
     0
  9
$MIRRTEXT
 70
     1
  9
$LTSCALE
 40
1.0
  9
$ATTMODE
 70
     1
  9
$TEXTSIZE
 40
0.2
  9
$TRACEWID
 40
0.05
  9
$TEXTSTYLE
  7
Standard
  9
$CLAYER
  8
0
  9
$CELTYPE
  6
ByLayer
  9
$CECOLOR
 62
   256
  9
$CELTSCALE
 40
1.0
  9
$DISPSILH
 70
     0
  9
$DIMSCALE
 40
1.0
  9
$DIMASZ
 40
0.18
  9
$DIMEXO
 40
0.0625
  9
$DIMDLI
 40
0.38
  9
$DIMRND
 40
0.0
  9
$DIMDLE
 40
0.0
  9
$DIMEXE
 40
0.18
  9
$DIMTP
 40
0.0
  9
$DIMTM
 40
0.0
  9
$DIMTXT
 40
0.18
  9
$DIMCEN
 40
0.09
  9
$DIMTSZ
 40
0.0
  9
$DIMTOL
 70
     0
  9
$DIMLIM
 70
     0
  9
$DIMTIH
 70
     1
  9
$DIMTOH
 70
     1
  9
$DIMSE1
 70
     0
  9
$DIMSE2
 70
     0
  9
$DIMTAD
 70
     0
  9
$DIMZIN
 70
     0
  9
$DIMBLK
  1

  9
$DIMASO
 70
     1
  9
$DIMSHO
 70
     1
  9
$DIMPOST
  1

  9
$DIMAPOST
  1

  9
$DIMALT
 70
     0
  9
$DIMALTD
 70
     2
  9
$DIMALTF
 40
25.4
  9
$DIMLFAC
 40
1.0
  9
$DIMTOFL
 70
     0
  9
$DIMTVP
 40
0.0
  9
$DIMTIX
 70
     0
  9
$DIMSOXD
 70
     0
  9
$DIMSAH
 70
     0
  9
$DIMBLK1
  1

  9
$DIMBLK2
  1

  9
$DIMSTYLE
  2
Standard
  9
$DIMCLRD
 70
     0
  9
$DIMCLRE
 70
     0
  9
$DIMCLRT
 70
     0
  9
$DIMTFAC
 40
1.0
  9
$DIMGAP
 40
0.09
  9
$DIMJUST
 70
     0
  9
$DIMSD1
 70
     0
  9
$DIMSD2
 70
     0
  9
$DIMTOLJ
 70
     1
  9
$DIMTZIN
 70
     0
  9
$DIMALTZ
 70
     0
  9
$DIMALTTZ
 70
     0
  9
$DIMUPT
 70
     0
  9
$DIMDEC
 70
     4
  9
$DIMTDEC
 70
     4
  9
$DIMALTU
 70
     2
  9
$DIMALTTD
 70
     2
  9
$DIMTXSTY
  7
Standard
  9
$DIMAUNIT
 70
     0
  9
$DIMADEC
 70
     0
  9
$DIMALTRND
 40
0.0
  9
$DIMAZIN
 70
     0
  9
$DIMDSEP
 70
    46
  9
$DIMATFIT
 70
     3
  9
$DIMFRAC
 70
     0
  9
$DIMLDRBLK
  1

  9
$DIMLUNIT
 70
     2
  9
$DIMLWD
 70
    -2
  9
$DIMLWE
 70
    -2
  9
$DIMTMOVE
 70
     0
  9
$LUNITS
 70
     2
  9
$LUPREC
 70
     4
  9
$SKETCHINC
 40
0.1
  9
$FILLETRAD
 40
0.5
  9
$AUNITS
 70
     0
  9
$AUPREC
 70
     0
  9
$MENU
  1
.
  9
$ELEVATION
 40
0.0
  9
$PELEVATION
 40
0.0
  9
$THICKNESS
 40
0.0
  9
$LIMCHECK
 70
     0
  9
$CHAMFERA
 40
0.5
  9
$CHAMFERB
 40
0.5
  9
$CHAMFERC
 40
1.0
  9
$CHAMFERD
 40
0.0
  9
$SKPOLY
 70
     0
  9
$TDCREATE
 40
2454435.402351782
  9
$TDUCREATE
 40
2454435.360685116
  9
$TDUPDATE
 40
2454435.402351794
  9
$TDUUPDATE
 40
2454435.360685127
  9
$TDINDWG
 40
0.0000000116
  9
$TDUSRTIMER
 40
0.0000000116
  9
$USRTIMER
 70
     1
  9
$ANGBASE
 50
0.0
  9
$ANGDIR
 70
     0
  9
$PDMODE
 70
     0
  9
$PDSIZE
 40
0.0
  9
$PLINEWID
 40
0.0
  9
$SPLFRAME
 70
     0
  9
$SPLINETYPE
 70
     6
  9
$SPLINESEGS
 70
     8
  9
$HANDSEED
  5
F8
  9
$SURFTAB1
 70
     6
  9
$SURFTAB2
 70
     6
  9
$SURFTYPE
 70
     6
  9
$SURFU
 70
     6
  9
$SURFV
 70
     6
  9
$UCSBASE
  2

  9
$UCSNAME
  2

  9
$UCSORG
 10
0.0
 20
0.0
 30
0.0
  9
$UCSXDIR
 10
1.0
 20
0.0
 30
0.0
  9
$UCSYDIR
 10
0.0
 20
1.0
 30
0.0
  9
$UCSORTHOREF
  2

  9
$UCSORTHOVIEW
 70
     0
  9
$UCSORGTOP
 10
0.0
 20
0.0
 30
0.0
  9
$UCSORGBOTTOM
 10
0.0
 20
0.0
 30
0.0
  9
$UCSORGLEFT
 10
0.0
 20
0.0
 30
0.0
  9
$UCSORGRIGHT
 10
0.0
 20
0.0
 30
0.0
  9
$UCSORGFRONT
 10
0.0
 20
0.0
 30
0.0
  9
$UCSORGBACK
 10
0.0
 20
0.0
 30
0.0
  9
$PUCSBASE
  2

  9
$PUCSNAME
  2

  9
$PUCSORG
 10
0.0
 20
0.0
 30
0.0
  9
$PUCSXDIR
 10
1.0
 20
0.0
 30
0.0
  9
$PUCSYDIR
 10
0.0
 20
1.0
 30
0.0
  9
$PUCSORTHOREF
  2

  9
$PUCSORTHOVIEW
 70
     0
  9
$PUCSORGTOP
 10
0.0
 20
0.0
 30
0.0
  9
$PUCSORGBOTTOM
 10
0.0
 20
0.0
 30
0.0
  9
$PUCSORGLEFT
 10
0.0
 20
0.0
 30
0.0
  9
$PUCSORGRIGHT
 10
0.0
 20
0.0
 30
0.0
  9
$PUCSORGFRONT
 10
0.0
 20
0.0
 30
0.0
  9
$PUCSORGBACK
 10
0.0
 20
0.0
 30
0.0
  9
$USERI1
 70
     0
  9
$USERI2
 70
     0
  9
$USERI3
 70
     0
  9
$USERI4
 70
     0
  9
$USERI5
 70
     0
  9
$USERR1
 40
14.5
  9
$USERR2
 40
0.0
  9
$USERR3
 40
0.0
  9
$USERR4
 40
0.0
  9
$USERR5
 40
0.0
  9
$WORLDVIEW
 70
     1
  9
$SHADEDGE
 70
     3
  9
$SHADEDIF
 70
    70
  9
$TILEMODE
 70
     1
  9
$MAXACTVP
 70
    64
  9
$PINSBASE
 10
0.0
 20
0.0
 30
0.0
  9
$PLIMCHECK
 70
     0
  9
$PEXTMIN
 10
1.00000000000000E+20
 20
1.00000000000000E+20
 30
1.00000000000000E+20
  9
$PEXTMAX
 10
-1.00000000000000E+20
 20
-1.00000000000000E+20
 30
-1.00000000000000E+20
  9
$PLIMMIN
 10
0.0
 20
0.0
  9
$PLIMMAX
 10
12.0
 20
9.0
  9
$UNITMODE
 70
     0
  9
$VISRETAIN
 70
     1
  9
$PLINEGEN
 70
     0
  9
$PSLTSCALE
 70
     1
  9
$TREEDEPTH
 70
  3020
  9
$CMLSTYLE
  2
Standard
  9
$CMLJUST
 70
     0
  9
$CMLSCALE
 40
1.0
  9
$PROXYGRAPHICS
 70
     1
  9
$MEASUREMENT
 70
     1
  9
$CELWEIGHT
370
    -1
  9
$ENDCAPS
280
     0
  9
$JOINSTYLE
280
     0
  9
$LWDISPLAY
290
     0
  9
$INSUNITS
 70
     1
  9
$HYPERLINKBASE
  1

  9
$STYLESHEET
  1

  9
$XEDIT
290
     1
  9
$CEPSNTYPE
380
     0
  9
$PSTYLEMODE
290
     1
  9
$FINGERPRINTGUID
  2
{A5BBB0A2-7DB8-4EFE-8D3C-B92A9F42F65F}
  9
$VERSIONGUID
  2
{FAEB1C32-E019-11D5-929B-00C0DF256EC4}
  9
$EXTNAMES
290
     1
  9
$PSVPSCALE
 40
0.0
  9
$OLESTARTUP
290
     0
  9
$SORTENTS
280
   127
  9
$INDEXCTL
280
     0
  9
$HIDETEXT
280
     1
  9
$XCLIPFRAME
290
     0
  9
$HALOGAP
280
     0
  9
$OBSCOLOR
 70
   257
  9
$OBSLTYPE
280
     0
  9
$INTERSECTIONDISPLAY
280
     0
  9
$INTERSECTIONCOLOR
 70
   257
  9
$DIMASSOC
280
     2
  9
$PROJECTNAME
  1

  0
ENDSEC
  0
SECTION
  2
CLASSES
  0
CLASS
  1
ACDBDICTIONARYWDFLT
  2
AcDbDictionaryWithDefault
  3
ObjectDBX Classes
 90
        0
 91
        3
280
     0
281
     0
  0
CLASS
  1

  2
exOdDbCircle
  3

 90
        0
 91
        3
280
     0
281
     1
  0
CLASS
  1

  2
exOdDbSpline
  3

 90
        0
 91
        3
280
     0
281
     1
  0
CLASS
  1

  2
exOdDbPolyline
  3

 90
        0
 91
        3
280
     0
281
     1
  0
ENDSEC
  0
SECTION
  2
TABLES
  0
TABLE
  2
VPORT
  5
8
330
0
100
AcDbSymbolTable
 70
     1
  0
VPORT
  5
29
330
8
100
AcDbSymbolTableRecord
100
AcDbViewportTableRecord
  2
*Active
 70
     0
 10
0.0
 20
0.0
 11
1.0
 21
1.0
 12
19623.91078933315
 22
-11386.29248918304
 13
0.0
 23
0.0
 14
0.5
 24
0.5
 15
0.5
 25
0.5
 16
0.0
 26
0.0
 36
1.0
 17
0.0
 27
0.0
 37
0.0
 40
196.3412500912395
 41
1.60267857142857
 42
50.0
 43
0.0
 44
0.0
 50
0.0
 51
0.0
 71
     0
 72
   100
 73
     1
 74
     3
 75
     0
 76
     0
 77
     0
 78
     0
281
     0
 65
     1
110
0.0
120
0.0
130
0.0
111
1.0
121
0.0
131
0.0
112
0.0
122
1.0
132
0.0
 79
     0
146
0.0
  0
ENDTAB
  0
TABLE
  2
LTYPE
  5
5
330
0
100
AcDbSymbolTable
 70
     8
  0
LTYPE
  5
14
330
5
100
AcDbSymbolTableRecord
100
AcDbLinetypeTableRecord
  2
ByBlock
 70
     0
  3

 72
    65
 73
     0
 40
0.0
  0
LTYPE
  5
15
330
5
100
AcDbSymbolTableRecord
100
AcDbLinetypeTableRecord
  2
ByLayer
 70
     0
  3

 72
    65
 73
     0
 40
0.0
  0
LTYPE
  5
16
330
5
100
AcDbSymbolTableRecord
100
AcDbLinetypeTableRecord
  2
Continuous
 70
     0
  3
Solid line
 72
    65
 73
     0
 40
0.0
  0
LTYPE
  5
2A
330
5
100
AcDbSymbolTableRecord
100
AcDbLinetypeTableRecord
  2
DASHED
 70
     0
  3
Dashed
 72
    65
 73
     2
 40
15.0
 49
7.0
 74
     0
 49
-8.0
 74
     0
  0
LTYPE
  5
2B
330
5
100
AcDbSymbolTableRecord
100
AcDbLinetypeTableRecord
  2
DOTTED
 70
     0
  3
Dotted
 72
    65
 73
     2
 40
1.0
 49
0.0
 74
     0
 49
-1.0
 74
     0
  0
LTYPE
  5
2C
330
5
100
AcDbSymbolTableRecord
100
AcDbLinetypeTableRecord
  2
DOT_CENTER
 70
     0
  3
Dot_Center
 72
    65
 73
     4
 40
14.0
 49
12.0
 74
     0
 49
-1.0
 74
     0
 49
0.0
 74
     0
 49
-1.0
 74
     0
  0
LTYPE
  5
2D
330
5
100
AcDbSymbolTableRecord
100
AcDbLinetypeTableRecord
  2
LONG_DASHED
 70
     0
  3
Long_Dashed
 72
    65
 73
     2
 40
15.0
 49
10.0
 74
     0
 49
-5.0
 74
     0
  0
LTYPE
  5
2E
330
5
100
AcDbSymbolTableRecord
100
AcDbLinetypeTableRecord
  2
DASH_CENTER
 70
     0
  3
Dash_Center
 72
    65
 73
     4
 40
14.0
 49
11.0
 74
     0
 49
-1.0
 74
     0
 49
1.0
 74
     0
 49
-1.0
 74
     0
  0
LTYPE
  5
2F
330
5
100
AcDbSymbolTableRecord
100
AcDbLinetypeTableRecord
  2
PHANTOM
 70
     0
  3
Phantom
 72
    65
 73
     6
 40
13.0
 49
10.0
 74
     0
 49
-1.0
 74
     0
 49
0.0
 74
     0
 49
-1.0
 74
     0
 49
0.0
 74
     0
 49
-1.0
 74
     0
  0
LTYPE
  5
30
330
5
100
AcDbSymbolTableRecord
100
AcDbLinetypeTableRecord
  2
CENTER_DASH_DASH
 70
     0
  3
Center_Dash_Dash
 72
    65
 73
     6
 40
14.0
 49
9.0
 74
     0
 49
-1.0
 74
     0
 49
1.0
 74
     0
 49
-1.0
 74
     0
 49
1.0
 74
     0
 49
-1.0
 74
     0
  0
ENDTAB
  0
TABLE
  2
LAYER
  5
2
330
0
100
AcDbSymbolTable
 70
     2
  0
LAYER
  5
10
330
2
100
AcDbSymbolTableRecord
100
AcDbLayerTableRecord
  2
0
 70
     0
 62
     7
  6
Continuous
370
    -3
390
F
  0
LAYER
  5
31
330
2
100
AcDbSymbolTableRecord
100
AcDbLayerTableRecord
  2
1
 70
     0
 62
     7
  6
Continuous
370
    -3
390
F
  0
ENDTAB
  0
TABLE
  2
STYLE
  5
3
330
0
100
AcDbSymbolTable
 70
     2
  0
STYLE
  5
11
330
3
100
AcDbSymbolTableRecord
100
AcDbTextStyleTableRecord
  2
Standard
 70
     0
 40
0.0
 41
1.0
 50
0.0
 71
     0
 42
0.2
  3
txt
  4

  0
STYLE
  5
B4
330
3
100
AcDbSymbolTableRecord
100
AcDbTextStyleTableRecord
  2
CONVERTER_11
 70
     0
 40
0.0
 41
0.9
 50
0.0
 71
     0
 42
0.2
  3
txt.shx
  4

  0
ENDTAB
  0
TABLE
  2
VIEW
  5
6
330
0
100
AcDbSymbolTable
 70
     0
  0
ENDTAB
  0
TABLE
  2
UCS
  5
7
330
0
100
AcDbSymbolTable
 70
     0
  0
ENDTAB
  0
TABLE
  2
APPID
  5
9
330
0
100
AcDbSymbolTable
 70
     1
  0
APPID
  5
12
330
9
100
AcDbSymbolTableRecord
100
AcDbRegAppTableRecord
  2
ACAD
 70
     0
  0
ENDTAB
  0
TABLE
  2
DIMSTYLE
  5
A
330
0
100
AcDbSymbolTable
 70
     7
100
AcDbDimStyleTable
  0
DIMSTYLE
105
27
330
A
100
AcDbSymbolTableRecord
100
AcDbDimStyleTableRecord
  2
Standard
 70
     0
340
11
  0
DIMSTYLE
105
BF
102
{ACAD_REACTORS
330
C0
102
}
330
A
100
AcDbSymbolTableRecord
100
AcDbDimStyleTableRecord
  2
ME10_DIM_10
 70
     0
 41
3.5
 42
0.0
 44
2.0
 73
     0
 74
     0
 77
     1
 78
     8
140
3.5
147
2.0
172
     1
173
     1
176
     2
177
     2
178
     2
271
     3
340
B4
  0
DIMSTYLE
105
CA
102
{ACAD_REACTORS
330
CB
102
}
330
A
100
AcDbSymbolTableRecord
100
AcDbDimStyleTableRecord
  2
ME10_DIM_11
 70
     0
  3
ø<>
 41
3.5
 42
0.0
 44
2.0
 73
     0
 74
     0
 77
     1
 78
     8
140
3.5
147
2.0
172
     1
173
     1
176
     2
177
     2
178
     2
271
     3
340
B4
  0
DIMSTYLE
105
D5
102
{ACAD_REACTORS
330
D6
102
}
330
A
100
AcDbSymbolTableRecord
100
AcDbDimStyleTableRecord
  2
ME10_DIM_12
 70
     0
 41
3.5
 42
0.0
 44
2.0
 73
     0
 74
     0
 77
     1
 78
     8
140
3.5
147
2.0
172
     1
173
     1
176
     2
177
     2
178
     2
271
     3
340
B4
  0
DIMSTYLE
105
E0
102
{ACAD_REACTORS
330
E1
102
}
330
A
100
AcDbSymbolTableRecord
100
AcDbDimStyleTableRecord
  2
ME10_DIM_13
 70
     0
 41
3.5
 42
0.0
 44
2.0
 73
     0
 74
     0
 77
     1
 78
     8
140
3.5
147
2.0
172
     1
173
     1
176
     2
177
     2
178
     2
271
     3
340
B4
  0
DIMSTYLE
105
EB
102
{ACAD_REACTORS
330
EC
102
}
330
A
100
AcDbSymbolTableRecord
100
AcDbDimStyleTableRecord
  2
ME10_DIM_14
 70
     0
 41
3.5
 42
0.0
 44
2.0
 73
     0
 74
     0
 77
     1
 78
     8
140
3.5
147
2.0
172
     1
173
     1
176
     2
177
     2
178
     2
271
     3
340
B4
  0
DIMSTYLE
105
F6
102
{ACAD_REACTORS
330
F7
102
}
330
A
100
AcDbSymbolTableRecord
100
AcDbDimStyleTableRecord
  2
ME10_DIM_15
 70
     0
 41
3.5
 42
0.0
 44
2.0
 73
     0
 74
     0
 77
     1
 78
     8
140
3.5
147
2.0
172
     1
173
     1
176
     2
177
     2
178
     2
271
     3
340
B4
  0
ENDTAB
  0
TABLE
  2
BLOCK_RECORD
  5
1
330
0
100
AcDbSymbolTable
 70
     7
  0
BLOCK_RECORD
  5
1F
330
1
100
AcDbSymbolTableRecord
100
AcDbBlockTableRecord
  2
*Model_Space
340
22
  0
BLOCK_RECORD
  5
1B
330
1
100
AcDbSymbolTableRecord
100
AcDbBlockTableRecord
  2
*Paper_Space
340
1E
  0
BLOCK_RECORD
  5
23
330
1
100
AcDbSymbolTableRecord
100
AcDbBlockTableRecord
  2
*Paper_Space0
340
26
  0
BLOCK_RECORD
  5
B6
330
1
100
AcDbSymbolTableRecord
100
AcDbBlockTableRecord
  2
*D1
340
0
  0
BLOCK_RECORD
  5
C1
330
1
100
AcDbSymbolTableRecord
100
AcDbBlockTableRecord
  2
*D2
340
0
  0
BLOCK_RECORD
  5
CC
330
1
100
AcDbSymbolTableRecord
100
AcDbBlockTableRecord
  2
*D3
340
0
  0
BLOCK_RECORD
  5
D7
330
1
100
AcDbSymbolTableRecord
100
AcDbBlockTableRecord
  2
*D4
340
0
  0
BLOCK_RECORD
  5
E2
330
1
100
AcDbSymbolTableRecord
100
AcDbBlockTableRecord
  2
*D5
340
0
  0
BLOCK_RECORD
  5
ED
330
1
100
AcDbSymbolTableRecord
100
AcDbBlockTableRecord
  2
*D6
340
0
  0
ENDTAB
  0
ENDSEC
  0
SECTION
  2
BLOCKS
  0
BLOCK
  5
20
330
1F
100
AcDbEntity
  8
0
100
AcDbBlockBegin
  2
*Model_Space
 70
     0
 71
     0
 10
0.0
 20
0.0
 30
0.0
  3
*Model_Space
  1

  0
ENDBLK
  5
21
330
1F
100
AcDbEntity
  8
0
100
AcDbBlockEnd
  0
BLOCK
  5
1C
330
1B
100
AcDbEntity
 67
     1
  8
0
100
AcDbBlockBegin
  2
*Paper_Space
 70
     0
 71
     0
 10
0.0
 20
0.0
 30
0.0
  3
*Paper_Space
  1

  0
ENDBLK
  5
1D
330
1B
100
AcDbEntity
 67
     1
  8
0
100
AcDbBlockEnd
  0
BLOCK
  5
24
330
23
100
AcDbEntity
  8
0
100
AcDbBlockBegin
  2
*Paper_Space0
 70
     0
 71
     0
 10
0.0
 20
0.0
 30
0.0
  3
*Paper_Space0
  1

  0
ENDBLK
  5
25
330
23
100
AcDbEntity
  8
0
100
AcDbBlockEnd
  0
BLOCK
  5
BD
330
B6
100
AcDbEntity
  8
0
100
AcDbBlockBegin
  2
*D1
 70
     1
 71
     0
 10
0.0
 20
0.0
 30
0.0
  3
*D1
  1

  0
LINE
  5
B7
330
B6
100
AcDbEntity
  8
1
  6
Continuous
 62
     2
100
AcDbLine
 10
19552.711018423
 20
-11312.8023911908
 30
0.0
 11
19552.711018423
 21
-11392.8023911908
 31
0.0
  0
LINE
  5
B8
330
B6
100
AcDbEntity
  8
1
  6
Continuous
 62
     2
100
AcDbLine
 10
19562.9084797517
 20
-11312.8023911908
 30
0.0
 11
19550.711018423
 21
-11312.8023911908
 31
0.0
  0
LINE
  5
B9
330
B6
100
AcDbEntity
  8
1
  6
Continuous
 62
     2
100
AcDbLine
 10
19559.7185132514
 20
-11392.8023911908
 30
0.0
 11
19550.711018423
 21
-11392.8023911908
 31
0.0
  0
SOLID
  5
BA
330
B6
100
AcDbEntity
  8
1
 62
     2
100
AcDbTrace
 10
19553.17180216456
 20
-11316.3023911908
 30
0.0
 11
19552.25023468144
 21
-11316.3023911908
 31
0.0
 12
19552.711018423
 22
-11312.8023911908
 32
0.0
 13
19552.711018423
 23
-11312.8023911908
 33
0.0
  0
SOLID
  5
BB
330
B6
100
AcDbEntity
  8
1
 62
     2
100
AcDbTrace
 10
19552.25023468144
 20
-11389.3023911908
 30
0.0
 11
19553.17180216456
 21
-11389.3023911908
 31
0.0
 12
19552.711018423
 22
-11392.8023911908
 32
0.0
 13
19552.711018423
 23
-11392.8023911908
 33
0.0
  0
MTEXT
  5
BC
330
B6
100
AcDbEntity
  8
1
 62
     2
100
AcDbMText
 10
19550.711018423
 20
-11359.3621304569
 30
0.0
 40
3.5
 41
0.0
 71
     7
 72
     1
  1
80
  7
CONVERTER_11
 11
0.0
 21
1.0
 31
0.0
 73
     1
 44
0.60024009603842
  0
ENDBLK
  5
BE
330
B6
100
AcDbEntity
  8
0
100
AcDbBlockEnd
  0
BLOCK
  5
C8
330
C1
100
AcDbEntity
  8
0
100
AcDbBlockBegin
  2
*D2
 70
     1
 71
     0
 10
0.0
 20
0.0
 30
0.0
  3
*D2
  1

  0
LINE
  5
C2
330
C1
100
AcDbEntity
  8
1
  6
Continuous
 62
     2
100
AcDbLine
 10
19619.1584797517
 20
-11302.5464664143
 30
0.0
 11
19641.6584797517
 21
-11302.5464664143
 31
0.0
  0
LINE
  5
C3
330
C1
100
AcDbEntity
  8
1
  6
Continuous
 62
     2
100
AcDbLine
 10
19619.1584797517
 20
-11312.8023911908
 30
0.0
 11
19619.1584797517
 21
-11300.5464664143
 31
0.0
  0
LINE
  5
C4
330
C1
100
AcDbEntity
  8
1
  6
Continuous
 62
     2
100
AcDbLine
 10
19641.6584797517
 20
-11312.8023911908
 30
0.0
 11
19641.6584797517
 21
-11300.5464664143
 31
0.0
  0
SOLID
  5
C5
330
C1
100
AcDbEntity
  8
1
 62
     2
100
AcDbTrace
 10
19622.6584797517
 20
-11302.08568267274
 30
0.0
 11
19622.6584797517
 21
-11303.00725015586
 31
0.0
 12
19619.1584797517
 22
-11302.5464664143
 32
0.0
 13
19619.1584797517
 23
-11302.5464664143
 33
0.0
  0
SOLID
  5
C6
330
C1
100
AcDbEntity
  8
1
 62
     2
100
AcDbTrace
 10
19638.1584797517
 20
-11303.00725015586
 30
0.0
 11
19638.1584797517
 21
-11302.08568267274
 31
0.0
 12
19641.6584797517
 22
-11302.5464664143
 32
0.0
 13
19641.6584797517
 23
-11302.5464664143
 33
0.0
  0
MTEXT
  5
C7
330
C1
100
AcDbEntity
  8
1
 62
     2
100
AcDbMText
 10
19624.95106712731
 20
-11300.54647337138
 30
0.0
 40
3.5
 41
0.0
 71
     7
 72
     1
  1
\C2;ø\C2;22.5
  7
CONVERTER_11
 11
0.9999999999970621
 21
2.424068405545307E-6
 31
0.0
 73
     1
 44
0.60024009603842
  0
ENDBLK
  5
C9
330
C1
100
AcDbEntity
  8
0
100
AcDbBlockEnd
  0
BLOCK
  5
D3
330
CC
100
AcDbEntity
  8
0
100
AcDbBlockBegin
  2
*D3
 70
     1
 71
     0
 10
0.0
 20
0.0
 30
0.0
  3
*D3
  1

  0
LINE
  5
CD
330
CC
100
AcDbEntity
  8
1
  6
Continuous
 62
     2
100
AcDbLine
 10
19541.6637422216
 20
-11472.8023911908
 30
0.0
 11
19541.6637422216
 21
-11312.8023911908
 31
0.0
  0
LINE
  5
CE
330
CC
100
AcDbEntity
  8
1
  6
Continuous
 62
     2
100
AcDbLine
 10
19562.9084797517
 20
-11472.8023911908
 30
0.0
 11
19539.6637422216
 21
-11472.8023911908
 31
0.0
  0
LINE
  5
CF
330
CC
100
AcDbEntity
  8
1
  6
Continuous
 62
     2
100
AcDbLine
 10
19562.9084797517
 20
-11312.8023911908
 30
0.0
 11
19539.6637422216
 21
-11312.8023911908
 31
0.0
  0
SOLID
  5
D0
330
CC
100
AcDbEntity
  8
1
 62
     2
100
AcDbTrace
 10
19542.12452596316
 20
-11316.3023911908
 30
0.0
 11
19541.20295848004
 21
-11316.3023911908
 31
0.0
 12
19541.6637422216
 22
-11312.8023911908
 32
0.0
 13
19541.6637422216
 23
-11312.8023911908
 33
0.0
  0
SOLID
  5
D1
330
CC
100
AcDbEntity
  8
1
 62
     2
100
AcDbTrace
 10
19541.20295848004
 20
-11469.3023911908
 30
0.0
 11
19542.12452596316
 21
-11469.3023911908
 31
0.0
 12
19541.6637422216
 22
-11472.8023911908
 32
0.0
 13
19541.6637422216
 23
-11472.8023911908
 33
0.0
  0
MTEXT
  5
D2
330
CC
100
AcDbEntity
  8
1
 62
     2
100
AcDbMText
 10
19539.6637422216
 20
-11398.7059728519
 30
0.0
 40
3.5
 41
0.0
 71
     7
 72
     1
  1
160
  7
CONVERTER_11
 11
0.0
 21
1.0
 31
0.0
 73
     1
 44
0.60024009603842
  0
ENDBLK
  5
D4
330
CC
100
AcDbEntity
  8
0
100
AcDbBlockEnd
  0
BLOCK
  5
DE
330
D7
100
AcDbEntity
  8
0
100
AcDbBlockBegin
  2
*D4
 70
     1
 71
     0
 10
0.0
 20
0.0
 30
0.0
  3
*D4
  1

  0
LINE
  5
D8
330
D7
100
AcDbEntity
  8
1
  6
Continuous
 62
     2
100
AcDbLine
 10
19709.6578364447
 20
-11350.8023911908
 30
0.0
 11
19709.6578364447
 21
-11434.8023911908
 31
0.0
  0
LINE
  5
D9
330
D7
100
AcDbEntity
  8
1
  6
Continuous
 62
     2
100
AcDbLine
 10
19684.17642894414
 20
-11434.8023911908
 30
0.0
 11
19711.6578364447
 21
-11434.8023911908
 31
0.0
  0
LINE
  5
DA
330
D7
100
AcDbEntity
  8
1
  6
Continuous
 62
     2
100
AcDbLine
 10
19684.17642894414
 20
-11350.8023911908
 30
0.0
 11
19711.6578364447
 21
-11350.8023911908
 31
0.0
  0
SOLID
  5
DB
330
D7
100
AcDbEntity
  8
1
 62
     2
100
AcDbTrace
 10
19710.11862018626
 20
-11354.3023911908
 30
0.0
 11
19709.19705270314
 21
-11354.3023911908
 31
0.0
 12
19709.6578364447
 22
-11350.8023911908
 32
0.0
 13
19709.6578364447
 23
-11350.8023911908
 33
0.0
  0
SOLID
  5
DC
330
D7
100
AcDbEntity
  8
1
 62
     2
100
AcDbTrace
 10
19709.19705270314
 20
-11431.3023911908
 30
0.0
 11
19710.11862018626
 21
-11431.3023911908
 31
0.0
 12
19709.6578364447
 22
-11434.8023911908
 32
0.0
 13
19709.6578364447
 23
-11434.8023911908
 33
0.0
  0
MTEXT
  5
DD
330
D7
100
AcDbEntity
  8
1
 62
     2
100
AcDbMText
 10
19707.6578364447
 20
-11395.4273911908
 30
0.0
 40
3.5
 41
0.0
 71
     7
 72
     1
  1
84
  7
CONVERTER_11
 11
0.0
 21
1.0
 31
0.0
 73
     1
 44
0.60024009603842
  0
ENDBLK
  5
DF
330
D7
100
AcDbEntity
  8
0
100
AcDbBlockEnd
  0
BLOCK
  5
E9
330
E2
100
AcDbEntity
  8
0
100
AcDbBlockBegin
  2
*D5
 70
     1
 71
     0
 10
0.0
 20
0.0
 30
0.0
  3
*D5
  1

  0
LINE
  5
E3
330
E2
100
AcDbEntity
  8
1
  6
Continuous
 62
     2
100
AcDbLine
 10
19698.1335241254
 20
-11364.8023911908
 30
0.0
 11
19698.1335241254
 21
-11392.8023911908
 31
0.0
  0
LINE
  5
E4
330
E2
100
AcDbEntity
  8
1
  6
Continuous
 62
     2
100
AcDbLine
 10
19691.4430009389
 20
-11392.8023911908
 30
0.0
 11
19700.1335241254
 21
-11392.8023911908
 31
0.0
  0
LINE
  5
E5
330
E2
100
AcDbEntity
  8
1
  6
Continuous
 62
     2
100
AcDbLine
 10
19689.26603906593
 20
-11364.8023911908
 30
0.0
 11
19700.1335241254
 21
-11364.8023911908
 31
0.0
  0
SOLID
  5
E6
330
E2
100
AcDbEntity
  8
1
 62
     2
100
AcDbTrace
 10
19698.59430786696
 20
-11368.3023911908
 30
0.0
 11
19697.67274038384
 21
-11368.3023911908
 31
0.0
 12
19698.1335241254
 22
-11364.8023911908
 32
0.0
 13
19698.1335241254
 23
-11364.8023911908
 33
0.0
  0
SOLID
  5
E7
330
E2
100
AcDbEntity
  8
1
 62
     2
100
AcDbTrace
 10
19697.67274038384
 20
-11389.3023911908
 30
0.0
 11
19698.59430786696
 21
-11389.3023911908
 31
0.0
 12
19698.1335241254
 22
-11392.8023911908
 32
0.0
 13
19698.1335241254
 23
-11392.8023911908
 33
0.0
  0
MTEXT
  5
E8
330
E2
100
AcDbEntity
  8
1
 62
     2
100
AcDbMText
 10
19696.1335241254
 20
-11381.4446929135
 30
0.0
 40
3.5
 41
0.0
 71
     7
 72
     1
  1
28
  7
CONVERTER_11
 11
0.0
 21
1.0
 31
0.0
 73
     1
 44
0.60024009603842
  0
ENDBLK
  5
EA
330
E2
100
AcDbEntity
  8
0
100
AcDbBlockEnd
  0
BLOCK
  5
F4
330
ED
100
AcDbEntity
  8
0
100
AcDbBlockBegin
  2
*D6
 70
     1
 71
     0
 10
0.0
 20
0.0
 30
0.0
  3
*D6
  1

  0
LINE
  5
EE
330
ED
100
AcDbEntity
  8
1
  6
Continuous
 62
     2
100
AcDbLine
 10
19698.1335241254
 20
-11392.8023911908
 30
0.0
 11
19698.1335241254
 21
-11420.8023911908
 31
0.0
  0
LINE
  5
EF
330
ED
100
AcDbEntity
  8
1
  6
Continuous
 62
     2
100
AcDbLine
 10
19689.26603906593
 20
-11420.8023911908
 30
0.0
 11
19700.1335241254
 21
-11420.8023911908
 31
0.0
  0
LINE
  5
F0
330
ED
100
AcDbEntity
  8
1
  6
Continuous
 62
     2
100
AcDbLine
 10
19691.4430009389
 20
-11392.8023911908
 30
0.0
 11
19700.1335241254
 21
-11392.8023911908
 31
0.0
  0
SOLID
  5
F1
330
ED
100
AcDbEntity
  8
1
 62
     2
100
AcDbTrace
 10
19698.59430786696
 20
-11396.3023911908
 30
0.0
 11
19697.67274038384
 21
-11396.3023911908
 31
0.0
 12
19698.1335241254
 22
-11392.8023911908
 32
0.0
 13
19698.1335241254
 23
-11392.8023911908
 33
0.0
  0
SOLID
  5
F2
330
ED
100
AcDbEntity
  8
1
 62
     2
100
AcDbTrace
 10
19697.67274038384
 20
-11417.3023911908
 30
0.0
 11
19698.59430786696
 21
-11417.3023911908
 31
0.0
 12
19698.1335241254
 22
-11420.8023911908
 32
0.0
 13
19698.1335241254
 23
-11420.8023911908
 33
0.0
  0
MTEXT
  5
F3
330
ED
100
AcDbEntity
  8
1
 62
     2
100
AcDbMText
 10
19696.1335241254
 20
-11410.2554737118
 30
0.0
 40
3.5
 41
0.0
 71
     7
 72
     1
  1
28
  7
CONVERTER_11
 11
0.0
 21
1.0
 31
0.0
 73
     1
 44
0.60024009603842
  0
ENDBLK
  5
F5
330
ED
100
AcDbEntity
  8
0
100
AcDbBlockEnd
  0
ENDSEC
  0
SECTION
  2
ENTITIES
  0
POINT
  5
32
330
1F
100
AcDbEntity
  8
1
 62
     3
 60
     1
100
AcDbPoint
 10
19684.17642894414
 20
-11434.8023911908
 30
0.0
  0
POINT
  5
33
330
1F
100
AcDbEntity
  8
1
 62
     3
 60
     1
100
AcDbPoint
 10
19687.90847975171
 20
-11433.8023911908
 30
0.0
  0
POINT
  5
34
330
1F
100
AcDbEntity
  8
1
 62
     3
 60
     1
100
AcDbPoint
 10
19687.90847975171
 20
-11351.8023911908
 30
0.0
  0
POINT
  5
35
330
1F
100
AcDbEntity
  8
1
 62
     3
 60
     1
100
AcDbPoint
 10
19684.17642894414
 20
-11350.8023911908
 30
0.0
  0
POINT
  5
36
330
1F
100
AcDbEntity
  8
1
 62
     3
 60
     1
100
AcDbPoint
 10
19683.24970893447
 20
-11368.0523911908
 30
0.0
  0
POINT
  5
37
330
1F
100
AcDbEntity
  8
1
 62
     3
 60
     1
100
AcDbPoint
 10
19683.24970893447
 20
-11361.5523911908
 30
0.0
  0
POINT
  5
38
330
1F
100
AcDbEntity
  8
1
 62
     3
 60
     1
100
AcDbPoint
 10
19683.24970893447
 20
-11389.5523911908
 30
0.0
  0
POINT
  5
39
330
1F
100
AcDbEntity
  8
1
 62
     3
 60
     1
100
AcDbPoint
 10
19681.31321726137
 20
-11388.0523911908
 30
0.0
  0
POINT
  5
3A
330
1F
100
AcDbEntity
  8
1
 62
     3
 60
     1
100
AcDbPoint
 10
19681.31321726137
 20
-11369.5523911908
 30
0.0
  0
POINT
  5
3B
330
1F
100
AcDbEntity
  8
1
 62
     3
 60
     1
100
AcDbPoint
 10
19681.31321726137
 20
-11360.0523911908
 30
0.0
  0
LINE
  5
3C
330
1F
100
AcDbEntity
  8
1
  6
DOT_CENTER
 62
     7
100
AcDbLine
 10
19691.4430009389
 20
-11392.8023911908
 30
0.0
 11
19619.1584797517
 21
-11392.8023911908
 31
0.0
  0
LINE
  5
3D
330
1F
100
AcDbEntity
  8
1
  6
Continuous
 62
     7
100
AcDbLine
 10
19641.6584797517
 20
-11434.8023911908
 30
0.0
 11
19641.6584797517
 21
-11350.8023911908
 31
0.0
  0
LINE
  5
3E
330
1F
100
AcDbEntity
  8
1
  6
Continuous
 62
     7
100
AcDbLine
 10
19619.1584797517
 20
-11350.8023911908
 30
0.0
 11
19619.1584797517
 21
-11434.8023911908
 31
0.0
  0
LINE
  5
3F
330
1F
100
AcDbEntity
  8
1
  6
Continuous
 62
     7
100
AcDbLine
 10
19620.4084797517
 20
-11434.8023911908
 30
0.0
 11
19640.4084797517
 21
-11434.8023911908
 31
0.0
  0
LINE
  5
40
330
1F
100
AcDbEntity
  8
1
  6
Continuous
 62
     7
100
AcDbLine
 10
19620.4084797517
 20
-11434.8023911908
 30
0.0
 11
19619.1584797517
 21
-11434.8023911908
 31
0.0
  0
LINE
  5
41
330
1F
100
AcDbEntity
  8
1
  6
Continuous
 62
     7
100
AcDbLine
 10
19619.1584797517
 20
-11350.8023911908
 30
0.0
 11
19641.6584797517
 21
-11350.8023911908
 31
0.0
  0
LINE
  5
42
330
1F
100
AcDbEntity
  8
1
  6
DOT_CENTER
 62
     2
100
AcDbLine
 10
19630.4084797517
 20
-11435.8023911908
 30
0.0
 11
19630.4084797517
 21
-11349.8023911908
 31
0.0
  0
LINE
  5
43
330
1F
100
AcDbEntity
  8
1
  6
Continuous
 62
     7
100
AcDbLine
 10
19641.6584797517
 20
-11434.8023911908
 30
0.0
 11
19640.4084797517
 21
-11434.8023911908
 31
0.0
  0
LINE
  5
44
330
1F
100
AcDbEntity
  8
1
  6
Continuous
 62
     7
100
AcDbLine
 10
19620.4084797517
 20
-11434.8023911908
 30
0.0
 11
19620.4084797517
 21
-11435.8023911908
 31
0.0
  0
LINE
  5
45
330
1F
100
AcDbEntity
  8
1
  6
Continuous
 62
     7
100
AcDbLine
 10
19640.4084797517
 20
-11434.8023911908
 30
0.0
 11
19640.4084797517
 21
-11435.8023911908
 31
0.0
  0
LINE
  5
46
330
1F
100
AcDbEntity
  8
1
  6
Continuous
 62
     7
100
AcDbLine
 10
19620.4084797517
 20
-11349.8023911908
 30
0.0
 11
19620.4084797517
 21
-11350.8023911908
 31
0.0
  0
LINE
  5
47
330
1F
100
AcDbEntity
  8
1
  6
Continuous
 62
     7
100
AcDbLine
 10
19640.4084797517
 20
-11350.8023911908
 30
0.0
 11
19640.4084797517
 21
-11349.8023911908
 31
0.0
  0
LINE
  5
48
330
1F
100
AcDbEntity
  8
1
  6
DOT_CENTER
 62
     7
100
AcDbLine
 10
19559.7185132514
 20
-11392.8023911908
 30
0.0
 11
19619.1584797517
 21
-11392.8023911908
 31
0.0
  0
LINE
  5
49
330
1F
100
AcDbEntity
  8
1
  6
Continuous
 62
     7
100
AcDbLine
 10
19562.9084797517
 20
-11472.8023911908
 30
0.0
 11
19562.9084797517
 21
-11312.8023911908
 31
0.0
  0
LINE
  5
4A
330
1F
100
AcDbEntity
  8
1
  6
Continuous
 62
     7
100
AcDbLine
 10
19562.9084797517
 20
-11312.8023911908
 30
0.0
 11
19641.6584797517
 21
-11312.8023911908
 31
0.0
  0
LINE
  5
4B
330
1F
100
AcDbEntity
  8
1
  6
Continuous
 62
     7
100
AcDbLine
 10
19641.6584797517
 20
-11312.8023911908
 30
0.0
 11
19641.6584797517
 21
-11349.8023911908
 31
0.0
  0
LINE
  5
4C
330
1F
100
AcDbEntity
  8
1
  6
Continuous
 62
     7
100
AcDbLine
 10
19641.6584797517
 20
-11349.8023911908
 30
0.0
 11
19640.4084797517
 21
-11349.8023911908
 31
0.0
  0
LINE
  5
4D
330
1F
100
AcDbEntity
  8
1
  6
Continuous
 62
     7
100
AcDbLine
 10
19640.4084797517
 20
-11349.8023911908
 30
0.0
 11
19620.9084797517
 21
-11349.8023911908
 31
0.0
  0
LINE
  5
4E
330
1F
100
AcDbEntity
  8
1
  6
Continuous
 62
     7
100
AcDbLine
 10
19620.9084797517
 20
-11349.8023911908
 30
0.0
 11
19619.1584797517
 21
-11349.8023911908
 31
0.0
  0
LINE
  5
4F
330
1F
100
AcDbEntity
  8
1
  6
Continuous
 62
     7
100
AcDbLine
 10
19619.1584797517
 20
-11349.8023911908
 30
0.0
 11
19619.1584797517
 21
-11312.8023911908
 31
0.0
  0
LINE
  5
50
330
1F
100
AcDbEntity
  8
1
  6
DOT_CENTER
 62
     2
100
AcDbLine
 10
19630.4084797517
 20
-11349.8023911908
 30
0.0
 11
19630.4084797517
 21
-11310.62685392514
 31
0.0
  0
LINE
  5
51
330
1F
100
AcDbEntity
  8
1
  6
Continuous
 62
     7
100
AcDbLine
 10
19619.1584797517
 20
-11472.8023911908
 30
0.0
 11
19619.1584797517
 21
-11435.8023911908
 31
0.0
  0
LINE
  5
52
330
1F
100
AcDbEntity
  8
1
  6
Continuous
 62
     7
100
AcDbLine
 10
19641.6584797517
 20
-11472.8023911908
 30
0.0
 11
19562.9084797517
 21
-11472.8023911908
 31
0.0
  0
LINE
  5
53
330
1F
100
AcDbEntity
  8
1
  6
Continuous
 62
     7
100
AcDbLine
 10
19641.6584797517
 20
-11435.8023911908
 30
0.0
 11
19641.6584797517
 21
-11472.8023911908
 31
0.0
  0
LINE
  5
54
330
1F
100
AcDbEntity
  8
1
  6
Continuous
 62
     7
100
AcDbLine
 10
19640.4084797517
 20
-11435.8023911908
 30
0.0
 11
19620.4084797517
 21
-11435.8023911908
 31
0.0
  0
LINE
  5
55
330
1F
100
AcDbEntity
  8
1
  6
Continuous
 62
     7
100
AcDbLine
 10
19640.4084797517
 20
-11435.8023911908
 30
0.0
 11
19641.6584797517
 21
-11435.8023911908
 31
0.0
  0
LINE
  5
56
330
1F
100
AcDbEntity
  8
1
  6
Continuous
 62
     7
100
AcDbLine
 10
19619.1584797517
 20
-11435.8023911908
 30
0.0
 11
19620.4084797517
 21
-11435.8023911908
 31
0.0
  0
LINE
  5
57
330
1F
100
AcDbEntity
  8
1
  6
DOT_CENTER
 62
     2
100
AcDbLine
 10
19630.4084797517
 20
-11475.42849430008
 30
0.0
 11
19630.4084797517
 21
-11435.8023911908
 31
0.0
  0
LINE
  5
58
330
1F
100
AcDbEntity
  8
1
  6
DOT_CENTER
 62
     2
100
AcDbLine
 10
19561.6834797517
 20
-11324.8023911908
 30
0.0
 11
19580.1334797517
 21
-11324.8023911908
 31
0.0
  0
LINE
  5
59
330
1F
100
AcDbEntity
  8
1
  6
DOT_CENTER
 62
     2
100
AcDbLine
 10
19570.9084797517
 20
-11334.0273911908
 30
0.0
 11
19570.9084797517
 21
-11315.5773911908
 31
0.0
  0
LINE
  5
5A
330
1F
100
AcDbEntity
  8
1
  6
DOT_CENTER
 62
     2
100
AcDbLine
 10
19568.6834797517
 20
-11358.8023911908
 30
0.0
 11
19587.1334797517
 21
-11358.8023911908
 31
0.0
  0
LINE
  5
5B
330
1F
100
AcDbEntity
  8
1
  6
DOT_CENTER
 62
     2
100
AcDbLine
 10
19577.9084797517
 20
-11368.0273911908
 30
0.0
 11
19577.9084797517
 21
-11349.5773911908
 31
0.0
  0
LINE
  5
5C
330
1F
100
AcDbEntity
  8
1
  6
DOT_CENTER
 62
     2
100
AcDbLine
 10
19593.6834797517
 20
-11324.8023911908
 30
0.0
 11
19612.1334797517
 21
-11324.8023911908
 31
0.0
  0
LINE
  5
5D
330
1F
100
AcDbEntity
  8
1
  6
DOT_CENTER
 62
     2
100
AcDbLine
 10
19602.9084797517
 20
-11334.0273911908
 30
0.0
 11
19602.9084797517
 21
-11315.5773911908
 31
0.0
  0
LINE
  5
5E
330
1F
100
AcDbEntity
  8
1
  6
DOT_CENTER
 62
     2
100
AcDbLine
 10
19568.6834797517
 20
-11426.8023911908
 30
0.0
 11
19587.1334797517
 21
-11426.8023911908
 31
0.0
  0
LINE
  5
5F
330
1F
100
AcDbEntity
  8
1
  6
DOT_CENTER
 62
     2
100
AcDbLine
 10
19577.9084797517
 20
-11436.0273911908
 30
0.0
 11
19577.9084797517
 21
-11417.5773911908
 31
0.0
  0
LINE
  5
60
330
1F
100
AcDbEntity
  8
1
  6
DOT_CENTER
 62
     2
100
AcDbLine
 10
19561.6834797517
 20
-11460.8023911908
 30
0.0
 11
19580.1334797517
 21
-11460.8023911908
 31
0.0
  0
LINE
  5
61
330
1F
100
AcDbEntity
  8
1
  6
DOT_CENTER
 62
     2
100
AcDbLine
 10
19570.9084797517
 20
-11470.0273911908
 30
0.0
 11
19570.9084797517
 21
-11451.5773911908
 31
0.0
  0
LINE
  5
62
330
1F
100
AcDbEntity
  8
1
  6
DOT_CENTER
 62
     2
100
AcDbLine
 10
19593.6834797517
 20
-11460.8023911908
 30
0.0
 11
19612.1334797517
 21
-11460.8023911908
 31
0.0
  0
LINE
  5
63
330
1F
100
AcDbEntity
  8
1
  6
DOT_CENTER
 62
     2
100
AcDbLine
 10
19602.9084797517
 20
-11470.0273911908
 30
0.0
 11
19602.9084797517
 21
-11451.5773911908
 31
0.0
  0
LINE
  5
64
330
1F
100
AcDbEntity
  8
1
  6
DOT_CENTER
 62
     2
100
AcDbLine
 10
19570.9084797517
 20
-11402.0273911908
 30
0.0
 11
19570.9084797517
 21
-11383.5773911908
 31
0.0
  0
LINE
  5
65
330
1F
100
AcDbEntity
  8
1
  6
DOT_CENTER
 62
     2
100
AcDbLine
 10
19602.9084797517
 20
-11402.0273911908
 30
0.0
 11
19602.9084797517
 21
-11383.5773911908
 31
0.0
  0
LINE
  5
66
330
1F
100
AcDbEntity
  8
1
  6
DOT_CENTER
 62
     2
100
AcDbLine
 10
19585.9084797517
 20
-11453.0273911908
 30
0.0
 11
19585.9084797517
 21
-11434.5773911908
 31
0.0
  0
LINE
  5
67
330
1F
100
AcDbEntity
  8
1
  6
DOT_CENTER
 62
     2
100
AcDbLine
 10
19576.6834797517
 20
-11443.8023911908
 30
0.0
 11
19595.1334797517
 21
-11443.8023911908
 31
0.0
  0
LINE
  5
68
330
1F
100
AcDbEntity
  8
1
  6
DOT_CENTER
 62
     2
100
AcDbLine
 10
19585.9084797517
 20
-11351.0273911908
 30
0.0
 11
19585.9084797517
 21
-11332.5773911908
 31
0.0
  0
LINE
  5
69
330
1F
100
AcDbEntity
  8
1
  6
DOT_CENTER
 62
     2
100
AcDbLine
 10
19576.6834797517
 20
-11341.8023911908
 30
0.0
 11
19595.1334797517
 21
-11341.8023911908
 31
0.0
  0
LINE
  5
6A
330
1F
100
AcDbEntity
  8
1
  6
DOT_CENTER
 62
     2
100
AcDbLine
 10
19636.7420181565
 20
-11465.3023911908
 30
0.0
 11
19644.7211704569
 21
-11465.3023911908
 31
0.0
  0
LINE
  5
6B
330
1F
100
AcDbEntity
  8
1
  6
Continuous
 62
     7
100
AcDbLine
 10
19684.17642894414
 20
-11350.8023911908
 30
0.0
 11
19641.6584797517
 21
-11350.8023911908
 31
0.0
  0
LINE
  5
6C
330
1F
100
AcDbEntity
  8
1
  6
Continuous
 62
     7
100
AcDbLine
 10
19687.90847975171
 20
-11351.8023911908
 30
0.0
 11
19687.90847975171
 21
-11359.0523911908
 31
0.0
  0
LINE
  5
6D
330
1F
100
AcDbEntity
  8
1
  6
Continuous
 62
     7
100
AcDbLine
 10
19684.17642894414
 20
-11350.8023911908
 30
0.0
 11
19687.90847975171
 21
-11351.8023911908
 31
0.0
  0
LINE
  5
6E
330
1F
100
AcDbEntity
  8
1
  6
Continuous
 62
     7
100
AcDbLine
 10
19684.17642894414
 20
-11434.8023911908
 30
0.0
 11
19687.90847975171
 21
-11433.8023911908
 31
0.0
  0
LINE
  5
6F
330
1F
100
AcDbEntity
  8
1
  6
Continuous
 62
     7
100
AcDbLine
 10
19687.90847975171
 20
-11398.5523911908
 30
0.0
 11
19687.90847975171
 21
-11415.0523911908
 31
0.0
  0
LINE
  5
70
330
1F
100
AcDbEntity
  8
1
  6
Continuous
 62
     7
100
AcDbLine
 10
19683.24970893447
 20
-11389.5523911908
 30
0.0
 11
19685.40847975171
 21
-11389.5523911908
 31
0.0
  0
LINE
  5
71
330
1F
100
AcDbEntity
  8
1
  6
Continuous
 62
     7
100
AcDbLine
 10
19683.24970893447
 20
-11361.5523911908
 30
0.0
 11
19685.40847975171
 21
-11361.5523911908
 31
0.0
  0
LINE
  5
72
330
1F
100
AcDbEntity
  8
1
  6
Continuous
 62
     7
100
AcDbLine
 10
19641.6584797517
 20
-11434.8023911908
 30
0.0
 11
19684.17642894414
 21
-11434.8023911908
 31
0.0
  0
LINE
  5
73
330
1F
100
AcDbEntity
  8
1
  6
Continuous
 62
     7
100
AcDbLine
 10
19669.40847975171
 20
-11360.8023911908
 30
0.0
 11
19669.40847975171
 21
-11368.8023911908
 31
0.0
  0
LINE
  5
74
330
1F
100
AcDbEntity
  8
1
  6
Continuous
 62
     7
100
AcDbLine
 10
19672.40847975171
 20
-11357.8023911908
 30
0.0
 11
19678.40847975171
 21
-11357.8023911908
 31
0.0
  0
LINE
  5
75
330
1F
100
AcDbEntity
  8
1
  6
DOT_CENTER
 62
     2
100
AcDbLine
 10
19667.9133630581
 20
-11364.8023911908
 30
0.0
 11
19689.26603906593
 21
-11364.8023911908
 31
0.0
  0
LINE
  5
76
330
1F
100
AcDbEntity
  8
1
  6
Continuous
 62
     7
100
AcDbLine
 10
19678.40847975171
 20
-11371.8023911908
 30
0.0
 11
19672.40847975171
 21
-11371.8023911908
 31
0.0
  0
LINE
  5
77
330
1F
100
AcDbEntity
  8
1
  6
Continuous
 62
     7
100
AcDbLine
 10
19685.40847975171
 20
-11368.0523911908
 30
0.0
 11
19683.24970893447
 21
-11368.0523911908
 31
0.0
  0
LINE
  5
78
330
1F
100
AcDbEntity
  8
1
  6
Continuous
 62
     7
100
AcDbLine
 10
19669.40847975171
 20
-11388.8023911908
 30
0.0
 11
19669.40847975171
 21
-11396.8023911908
 31
0.0
  0
LINE
  5
79
330
1F
100
AcDbEntity
  8
1
  6
Continuous
 62
     7
100
AcDbLine
 10
19672.40847975171
 20
-11385.8023911908
 30
0.0
 11
19678.40847975171
 21
-11385.8023911908
 31
0.0
  0
LINE
  5
7A
330
1F
100
AcDbEntity
  8
1
  6
Continuous
 62
     7
100
AcDbLine
 10
19687.90847975171
 20
-11370.5523911908
 30
0.0
 11
19687.90847975171
 21
-11387.0523911908
 31
0.0
  0
LINE
  5
7B
330
1F
100
AcDbEntity
  8
1
  6
Continuous
 62
     7
100
AcDbLine
 10
19678.40847975171
 20
-11427.8023911908
 30
0.0
 11
19672.40847975171
 21
-11427.8023911908
 31
0.0
  0
LINE
  5
7C
330
1F
100
AcDbEntity
  8
1
  6
Continuous
 62
     7
100
AcDbLine
 10
19685.40847975171
 20
-11424.0523911908
 30
0.0
 11
19683.24970893447
 21
-11424.0523911908
 31
0.0
  0
LINE
  5
7D
330
1F
100
AcDbEntity
  8
1
  6
Continuous
 62
     7
100
AcDbLine
 10
19687.90847975171
 20
-11426.5523911908
 30
0.0
 11
19687.90847975171
 21
-11433.8023911908
 31
0.0
  0
LINE
  5
7E
330
1F
100
AcDbEntity
  8
1
  6
DOT_CENTER
 62
     2
100
AcDbLine
 10
19689.26603906593
 20
-11420.8023911908
 30
0.0
 11
19667.9133630581
 21
-11420.8023911908
 31
0.0
  0
LINE
  5
7F
330
1F
100
AcDbEntity
  8
1
  6
Continuous
 62
     7
100
AcDbLine
 10
19669.40847975171
 20
-11416.8023911908
 30
0.0
 11
19669.40847975171
 21
-11424.8023911908
 31
0.0
  0
LINE
  5
80
330
1F
100
AcDbEntity
  8
1
  6
Continuous
 62
     7
100
AcDbLine
 10
19672.40847975171
 20
-11413.8023911908
 30
0.0
 11
19678.40847975171
 21
-11413.8023911908
 31
0.0
  0
LINE
  5
81
330
1F
100
AcDbEntity
  8
1
  6
Continuous
 62
     7
100
AcDbLine
 10
19683.24970893447
 20
-11417.5523911908
 30
0.0
 11
19685.40847975171
 21
-11417.5523911908
 31
0.0
  0
LINE
  5
82
330
1F
100
AcDbEntity
  8
1
  6
Continuous
 62
     7
100
AcDbLine
 10
19678.40847975171
 20
-11399.8023911908
 30
0.0
 11
19672.40847975171
 21
-11399.8023911908
 31
0.0
  0
LINE
  5
83
330
1F
100
AcDbEntity
  8
1
  6
Continuous
 62
     7
100
AcDbLine
 10
19685.40847975171
 20
-11396.0523911908
 30
0.0
 11
19683.24970893447
 21
-11396.0523911908
 31
0.0
  0
ARC
  5
84
330
1F
100
AcDbEntity
  8
1
  6
Continuous
 62
     7
100
AcDbCircle
 10
19683.24970893447
 20
-11398.0523911908
 30
0.0
 40
2.0
100
AcDbArc
 50
90.0
 51
165.522487814038
  0
ARC
  5
85
330
1F
100
AcDbEntity
  8
1
  6
Continuous
 62
     7
100
AcDbCircle
 10
19683.24970893447
 20
-11387.5523911908
 30
0.0
 40
1.99999999999566
100
AcDbArc
 50
-165.522487814038
 51
-90.0
  0
ARC
  5
86
330
1F
100
AcDbEntity
  8
1
  6
Continuous
 62
     7
100
AcDbCircle
 10
19683.24970893447
 20
-11415.5523911908
 30
0.0
 40
1.99999999999566
100
AcDbArc
 50
-165.522487814038
 51
-90.0
  0
ARC
  5
87
330
1F
100
AcDbEntity
  8
1
  6
Continuous
 62
     7
100
AcDbCircle
 10
19683.24970893447
 20
-11426.0523911908
 30
0.0
 40
2.0
100
AcDbArc
 50
90.0
 51
165.522487814038
  0
ARC
  5
88
330
1F
100
AcDbEntity
  8
1
  6
Continuous
 62
     7
100
AcDbCircle
 10
19683.24970893447
 20
-11359.5523911908
 30
0.0
 40
1.99999999999566
100
AcDbArc
 50
-165.522487814038
 51
-90.0
  0
ARC
  5
89
330
1F
100
AcDbEntity
  8
1
  6
Continuous
 62
     7
100
AcDbCircle
 10
19683.24970893447
 20
-11370.0523911908
 30
0.0
 40
2.0
100
AcDbArc
 50
90.0
 51
165.522487814038
  0
CIRCLE
  5
8A
330
1F
100
AcDbEntity
  8
1
  6
Continuous
 62
     7
100
AcDbCircle
 10
19570.9084797517
 20
-11324.8023911908
 30
0.0
 40
6.150000000001455
  0
CIRCLE
  5
8B
330
1F
100
AcDbEntity
  8
1
  6
Continuous
 62
     7
100
AcDbCircle
 10
19570.9084797517
 20
-11324.8023911908
 30
0.0
 40
3.5
  0
CIRCLE
  5
8C
330
1F
100
AcDbEntity
  8
1
  6
Continuous
 62
     7
100
AcDbCircle
 10
19577.9084797517
 20
-11358.8023911908
 30
0.0
 40
6.150000000001455
  0
CIRCLE
  5
8D
330
1F
100
AcDbEntity
  8
1
  6
Continuous
 62
     7
100
AcDbCircle
 10
19577.9084797517
 20
-11358.8023911908
 30
0.0
 40
3.5
  0
CIRCLE
  5
8E
330
1F
100
AcDbEntity
  8
1
  6
Continuous
 62
     7
100
AcDbCircle
 10
19602.9084797517
 20
-11324.8023911908
 30
0.0
 40
6.150000000001455
  0
CIRCLE
  5
8F
330
1F
100
AcDbEntity
  8
1
  6
Continuous
 62
     7
100
AcDbCircle
 10
19602.9084797517
 20
-11324.8023911908
 30
0.0
 40
3.5
  0
CIRCLE
  5
90
330
1F
100
AcDbEntity
  8
1
  6
Continuous
 62
     7
100
AcDbCircle
 10
19577.9084797517
 20
-11426.8023911908
 30
0.0
 40
6.150000000001455
  0
CIRCLE
  5
91
330
1F
100
AcDbEntity
  8
1
  6
Continuous
 62
     7
100
AcDbCircle
 10
19577.9084797517
 20
-11426.8023911908
 30
0.0
 40
3.5
  0
CIRCLE
  5
92
330
1F
100
AcDbEntity
  8
1
  6
Continuous
 62
     7
100
AcDbCircle
 10
19570.9084797517
 20
-11460.8023911908
 30
0.0
 40
6.150000000001455
  0
CIRCLE
  5
93
330
1F
100
AcDbEntity
  8
1
  6
Continuous
 62
     7
100
AcDbCircle
 10
19570.9084797517
 20
-11460.8023911908
 30
0.0
 40
3.5
  0
CIRCLE
  5
94
330
1F
100
AcDbEntity
  8
1
  6
Continuous
 62
     7
100
AcDbCircle
 10
19602.9084797517
 20
-11460.8023911908
 30
0.0
 40
6.150000000001455
  0
CIRCLE
  5
95
330
1F
100
AcDbEntity
  8
1
  6
Continuous
 62
     7
100
AcDbCircle
 10
19602.9084797517
 20
-11460.8023911908
 30
0.0
 40
3.5
  0
CIRCLE
  5
96
330
1F
100
AcDbEntity
  8
1
  6
Continuous
 62
     7
100
AcDbCircle
 10
19570.9084797517
 20
-11392.8023911908
 30
0.0
 40
3.5
  0
CIRCLE
  5
97
330
1F
100
AcDbEntity
  8
1
  6
Continuous
 62
     7
100
AcDbCircle
 10
19570.9084797517
 20
-11392.8023911908
 30
0.0
 40
6.150000000001455
  0
CIRCLE
  5
98
330
1F
100
AcDbEntity
  8
1
  6
Continuous
 62
     7
100
AcDbCircle
 10
19602.9084797517
 20
-11392.8023911908
 30
0.0
 40
3.5
  0
CIRCLE
  5
99
330
1F
100
AcDbEntity
  8
1
  6
Continuous
 62
     7
100
AcDbCircle
 10
19602.9084797517
 20
-11392.8023911908
 30
0.0
 40
6.150000000001455
  0
CIRCLE
  5
9A
330
1F
100
AcDbEntity
  8
1
  6
Continuous
 62
     7
100
AcDbCircle
 10
19585.9084797517
 20
-11443.8023911908
 30
0.0
 40
3.5
  0
CIRCLE
  5
9B
330
1F
100
AcDbEntity
  8
1
  6
Continuous
 62
     7
100
AcDbCircle
 10
19585.9084797517
 20
-11443.8023911908
 30
0.0
 40
6.150000000001455
  0
CIRCLE
  5
9C
330
1F
100
AcDbEntity
  8
1
  6
Continuous
 62
     7
100
AcDbCircle
 10
19585.9084797517
 20
-11341.8023911908
 30
0.0
 40
3.5
  0
CIRCLE
  5
9D
330
1F
100
AcDbEntity
  8
1
  6
Continuous
 62
     7
100
AcDbCircle
 10
19585.9084797517
 20
-11341.8023911908
 30
0.0
 40
6.150000000001455
  0
SPLINE
  5
9E
330
1F
100
AcDbEntity
  8
1
  6
DASHED
 62
     2
100
AcDbSpline
210
0.0
220
0.0
230
1.0
 70
    11
 71
     3
 72
    79
 73
    75
 74
    73
 42
0.0000000001
 43
0.0000000001
 44
0.00000001
 40
0.0
 40
0.0
 40
0.0
 40
0.0
 40
0.1571972539796197
 40
0.314328118871335
 40
0.4778287172975811
 40
0.6412272742243111
 40
0.813932304457535
 40
0.9865340911018556
 40
1.169914192606164
 40
1.35320858221854
 40
1.547323799603284
 40
1.741375269391824
 40
1.94507710543639
 40
2.148735223408279
 40
2.359937390592716
 40
2.571112597346106
 40
2.787070933629873
 40
3.003016466277842
 40
3.220598759413659
 40
3.43818105254584
 40
3.654126585197431
 40
3.870084921479401
 40
4.081260128232001
 40
4.292462295421243
 40
4.496120413388009
 40
4.699822249427767
 40
4.893873719209515
 40
5.087988936597315
 40
5.271283326214792
 40
5.454663427726481
 40
5.627265214375941
 40
5.799970244599307
 40
5.963368801516633
 40
6.126869399952096
 40
6.284000264840889
 40
6.441197518824086
 40
6.596121323901598
 40
6.751045128990117
 40
6.908242382972979
 40
7.065373247862867
 40
7.228873846287279
 40
7.392272403212163
 40
7.564977433439218
 40
7.737579220082061
 40
7.92095932158883
 40
8.104253711201874
 40
8.298368928592092
 40
8.492420398382363
 40
8.69612223442361
 40
8.899780352397206
 40
9.110982519586155
 40
9.32215772633185
 40
9.53811606261135
 40
9.754061595263277
 40
9.971643888397388
 40
10.1892261815315
 40
10.40517171418014
 40
10.62113005046503
 40
10.83230525721941
 40
11.04350742440108
 40
11.24716554237171
 40
11.45086737841462
 40
11.64491884820476
 40
11.83903406559148
 40
12.0223284552053
 40
12.20570855670692
 40
12.37831034335638
 40
12.55101537358668
 40
12.71441393050935
 40
12.87791452893377
 40
13.03504539381964
 40
13.19224264780217
 40
13.34716645289046
 40
13.50209025797535
 40
13.50209025797535
 40
13.50209025797535
 40
13.50209025797535
 10
19638.31914718463
 20
-11467.79271613278
 30
0.0
 10
19638.37095594846
 20
-11467.78442828811
 30
0.0
 10
19638.47455159571
 20
-11467.76785609897
 30
0.0
 10
19638.62657020417
 20
-11467.71844186524
 30
0.0
 10
19638.77414232544
 20
-11467.65256674927
 30
0.0
 10
19638.91774495422
 20
-11467.56754575287
 30
0.0
 10
19639.05421459099
 20
-11467.46641404491
 30
0.0
 10
19639.18488244147
 20
-11467.34777355598
 30
0.0
 10
19639.30642318206
 20
-11467.21499290253
 30
0.0
 10
19639.42029535791
 20
-11467.06648028308
 30
0.0
 10
19639.52352868899
 20
-11466.90614372201
 30
0.0
 10
19639.61730405219
 20
-11466.73236095394
 30
0.0
 10
19639.6993093375
 20
-11466.54923538086
 30
0.0
 10
19639.77028640465
 20
-11466.35548169009
 30
0.0
 10
19639.8286788067
 20
-11466.15497610877
 30
0.0
 10
19639.87482554268
 20
-11465.94711453182
 30
0.0
 10
19639.90785605158
 20
-11465.735169674
 30
0.0
 10
19639.92787319472
 20
-11465.51946371678
 30
0.0
 10
19639.93451084561
 20
-11465.3023911908
 30
0.0
 10
19639.92787319472
 20
-11465.08531866481
 30
0.0
 10
19639.90785605158
 20
-11464.86961270761
 30
0.0
 10
19639.87482554269
 20
-11464.65766784973
 30
0.0
 10
19639.82867880668
 20
-11464.44980627301
 30
0.0
 10
19639.77028640473
 20
-11464.24930069085
 30
0.0
 10
19639.69930933719
 20
-11464.05554700311
 30
0.0
 10
19639.61730405328
 20
-11463.87242141897
 30
0.0
 10
19639.52352868514
 20
-11463.69863869034
 30
0.0
 10
19639.42029537197
 20
-11463.53830198627
 30
0.0
 10
19639.30642313284
 20
-11463.38978987221
 30
0.0
 10
19639.18488262103
 20
-11463.25700739134
 30
0.0
 10
19639.05421396426
 20
-11463.13837334237
 30
0.0
 10
19638.91774724612
 20
-11463.0372183233
 30
0.0
 10
19638.77413428031
 20
-11462.95227988873
 30
0.0
 10
19638.62659981026
 20
-11462.8861040528
 30
0.0
 10
19638.47444585486
 20
-11462.83777083393
 30
0.0
 10
19638.32028939017
 20
-11462.80904780871
 30
0.0
 10
19638.16452578046
 20
-11462.79908712481
 30
0.0
 10
19638.00876217071
 20
-11462.80904780871
 30
0.0
 10
19637.85460570602
 20
-11462.83777083392
 30
0.0
 10
19637.70245175063
 20
-11462.8861040528
 30
0.0
 10
19637.55491728059
 20
-11462.95227988876
 30
0.0
 10
19637.41130431477
 20
-11463.0372183233
 30
0.0
 10
19637.27483759663
 20
-11463.13837334237
 30
0.0
 10
19637.14416893985
 20
-11463.25700739134
 30
0.0
 10
19637.02262842806
 20
-11463.38978987221
 30
0.0
 10
19636.90875618894
 20
-11463.53830198628
 30
0.0
 10
19636.80552287576
 20
-11463.69863869034
 30
0.0
 10
19636.7117475076
 20
-11463.87242141897
 30
0.0
 10
19636.62974222369
 20
-11464.05554700312
 30
0.0
 10
19636.55876515614
 20
-11464.24930069084
 30
0.0
 10
19636.50037275421
 20
-11464.44980627302
 30
0.0
 10
19636.45422601821
 20
-11464.65766784973
 30
0.0
 10
19636.4211955093
 20
-11464.86961270761
 30
0.0
 10
19636.40117836616
 20
-11465.08531866482
 30
0.0
 10
19636.39454071526
 20
-11465.3023911908
 30
0.0
 10
19636.40117836616
 20
-11465.51946371679
 30
0.0
 10
19636.42119550931
 20
-11465.73516967399
 30
0.0
 10
19636.45422601821
 20
-11465.94711453187
 30
0.0
 10
19636.50037275421
 20
-11466.1549761086
 30
0.0
 10
19636.55876515615
 20
-11466.35548169071
 30
0.0
 10
19636.6297422237
 20
-11466.54923537866
 30
0.0
 10
19636.71174750752
 20
-11466.73236096202
 30
0.0
 10
19636.80552287603
 20
-11466.90614369346
 30
0.0
 10
19636.90875618793
 20
-11467.06648038733
 30
0.0
 10
19637.02262843155
 20
-11467.21499253741
 30
0.0
 10
19637.14416892706
 20
-11467.34777488805
 30
0.0
 10
19637.2748376413
 20
-11467.46640939598
 30
0.0
 10
19637.41130415142
 20
-11467.56756275367
 30
0.0
 10
19637.55491785396
 20
-11467.65250707243
 30
0.0
 10
19637.70244964059
 20
-11467.718661476
 30
0.0
 10
19637.85461324218
 20
-11467.76707173903
 30
0.0
 10
19638.00873416675
 20
-11467.79551090543
 30
0.0
 10
19638.16462861974
 20
-11467.80651663342
 30
0.0
 10
19638.26764099634
 20
-11467.79731629966
 30
0.0
 10
19638.31914718463
 20
-11467.79271613278
 30
0.0
 11
19638.31914718463
 21
-11467.79271613278
 31
0.0
 11
19638.47367463022
 21
-11467.76386747216
 31
0.0
 11
19638.62352244209
 21
-11467.71658383885
 31
0.0
 11
19638.77274649966
 21
-11467.6497659795
 31
0.0
 11
19638.9135476141
 21
-11467.5668555786
 31
0.0
 11
19639.05241857591
 21
-11467.4641819041
 31
0.0
 11
19639.18039597199
 21
-11467.3483666942
 31
0.0
 11
19639.30439543684
 21
-11467.21326527176
 31
0.0
 11
19639.41610329654
 21
-11467.06794429136
 31
0.0
 11
19639.52138434348
 21
-11466.9048595932
 31
0.0
 11
19639.61368424783
 21
-11466.73416483468
 31
0.0
 11
19639.69711411859
 21
-11466.54833185948
 31
0.0
 11
19639.76727405292
 21
-11466.35714029944
 31
0.0
 11
19639.82646555923
 21
-11466.15440223936
 31
0.0
 11
19639.87229464101
 21
-11465.9482599021
 31
0.0
 11
19639.90563841758
 21
-11465.73489121749
 31
0.0
 11
19639.92560415372
 21
-11465.51987065463
 31
0.0
 11
19639.93229273341
 21
-11465.3023911908
 31
0.0
 11
19639.92560415372
 21
-11465.08491172697
 31
0.0
 11
19639.90563841758
 21
-11464.86989116411
 31
0.0
 11
19639.87229464101
 21
-11464.6565224795
 31
0.0
 11
19639.82646555923
 21
-11464.45038014224
 31
0.0
 11
19639.76727405292
 21
-11464.24764208216
 31
0.0
 11
19639.69711411858
 21
-11464.05645052213
 31
0.0
 11
19639.61368424783
 21
-11463.87061754692
 31
0.0
 11
19639.52138434349
 21
-11463.69992278841
 31
0.0
 11
19639.41610329655
 21
-11463.53683809024
 31
0.0
 11
19639.30439543685
 21
-11463.39151710984
 31
0.0
 11
19639.18039597198
 21
-11463.2564156874
 31
0.0
 11
19639.05241857589
 21
-11463.1406004775
 31
0.0
 11
19638.9135476141
 21
-11463.037926803
 31
0.0
 11
19638.77274649967
 21
-11462.9550164021
 31
0.0
 11
19638.62352244209
 21
-11462.88819854275
 31
0.0
 11
19638.47367463022
 21
-11462.84091490944
 31
0.0
 11
19638.31914718463
 21
-11462.81206624882
 31
0.0
 11
19638.16452578045
 21
-11462.8023911908
 31
0.0
 11
19638.00990437625
 21
-11462.81206624882
 31
0.0
 11
19637.85537693066
 21
-11462.84091490944
 31
0.0
 11
19637.7055291188
 21
-11462.88819854276
 31
0.0
 11
19637.55630506123
 21
-11462.95501640211
 31
0.0
 11
19637.41550394679
 21
-11463.03792680301
 31
0.0
 11
19637.27663298499
 21
-11463.1406004775
 31
0.0
 11
19637.14865558891
 21
-11463.2564156874
 31
0.0
 11
19637.02465612405
 21
-11463.39151710984
 31
0.0
 11
19636.91294826435
 21
-11463.53683809024
 31
0.0
 11
19636.80766721741
 21
-11463.69992278841
 31
0.0
 11
19636.71536731305
 21
-11463.87061754692
 31
0.0
 11
19636.6319374423
 21
-11464.05645052213
 31
0.0
 11
19636.56177750796
 21
-11464.24764208217
 31
0.0
 11
19636.50258600165
 21
-11464.45038014225
 31
0.0
 11
19636.45675691988
 21
-11464.6565224795
 31
0.0
 11
19636.4234131433
 21
-11464.86989116411
 31
0.0
 11
19636.40344740717
 21
-11465.08491172697
 31
0.0
 11
19636.39675882747
 21
-11465.3023911908
 31
0.0
 11
19636.40344740717
 21
-11465.51987065463
 31
0.0
 11
19636.42341314331
 21
-11465.73489121749
 31
0.0
 11
19636.45675691988
 21
-11465.9482599021
 31
0.0
 11
19636.50258600166
 21
-11466.15440223936
 31
0.0
 11
19636.56177750797
 21
-11466.35714029944
 31
0.0
 11
19636.6319374423
 21
-11466.54833185948
 31
0.0
 11
19636.71536731305
 21
-11466.73416483468
 31
0.0
 11
19636.8076672174
 21
-11466.9048595932
 31
0.0
 11
19636.91294826435
 21
-11467.06794429136
 31
0.0
 11
19637.02465612405
 21
-11467.21326527176
 31
0.0
 11
19637.1486555889
 21
-11467.3483666942
 31
0.0
 11
19637.27663298499
 21
-11467.4641819041
 31
0.0
 11
19637.41550394679
 21
-11467.5668555786
 31
0.0
 11
19637.55630506123
 21
-11467.6497659795
 31
0.0
 11
19637.70552911879
 21
-11467.71658383885
 31
0.0
 11
19637.85537693066
 21
-11467.76386747217
 31
0.0
 11
19638.00990437625
 21
-11467.79271613278
 31
0.0
 11
19638.16452578044
 21
-11467.8023911908
 31
0.0
 11
19638.31914718463
 21
-11467.79271613278
 31
0.0
  0
SPLINE
  5
9F
330
1F
100
AcDbEntity
  8
1
  6
Continuous
 62
     2
100
AcDbSpline
210
0.0
220
0.0
230
1.0
 70
    11
 71
     3
 72
    79
 73
    75
 74
    73
 42
0.0000000001
 43
0.0000000001
 44
0.00000001
 40
0.0
 40
0.0
 40
0.0
 40
0.0
 40
0.1403601828856984
 40
0.280692169908938
 40
0.4244029885781383
 40
0.5680668963184196
 40
0.7167598002990891
 40
0.8653997784485266
 40
1.019987586403845
 40
1.174526258956866
 40
1.335155241518595
 40
1.495743971991757
 40
1.661854415772068
 40
1.827935107786701
 40
1.998386141928839
 40
2.168817843664939
 40
2.342043180384717
 40
2.515259050235163
 40
2.689434751935651
 40
2.863610453638083
 40
3.036826323486343
 40
3.210051660209703
 40
3.380483361941393
 40
3.550934396084123
 40
3.717015088101534
 40
3.883125531880204
 40
4.043714262351474
 40
4.204343244907318
 40
4.358881917464096
 40
4.513469725414184
 40
4.662109703572711
 40
4.810802607549341
 40
4.954466515294532
 40
5.09817733395697
 40
5.238509320983223
 40
5.378869503865332
 40
5.518037156908417
 40
5.657204809951502
 40
5.7975649928372
 40
5.93789697985995
 40
6.081607798525769
 40
6.225271706267735
 40
6.373964610240326
 40
6.522604588402829
 40
6.677192396355531
 40
6.83173106891469
 40
6.992360051469063
 40
7.152948781941887
 40
7.319059225717273
 40
7.485139917731906
 40
7.655590951872908
 40
7.826022653609892
 40
7.999247990327877
 40
8.172463860176894
 40
8.34663956188127
 40
8.520815263581884
 40
8.694031133431952
 40
8.86725647015236
 40
9.037688171890228
 40
9.208139206032365
 40
9.374219898045318
 40
9.54033034182561
 40
9.700919072298772
 40
9.861548054855419
 40
10.01608672741019
 40
10.17067453536424
 40
10.31931451352049
 40
10.46800741749612
 40
10.61167132524047
 40
10.75538214390492
 40
10.89571413093215
 40
11.03607431381367
 40
11.17524196685655
 40
11.314409619896
 40
11.314409619896
 40
11.314409619896
 40
11.314409619896
 10
19638.22447612328
 20
-11467.29469919774
 30
0.0
 10
19638.17810666341
 20
-11467.28811354058
 30
0.0
 10
19638.08537705847
 20
-11467.2749435492
 30
0.0
 10
19637.94902200954
 20
-11467.23573420657
 30
0.0
 10
19637.81626925076
 20
-11467.18320121296
 30
0.0
 10
19637.68730975581
 20
-11467.11555544294
 30
0.0
 10
19637.56424905123
 20
-11467.03473171941
 30
0.0
 10
19637.44674276474
 20
-11466.94012179124
 30
0.0
 10
19637.33698191688
 20
-11466.83381885152
 30
0.0
 10
19637.23447407865
 20
-11466.71519742683
 30
0.0
 10
19637.14119361377
 20
-11466.58671552367
 30
0.0
 10
19637.05672121952
 20
-11466.44776476435
 30
0.0
 10
19636.98262248713
 20
-11466.3009796327
 30
0.0
 10
19636.91866063308
 20
-11466.14595449847
 30
0.0
 10
19636.86591028699
 20
-11465.98524945353
 30
0.0
 10
19636.8243151791
 20
-11465.81885586954
 30
0.0
 10
19636.79448084312
 20
-11465.64902159385
 30
0.0
 10
19636.77644142461
 20
-11465.47628254299
 30
0.0
 10
19636.77043493444
 20
-11465.30239119079
 30
0.0
 10
19636.77644142462
 20
-11465.12849983862
 30
0.0
 10
19636.79448084312
 20
-11464.95576078775
 30
0.0
 10
19636.82431517909
 20
-11464.78592651203
 30
0.0
 10
19636.86591028701
 20
-11464.6195329282
 30
0.0
 10
19636.91866063303
 20
-11464.45882788267
 30
0.0
 10
19636.98262248732
 20
-11464.30380275056
 30
0.0
 10
19637.05672121886
 20
-11464.15701761115
 30
0.0
 10
19637.1411936162
 20
-11464.01806687987
 30
0.0
 10
19637.23447406973
 20
-11463.88958487409
 30
0.0
 10
19637.33698194882
 20
-11463.77096381858
 30
0.0
 10
19637.44674264729
 20
-11463.66465952947
 30
0.0
 10
19637.56424947087
 20
-11463.57005445318
 30
0.0
 10
19637.68730820946
 20
-11463.48921296883
 30
0.0
 10
19637.81627480619
 20
-11463.42163135668
 30
0.0
 10
19637.94900145116
 20
-11463.36886245012
 30
0.0
 10
19638.08545178964
 20
-11463.33051395532
 30
0.0
 10
19638.22380397515
 20
-11463.30762602313
 30
0.0
 10
19638.36343104005
 20
-11463.29978494114
 30
0.0
 10
19638.50305810494
 20
-11463.30762602313
 30
0.0
 10
19638.64141029045
 20
-11463.33051395532
 30
0.0
 10
19638.77786062894
 20
-11463.36886245012
 30
0.0
 10
19638.91058727389
 20
-11463.42163135668
 30
0.0
 10
19639.03955387064
 20
-11463.48921296882
 30
0.0
 10
19639.16261260923
 20
-11463.57005445318
 30
0.0
 10
19639.28011943279
 20
-11463.66465952947
 30
0.0
 10
19639.38988013128
 20
-11463.77096381858
 30
0.0
 10
19639.49238801037
 20
-11463.88958487409
 30
0.0
 10
19639.58566846391
 20
-11464.01806687987
 30
0.0
 10
19639.67014086126
 20
-11464.15701761115
 30
0.0
 10
19639.74423959278
 20
-11464.30380275057
 30
0.0
 10
19639.80820144707
 20
-11464.45882788267
 30
0.0
 10
19639.86095179308
 20
-11464.61953292819
 30
0.0
 10
19639.90254690099
 20
-11464.78592651203
 30
0.0
 10
19639.93238123697
 20
-11464.95576078775
 30
0.0
 10
19639.95042065549
 20
-11465.12849983861
 30
0.0
 10
19639.95642714566
 20
-11465.3023911908
 30
0.0
 10
19639.95042065548
 20
-11465.47628254299
 30
0.0
 10
19639.93238123698
 20
-11465.64902159385
 30
0.0
 10
19639.90254690101
 20
-11465.81885586957
 30
0.0
 10
19639.86095179309
 20
-11465.98524945341
 30
0.0
 10
19639.80820144707
 20
-11466.1459544989
 30
0.0
 10
19639.74423959276
 20
-11466.30097963115
 30
0.0
 10
19639.6701408613
 20
-11466.44776477002
 30
0.0
 10
19639.58566846373
 20
-11466.58671550329
 30
0.0
 10
19639.492388011
 20
-11466.71519750174
 30
0.0
 10
19639.38988012901
 20
-11466.83381858366
 30
0.0
 10
19639.28011944119
 20
-11466.94012277629
 30
0.0
 10
19639.16261257923
 20
-11467.03472819943
 30
0.0
 10
19639.03955398119
 20
-11467.1155684141
 30
0.0
 10
19638.91058687675
 20
-11467.18315461277
 30
0.0
 10
19638.77786209862
 20
-11467.23590665436
 30
0.0
 10
19638.64140494806
 20
-11467.27431668958
 30
0.0
 10
19638.50307799175
 20
-11467.29697670062
 30
0.0
 10
19638.3633575194
 20
-11467.3056616275
 30
0.0
 10
19638.27076992198
 20
-11467.29835334099
 30
0.0
 10
19638.22447612328
 20
-11467.29469919774
 30
0.0
 11
19638.22447612328
 21
-11467.29469919774
 31
0.0
 11
19638.08600460539
 21
-11467.27175100228
 31
0.0
 11
19637.95086357528
 21
-11467.23393607715
 31
0.0
 11
19637.8173075369
 21
-11467.18087400016
 31
0.0
 11
19637.68997465022
 21
-11467.11434840842
 31
0.0
 11
19637.56564979053
 21
-11467.03278304225
 31
0.0
 11
19637.44976405964
 21
-11466.93970060309
 31
0.0
 11
19637.33863681455
 21
-11466.83223839686
 31
0.0
 11
19637.23748133885
 21
-11466.71540616222
 31
0.0
 11
19637.14301149092
 21
-11466.58549420022
 31
0.0
 11
19637.05949144947
 21
-11466.44833318889
 31
0.0
 11
19636.98453821957
 21
-11466.30009455404
 31
0.0
 11
19636.92111825634
 21
-11466.14659958825
 31
0.0
 11
19636.86788086862
 21
-11465.98467573087
 31
0.0
 11
19636.8265009989
 21
-11465.8193437275
 31
0.0
 11
19636.79647857079
 21
-11465.64873988495
 31
0.0
 11
19636.77847272194
 21
-11465.47646241406
 31
0.0
 11
19636.77244078238
 21
-11465.3023911908
 31
0.0
 11
19636.77847272194
 21
-11465.12831996754
 31
0.0
 11
19636.79647857079
 21
-11464.95604249665
 31
0.0
 11
19636.8265009989
 21
-11464.7854386541
 31
0.0
 11
19636.86788086863
 21
-11464.62010665073
 31
0.0
 11
19636.92111825634
 21
-11464.45818279335
 31
0.0
 11
19636.98453821958
 21
-11464.30468782756
 31
0.0
 11
19637.05949144947
 21
-11464.15644919271
 31
0.0
 11
19637.14301149092
 21
-11464.01928818138
 31
0.0
 11
19637.23748133885
 21
-11463.88937621938
 31
0.0
 11
19637.33863681455
 21
-11463.77254398474
 31
0.0
 11
19637.44976405964
 21
-11463.66508177852
 31
0.0
 11
19637.56564979053
 21
-11463.57199933935
 31
0.0
 11
19637.68997465022
 21
-11463.49043397318
 31
0.0
 11
19637.8173075369
 21
-11463.42390838144
 31
0.0
 11
19637.95086357528
 21
-11463.37084630445
 31
0.0
 11
19638.08600460539
 21
-11463.33303137932
 31
0.0
 11
19638.22447612327
 21
-11463.31008318386
 31
0.0
 11
19638.36343104005
 21
-11463.3023911908
 31
0.0
 11
19638.50238595682
 21
-11463.31008318386
 31
0.0
 11
19638.64085747471
 21
-11463.33303137932
 31
0.0
 11
19638.77599850482
 21
-11463.37084630445
 31
0.0
 11
19638.9095545432
 21
-11463.42390838144
 31
0.0
 11
19639.03688742988
 21
-11463.49043397318
 31
0.0
 11
19639.16121228956
 21
-11463.57199933934
 31
0.0
 11
19639.27709802046
 21
-11463.66508177852
 31
0.0
 11
19639.38822526555
 21
-11463.77254398474
 31
0.0
 11
19639.48938074125
 21
-11463.88937621938
 31
0.0
 11
19639.58385058918
 21
-11464.01928818138
 31
0.0
 11
19639.66737063063
 21
-11464.15644919271
 31
0.0
 11
19639.74232386052
 21
-11464.30468782756
 31
0.0
 11
19639.80574382375
 21
-11464.45818279335
 31
0.0
 11
19639.85898121146
 21
-11464.62010665073
 31
0.0
 11
19639.90036108119
 21
-11464.7854386541
 31
0.0
 11
19639.9303835093
 21
-11464.95604249665
 31
0.0
 11
19639.94838935815
 21
-11465.12831996753
 31
0.0
 11
19639.95442129772
 21
-11465.3023911908
 31
0.0
 11
19639.94838935816
 21
-11465.47646241406
 31
0.0
 11
19639.93038350931
 21
-11465.64873988495
 31
0.0
 11
19639.90036108119
 21
-11465.8193437275
 31
0.0
 11
19639.85898121147
 21
-11465.98467573087
 31
0.0
 11
19639.80574382375
 21
-11466.14659958825
 31
0.0
 11
19639.74232386052
 21
-11466.30009455404
 31
0.0
 11
19639.66737063062
 21
-11466.44833318889
 31
0.0
 11
19639.58385058917
 21
-11466.58549420022
 31
0.0
 11
19639.48938074124
 21
-11466.71540616222
 31
0.0
 11
19639.38822526555
 21
-11466.83223839686
 31
0.0
 11
19639.27709802046
 21
-11466.93970060309
 31
0.0
 11
19639.16121228956
 21
-11467.03278304226
 31
0.0
 11
19639.03688742988
 21
-11467.11434840842
 31
0.0
 11
19638.90955454319
 21
-11467.18087400016
 31
0.0
 11
19638.77599850482
 21
-11467.23393607715
 31
0.0
 11
19638.6408574747
 21
-11467.27175100228
 31
0.0
 11
19638.50238595682
 21
-11467.29469919774
 31
0.0
 11
19638.36343104005
 21
-11467.3023911908
 31
0.0
 11
19638.22447612328
 21
-11467.29469919774
 31
0.0
  0
XLINE
  5
A0
330
1F
100
AcDbEntity
  8
1
  6
DOT_CENTER
 62
     3
 60
     1
100
AcDbXline
 10
19667.9133630581
 20
-11364.8023911908
 30
0.0
 11
1.0
 21
0.0
 31
0.0
  0
LWPOLYLINE
  5
A1
330
1F
100
AcDbEntity
  8
1
  6
Continuous
 62
     2
 60
     1
100
AcDbPolyline
 90
        6
 70
     0
 43
0.0
 10
19608.74841906596
 20
-11433.03851195179
 10
19622.511324457
 20
-11449.03851195179
 10
19623.74841906596
 20
-11452.04610392054
 10
19623.74841906596
 20
-11473.58931413761
 10
19623.74841906596
 20
-11475.53851195179
 10
19622.04968423806
 20
-11475.53851195179
  0
ARC
  5
A2
330
1F
100
AcDbEntity
  8
1
  6
Continuous
 62
     7
100
AcDbCircle
 10
19685.40847975171
 20
-11426.5523911908
 30
0.0
 40
2.5
100
AcDbArc
 50
0.0
 51
90.0
  0
ARC
  5
A3
330
1F
100
AcDbEntity
  8
1
  6
Continuous
 62
     7
100
AcDbCircle
 10
19685.40847975171
 20
-11415.0523911908
 30
0.0
 40
2.5
100
AcDbArc
 50
-90.0
 51
0.0
  0
ARC
  5
A4
330
1F
100
AcDbEntity
  8
1
  6
Continuous
 62
     7
100
AcDbCircle
 10
19685.40847975171
 20
-11398.5523911908
 30
0.0
 40
2.5
100
AcDbArc
 50
0.0
 51
90.0
  0
ARC
  5
A5
330
1F
100
AcDbEntity
  8
1
  6
Continuous
 62
     7
100
AcDbCircle
 10
19685.40847975171
 20
-11387.0523911908
 30
0.0
 40
2.5
100
AcDbArc
 50
-90.0
 51
0.0
  0
ARC
  5
A6
330
1F
100
AcDbEntity
  8
1
  6
Continuous
 62
     7
100
AcDbCircle
 10
19685.40847975171
 20
-11370.5523911908
 30
0.0
 40
2.5
100
AcDbArc
 50
0.0
 51
90.0
  0
ARC
  5
A7
330
1F
100
AcDbEntity
  8
1
  6
Continuous
 62
     7
100
AcDbCircle
 10
19685.40847975171
 20
-11359.0523911908
 30
0.0
 40
2.5
100
AcDbArc
 50
-90.0
 51
0.0
  0
ARC
  5
A8
330
1F
100
AcDbEntity
  8
1
  6
Continuous
 62
     7
100
AcDbCircle
 10
19672.40847975171
 20
-11360.8023911908
 30
0.0
 40
3.0
100
AcDbArc
 50
90.0
 51
180.0
  0
ARC
  5
A9
330
1F
100
AcDbEntity
  8
1
  6
Continuous
 62
     7
100
AcDbCircle
 10
19678.40847975171
 20
-11360.8023911908
 30
0.0
 40
3.000000000004058
100
AcDbArc
 50
14.47751218590992
 51
90.0
  0
ARC
  5
AA
330
1F
100
AcDbEntity
  8
1
  6
Continuous
 62
     7
100
AcDbCircle
 10
19672.40847975171
 20
-11368.8023911908
 30
0.0
 40
3.0
100
AcDbArc
 50
180.0
 51
-90.0
  0
ARC
  5
AB
330
1F
100
AcDbEntity
  8
1
  6
Continuous
 62
     7
100
AcDbCircle
 10
19678.40847975171
 20
-11368.8023911908
 30
0.0
 40
3.0
100
AcDbArc
 50
-90.0
 51
-14.47751218590992
  0
ARC
  5
AC
330
1F
100
AcDbEntity
  8
1
  6
Continuous
 62
     7
100
AcDbCircle
 10
19672.40847975171
 20
-11388.8023911908
 30
0.0
 40
3.0
100
AcDbArc
 50
90.0
 51
180.0
  0
ARC
  5
AD
330
1F
100
AcDbEntity
  8
1
  6
Continuous
 62
     7
100
AcDbCircle
 10
19678.40847975171
 20
-11388.8023911908
 30
0.0
 40
3.000000000004058
100
AcDbArc
 50
14.47751218590992
 51
90.0
  0
ARC
  5
AE
330
1F
100
AcDbEntity
  8
1
  6
Continuous
 62
     7
100
AcDbCircle
 10
19672.40847975171
 20
-11424.8023911908
 30
0.0
 40
3.0
100
AcDbArc
 50
180.0
 51
-90.0
  0
ARC
  5
AF
330
1F
100
AcDbEntity
  8
1
  6
Continuous
 62
     7
100
AcDbCircle
 10
19678.40847975171
 20
-11424.8023911908
 30
0.0
 40
3.0
100
AcDbArc
 50
-90.0
 51
-14.47751218590992
  0
ARC
  5
B0
330
1F
100
AcDbEntity
  8
1
  6
Continuous
 62
     7
100
AcDbCircle
 10
19672.40847975171
 20
-11416.8023911908
 30
0.0
 40
3.0
100
AcDbArc
 50
90.0
 51
180.0
  0
ARC
  5
B1
330
1F
100
AcDbEntity
  8
1
  6
Continuous
 62
     7
100
AcDbCircle
 10
19678.40847975171
 20
-11416.8023911908
 30
0.0
 40
3.000000000004058
100
AcDbArc
 50
14.47751218590992
 51
90.0
  0
ARC
  5
B2
330
1F
100
AcDbEntity
  8
1
  6
Continuous
 62
     7
100
AcDbCircle
 10
19672.40847975171
 20
-11396.8023911908
 30
0.0
 40
3.0
100
AcDbArc
 50
180.0
 51
-90.0
  0
ARC
  5
B3
330
1F
100
AcDbEntity
  8
1
  6
Continuous
 62
     7
100
AcDbCircle
 10
19678.40847975171
 20
-11396.8023911908
 30
0.0
 40
3.0
100
AcDbArc
 50
-90.0
 51
-14.47751218590992
  0
MTEXT
  5
B5
330
1F
100
AcDbEntity
  8
1
 62
     2
100
AcDbMText
 10
19647.0386891268
 20
-11388.3742511308
 30
0.0
 40
2.5
 41
0.0
 71
     5
 72
     1
  1
BBL
  7
CONVERTER_11
 73
     1
 44
1.32052821128451
  0
DIMENSION
  5
C0
330
1F
100
AcDbEntity
  8
1
100
AcDbDimension
  2
*D1
 10
19552.711018423
 20
-11312.8023911908
 30
0.0
 11
19548.961018423
 21
-11356.7371304569
 31
0.0
 70
    32
  1
<>
 71
     5
 42
-1.0
 53
90.0
  3
ME10_DIM_10
100
AcDbAlignedDimension
 13
19559.7185132514
 23
-11392.8023911908
 33
0.0
 14
19562.9084797517
 24
-11312.8023911908
 34
0.0
 50
90.0
100
AcDbRotatedDimension
  0
DIMENSION
  5
CB
330
1F
100
AcDbEntity
  8
1
100
AcDbDimension
  2
*D2
 10
19619.1584797517
 20
-11302.5464664143
 30
0.0
 11
19630.6648171273
 21
-11298.7964664143
 31
0.0
 70
    32
  1
<>
 71
     5
 42
-1.0
 53
0.00013888888889
  3
ME10_DIM_11
100
AcDbAlignedDimension
 13
19641.6584797517
 23
-11312.8023911908
 33
0.0
 14
19619.1584797517
 24
-11312.8023911908
 34
0.0
100
AcDbRotatedDimension
  0
DIMENSION
  5
D6
330
1F
100
AcDbEntity
  8
1
100
AcDbDimension
  2
*D3
 10
19541.6637422216
 20
-11312.8023911908
 30
0.0
 11
19537.9137422216
 21
-11395.0309728519
 31
0.0
 70
    32
  1
<>
 71
     5
 42
-1.0
 53
90.0
  3
ME10_DIM_12
100
AcDbAlignedDimension
 13
19562.9084797517
 23
-11472.8023911908
 33
0.0
 14
19562.9084797517
 24
-11312.8023911908
 34
0.0
 50
90.0
100
AcDbRotatedDimension
  0
DIMENSION
  5
E1
330
1F
100
AcDbEntity
  8
1
100
AcDbDimension
  2
*D4
 10
19709.6578364447
 20
-11350.8023911908
 30
0.0
 11
19705.9078364447
 21
-11392.8023911908
 31
0.0
 70
    32
  1
<>
 71
     5
 42
-1.0
 53
90.0
  3
ME10_DIM_13
100
AcDbAlignedDimension
 13
19684.17642894414
 23
-11434.8023911908
 33
0.0
 14
19684.17642894414
 24
-11350.8023911908
 34
0.0
 50
90.0
100
AcDbRotatedDimension
  0
DIMENSION
  5
EC
330
1F
100
AcDbEntity
  8
1
100
AcDbDimension
  2
*D5
 10
19698.1335241254
 20
-11364.8023911908
 30
0.0
 11
19694.3835241254
 21
-11378.8196929135
 31
0.0
 70
    32
  1
<>
 71
     5
 42
-1.0
 53
90.0
  3
ME10_DIM_14
100
AcDbAlignedDimension
 13
19691.4430009389
 23
-11392.8023911908
 33
0.0
 14
19689.26603906593
 24
-11364.8023911908
 34
0.0
 50
90.0
100
AcDbRotatedDimension
  0
DIMENSION
  5
F7
330
1F
100
AcDbEntity
  8
1
100
AcDbDimension
  2
*D6
 10
19698.1335241254
 20
-11392.8023911908
 30
0.0
 11
19694.3835241254
 21
-11407.6304737118
 31
0.0
 70
    32
  1
<>
 71
     5
 42
-1.0
 53
90.0
  3
ME10_DIM_15
100
AcDbAlignedDimension
 13
19689.26603906593
 23
-11420.8023911908
 33
0.0
 14
19691.4430009389
 24
-11392.8023911908
 34
0.0
 50
90.0
100
AcDbRotatedDimension
  0
ENDSEC
  0
SECTION
  2
OBJECTS
  0
DICTIONARY
  5
C
330
0
100
AcDbDictionary
281
     1
  3
ACAD_GROUP
350
D
  3
ACAD_LAYOUT
350
1A
  3
ACAD_MLINESTYLE
350
17
  3
ACAD_PLOTSETTINGS
350
19
  3
ACAD_PLOTSTYLENAME
350
E
  0
DICTIONARY
  5
D
102
{ACAD_REACTORS
330
C
102
}
330
C
100
AcDbDictionary
281
     1
  0
DICTIONARY
  5
1A
102
{ACAD_REACTORS
330
C
102
}
330
C
100
AcDbDictionary
281
     1
  3
Layout1
350
1E
  3
Layout2
350
26
  3
Model
350
22
  0
DICTIONARY
  5
17
102
{ACAD_REACTORS
330
C
102
}
330
C
100
AcDbDictionary
281
     1
  3
Standard
350
18
  0
DICTIONARY
  5
19
102
{ACAD_REACTORS
330
C
102
}
330
C
100
AcDbDictionary
281
     1
  0
ACDBDICTIONARYWDFLT
  5
E
102
{ACAD_REACTORS
330
C
102
}
330
C
100
AcDbDictionary
281
     1
  3
Normal
350
F
100
AcDbDictionaryWithDefault
340
F
  0
LAYOUT
  5
1E
102
{ACAD_REACTORS
330
1A
102
}
330
1A
100
AcDbPlotSettings
  1

  2

  4

  6

 40
0.0
 41
0.0
 42
0.0
 43
0.0
 44
0.0
 45
0.0
 46
0.0
 47
0.0
 48
0.0
 49
0.0
140
0.0
141
0.0
142
1.0
143
1.0
 70
   688
 72
     0
 73
     0
 74
     5
  7

 75
    16
 76
     0
 77
     2
 78
   300
147
1.0
148
0.0
149
0.0
100
AcDbLayout
  1
Layout1
 70
     1
 71
     1
 10
0.0
 20
0.0
 11
0.0
 21
0.0
 12
0.0
 22
0.0
 32
0.0
 14
0.0
 24
0.0
 34
0.0
 15
0.0
 25
0.0
 35
0.0
146
0.0
 13
0.0
 23
0.0
 33
0.0
 16
1.0
 26
0.0
 36
0.0
 17
0.0
 27
1.0
 37
0.0
 76
     0
330
1B
  0
LAYOUT
  5
26
102
{ACAD_REACTORS
330
1A
102
}
330
1A
100
AcDbPlotSettings
  1

  2

  4

  6

 40
0.0
 41
0.0
 42
0.0
 43
0.0
 44
0.0
 45
0.0
 46
0.0
 47
0.0
 48
0.0
 49
0.0
140
0.0
141
0.0
142
1.0
143
1.0
 70
   688
 72
     0
 73
     0
 74
     5
  7

 75
    16
 76
     0
 77
     2
 78
   300
147
1.0
148
0.0
149
0.0
100
AcDbLayout
  1
Layout2
 70
     1
 71
     2
 10
0.0
 20
0.0
 11
0.0
 21
0.0
 12
0.0
 22
0.0
 32
0.0
 14
0.0
 24
0.0
 34
0.0
 15
0.0
 25
0.0
 35
0.0
146
0.0
 13
0.0
 23
0.0
 33
0.0
 16
1.0
 26
0.0
 36
0.0
 17
0.0
 27
1.0
 37
0.0
 76
     0
330
23
  0
LAYOUT
  5
22
102
{ACAD_REACTORS
330
1A
102
}
330
1A
100
AcDbPlotSettings
  1

  2

  4

  6

 40
0.0
 41
0.0
 42
0.0
 43
0.0
 44
0.0
 45
0.0
 46
0.0
 47
0.0
 48
0.0
 49
0.0
140
0.0
141
0.0
142
1.0
143
1.0
 70
  1712
 72
     0
 73
     0
 74
     0
  7

 75
     0
 76
     0
 77
     2
 78
   300
147
1.0
148
0.0
149
0.0
100
AcDbLayout
  1
Model
 70
     1
 71
     0
 10
0.0
 20
0.0
 11
0.0
 21
0.0
 12
0.0
 22
0.0
 32
0.0
 14
19536.1637422216
 24
-11475.53851195179
 34
0.0
 15
19711.6578364447
 25
-11297.0464664143
 35
0.0
146
0.0
 13
0.0
 23
0.0
 33
0.0
 16
1.0
 26
0.0
 36
0.0
 17
0.0
 27
1.0
 37
0.0
 76
     0
330
1F
  0
MLINESTYLE
  5
18
102
{ACAD_REACTORS
330
17
102
}
330
17
100
AcDbMlineStyle
  2
Standard
 70
     0
  3

 62
   256
 51
90.0
 52
90.0
 71
     2
 49
0.5
 62
   256
  6
BYLAYER
 49
-0.5
 62
   256
  6
BYLAYER
  0
ACDBPLACEHOLDER
  5
F
102
{ACAD_REACTORS
330
E
102
}
330
E
  0
ENDSEC
  0
EOF
