999
DXF file: d:\tmp\workingDir\0000107132\5_401380_0_00000_mkt_v_01_01.dxf
999
Pro/ENGINEER 2016380 by Parametric Technology Corporation
  0
SECTION
  2
HEADER
  9
$ACADVER
  1
AC1014
  9
$DWGCODEPAGE
  3
ANSI_1252
  9
$EXTMAX
 10
119.888
 20
220.0
 30
0.0
  9
$EXTMIN
 10
-0.0
 20
0.0
 30
0.0
  9
$LIMMIN
 10
-0.0
 20
0.0
  9
$LIMMAX
 10
119.888
 20
220.0
  9
$VIEWCTR
 10
59.944
 20
110.0
  9
$VIEWSIZE
 40
220.0
  9
$CLAYER
  8
0
  9
$LTSCALE
 40
14.3407407407
  9
$CELTYPE
  6
BYLAYER
  9
$DIMSCALE
 40
1.0
  9
$DIMASZ
 40
3.5
  9
$DIMEXO
 40
0.0
  9
$DIMDLI
 40
9.9081481481
  9
$DIMEXE
 40
2.0
  9
$DIMCEN
 40
2.3466666667
  9
$DIMLFAC
 40
1.0
  9
$DIMBLK
  1
_ARROW_FILLED
  9
$DIMALT
 70
0
  9
$DIMALTF
 40
25.4
  9
$DIMTXT
 40
3.5
  9
$DIMTOL
 70
1
  9
$DIMLIM
 70
0
  9
$DIMTFAC
 40
1.0
  9
$DIMTP
 40
0.01
  9
$DIMTM
 40
0.01
  9
$DIMGAP
 40
0.625
  9
$AUNITS
 70
0
  9
$PDMODE
 70
0
  9
$PDSIZE
 40
0.04
  9
$HANDSEED
  5
6AD
  9
$TILEMODE
 70
1
  9
$MEASUREMENT
 70
1
  0
ENDSEC
  0
SECTION
  2
CLASSES
  0
ENDSEC
  0
SECTION
  2
TABLES
  0
TABLE
  2
VPORT
  5
8
100
AcDbSymbolTable
 70
2
  0
VPORT
  5
1F4
100
AcDbSymbolTableRecord
100
AcDbViewportTableRecord
  2
*ACTIVE
 70
0
 10
0.0
 20
0.0
 11
1.0
 21
1.0
 12
59.944
 22
110.0
 13
0.0
 23
0.0
 14
1.0
 24
1.0
 15
0.0
 25
0.0
 16
0.0
 26
0.0
 36
1.0
 17
0.0
 27
0.0
 37
0.0
 40
220.0
 41
0.5449454545
 42
50.0
 43
0.0
 44
0.0
 50
0.0
 51
0.0
 71
0
 72
100
 73
1
 74
1
 75
0
 76
0
 77
0
 78
0
  0
ENDTAB
  0
TABLE
  2
LTYPE
  5
5
100
AcDbSymbolTable
 70
6
  0
LTYPE
  5
14
100
AcDbSymbolTableRecord
100
AcDbLinetypeTableRecord
  2
BYBLOCK
 70
0
  3

 72
65
 73
0
 40
0.0
  0
LTYPE
  5
15
100
AcDbSymbolTableRecord
100
AcDbLinetypeTableRecord
  2
BYLAYER
 70
0
  3

 72
65
 73
0
 40
0.0
  0
LTYPE
  5
16
100
AcDbSymbolTableRecord
100
AcDbLinetypeTableRecord
  2
CONTINUOUS
 70
64
  3
Solid line
 72
65
 73
0
 40
0.0
  0
LTYPE
  5
1F5
100
AcDbSymbolTableRecord
100
AcDbLinetypeTableRecord
  2
CENTER
 70
64
  3
____ _ ____ _ ____ _ ____ _ ____ _ ____ _ ____
 72
65
 73
4
 40
0.6
 49
0.375
 74
0
 49
-0.075
 74
0
 49
0.075
 74
0
 49
-0.075
 74
0
  0
LTYPE
  5
1F6
100
AcDbSymbolTableRecord
100
AcDbLinetypeTableRecord
  2
HIDDEN
 70
64
  3
- - - - - - - - - - - - - - - - - - - -
 72
65
 73
2
 40
0.2
 49
0.1
 74
0
 49
-0.1
 74
0
  0
LTYPE
  5
1F7
100
AcDbSymbolTableRecord
100
AcDbLinetypeTableRecord
  2
PHANTOM
 70
64
  3
_____ _ _ _____ _ _ _____ _ _ _____
 72
65
 73
6
 40
0.8
 49
0.45
 74
0
 49
-0.05
 74
0
 49
0.1
 74
0
 49
-0.05
 74
0
 49
0.1
 74
0
 49
-0.05
 74
0
  0
LTYPE
  5
1F8
100
AcDbSymbolTableRecord
100
AcDbLinetypeTableRecord
  2
DOT
 70
64
  3
. . . . . . . . . . . . . . . . . . . .
 72
65
 73
2
 40
0.2
 49
0.1
 74
0
 49
-0.1
 74
0
  0
LTYPE
  5
1F9
100
AcDbSymbolTableRecord
100
AcDbLinetypeTableRecord
  2
DASHED
 70
64
  3
- - - - - - - - - - - - - - - - - - - -
 72
65
 73
2
 40
0.2
 49
0.1
 74
0
 49
-0.1
 74
0
  0
ENDTAB
  0
TABLE
  2
LAYER
  5
2
100
AcDbSymbolTable
 70
36
  0
LAYER
  5
10
100
AcDbSymbolTableRecord
100
AcDbLayerTableRecord
  2
0
 70
0
 62
7
  6
CONTINUOUS
  0
LAYER
  5
1FA
100
AcDbSymbolTableRecord
100
AcDbLayerTableRecord
  2
DEFAULT_1
 70
0
 62
7
  6
CENTER
  0
LAYER
  5
1FB
100
AcDbSymbolTableRecord
100
AcDbLayerTableRecord
  2
DEFAULT_2
 70
0
 62
8
  6
HIDDEN
  0
LAYER
  5
1FC
100
AcDbSymbolTableRecord
100
AcDbLayerTableRecord
  2
DEFAULT_3
 70
0
 62
7
  6
PHANTOM
  0
LAYER
  5
1FD
100
AcDbSymbolTableRecord
100
AcDbLayerTableRecord
  2
A_ACHSEN
 70
0
 62
7
  6
CONTINUOUS
  0
LAYER
  5
1FE
100
AcDbSymbolTableRecord
100
AcDbLayerTableRecord
  2
A_BASISEBENEN
 70
0
 62
7
  6
CONTINUOUS
  0
LAYER
  5
1FF
100
AcDbSymbolTableRecord
100
AcDbLayerTableRecord
  2
A_BEMASSUNGEN
 70
0
 62
7
  6
CONTINUOUS
  0
LAYER
  5
200
100
AcDbSymbolTableRecord
100
AcDbLayerTableRecord
  2
A_BOHRUNGEN
 70
0
 62
7
  6
CONTINUOUS
  0
LAYER
  5
201
100
AcDbSymbolTableRecord
100
AcDbLayerTableRecord
  2
A_EBENEN
 70
0
 62
7
  6
CONTINUOUS
  0
LAYER
  5
202
100
AcDbSymbolTableRecord
100
AcDbLayerTableRecord
  2
A_FL_VERBAENDE
 70
0
 62
7
  6
CONTINUOUS
  0
LAYER
  5
203
100
AcDbSymbolTableRecord
100
AcDbLayerTableRecord
  2
A_NOTIZEN_SYMB
 70
0
 62
7
  6
CONTINUOUS
  0
LAYER
  5
204
100
AcDbSymbolTableRecord
100
AcDbLayerTableRecord
  2
A_RUNDUNGEN
 70
0
 62
7
  6
CONTINUOUS
  0
LAYER
  5
205
100
AcDbSymbolTableRecord
100
AcDbLayerTableRecord
  2
BASISEBENEN
 70
0
 62
7
  6
CONTINUOUS
  0
ENDTAB
  0
TABLE
  2
STYLE
  5
3
100
AcDbSymbolTable
 70
1
  0
STYLE
  5
11
100
AcDbSymbolTableRecord
100
AcDbTextStyleTableRecord
  2
STANDARD
 70
0
 40
0.0
 41
1.0
 50
0.0
 71
0
 42
0.2
  3
txt
  4

  0
STYLE
  5
206
100
AcDbSymbolTableRecord
100
AcDbTextStyleTableRecord
  2
TEXTSTYLE_1
 70
0
 40
0.0
 41
0.8
 50
0.0
 71
0
 42
0.2
  3
gdt
  4

  0
STYLE
  5
207
100
AcDbSymbolTableRecord
100
AcDbTextStyleTableRecord
  2
TEXTSTYLE_2
 70
0
 40
0.0
 41
1.0
 50
0.0
 71
0
 42
0.2
  3
txt
  4

  0
ENDTAB
  0
TABLE
  2
VIEW
  5
6
100
AcDbSymbolTable
 70
0
  0
ENDTAB
  0
TABLE
  2
UCS
  5
7
100
AcDbSymbolTable
 70
0
  0
ENDTAB
  0
TABLE
  2
APPID
  5
9
100
AcDbSymbolTable
 70
1
  0
APPID
  5
208
100
AcDbSymbolTableRecord
100
AcDbRegAppTableRecord
  2
ACAD
 70
0
  0
ENDTAB
  0
TABLE
  2
BLOCK_RECORD
  5
1
100
AcDbSymbolTable
 70
0
  0
BLOCK_RECORD
  5
1F
100
AcDbSymbolTableRecord
100
AcDbBlockTableRecord
  2
*MODEL_SPACE
  0
BLOCK_RECORD
  5
1B
100
AcDbSymbolTableRecord
100
AcDbBlockTableRecord
  2
*PAPER_SPACE
  0
BLOCK_RECORD
  5
209
100
AcDbSymbolTableRecord
100
AcDbBlockTableRecord
  2
_ARROW_FILLED
  0
BLOCK_RECORD
  5
20A
100
AcDbSymbolTableRecord
100
AcDbBlockTableRecord
  2
*D0
  0
BLOCK_RECORD
  5
20B
100
AcDbSymbolTableRecord
100
AcDbBlockTableRecord
  2
*D1
  0
ENDTAB
  0
TABLE
  2
DIMSTYLE
  5
A
100
AcDbSymbolTable
 70
1
  0
DIMSTYLE
105
20C
100
AcDbSymbolTableRecord
100
AcDbDimStyleTableRecord
  2
STANDARD
 70
0
  3

  4

  5
_ARROW_FILLED
  6
_ARROW_FILLED
  7
_ARROW_FILLED
 40
1.0
 41
3.5
 42
0.0
 43
0.38
 44
2.0
 45
0.0
 46
0.0
 47
0.01
 48
0.01
140
3.5
141
0.09
142
0.0
143
25.4
144
1.0
145
0.0
146
1.0
147
0.625
 71
1.0
 72
0.0
 73
0
 74
0
 75
0
 76
0
 77
1
 78
8
170
0
171
1
172
0
173
0
174
0
175
0
176
0
177
0
178
5
270
2
271
2
272
2
273
2
274
2
275
0
280
0
281
0
282
0
283
1
284
8
285
0
286
0
287
3
288
0
340
11
  0
DIMSTYLE
105
20D
100
AcDbSymbolTableRecord
100
AcDbDimStyleTableRecord
  2
DIMSTYLE_1
 70
0
  3

  4

  5
_ARROW_FILLED
  6
_ARROW_FILLED
  7
_ARROW_FILLED
 40
1.0
 41
3.5
 42
0.0
 43
0.38
 44
2.0
 45
0.0
 46
0.0
 47
0.3
 48
0.3
140
3.5
141
0.09
142
0.0
143
25.4
144
1.0
145
0.0
146
1.0
147
0.875
 71
0.0
 72
0.0
 73
0
 74
0
 75
0
 76
0
 77
1
 78
8
170
0
171
1
172
0
173
0
174
0
175
0
176
0
177
0
178
5
270
2
271
4
272
-1
273
2
274
2
275
0
280
0
281
0
282
0
283
1
284
8
285
0
286
0
287
3
288
0
340
207
  0
DIMSTYLE
105
20E
100
AcDbSymbolTableRecord
100
AcDbDimStyleTableRecord
  2
DIMSTYLE_2
 70
0
  3

  4

  5
_ARROW_FILLED
  6
_ARROW_FILLED
  7
_ARROW_FILLED
 40
1.0
 41
3.5
 42
0.0
 43
0.38
 44
2.0
 45
0.0
 46
0.0
 47
0.5
 48
0.5
140
3.5
141
0.09
142
0.0
143
25.4
144
1.0
145
0.0
146
1.0
147
0.875
 71
0.0
 72
0.0
 73
0
 74
0
 75
0
 76
0
 77
1
 78
8
170
0
171
1
172
0
173
0
174
0
175
0
176
0
177
0
178
5
270
2
271
4
272
-1
273
2
274
2
275
0
280
0
281
0
282
0
283
1
284
8
285
0
286
0
287
3
288
0
340
207
  0
ENDTAB
  0
ENDSEC
  0
SECTION
  2
BLOCKS
  0
BLOCK
  5
20
100
AcDbEntity
  8
0
100
AcDbBlockBegin
  2
*MODEL_SPACE
 70
0
 10
0.0
 20
0.0
 30
0.0
  3
*MODEL_SPACE
  1

  0
ENDBLK
  5
21
100
AcDbEntity
  8
0
100
AcDbBlockEnd
  0
BLOCK
  5
1C
100
AcDbEntity
  8
0
100
AcDbBlockBegin
  2
*PAPER_SPACE
 70
0
 10
0.0
 20
0.0
 30
0.0
  3
*PAPER_SPACE
  1

  0
ENDBLK
  5
1D
100
AcDbEntity
  8
0
100
AcDbBlockEnd
  0
BLOCK
  5
20F
100
AcDbEntity
  8
0
100
AcDbBlockBegin
  2
_ARROW_FILLED
 70
64
 10
0.0
 20
0.0
  3
_ARROW_FILLED
  1

  0
SOLID
  5
210
100
AcDbEntity
  8
0
  6
BYBLOCK
 62
0
100
AcDbTrace
 10
0.0
 20
0.0
 11
-1.0
 21
0.1428571429
 12
-1.0
 22
-0.1428571429
 13
-1.0
 23
-0.1428571429
  0
ENDBLK
  5
211
100
AcDbEntity
  8
0
  6
BYBLOCK
 62
0
100
AcDbBlockEnd
  0
BLOCK
  5
212
100
AcDbEntity
  8
A_BEMASSUNGEN
100
AcDbBlockBegin
 62
2
  6
CONTINUOUS
  2
*D0
 70
65
 10
0.0
 20
0.0
  3
*D0
  1

  0
MTEXT
  5
213
100
AcDbEntity
  8
A_BEMASSUNGEN
100
AcDbMText
 62
5
  6
CONTINUOUS
  7
TEXTSTYLE_2
 71
2
 72
1
 10
54.4499434389
 20
218.6478435772
 30
0.0
 11
1.0
 21
0.0
 31
0.0
  1
65.5
 40
3.5
 41
14.625
  0
LINE
  5
214
100
AcDbEntity
  8
A_BEMASSUNGEN
100
AcDbLine
 62
2
  6
CONTINUOUS
 10
21.6999434389
 20
205.038178733
 11
21.6999434389
 21
216.2728435772
  0
LINE
  5
215
100
AcDbEntity
  8
A_BEMASSUNGEN
100
AcDbLine
 62
2
  6
CONTINUOUS
 10
87.1999434389
 20
205.038178733
 11
87.1999434389
 21
216.2728435772
  0
LINE
  5
216
100
AcDbEntity
  8
A_BEMASSUNGEN
100
AcDbLine
 62
2
  6
CONTINUOUS
 10
21.6999434389
 20
214.2728435772
 11
54.4499434389
 21
214.2728435772
  0
LINE
  5
217
100
AcDbEntity
  8
A_BEMASSUNGEN
100
AcDbLine
 62
2
  6
CONTINUOUS
 10
87.1999434389
 20
214.2728435772
 11
54.4499434389
 21
214.2728435772
  0
INSERT
  5
218
100
AcDbEntity
  8
A_BEMASSUNGEN
100
AcDbBlockReference
 62
2
  6
CONTINUOUS
  2
_ARROW_FILLED
 10
21.6999434389
 20
214.2728435772
 41
3.5
 42
3.5
 43
3.5
 50
180.0
  0
INSERT
  5
219
100
AcDbEntity
  8
A_BEMASSUNGEN
100
AcDbBlockReference
 62
2
  6
CONTINUOUS
  2
_ARROW_FILLED
 10
87.1999434389
 20
214.2728435772
 41
3.5
 42
3.5
 43
3.5
  0
ENDBLK
  5
21A
100
AcDbEntity
  8
0
  6
BYBLOCK
 62
0
100
AcDbBlockEnd
  0
BLOCK
  5
21B
100
AcDbEntity
  8
A_BEMASSUNGEN
100
AcDbBlockBegin
 62
2
  6
CONTINUOUS
  2
*D1
 70
65
 10
0.0
 20
0.0
  3
*D1
  1

  0
MTEXT
  5
21C
100
AcDbEntity
  8
A_BEMASSUNGEN
100
AcDbMText
 62
5
  6
CONTINUOUS
  7
TEXTSTYLE_2
 71
2
 72
1
 10
4.6571974682
 20
105.038178733
 30
0.0
 11
0.0
 21
1.0
 31
0.0
  1
200
 40
3.5
 41
12.375
  0
LINE
  5
21D
100
AcDbEntity
  8
A_BEMASSUNGEN
100
AcDbLine
 62
2
  6
CONTINUOUS
 10
21.6999434389
 20
205.038178733
 11
7.0321974682
 21
205.038178733
  0
LINE
  5
21E
100
AcDbEntity
  8
A_BEMASSUNGEN
100
AcDbLine
 62
2
  6
CONTINUOUS
 10
21.6999434389
 20
5.038178733
 11
7.0321974682
 21
5.038178733
  0
LINE
  5
21F
100
AcDbEntity
  8
A_BEMASSUNGEN
100
AcDbLine
 62
2
  6
CONTINUOUS
 10
9.0321974682
 20
205.038178733
 11
9.0321974682
 21
105.038178733
  0
LINE
  5
220
100
AcDbEntity
  8
A_BEMASSUNGEN
100
AcDbLine
 62
2
  6
CONTINUOUS
 10
9.0321974682
 20
5.038178733
 11
9.0321974682
 21
105.038178733
  0
INSERT
  5
221
100
AcDbEntity
  8
A_BEMASSUNGEN
100
AcDbBlockReference
 62
2
  6
CONTINUOUS
  2
_ARROW_FILLED
 10
9.0321974682
 20
205.038178733
 41
3.5
 42
3.5
 43
3.5
 50
90.0
  0
INSERT
  5
222
100
AcDbEntity
  8
A_BEMASSUNGEN
100
AcDbBlockReference
 62
2
  6
CONTINUOUS
  2
_ARROW_FILLED
 10
9.0321974682
 20
5.038178733
 41
3.5
 42
3.5
 43
3.5
 50
270.0
  0
ENDBLK
  5
223
100
AcDbEntity
  8
0
  6
BYBLOCK
 62
0
100
AcDbBlockEnd
  0
ENDSEC
  0
SECTION
  2
ENTITIES
  0
DIMENSION
  5
224
100
AcDbEntity
  8
A_BEMASSUNGEN
100
AcDbDimension
 62
2
  6
CONTINUOUS
  2
*D0
 10
87.1999434389
 20
214.2728435772
 11
53.9499429253
 21
214.2728435772
 70
160
  3
DIMSTYLE_1
100
AcDbAlignedDimension
 13
21.6999434389
 23
205.038178733
 14
87.1999434389
 24
205.038178733
100
AcDbRotatedDimension
  0
DIMENSION
  5
225
100
AcDbEntity
  8
A_BEMASSUNGEN
100
AcDbDimension
 62
2
  6
CONTINUOUS
  2
*D1
 10
9.0321974682
 20
5.038178733
 11
9.0321974682
 21
104.5381793261
 70
160
  3
DIMSTYLE_2
100
AcDbAlignedDimension
 13
21.6999434389
 23
205.038178733
 14
21.6999434389
 24
5.038178733
 50
270.0
100
AcDbRotatedDimension
  0
LINE
  5
226
100
AcDbEntity
  8
0
100
AcDbLine
 62
7
  6
CONTINUOUS
 10
31.4194226771
 20
197.6040092738
 11
31.7724448195
 21
197.7824893967
  0
LINE
  5
227
100
AcDbEntity
  8
0
100
AcDbLine
 62
7
  6
CONTINUOUS
 10
27.9804642007
 20
192.4723481923
 11
27.6274420584
 21
192.2938680694
  0
LINE
  5
228
100
AcDbEntity
  8
0
100
AcDbLine
 62
7
  6
CONTINUOUS
 10
26.2939429787
 20
195.5132196328
 11
26.6697718348
 21
195.6366394783
  0
LINE
  5
229
100
AcDbEntity
  8
0
100
AcDbLine
 62
7
  6
CONTINUOUS
 10
33.1059438991
 20
194.5631378333
 11
32.7301150431
 21
194.4397179877
  0
LINE
  5
22A
100
AcDbEntity
  8
0
100
AcDbLine
 62
7
  6
CONTINUOUS
 10
87.1999434389
 20
5.038178733
 11
21.6999434389
 21
5.038178733
  0
LINE
  5
22B
100
AcDbEntity
  8
0
100
AcDbLine
 62
7
  6
CONTINUOUS
 10
52.6361136593
 20
11.038178733
 11
52.9765391506
 21
11.038178733
  0
LINE
  5
22C
100
AcDbEntity
  8
0
100
AcDbLine
 62
7
  6
CONTINUOUS
 10
54.5935603537
 20
11.1215119869
 11
54.7637733377
 21
11.1215119869
  0
LINE
  5
22D
100
AcDbEntity
  8
0
100
AcDbLine
 62
7
  6
CONTINUOUS
 10
52.9765391506
 20
11.4548454792
 11
52.6361136593
 21
11.4548454792
  0
LINE
  5
22E
100
AcDbEntity
  8
0
100
AcDbLine
 62
7
  6
CONTINUOUS
 10
54.7637733377
 20
11.538178733
 11
54.5935603537
 21
11.538178733
  0
LINE
  5
22F
100
AcDbEntity
  8
0
100
AcDbLine
 62
7
  6
CONTINUOUS
 10
54.2531348623
 20
11.2048454792
 11
54.5935603537
 21
11.1215119869
  0
LINE
  5
230
100
AcDbEntity
  8
0
100
AcDbLine
 62
7
  6
CONTINUOUS
 10
26.6697718348
 20
14.4397179877
 11
26.2939429787
 21
14.5631378333
  0
LINE
  5
231
100
AcDbEntity
  8
0
100
AcDbLine
 62
7
  6
CONTINUOUS
 10
32.7301150431
 20
15.6366394783
 11
33.1059438991
 21
15.5132196328
  0
LINE
  5
232
100
AcDbEntity
  8
0
100
AcDbLine
 62
7
  6
CONTINUOUS
 10
31.7724448195
 20
12.2938680694
 11
31.4194226771
 21
12.4723481923
  0
LINE
  5
233
100
AcDbEntity
  8
0
100
AcDbLine
 62
7
  6
CONTINUOUS
 10
27.6274420584
 20
17.7824893967
 11
27.9804642007
 21
17.6040092738
  0
LINE
  5
234
100
AcDbEntity
  8
0
100
AcDbLine
 62
7
  6
CONTINUOUS
 10
47.4194226771
 20
197.6040092738
 11
47.7724448195
 21
197.7824893967
  0
LINE
  5
235
100
AcDbEntity
  8
0
100
AcDbLine
 62
7
  6
CONTINUOUS
 10
43.9804642007
 20
192.4723481923
 11
43.6274420584
 21
192.2938680694
  0
LINE
  5
236
100
AcDbEntity
  8
0
100
AcDbLine
 62
7
  6
CONTINUOUS
 10
52.4659009136
 20
195.538178733
 11
52.6361136593
 21
195.6215120763
  0
LINE
  5
237
100
AcDbEntity
  8
0
100
AcDbLine
 62
7
  6
CONTINUOUS
 10
42.2939429787
 20
195.5132196328
 11
42.6697718348
 21
195.6366394783
  0
LINE
  5
238
100
AcDbEntity
  8
0
100
AcDbLine
 62
7
  6
CONTINUOUS
 10
49.1059438991
 20
194.5631378333
 11
48.7301150431
 21
194.4397179877
  0
LINE
  5
239
100
AcDbEntity
  8
0
100
AcDbLine
 62
7
  6
CONTINUOUS
 10
52.6361136593
 20
196.038178733
 11
52.3807944812
 21
195.9548453972
  0
LINE
  5
23A
100
AcDbEntity
  8
0
100
AcDbLine
 62
7
  6
CONTINUOUS
 10
54.7637733377
 20
11.1215119869
 11
55.1041988291
 21
11.2048454792
  0
LINE
  5
23B
100
AcDbEntity
  8
0
100
AcDbLine
 62
7
  6
CONTINUOUS
 10
52.9765391506
 20
11.038178733
 11
53.3169647612
 21
11.1215119869
  0
LINE
  5
23C
100
AcDbEntity
  8
0
100
AcDbLine
 62
7
  6
CONTINUOUS
 10
53.912709371
 20
12.70484536
 11
53.5722838797
 21
12.70484536
  0
LINE
  5
23D
100
AcDbEntity
  8
A_ACHSEN
100
AcDbLine
 62
7
  6
CENTER
 10
23.4512515294
 20
15.038178733
 11
35.9486353484
 21
15.038178733
  0
LINE
  5
23E
100
AcDbEntity
  8
A_ACHSEN
100
AcDbLine
 62
7
  6
CENTER
 10
39.9242144253
 20
15.038178733
 11
51.4756724525
 21
15.038178733
  0
LINE
  5
23F
100
AcDbEntity
  8
A_ACHSEN
100
AcDbLine
 62
7
  6
CENTER
 10
71.2391537919
 20
15.038178733
 11
85.160733086
 21
15.038178733
  0
LINE
  5
240
100
AcDbEntity
  8
0
100
AcDbLine
 62
7
  6
CONTINUOUS
 10
55.1041988291
 20
13.8715120614
 11
54.7637733377
 21
13.9548453972
  0
LINE
  5
241
100
AcDbEntity
  8
0
100
AcDbLine
 62
7
  6
CONTINUOUS
 10
52.3807944812
 20
11.1215119869
 11
52.6361136593
 21
11.038178733
  0
LINE
  5
242
100
AcDbEntity
  8
0
100
AcDbLine
 62
7
  6
CONTINUOUS
 10
42.6697718348
 20
14.4397179877
 11
42.2939429787
 21
14.5631378333
  0
LINE
  5
243
100
AcDbEntity
  8
0
100
AcDbLine
 62
7
  6
CONTINUOUS
 10
48.7301150431
 20
15.6366394783
 11
49.1059438991
 21
15.5132196328
  0
LINE
  5
244
100
AcDbEntity
  8
0
100
AcDbLine
 62
7
  6
CONTINUOUS
 10
52.6361136593
 20
11.4548454792
 11
52.4659009136
 21
11.538178733
  0
LINE
  5
245
100
AcDbEntity
  8
0
100
AcDbLine
 62
7
  6
CONTINUOUS
 10
54.5935603537
 20
11.538178733
 11
54.2531348623
 21
11.7048454792
  0
LINE
  5
246
100
AcDbEntity
  8
0
100
AcDbLine
 62
7
  6
CONTINUOUS
 10
47.7724448195
 20
12.2938680694
 11
47.4194226771
 21
12.4723481923
  0
LINE
  5
247
100
AcDbEntity
  8
0
100
AcDbLine
 62
7
  6
CONTINUOUS
 10
43.6274420584
 20
17.7824893967
 11
43.9804642007
 21
17.6040092738
  0
LINE
  5
248
100
AcDbEntity
  8
0
100
AcDbLine
 62
7
  6
CONTINUOUS
 10
52.3807944812
 20
195.9548453972
 11
52.1254753627
 21
195.788178733
  0
LINE
  5
249
100
AcDbEntity
  8
0
100
AcDbLine
 62
7
  6
CONTINUOUS
 10
53.3169647612
 20
193.1215119869
 11
53.5722838797
 21
193.288178733
  0
LINE
  5
24A
100
AcDbEntity
  8
0
100
AcDbLine
 62
7
  6
CONTINUOUS
 10
55.0190924562
 20
193.7048454792
 11
54.7637733377
 21
193.538178733
  0
LINE
  5
24B
100
AcDbEntity
  8
0
100
AcDbLine
 62
7
  6
CONTINUOUS
 10
53.3169647612
 20
193.6215119869
 11
52.9765391506
 21
193.4548454792
  0
LINE
  5
24C
100
AcDbEntity
  8
0
100
AcDbLine
 62
7
  6
CONTINUOUS
 10
74.7939429787
 20
195.5132196328
 11
75.1697718348
 21
195.6366394783
  0
LINE
  5
24D
100
AcDbEntity
  8
0
100
AcDbLine
 62
7
  6
CONTINUOUS
 10
50.2939429787
 20
185.5132196328
 11
50.6697718348
 21
185.6366394783
  0
LINE
  5
24E
100
AcDbEntity
  8
0
100
AcDbLine
 62
7
  6
CONTINUOUS
 10
81.6059438991
 20
194.5631378333
 11
81.2301150431
 21
194.4397179877
  0
LINE
  5
24F
100
AcDbEntity
  8
0
100
AcDbLine
 62
7
  6
CONTINUOUS
 10
62.7637733377
 20
23.038178733
 11
63.1041988291
 21
23.1215119869
  0
LINE
  5
250
100
AcDbEntity
  8
0
100
AcDbLine
 62
7
  6
CONTINUOUS
 10
59.6999434389
 20
23.038178733
 11
60.1254753627
 21
23.038178733
  0
LINE
  5
251
100
AcDbEntity
  8
0
100
AcDbLine
 62
7
  6
CONTINUOUS
 10
62.5935603537
 20
23.038178733
 11
62.7637733377
 21
23.038178733
  0
LINE
  5
252
100
AcDbEntity
  8
0
100
AcDbLine
 62
7
  6
CONTINUOUS
 10
62.7637733377
 20
23.538178733
 11
62.5935603537
 21
23.538178733
  0
LINE
  5
253
100
AcDbEntity
  8
0
100
AcDbLine
 62
7
  6
CONTINUOUS
 10
93.1999434389
 20
25.038178733
 11
91.6999434389
 21
25.038178733
  0
LINE
  5
254
100
AcDbEntity
  8
A_ACHSEN
100
AcDbLine
 62
7
  6
CENTER
 10
46.7743574118
 20
25.038178733
 11
60.6255294661
 21
25.038178733
  0
LINE
  5
255
100
AcDbEntity
  8
0
100
AcDbLine
 62
7
  6
CONTINUOUS
 10
60.1254753627
 20
26.038178733
 11
59.6999434389
 21
26.038178733
  0
LINE
  5
256
100
AcDbEntity
  8
0
100
AcDbLine
 62
7
  6
CONTINUOUS
 10
62.2531348623
 20
23.1215119869
 11
62.5935603537
 21
23.038178733
  0
LINE
  5
257
100
AcDbEntity
  8
0
100
AcDbLine
 62
7
  6
CONTINUOUS
 10
75.1697718348
 20
14.4397179877
 11
74.7939429787
 21
14.5631378333
  0
LINE
  5
258
100
AcDbEntity
  8
0
100
AcDbLine
 62
7
  6
CONTINUOUS
 10
50.6697718348
 20
24.4397179877
 11
50.2939429787
 21
24.5631378333
  0
LINE
  5
259
100
AcDbEntity
  8
0
100
AcDbLine
 62
7
  6
CONTINUOUS
 10
81.2301150431
 20
15.6366394783
 11
81.6059438991
 21
15.5132196328
  0
LINE
  5
25A
100
AcDbEntity
  8
0
100
AcDbLine
 62
7
  6
CONTINUOUS
 10
52.1254753627
 20
11.288178733
 11
52.3807944812
 21
11.1215119869
  0
LINE
  5
25B
100
AcDbEntity
  8
0
100
AcDbLine
 62
7
  6
CONTINUOUS
 10
53.9978157438
 20
11.3715119869
 11
54.2531348623
 21
11.2048454792
  0
LINE
  5
25C
100
AcDbEntity
  8
0
100
AcDbLine
 62
7
  6
CONTINUOUS
 10
54.7637733377
 20
13.538178733
 11
55.0190924562
 21
13.3715120465
  0
LINE
  5
25D
100
AcDbEntity
  8
0
100
AcDbLine
 62
7
  6
CONTINUOUS
 10
26.9556327753
 20
192.9656773525
 11
27.1341128982
 21
193.3186994949
  0
LINE
  5
25E
100
AcDbEntity
  8
0
100
AcDbLine
 62
7
  6
CONTINUOUS
 10
52.2956881084
 20
195.3715120465
 11
52.4659009136
 21
195.538178733
  0
LINE
  5
25F
100
AcDbEntity
  8
0
100
AcDbLine
 62
7
  6
CONTINUOUS
 10
55.4194226771
 20
187.6040092738
 11
55.7724448195
 21
187.7824893967
  0
LINE
  5
260
100
AcDbEntity
  8
0
100
AcDbLine
 62
7
  6
CONTINUOUS
 10
79.9194226771
 20
197.6040092738
 11
80.2724448195
 21
197.7824893967
  0
LINE
  5
261
100
AcDbEntity
  8
0
100
AcDbLine
 62
7
  6
CONTINUOUS
 10
51.9804642007
 20
182.4723481923
 11
51.6274420584
 21
182.2938680694
  0
LINE
  5
262
100
AcDbEntity
  8
0
100
AcDbLine
 62
7
  6
CONTINUOUS
 10
76.4804642007
 20
192.4723481923
 11
76.1274420584
 21
192.2938680694
  0
LINE
  5
263
100
AcDbEntity
  8
0
100
AcDbLine
 62
7
  6
CONTINUOUS
 10
57.1059438991
 20
184.5631378333
 11
56.7301150431
 21
184.4397179877
  0
LINE
  5
264
100
AcDbEntity
  8
0
100
AcDbLine
 62
7
  6
CONTINUOUS
 10
88.1999434389
 20
27.038178733
 11
89.6999434389
 21
27.038178733
  0
LINE
  5
265
100
AcDbEntity
  8
0
100
AcDbLine
 62
7
  6
CONTINUOUS
 10
63.1041988291
 20
25.8715120614
 11
62.7637733377
 21
25.9548453972
  0
LINE
  5
266
100
AcDbEntity
  8
0
100
AcDbLine
 62
7
  6
CONTINUOUS
 10
56.7301150431
 20
25.6366394783
 11
57.1059438991
 21
25.5132196328
  0
LINE
  5
267
100
AcDbEntity
  8
0
100
AcDbLine
 62
7
  6
CONTINUOUS
 10
62.5935603537
 20
23.538178733
 11
62.2531348623
 21
23.7048454792
  0
LINE
  5
268
100
AcDbEntity
  8
0
100
AcDbLine
 62
7
  6
CONTINUOUS
 10
55.7724448195
 20
22.2938680694
 11
55.4194226771
 21
22.4723481923
  0
LINE
  5
269
100
AcDbEntity
  8
0
100
AcDbLine
 62
7
  6
CONTINUOUS
 10
80.2724448195
 20
12.2938680694
 11
79.9194226771
 21
12.4723481923
  0
LINE
  5
26A
100
AcDbEntity
  8
0
100
AcDbLine
 62
7
  6
CONTINUOUS
 10
51.6274420584
 20
27.7824893967
 11
51.9804642007
 21
27.6040092738
  0
LINE
  5
26B
100
AcDbEntity
  8
0
100
AcDbLine
 62
7
  6
CONTINUOUS
 10
76.1274420584
 20
17.7824893967
 11
76.4804642007
 21
17.6040092738
  0
LINE
  5
26C
100
AcDbEntity
  8
0
100
AcDbLine
 62
7
  6
CONTINUOUS
 10
52.4659009136
 20
11.538178733
 11
52.2956881084
 21
11.7048454792
  0
LINE
  5
26D
100
AcDbEntity
  8
0
100
AcDbLine
 62
7
  6
CONTINUOUS
 10
54.2531348623
 20
11.7048454792
 11
54.0829221167
 21
11.8715119869
  0
LINE
  5
26E
100
AcDbEntity
  8
0
100
AcDbLine
 62
7
  6
CONTINUOUS
 10
55.4446243204
 20
13.538178733
 11
55.1041988291
 21
13.8715120614
  0
LINE
  5
26F
100
AcDbEntity
  8
0
100
AcDbLine
 62
7
  6
CONTINUOUS
 10
27.1341128982
 20
16.7576579712
 11
26.9556327753
 21
17.1106801136
  0
LINE
  5
270
100
AcDbEntity
  8
0
100
AcDbLine
 62
7
  6
CONTINUOUS
 10
32.4442541026
 20
197.1106801136
 11
32.2657739796
 21
196.7576579712
  0
LINE
  5
271
100
AcDbEntity
  8
0
100
AcDbLine
 62
7
  6
CONTINUOUS
 10
55.1041988291
 20
193.2048454792
 11
55.4446243204
 21
193.538178733
  0
LINE
  5
272
100
AcDbEntity
  8
0
100
AcDbLine
 62
7
  6
CONTINUOUS
 10
63.0190924562
 20
184.7048454792
 11
62.7637733377
 21
184.538178733
  0
LINE
  5
273
100
AcDbEntity
  8
0
100
AcDbLine
 62
7
  6
CONTINUOUS
 10
63.4194226771
 20
177.6040092738
 11
63.7724448195
 21
177.7824893967
  0
LINE
  5
274
100
AcDbEntity
  8
0
100
AcDbLine
 62
7
  6
CONTINUOUS
 10
58.2939429787
 20
175.5132196328
 11
58.6697718348
 21
175.6366394783
  0
LINE
  5
275
100
AcDbEntity
  8
0
100
AcDbLine
 62
7
  6
CONTINUOUS
 10
65.1059438991
 20
174.5631378333
 11
64.7301150431
 21
174.4397179877
  0
LINE
  5
276
100
AcDbEntity
  8
A_ACHSEN
100
AcDbLine
 62
7
  6
CONTINUOUS
 10
61.4532352398
 20
35.038178733
 11
61.0480915871
 21
35.038178733
  0
LINE
  5
277
100
AcDbEntity
  8
A_ACHSEN
100
AcDbLine
 62
7
  6
CENTER
 10
60.3115447421
 20
35.038178733
 11
54.1137963258
 21
35.038178733
  0
LINE
  5
278
100
AcDbEntity
  8
A_ACHSEN
100
AcDbLine
 62
7
  6
CENTER
 10
61.4532352398
 20
35.038178733
 11
69.286090552
 21
35.038178733
  0
LINE
  5
279
100
AcDbEntity
  8
0
100
AcDbLine
 62
7
  6
CONTINUOUS
 10
67.6999434389
 20
35.038178733
 11
71.6999434389
 21
35.038178733
  0
LINE
  5
27A
100
AcDbEntity
  8
0
100
AcDbLine
 62
7
  6
CONTINUOUS
 10
71.0190924562
 20
35.538178733
 11
67.6999434389
 21
35.538178733
  0
LINE
  5
27B
100
AcDbEntity
  8
0
100
AcDbLine
 62
7
  6
CONTINUOUS
 10
71.1041988291
 20
36.038178733
 11
70.423347608
 21
36.038178733
  0
LINE
  5
27C
100
AcDbEntity
  8
A_ACHSEN
100
AcDbLine
 62
7
  6
CENTER
 10
80.9630948597
 20
36.038178733
 11
90.4367920181
 21
36.038178733
  0
LINE
  5
27D
100
AcDbEntity
  8
A_ACHSEN
100
AcDbLine
 62
7
  6
CENTER
 10
96.0986488869
 20
36.038178733
 11
105.301237991
 21
36.038178733
  0
LINE
  5
27E
100
AcDbEntity
  8
0
100
AcDbLine
 62
7
  6
CONTINUOUS
 10
95.6999434389
 20
39.538178733
 11
90.6999434389
 21
39.538178733
  0
LINE
  5
27F
100
AcDbEntity
  8
0
100
AcDbLine
 62
7
  6
CONTINUOUS
 10
58.6697718348
 20
34.4397179877
 11
58.2939429787
 21
34.5631378333
  0
LINE
  5
280
100
AcDbEntity
  8
0
100
AcDbLine
 62
7
  6
CONTINUOUS
 10
64.7301150431
 20
35.6366394783
 11
65.1059438991
 21
35.5132196328
  0
LINE
  5
281
100
AcDbEntity
  8
0
100
AcDbLine
 62
7
  6
CONTINUOUS
 10
63.7724448195
 20
32.2938680694
 11
63.4194226771
 21
32.4723481923
  0
LINE
  5
282
100
AcDbEntity
  8
0
100
AcDbLine
 62
7
  6
CONTINUOUS
 10
61.9978157438
 20
23.288178733
 11
62.2531348623
 21
23.1215119869
  0
LINE
  5
283
100
AcDbEntity
  8
0
100
AcDbLine
 62
7
  6
CONTINUOUS
 10
62.7637733377
 20
25.538178733
 11
63.0190924562
 21
25.3715120465
  0
LINE
  5
284
100
AcDbEntity
  8
0
100
AcDbLine
 62
7
  6
CONTINUOUS
 10
53.7424966253
 20
11.7048454792
 11
53.9978157438
 21
11.3715119869
  0
LINE
  5
285
100
AcDbEntity
  8
0
100
AcDbLine
 62
7
  6
CONTINUOUS
 10
32.2657739796
 20
13.3186994949
 11
32.4442541026
 21
12.9656773525
  0
LINE
  5
286
100
AcDbEntity
  8
0
100
AcDbLine
 62
7
  6
CONTINUOUS
 10
29.1014826936
 20
198.0683503372
 11
29.2249025392
 21
198.4441791932
  0
LINE
  5
287
100
AcDbEntity
  8
0
100
AcDbLine
 62
7
  6
CONTINUOUS
 10
30.2984041842
 20
192.0080071289
 11
30.1749843387
 21
191.6321782729
  0
LINE
  5
288
100
AcDbEntity
  8
0
100
AcDbLine
 62
7
  6
CONTINUOUS
 10
42.9556327753
 20
192.9656773525
 11
43.1341128982
 21
193.3186994949
  0
LINE
  5
289
100
AcDbEntity
  8
0
100
AcDbLine
 62
7
  6
CONTINUOUS
 10
52.1254753627
 20
195.788178733
 11
51.9552625872
 21
195.538178733
  0
LINE
  5
28A
100
AcDbEntity
  8
0
100
AcDbLine
 62
7
  6
CONTINUOUS
 10
53.4871775068
 20
193.8715119869
 11
53.3169647612
 21
193.6215119869
  0
LINE
  5
28B
100
AcDbEntity
  8
0
100
AcDbLine
 62
7
  6
CONTINUOUS
 10
55.1893052019
 20
193.9548454792
 11
55.0190924562
 21
193.7048454792
  0
LINE
  5
28C
100
AcDbEntity
  8
0
100
AcDbLine
 62
7
  6
CONTINUOUS
 10
63.1041988291
 20
184.1215119869
 11
63.4446243204
 21
184.4548454792
  0
LINE
  5
28D
100
AcDbEntity
  8
0
100
AcDbLine
 62
7
  6
CONTINUOUS
 10
59.9804642007
 20
172.4723481923
 11
59.6274420584
 21
172.2938680694
  0
LINE
  5
28E
100
AcDbEntity
  8
A_RUNDUNGEN
100
AcDbLine
 62
7
  6
CONTINUOUS
 10
105.1999434389
 20
41.538178733
 11
102.3331930196
 21
41.538178733
  0
LINE
  5
28F
100
AcDbEntity
  8
0
100
AcDbLine
 62
7
  6
CONTINUOUS
 10
59.6274420584
 20
37.7824893967
 11
59.9804642007
 21
37.6040092738
  0
LINE
  5
290
100
AcDbEntity
  8
0
100
AcDbLine
 62
7
  6
CONTINUOUS
 10
63.4446243204
 20
25.538178733
 11
63.1041988291
 21
25.8715120614
  0
LINE
  5
291
100
AcDbEntity
  8
0
100
AcDbLine
 62
7
  6
CONTINUOUS
 10
51.9552625872
 20
11.538178733
 11
52.1254753627
 21
11.288178733
  0
LINE
  5
292
100
AcDbEntity
  8
0
100
AcDbLine
 62
7
  6
CONTINUOUS
 10
55.0190924562
 20
13.3715120465
 11
55.1893052019
 21
13.1215120465
  0
LINE
  5
293
100
AcDbEntity
  8
0
100
AcDbLine
 62
7
  6
CONTINUOUS
 10
43.1341128982
 20
16.7576579712
 11
42.9556327753
 21
17.1106801136
  0
LINE
  5
294
100
AcDbEntity
  8
0
100
AcDbLine
 62
7
  6
CONTINUOUS
 10
29.2249025392
 20
11.6321782729
 11
29.1014826936
 21
12.0080071289
  0
LINE
  5
295
100
AcDbEntity
  8
0
100
AcDbLine
 62
7
  6
CONTINUOUS
 10
30.1749843387
 20
18.4441791932
 11
30.2984041842
 21
18.0683503372
  0
LINE
  5
296
100
AcDbEntity
  8
0
100
AcDbLine
 62
7
  6
CONTINUOUS
 10
48.4442541026
 20
197.1106801136
 11
48.2657739796
 21
196.7576579712
  0
LINE
  5
297
100
AcDbEntity
  8
0
100
AcDbLine
 62
7
  6
CONTINUOUS
 10
51.9552625872
 20
195.538178733
 11
51.7850498192
 21
195.2048454196
  0
LINE
  5
298
100
AcDbEntity
  8
0
100
AcDbLine
 62
7
  6
CONTINUOUS
 10
52.2105817355
 20
195.2048454196
 11
52.2956881084
 21
195.3715120465
  0
LINE
  5
299
100
AcDbEntity
  8
A_RUNDUNGEN
100
AcDbLine
 62
7
  6
CONTINUOUS
 10
86.9070502201
 20
201.2452855142
 11
86.4928366577
 21
200.8310719518
  0
LINE
  5
29A
100
AcDbEntity
  8
A_ACHSEN
100
AcDbLine
 62
7
  6
CONTINUOUS
 10
41.6999434389
 20
49.888178733
 11
66.6999434389
 21
49.888178733
  0
LINE
  5
29B
100
AcDbEntity
  8
A_ACHSEN
100
AcDbLine
 62
7
  6
CENTER
 10
36.4175936109
 20
54.038178733
 11
72.1097502805
 21
54.038178733
  0
LINE
  5
29C
100
AcDbEntity
  8
A_RUNDUNGEN
100
AcDbLine
 62
7
  6
CONTINUOUS
 10
86.4928366577
 20
9.2452855142
 11
86.9070502201
 21
8.8310719518
  0
LINE
  5
29D
100
AcDbEntity
  8
0
100
AcDbLine
 62
7
  6
CONTINUOUS
 10
62.2531348623
 20
23.7048454792
 11
60.1254753627
 21
26.038178733
  0
LINE
  5
29E
100
AcDbEntity
  8
0
100
AcDbLine
 62
7
  6
CONTINUOUS
 10
60.1254753627
 20
25.3715120465
 11
61.9978157438
 21
23.288178733
  0
LINE
  5
29F
100
AcDbEntity
  8
0
100
AcDbLine
 62
7
  6
CONTINUOUS
 10
51.7850498192
 20
11.8715119869
 11
51.9552625872
 21
11.538178733
  0
LINE
  5
2A0
100
AcDbEntity
  8
0
100
AcDbLine
 62
7
  6
CONTINUOUS
 10
52.2956881084
 20
11.7048454792
 11
52.2105817355
 21
11.8715119869
  0
LINE
  5
2A1
100
AcDbEntity
  8
0
100
AcDbLine
 62
7
  6
CONTINUOUS
 10
48.2657739796
 20
13.3186994949
 11
48.4442541026
 21
12.9656773525
  0
LINE
  5
2A2
100
AcDbEntity
  8
0
100
AcDbLine
 62
7
  6
CONTINUOUS
 10
21.6999434389
 20
5.038178733
 11
21.6999434389
 21
205.038178733
  0
LINE
  5
2A3
100
AcDbEntity
  8
0
100
AcDbLine
 62
7
  6
CONTINUOUS
 10
45.1014826936
 20
198.0683503372
 11
45.2249025392
 21
198.4441791932
  0
LINE
  5
2A4
100
AcDbEntity
  8
0
100
AcDbLine
 62
7
  6
CONTINUOUS
 10
46.2984041842
 20
192.0080071289
 11
46.1749843387
 21
191.6321782729
  0
LINE
  5
2A5
100
AcDbEntity
  8
0
100
AcDbLine
 62
7
  6
CONTINUOUS
 10
53.5722838797
 20
193.288178733
 11
53.7424966253
 21
193.7048454792
  0
LINE
  5
2A6
100
AcDbEntity
  8
0
100
AcDbLine
 62
7
  6
CONTINUOUS
 10
50.9556327753
 20
182.9656773525
 11
51.1341128982
 21
183.3186994949
  0
LINE
  5
2A7
100
AcDbEntity
  8
0
100
AcDbLine
 62
7
  6
CONTINUOUS
 10
56.4442541026
 20
187.1106801136
 11
56.2657739796
 21
186.7576579712
  0
LINE
  5
2A8
100
AcDbEntity
  8
0
100
AcDbLine
 62
7
  6
CONTINUOUS
 10
31.9556327753
 20
137.9656773525
 11
32.1341128982
 21
138.3186994949
  0
LINE
  5
2A9
100
AcDbEntity
  8
0
100
AcDbLine
 62
7
  6
CONTINUOUS
 10
55.4446243204
 20
193.538178733
 11
55.6148370661
 21
193.8715119869
  0
LINE
  5
2AA
100
AcDbEntity
  8
0
100
AcDbLine
 62
7
  6
CONTINUOUS
 10
63.1893052019
 20
184.9548454792
 11
63.0190924562
 21
184.7048454792
  0
LINE
  5
2AB
100
AcDbEntity
  8
0
100
AcDbLine
 62
7
  6
CONTINUOUS
 10
36.4194226771
 20
142.6040092738
 11
36.7724448195
 21
142.7824893967
  0
LINE
  5
2AC
100
AcDbEntity
  8
0
100
AcDbLine
 62
7
  6
CONTINUOUS
 10
32.9804642007
 20
137.4723481923
 11
32.6274420584
 21
137.2938680694
  0
LINE
  5
2AD
100
AcDbEntity
  8
0
100
AcDbLine
 62
7
  6
CONTINUOUS
 10
31.2939429787
 20
140.5132196328
 11
31.6697718348
 21
140.6366394783
  0
LINE
  5
2AE
100
AcDbEntity
  8
A_ACHSEN
100
AcDbLine
 62
7
  6
CONTINUOUS
 10
66.6999434389
 20
58.188178733
 11
41.6999434389
 21
58.188178733
  0
LINE
  5
2AF
100
AcDbEntity
  8
0
100
AcDbLine
 62
7
  6
CONTINUOUS
 10
31.6697718348
 20
69.4397179877
 11
31.2939429787
 21
69.5631378333
  0
LINE
  5
2B0
100
AcDbEntity
  8
0
100
AcDbLine
 62
7
  6
CONTINUOUS
 10
36.7724448195
 20
67.2938680694
 11
36.4194226771
 21
67.4723481923
  0
LINE
  5
2B1
100
AcDbEntity
  8
0
100
AcDbLine
 62
7
  6
CONTINUOUS
 10
32.6274420584
 20
72.7824893967
 11
32.9804642007
 21
72.6040092738
  0
LINE
  5
2B2
100
AcDbEntity
  8
0
100
AcDbLine
 62
7
  6
CONTINUOUS
 10
70.423347608
 20
36.038178733
 11
71.0190924562
 21
35.538178733
  0
LINE
  5
2B3
100
AcDbEntity
  8
0
100
AcDbLine
 62
7
  6
CONTINUOUS
 10
71.6999434389
 20
35.538178733
 11
71.1041988291
 21
36.038178733
  0
LINE
  5
2B4
100
AcDbEntity
  8
0
100
AcDbLine
 62
7
  6
CONTINUOUS
 10
63.0190924562
 20
25.3715120465
 11
63.1893052019
 21
25.1215120465
  0
LINE
  5
2B5
100
AcDbEntity
  8
0
100
AcDbLine
 62
7
  6
CONTINUOUS
 10
55.6148370661
 20
13.2048454196
 11
55.4446243204
 21
13.538178733
  0
LINE
  5
2B6
100
AcDbEntity
  8
0
100
AcDbLine
 62
7
  6
CONTINUOUS
 10
51.1341128982
 20
26.7576579712
 11
50.9556327753
 21
27.1106801136
  0
LINE
  5
2B7
100
AcDbEntity
  8
0
100
AcDbLine
 62
7
  6
CONTINUOUS
 10
56.2657739796
 20
23.3186994949
 11
56.4442541026
 21
22.9656773525
  0
LINE
  5
2B8
100
AcDbEntity
  8
0
100
AcDbLine
 62
7
  6
CONTINUOUS
 10
32.1341128982
 20
71.7576579712
 11
31.9556327753
 21
72.1106801136
  0
LINE
  5
2B9
100
AcDbEntity
  8
0
100
AcDbLine
 62
7
  6
CONTINUOUS
 10
45.2249025392
 20
11.6321782729
 11
45.1014826936
 21
12.0080071289
  0
LINE
  5
2BA
100
AcDbEntity
  8
0
100
AcDbLine
 62
7
  6
CONTINUOUS
 10
46.1749843387
 20
18.4441791932
 11
46.2984041842
 21
18.0683503372
  0
LINE
  5
2BB
100
AcDbEntity
  8
0
100
AcDbLine
 62
7
  6
CONTINUOUS
 10
34.1014826936
 20
143.0683503372
 11
34.2249025392
 21
143.4441791932
  0
LINE
  5
2BC
100
AcDbEntity
  8
0
100
AcDbLine
 62
7
  6
CONTINUOUS
 10
35.2984041842
 20
137.0080071289
 11
35.1749843387
 21
136.6321782729
  0
LINE
  5
2BD
100
AcDbEntity
  8
0
100
AcDbLine
 62
7
  6
CONTINUOUS
 10
53.1014826936
 20
188.0683503372
 11
53.2249025392
 21
188.4441791932
  0
LINE
  5
2BE
100
AcDbEntity
  8
0
100
AcDbLine
 62
7
  6
CONTINUOUS
 10
37.4442541026
 20
142.1106801136
 11
37.2657739796
 21
141.7576579712
  0
LINE
  5
2BF
100
AcDbEntity
  8
0
100
AcDbLine
 62
7
  6
CONTINUOUS
 10
58.9556327753
 20
172.9656773525
 11
59.1341128982
 21
173.3186994949
  0
LINE
  5
2C0
100
AcDbEntity
  8
0
100
AcDbLine
 62
7
  6
CONTINUOUS
 10
63.4446243204
 20
184.4548454792
 11
63.6148370661
 21
184.788178733
  0
LINE
  5
2C1
100
AcDbEntity
  8
0
100
AcDbLine
 62
7
  6
CONTINUOUS
 10
52.4194226771
 20
142.6040092738
 11
52.7724448195
 21
142.7824893967
  0
LINE
  5
2C2
100
AcDbEntity
  8
0
100
AcDbLine
 62
7
  6
CONTINUOUS
 10
48.9804642007
 20
137.4723481923
 11
48.6274420584
 21
137.2938680694
  0
LINE
  5
2C3
100
AcDbEntity
  8
0
100
AcDbLine
 62
7
  6
CONTINUOUS
 10
38.1059438991
 20
139.5631378333
 11
37.7301150431
 21
139.4397179877
  0
LINE
  5
2C4
100
AcDbEntity
  8
0
100
AcDbLine
 62
7
  6
CONTINUOUS
 10
47.2939429787
 20
140.5132196328
 11
47.6697718348
 21
140.6366394783
  0
LINE
  5
2C5
100
AcDbEntity
  8
0
100
AcDbLine
 62
7
  6
CONTINUOUS
 10
54.1059438991
 20
139.5631378333
 11
53.7301150431
 21
139.4397179877
  0
LINE
  5
2C6
100
AcDbEntity
  8
0
100
AcDbLine
 62
7
  6
CONTINUOUS
 10
37.7301150431
 20
70.6366394783
 11
38.1059438991
 21
70.5132196328
  0
LINE
  5
2C7
100
AcDbEntity
  8
0
100
AcDbLine
 62
7
  6
CONTINUOUS
 10
47.6697718348
 20
69.4397179877
 11
47.2939429787
 21
69.5631378333
  0
LINE
  5
2C8
100
AcDbEntity
  8
0
100
AcDbLine
 62
7
  6
CONTINUOUS
 10
53.7301150431
 20
70.6366394783
 11
54.1059438991
 21
70.5132196328
  0
LINE
  5
2C9
100
AcDbEntity
  8
0
100
AcDbLine
 62
7
  6
CONTINUOUS
 10
52.7724448195
 20
67.2938680694
 11
52.4194226771
 21
67.4723481923
  0
LINE
  5
2CA
100
AcDbEntity
  8
0
100
AcDbLine
 62
7
  6
CONTINUOUS
 10
48.6274420584
 20
72.7824893967
 11
48.9804642007
 21
72.6040092738
  0
LINE
  5
2CB
100
AcDbEntity
  8
0
100
AcDbLine
 62
7
  6
CONTINUOUS
 10
63.6148370661
 20
25.2048454196
 11
63.4446243204
 21
25.538178733
  0
LINE
  5
2CC
100
AcDbEntity
  8
0
100
AcDbLine
 62
7
  6
CONTINUOUS
 10
37.2657739796
 20
68.3186994949
 11
37.4442541026
 21
67.9656773525
  0
LINE
  5
2CD
100
AcDbEntity
  8
0
100
AcDbLine
 62
7
  6
CONTINUOUS
 10
59.1341128982
 20
36.7576579712
 11
58.9556327753
 21
37.1106801136
  0
LINE
  5
2CE
100
AcDbEntity
  8
0
100
AcDbLine
 62
7
  6
CONTINUOUS
 10
54.0829221167
 20
11.8715119869
 11
53.912709371
 21
12.3715121061
  0
LINE
  5
2CF
100
AcDbEntity
  8
0
100
AcDbLine
 62
7
  6
CONTINUOUS
 10
34.2249025392
 20
66.6321782729
 11
34.1014826936
 21
67.0080071289
  0
LINE
  5
2D0
100
AcDbEntity
  8
0
100
AcDbLine
 62
7
  6
CONTINUOUS
 10
35.1749843387
 20
73.4441791932
 11
35.2984041842
 21
73.0683503372
  0
LINE
  5
2D1
100
AcDbEntity
  8
0
100
AcDbLine
 62
7
  6
CONTINUOUS
 10
53.2249025392
 20
21.6321782729
 11
53.1014826936
 21
22.0080071289
  0
LINE
  5
2D2
100
AcDbEntity
  8
0
100
AcDbLine
 62
7
  6
CONTINUOUS
 10
51.6999434389
 20
12.20484536
 11
51.7850498192
 21
11.8715119869
  0
LINE
  5
2D3
100
AcDbEntity
  8
A_ACHSEN
100
AcDbLine
 62
7
  6
CENTER
 10
29.6999434389
 20
8.7894868235
 11
29.6999434389
 21
21.2868706425
  0
LINE
  5
2D4
100
AcDbEntity
  8
A_ACHSEN
100
AcDbLine
 62
7
  6
CENTER
 10
29.6999434389
 20
97.8168072941
 11
29.6999434389
 21
112.2595501719
  0
LINE
  5
2D5
100
AcDbEntity
  8
A_ACHSEN
100
AcDbLine
 62
7
  6
CENTER
 10
29.6999434389
 20
188.6035706809
 11
29.6999434389
 21
201.4727867852
  0
LINE
  5
2D6
100
AcDbEntity
  8
A_ACHSEN
100
AcDbLine
 62
7
  6
CONTINUOUS
 10
34.6999434389
 20
69.8559634932
 11
34.6999434389
 21
69.3863268812
  0
LINE
  5
2D7
100
AcDbEntity
  8
A_ACHSEN
100
AcDbLine
 62
7
  6
CENTER
 10
34.6999434389
 20
69.2688083801
 11
34.6999434389
 21
62.8761271855
  0
LINE
  5
2D8
100
AcDbEntity
  8
A_ACHSEN
100
AcDbLine
 62
7
  6
CENTER
 10
34.6999434389
 20
69.8559634932
 11
34.6999434389
 21
77.2002302805
  0
LINE
  5
2D9
100
AcDbEntity
  8
A_ACHSEN
100
AcDbLine
 62
7
  6
CENTER
 10
34.6999434389
 20
131.992132543
 11
34.6999434389
 21
148.0842249231
  0
LINE
  5
2DA
100
AcDbEntity
  8
0
100
AcDbLine
 62
7
  6
CONTINUOUS
 10
52.1254753627
 20
194.788178733
 11
52.2105817355
 21
195.2048454196
  0
LINE
  5
2DB
100
AcDbEntity
  8
0
100
AcDbLine
 62
7
  6
CONTINUOUS
 10
51.7850498192
 20
195.2048454196
 11
51.6999434389
 21
194.8715121061
  0
LINE
  5
2DC
100
AcDbEntity
  8
0
100
AcDbLine
 62
7
  6
CONTINUOUS
 10
29.1014826936
 20
108.0683503372
 11
29.2249025392
 21
108.4441791932
  0
LINE
  5
2DD
100
AcDbEntity
  8
0
100
AcDbLine
 62
7
  6
CONTINUOUS
 10
54.2984041842
 20
182.0080071289
 11
54.1749843387
 21
181.6321782729
  0
LINE
  5
2DE
100
AcDbEntity
  8
0
100
AcDbLine
 62
7
  6
CONTINUOUS
 10
30.2984041842
 20
102.0080071289
 11
30.1749843387
 21
101.6321782729
  0
LINE
  5
2DF
100
AcDbEntity
  8
0
100
AcDbLine
 62
7
  6
CONTINUOUS
 10
26.9556327753
 20
102.9656773525
 11
27.1341128982
 21
103.3186994949
  0
LINE
  5
2E0
100
AcDbEntity
  8
0
100
AcDbLine
 62
7
  6
CONTINUOUS
 10
64.4442541026
 20
177.1106801136
 11
64.2657739796
 21
176.7576579712
  0
LINE
  5
2E1
100
AcDbEntity
  8
0
100
AcDbLine
 62
7
  6
CONTINUOUS
 10
75.4556327753
 20
192.9656773525
 11
75.6341128982
 21
193.3186994949
  0
LINE
  5
2E2
100
AcDbEntity
  8
0
100
AcDbLine
 62
7
  6
CONTINUOUS
 10
47.9556327753
 20
137.9656773525
 11
48.1341128982
 21
138.3186994949
  0
LINE
  5
2E3
100
AcDbEntity
  8
0
100
AcDbLine
 62
7
  6
CONTINUOUS
 10
32.4442541026
 20
107.1106801136
 11
32.2657739796
 21
106.7576579712
  0
LINE
  5
2E4
100
AcDbEntity
  8
0
100
AcDbLine
 62
7
  6
CONTINUOUS
 10
68.4194226771
 20
142.6040092738
 11
68.7724448195
 21
142.7824893967
  0
LINE
  5
2E5
100
AcDbEntity
  8
0
100
AcDbLine
 62
7
  6
CONTINUOUS
 10
64.9804642007
 20
137.4723481923
 11
64.6274420584
 21
137.2938680694
  0
LINE
  5
2E6
100
AcDbEntity
  8
0
100
AcDbLine
 62
7
  6
CONTINUOUS
 10
63.2939429787
 20
140.5132196328
 11
63.6697718348
 21
140.6366394783
  0
LINE
  5
2E7
100
AcDbEntity
  8
0
100
AcDbLine
 62
7
  6
CONTINUOUS
 10
70.1059438991
 20
139.5631378333
 11
69.7301150431
 21
139.4397179877
  0
LINE
  5
2E8
100
AcDbEntity
  8
A_ACHSEN
100
AcDbLine
 62
7
  6
CONTINUOUS
 10
50.8283780452
 20
70.038178733
 11
50.0480915871
 21
70.038178733
  0
LINE
  5
2E9
100
AcDbEntity
  8
A_ACHSEN
100
AcDbLine
 62
7
  6
CENTER
 10
49.784546733
 20
70.038178733
 11
44.5001507149
 21
70.038178733
  0
LINE
  5
2EA
100
AcDbEntity
  8
A_ACHSEN
100
AcDbLine
 62
7
  6
CENTER
 10
34.1923165068
 20
70.038178733
 11
27.5378918914
 21
70.038178733
  0
LINE
  5
2EB
100
AcDbEntity
  8
A_ACHSEN
100
AcDbLine
 62
7
  6
CONTINUOUS
 10
34.1923165068
 20
70.038178733
 11
35.3517952908
 21
70.038178733
  0
LINE
  5
2EC
100
AcDbEntity
  8
A_ACHSEN
100
AcDbLine
 62
7
  6
CENTER
 10
35.366626733
 20
70.038178733
 11
41.8619949864
 21
70.038178733
  0
LINE
  5
2ED
100
AcDbEntity
  8
A_ACHSEN
100
AcDbLine
 62
7
  6
CENTER
 10
50.8283780452
 20
70.038178733
 11
56.8997361629
 21
70.038178733
  0
LINE
  5
2EE
100
AcDbEntity
  8
A_ACHSEN
100
AcDbLine
 62
7
  6
CENTER
 10
59.439986371
 20
70.038178733
 11
73.9599005068
 21
70.038178733
  0
LINE
  5
2EF
100
AcDbEntity
  8
0
100
AcDbLine
 62
7
  6
CONTINUOUS
 10
63.6697718348
 20
69.4397179877
 11
63.2939429787
 21
69.5631378333
  0
LINE
  5
2F0
100
AcDbEntity
  8
0
100
AcDbLine
 62
7
  6
CONTINUOUS
 10
69.7301150431
 20
70.6366394783
 11
70.1059438991
 21
70.5132196328
  0
LINE
  5
2F1
100
AcDbEntity
  8
0
100
AcDbLine
 62
7
  6
CONTINUOUS
 10
68.7724448195
 20
67.2938680694
 11
68.4194226771
 21
67.4723481923
  0
LINE
  5
2F2
100
AcDbEntity
  8
0
100
AcDbLine
 62
7
  6
CONTINUOUS
 10
64.6274420584
 20
72.7824893967
 11
64.9804642007
 21
72.6040092738
  0
LINE
  5
2F3
100
AcDbEntity
  8
0
100
AcDbLine
 62
7
  6
CONTINUOUS
 10
27.1341128982
 20
106.7576579712
 11
26.9556327753
 21
107.1106801136
  0
LINE
  5
2F4
100
AcDbEntity
  8
0
100
AcDbLine
 62
7
  6
CONTINUOUS
 10
64.2657739796
 20
33.3186994949
 11
64.4442541026
 21
32.9656773525
  0
LINE
  5
2F5
100
AcDbEntity
  8
0
100
AcDbLine
 62
7
  6
CONTINUOUS
 10
75.6341128982
 20
16.7576579712
 11
75.4556327753
 21
17.1106801136
  0
LINE
  5
2F6
100
AcDbEntity
  8
0
100
AcDbLine
 62
7
  6
CONTINUOUS
 10
48.1341128982
 20
71.7576579712
 11
47.9556327753
 21
72.1106801136
  0
LINE
  5
2F7
100
AcDbEntity
  8
0
100
AcDbLine
 62
7
  6
CONTINUOUS
 10
32.2657739796
 20
103.3186994949
 11
32.4442541026
 21
102.9656773525
  0
LINE
  5
2F8
100
AcDbEntity
  8
0
100
AcDbLine
 62
7
  6
CONTINUOUS
 10
29.2249025392
 20
101.6321782729
 11
29.1014826936
 21
102.0080071289
  0
LINE
  5
2F9
100
AcDbEntity
  8
0
100
AcDbLine
 62
7
  6
CONTINUOUS
 10
54.1749843387
 20
28.4441791932
 11
54.2984041842
 21
28.0683503372
  0
LINE
  5
2FA
100
AcDbEntity
  8
0
100
AcDbLine
 62
7
  6
CONTINUOUS
 10
30.1749843387
 20
108.4441791932
 11
30.2984041842
 21
108.0683503372
  0
LINE
  5
2FB
100
AcDbEntity
  8
0
100
AcDbLine
 62
7
  6
CONTINUOUS
 10
52.2105817355
 20
11.8715119869
 11
52.1254753627
 21
12.288178733
  0
LINE
  5
2FC
100
AcDbEntity
  8
A_ACHSEN
100
AcDbLine
 62
7
  6
CENTER
 10
41.6999434389
 20
48.755828905
 11
41.6999434389
 21
59.3205285611
  0
LINE
  5
2FD
100
AcDbEntity
  8
A_ACHSEN
100
AcDbLine
 62
7
  6
CENTER
 10
41.6999434389
 20
150.45185381
 11
41.6999434389
 21
161.6245036561
  0
LINE
  5
2FE
100
AcDbEntity
  8
0
100
AcDbLine
 62
7
  6
CONTINUOUS
 10
55.6148370661
 20
193.8715119869
 11
55.6999434389
 21
194.45484536
  0
LINE
  5
2FF
100
AcDbEntity
  8
0
100
AcDbLine
 62
7
  6
CONTINUOUS
 10
53.5722838797
 20
194.3715121061
 11
53.4871775068
 21
193.8715119869
  0
LINE
  5
300
100
AcDbEntity
  8
0
100
AcDbLine
 62
7
  6
CONTINUOUS
 10
55.2744115747
 20
194.3715121061
 11
55.1893052019
 21
193.9548454792
  0
LINE
  5
301
100
AcDbEntity
  8
0
100
AcDbLine
 62
7
  6
CONTINUOUS
 10
61.1014826936
 20
178.0683503372
 11
61.2249025392
 21
178.4441791932
  0
LINE
  5
302
100
AcDbEntity
  8
0
100
AcDbLine
 62
7
  6
CONTINUOUS
 10
50.1014826936
 20
143.0683503372
 11
50.2249025392
 21
143.4441791932
  0
LINE
  5
303
100
AcDbEntity
  8
0
100
AcDbLine
 62
7
  6
CONTINUOUS
 10
62.2984041842
 20
172.0080071289
 11
62.1749843387
 21
171.6321782729
  0
LINE
  5
304
100
AcDbEntity
  8
0
100
AcDbLine
 62
7
  6
CONTINUOUS
 10
51.2984041842
 20
137.0080071289
 11
51.1749843387
 21
136.6321782729
  0
LINE
  5
305
100
AcDbEntity
  8
0
100
AcDbLine
 62
7
  6
CONTINUOUS
 10
80.9442541026
 20
197.1106801136
 11
80.7657739796
 21
196.7576579712
  0
LINE
  5
306
100
AcDbEntity
  8
0
100
AcDbLine
 62
7
  6
CONTINUOUS
 10
53.4442541026
 20
142.1106801136
 11
53.2657739796
 21
141.7576579712
  0
LINE
  5
307
100
AcDbEntity
  8
0
100
AcDbLine
 62
7
  6
CONTINUOUS
 10
80.7657739796
 20
13.3186994949
 11
80.9442541026
 21
12.9656773525
  0
LINE
  5
308
100
AcDbEntity
  8
0
100
AcDbLine
 62
7
  6
CONTINUOUS
 10
53.2657739796
 20
68.3186994949
 11
53.4442541026
 21
67.9656773525
  0
LINE
  5
309
100
AcDbEntity
  8
0
100
AcDbLine
 62
7
  6
CONTINUOUS
 10
61.2249025392
 20
31.6321782729
 11
61.1014826936
 21
32.0080071289
  0
LINE
  5
30A
100
AcDbEntity
  8
0
100
AcDbLine
 62
7
  6
CONTINUOUS
 10
50.2249025392
 20
66.6321782729
 11
50.1014826936
 21
67.0080071289
  0
LINE
  5
30B
100
AcDbEntity
  8
0
100
AcDbLine
 62
7
  6
CONTINUOUS
 10
62.1749843387
 20
38.4441791932
 11
62.2984041842
 21
38.0683503372
  0
LINE
  5
30C
100
AcDbEntity
  8
0
100
AcDbLine
 62
7
  6
CONTINUOUS
 10
51.1749843387
 20
73.4441791932
 11
51.2984041842
 21
73.0683503372
  0
LINE
  5
30D
100
AcDbEntity
  8
0
100
AcDbLine
 62
7
  6
CONTINUOUS
 10
55.1893052019
 20
13.1215120465
 11
55.2744115747
 21
12.70484536
  0
LINE
  5
30E
100
AcDbEntity
  8
0
100
AcDbLine
 62
7
  6
CONTINUOUS
 10
55.6999434389
 20
12.6215121061
 11
55.6148370661
 21
13.2048454196
  0
LINE
  5
30F
100
AcDbEntity
  8
A_ACHSEN
100
AcDbLine
 62
7
  6
CENTER
 10
43.6999434389
 20
77.2920171403
 11
43.6999434389
 21
92.7843403258
  0
LINE
  5
310
100
AcDbEntity
  8
A_ACHSEN
100
AcDbLine
 62
7
  6
CENTER
 10
43.6999434389
 20
117.517093267
 11
43.6999434389
 21
132.5592641991
  0
LINE
  5
311
100
AcDbEntity
  8
A_ACHSEN
100
AcDbLine
 62
7
  6
CENTER
 10
45.6999434389
 20
9.2624497195
 11
45.6999434389
 21
20.8139077466
  0
LINE
  5
312
100
AcDbEntity
  8
A_ACHSEN
100
AcDbLine
 62
7
  6
CENTER
 10
45.6999434389
 20
188.4567587352
 11
45.6999434389
 21
201.6195987309
  0
LINE
  5
313
100
AcDbEntity
  8
A_ACHSEN
100
AcDbLine
 62
7
  6
CENTER
 10
50.6999434389
 20
105.2097145448
 11
50.6999434389
 21
98.2673456471
  0
LINE
  5
314
100
AcDbEntity
  8
A_ACHSEN
100
AcDbLine
 62
7
  6
CENTER
 10
50.6999434389
 20
69.9864424072
 11
50.6999434389
 21
63.838386009
  0
LINE
  5
315
100
AcDbEntity
  8
A_ACHSEN
100
AcDbLine
 62
7
  6
CONTINUOUS
 10
50.6999434389
 20
69.9864424072
 11
50.6999434389
 21
70.1821607783
  0
LINE
  5
316
100
AcDbEntity
  8
A_ACHSEN
100
AcDbLine
 62
7
  6
CENTER
 10
50.6999434389
 20
70.1821607783
 11
50.6999434389
 21
76.237971457
  0
LINE
  5
317
100
AcDbEntity
  8
A_ACHSEN
100
AcDbLine
 62
7
  6
CONTINUOUS
 10
50.6999434389
 20
105.2097145448
 11
50.6999434389
 21
105.6900305849
  0
LINE
  5
318
100
AcDbEntity
  8
A_ACHSEN
100
AcDbLine
 62
7
  6
CENTER
 10
50.6999434389
 20
105.7942600796
 11
50.6999434389
 21
111.809011819
  0
LINE
  5
319
100
AcDbEntity
  8
A_ACHSEN
100
AcDbLine
 62
7
  6
CENTER
 10
50.6999434389
 20
132.2367573394
 11
50.6999434389
 21
147.8396001267
  0
LINE
  5
31A
100
AcDbEntity
  8
0
100
AcDbLine
 62
7
  6
CONTINUOUS
 10
63.6148370661
 20
184.788178733
 11
63.6999434389
 21
185.288178733
  0
LINE
  5
31B
100
AcDbEntity
  8
0
100
AcDbLine
 62
7
  6
CONTINUOUS
 10
63.2744115747
 20
185.3715121061
 11
63.1893052019
 21
184.9548454792
  0
LINE
  5
31C
100
AcDbEntity
  8
0
100
AcDbLine
 62
7
  6
CONTINUOUS
 10
34.1014826936
 20
73.0683503372
 11
34.2249025392
 21
73.4441791932
  0
LINE
  5
31D
100
AcDbEntity
  8
0
100
AcDbLine
 62
7
  6
CONTINUOUS
 10
77.6014826936
 20
198.0683503372
 11
77.7249025392
 21
198.4441791932
  0
LINE
  5
31E
100
AcDbEntity
  8
0
100
AcDbLine
 62
7
  6
CONTINUOUS
 10
35.2984041842
 20
67.0080071289
 11
35.1749843387
 21
66.6321782729
  0
LINE
  5
31F
100
AcDbEntity
  8
0
100
AcDbLine
 62
7
  6
CONTINUOUS
 10
50.1014826936
 20
108.0683503372
 11
50.2249025392
 21
108.4441791932
  0
LINE
  5
320
100
AcDbEntity
  8
0
100
AcDbLine
 62
7
  6
CONTINUOUS
 10
63.9556327753
 20
137.9656773525
 11
64.1341128982
 21
138.3186994949
  0
LINE
  5
321
100
AcDbEntity
  8
0
100
AcDbLine
 62
7
  6
CONTINUOUS
 10
47.9556327753
 20
102.9656773525
 11
48.1341128982
 21
103.3186994949
  0
LINE
  5
322
100
AcDbEntity
  8
0
100
AcDbLine
 62
7
  6
CONTINUOUS
 10
31.4194226771
 20
107.6040092738
 11
31.7724448195
 21
107.7824893967
  0
LINE
  5
323
100
AcDbEntity
  8
0
100
AcDbLine
 62
7
  6
CONTINUOUS
 10
27.9804642007
 20
102.4723481923
 11
27.6274420584
 21
102.2938680694
  0
LINE
  5
324
100
AcDbEntity
  8
A_ACHSEN
100
AcDbLine
 62
7
  6
CENTER
 10
35.9537818462
 20
85.038178733
 11
51.4461050317
 21
85.038178733
  0
LINE
  5
325
100
AcDbEntity
  8
0
100
AcDbLine
 62
7
  6
CONTINUOUS
 10
73.6999434389
 20
86.538178733
 11
74.0722838201
 21
86.538178733
  0
LINE
  5
326
100
AcDbEntity
  8
0
100
AcDbLine
 62
7
  6
CONTINUOUS
 10
74.0722838201
 20
87.7048454345
 11
77.1999434389
 21
87.7048454345
  0
LINE
  5
327
100
AcDbEntity
  8
0
100
AcDbLine
 62
7
  6
CONTINUOUS
 10
77.1999434389
 20
88.1423454345
 11
74.0722838201
 21
88.1423454345
  0
LINE
  5
328
100
AcDbEntity
  8
0
100
AcDbLine
 62
7
  6
CONTINUOUS
 10
74.0722838201
 20
89.3090121359
 11
73.6999434389
 21
89.3090121359
  0
LINE
  5
329
100
AcDbEntity
  8
0
100
AcDbLine
 62
7
  6
CONTINUOUS
 10
73.6999434389
 20
89.8923453302
 11
77.1999434389
 21
89.8923453302
  0
LINE
  5
32A
100
AcDbEntity
  8
0
100
AcDbLine
 62
7
  6
CONTINUOUS
 10
76.7531349294
 20
90.3298455388
 11
75.5616455533
 21
90.3298455388
  0
LINE
  5
32B
100
AcDbEntity
  8
0
100
AcDbLine
 62
7
  6
CONTINUOUS
 10
75.1148370959
 20
90.3298455388
 11
74.1467518963
 21
90.3298455388
  0
LINE
  5
32C
100
AcDbEntity
  8
0
100
AcDbLine
 62
7
  6
CONTINUOUS
 10
31.7724448195
 20
102.2938680694
 11
31.4194226771
 21
102.4723481923
  0
LINE
  5
32D
100
AcDbEntity
  8
0
100
AcDbLine
 62
7
  6
CONTINUOUS
 10
27.6274420584
 20
107.7824893967
 11
27.9804642007
 21
107.6040092738
  0
LINE
  5
32E
100
AcDbEntity
  8
0
100
AcDbLine
 62
7
  6
CONTINUOUS
 10
64.1341128982
 20
71.7576579712
 11
63.9556327753
 21
72.1106801136
  0
LINE
  5
32F
100
AcDbEntity
  8
0
100
AcDbLine
 62
7
  6
CONTINUOUS
 10
48.1341128982
 20
106.7576579712
 11
47.9556327753
 21
107.1106801136
  0
LINE
  5
330
100
AcDbEntity
  8
0
100
AcDbLine
 62
7
  6
CONTINUOUS
 10
34.2249025392
 20
136.6321782729
 11
34.1014826936
 21
137.0080071289
  0
LINE
  5
331
100
AcDbEntity
  8
0
100
AcDbLine
 62
7
  6
CONTINUOUS
 10
77.7249025392
 20
11.6321782729
 11
77.6014826936
 21
12.0080071289
  0
LINE
  5
332
100
AcDbEntity
  8
0
100
AcDbLine
 62
7
  6
CONTINUOUS
 10
35.1749843387
 20
143.4441791932
 11
35.2984041842
 21
143.0683503372
  0
LINE
  5
333
100
AcDbEntity
  8
0
100
AcDbLine
 62
7
  6
CONTINUOUS
 10
50.2249025392
 20
101.6321782729
 11
50.1014826936
 21
102.0080071289
  0
LINE
  5
334
100
AcDbEntity
  8
0
100
AcDbLine
 62
7
  6
CONTINUOUS
 10
63.1893052019
 20
25.1215120465
 11
63.2744115747
 21
24.70484536
  0
LINE
  5
335
100
AcDbEntity
  8
0
100
AcDbLine
 62
7
  6
CONTINUOUS
 10
51.6999434389
 20
194.8715121061
 11
51.6999434389
 21
194.20484536
  0
LINE
  5
336
100
AcDbEntity
  8
0
100
AcDbLine
 62
7
  6
CONTINUOUS
 10
51.6999434389
 20
12.8715121061
 11
51.6999434389
 21
12.20484536
  0
LINE
  5
337
100
AcDbEntity
  8
0
100
AcDbLine
 62
7
  6
CONTINUOUS
 10
52.1254753627
 20
12.288178733
 11
52.1254753627
 21
12.788178733
  0
LINE
  5
338
100
AcDbEntity
  8
0
100
AcDbLine
 62
7
  6
CONTINUOUS
 10
52.1254753627
 20
194.288178733
 11
52.1254753627
 21
194.788178733
  0
LINE
  5
339
100
AcDbEntity
  8
0
100
AcDbLine
 62
7
  6
CONTINUOUS
 10
52.6361136593
 20
13.6215120763
 11
52.6361136593
 21
14.038178733
  0
LINE
  5
33A
100
AcDbEntity
  8
0
100
AcDbLine
 62
7
  6
CONTINUOUS
 10
52.6361136593
 20
195.6215120763
 11
52.6361136593
 21
196.038178733
  0
LINE
  5
33B
100
AcDbEntity
  8
0
100
AcDbLine
 62
7
  6
CONTINUOUS
 10
53.5722838797
 20
194.70484536
 11
53.5722838797
 21
194.3715121061
  0
LINE
  5
33C
100
AcDbEntity
  8
0
100
AcDbLine
 62
7
  6
CONTINUOUS
 10
53.5722838797
 20
12.70484536
 11
53.5722838797
 21
12.3715121061
  0
LINE
  5
33D
100
AcDbEntity
  8
A_ACHSEN
100
AcDbLine
 62
7
  6
CENTER
 10
53.6999434389
 20
18.1125927059
 11
53.6999434389
 21
31.9637647602
  0
LINE
  5
33E
100
AcDbEntity
  8
A_ACHSEN
100
AcDbLine
 62
7
  6
CENTER
 10
53.6999434389
 20
178.6017744644
 11
53.6999434389
 21
191.4745830016
  0
LINE
  5
33F
100
AcDbEntity
  8
0
100
AcDbLine
 62
7
  6
CONTINUOUS
 10
53.912709371
 20
12.3715121061
 11
53.912709371
 21
12.70484536
  0
LINE
  5
340
100
AcDbEntity
  8
0
100
AcDbLine
 62
7
  6
CONTINUOUS
 10
53.912709371
 20
194.3715121061
 11
53.912709371
 21
194.70484536
  0
LINE
  5
341
100
AcDbEntity
  8
0
100
AcDbLine
 62
7
  6
CONTINUOUS
 10
54.7637733377
 20
195.9548453972
 11
54.7637733377
 21
195.538178733
  0
LINE
  5
342
100
AcDbEntity
  8
0
100
AcDbLine
 62
7
  6
CONTINUOUS
 10
54.7637733377
 20
13.9548453972
 11
54.7637733377
 21
13.538178733
  0
LINE
  5
343
100
AcDbEntity
  8
0
100
AcDbLine
 62
7
  6
CONTINUOUS
 10
55.2744115747
 20
194.70484536
 11
55.2744115747
 21
194.3715121061
  0
LINE
  5
344
100
AcDbEntity
  8
0
100
AcDbLine
 62
7
  6
CONTINUOUS
 10
55.2744115747
 20
12.70484536
 11
55.2744115747
 21
12.3715121061
  0
LINE
  5
345
100
AcDbEntity
  8
0
100
AcDbLine
 62
7
  6
CONTINUOUS
 10
55.6999434389
 20
12.45484536
 11
55.6999434389
 21
12.6215121061
  0
LINE
  5
346
100
AcDbEntity
  8
0
100
AcDbLine
 62
7
  6
CONTINUOUS
 10
55.6999434389
 20
194.45484536
 11
55.6999434389
 21
194.6215121061
  0
LINE
  5
347
100
AcDbEntity
  8
0
100
AcDbLine
 62
7
  6
CONTINUOUS
 10
78.7984041842
 20
192.0080071289
 11
78.6749843387
 21
191.6321782729
  0
LINE
  5
348
100
AcDbEntity
  8
0
100
AcDbLine
 62
7
  6
CONTINUOUS
 10
51.2984041842
 20
102.0080071289
 11
51.1749843387
 21
101.6321782729
  0
LINE
  5
349
100
AcDbEntity
  8
0
100
AcDbLine
 62
7
  6
CONTINUOUS
 10
66.1014826936
 20
143.0683503372
 11
66.2249025392
 21
143.4441791932
  0
LINE
  5
34A
100
AcDbEntity
  8
0
100
AcDbLine
 62
7
  6
CONTINUOUS
 10
67.2984041842
 20
137.0080071289
 11
67.1749843387
 21
136.6321782729
  0
LINE
  5
34B
100
AcDbEntity
  8
0
100
AcDbLine
 62
7
  6
CONTINUOUS
 10
29.1014826936
 20
18.0683503372
 11
29.2249025392
 21
18.4441791932
  0
LINE
  5
34C
100
AcDbEntity
  8
0
100
AcDbLine
 62
7
  6
CONTINUOUS
 10
31.9556327753
 20
67.9656773525
 11
32.1341128982
 21
68.3186994949
  0
LINE
  5
34D
100
AcDbEntity
  8
0
100
AcDbLine
 62
7
  6
CONTINUOUS
 10
69.4442541026
 20
142.1106801136
 11
69.2657739796
 21
141.7576579712
  0
LINE
  5
34E
100
AcDbEntity
  8
0
100
AcDbLine
 62
7
  6
CONTINUOUS
 10
53.4442541026
 20
107.1106801136
 11
53.2657739796
 21
106.7576579712
  0
LINE
  5
34F
100
AcDbEntity
  8
0
100
AcDbLine
 62
7
  6
CONTINUOUS
 10
37.4442541026
 20
72.1106801136
 11
37.2657739796
 21
71.7576579712
  0
LINE
  5
350
100
AcDbEntity
  8
0
100
AcDbLine
 62
7
  6
CONTINUOUS
 10
52.4194226771
 20
107.6040092738
 11
52.7724448195
 21
107.7824893967
  0
LINE
  5
351
100
AcDbEntity
  8
0
100
AcDbLine
 62
7
  6
CONTINUOUS
 10
26.2939429787
 20
105.5132196328
 11
26.6697718348
 21
105.6366394783
  0
LINE
  5
352
100
AcDbEntity
  8
0
100
AcDbLine
 62
7
  6
CONTINUOUS
 10
33.1059438991
 20
104.5631378333
 11
32.7301150431
 21
104.4397179877
  0
LINE
  5
353
100
AcDbEntity
  8
0
100
AcDbLine
 62
7
  6
CONTINUOUS
 10
76.0829221912
 20
95.725678733
 11
75.7850497819
 21
95.6527623445
  0
LINE
  5
354
100
AcDbEntity
  8
0
100
AcDbLine
 62
7
  6
CONTINUOUS
 10
74.5190922774
 20
95.6527623445
 11
74.2212199725
 21
95.5798451215
  0
LINE
  5
355
100
AcDbEntity
  8
0
100
AcDbLine
 62
7
  6
CONTINUOUS
 10
75.7850497819
 20
99.8090123445
 11
76.1573902674
 21
99.881928733
  0
LINE
  5
356
100
AcDbEntity
  8
0
100
AcDbLine
 62
7
  6
CONTINUOUS
 10
76.1573902674
 20
100.2465123445
 11
75.7105817057
 21
100.1735951215
  0
LINE
  5
357
100
AcDbEntity
  8
0
100
AcDbLine
 62
7
  6
CONTINUOUS
 10
75.5616455533
 20
92.225678733
 11
75.1148370959
 21
92.225678733
  0
LINE
  5
358
100
AcDbEntity
  8
0
100
AcDbLine
 62
7
  6
CONTINUOUS
 10
77.1999434389
 20
92.5173455388
 11
76.7531349294
 21
92.5173455388
  0
LINE
  5
359
100
AcDbEntity
  8
0
100
AcDbLine
 62
7
  6
CONTINUOUS
 10
74.1467518963
 20
92.5173455388
 11
73.6999434389
 21
92.5173455388
  0
LINE
  5
35A
100
AcDbEntity
  8
0
100
AcDbLine
 62
7
  6
CONTINUOUS
 10
75.2637732483
 20
94.2673451215
 11
75.5616455533
 21
94.2673451215
  0
LINE
  5
35B
100
AcDbEntity
  8
0
100
AcDbLine
 62
7
  6
CONTINUOUS
 10
74.5190922774
 20
95.288178733
 11
74.6680286385
 21
95.288178733
  0
LINE
  5
35C
100
AcDbEntity
  8
0
100
AcDbLine
 62
7
  6
CONTINUOUS
 10
76.0829221912
 20
95.3610951215
 11
76.3807944961
 21
95.3610951215
  0
LINE
  5
35D
100
AcDbEntity
  8
0
100
AcDbLine
 62
7
  6
CONTINUOUS
 10
74.6680286385
 20
95.6527623445
 11
74.5190922774
 21
95.6527623445
  0
LINE
  5
35E
100
AcDbEntity
  8
0
100
AcDbLine
 62
7
  6
CONTINUOUS
 10
76.3807944961
 20
95.725678733
 11
76.0829221912
 21
95.725678733
  0
LINE
  5
35F
100
AcDbEntity
  8
0
100
AcDbLine
 62
7
  6
CONTINUOUS
 10
75.7105817057
 20
96.3090123445
 11
76.1573902674
 21
96.3090123445
  0
LINE
  5
360
100
AcDbEntity
  8
0
100
AcDbLine
 62
7
  6
CONTINUOUS
 10
74.2956880487
 20
98.0590123445
 11
75.7105817057
 21
98.0590123445
  0
LINE
  5
361
100
AcDbEntity
  8
0
100
AcDbLine
 62
7
  6
CONTINUOUS
 10
76.1573902674
 20
98.0590123445
 11
77.1999434389
 21
98.0590123445
  0
LINE
  5
362
100
AcDbEntity
  8
0
100
AcDbLine
 62
7
  6
CONTINUOUS
 10
77.1999434389
 20
98.4965123445
 11
76.1573902674
 21
98.4965123445
  0
LINE
  5
363
100
AcDbEntity
  8
0
100
AcDbLine
 62
7
  6
CONTINUOUS
 10
75.7105817057
 20
98.4965123445
 11
73.6999434389
 21
98.4965123445
  0
LINE
  5
364
100
AcDbEntity
  8
0
100
AcDbLine
 62
7
  6
CONTINUOUS
 10
74.2212199725
 20
93.2465119273
 11
74.5190922774
 21
93.1735955388
  0
LINE
  5
365
100
AcDbEntity
  8
0
100
AcDbLine
 62
7
  6
CONTINUOUS
 10
74.9659009434
 20
95.5798451215
 11
74.6680286385
 21
95.6527623445
  0
LINE
  5
366
100
AcDbEntity
  8
0
100
AcDbLine
 62
7
  6
CONTINUOUS
 10
26.6697718348
 20
104.4397179877
 11
26.2939429787
 21
104.5631378333
  0
LINE
  5
367
100
AcDbEntity
  8
0
100
AcDbLine
 62
7
  6
CONTINUOUS
 10
32.7301150431
 20
105.6366394783
 11
33.1059438991
 21
105.5132196328
  0
LINE
  5
368
100
AcDbEntity
  8
0
100
AcDbLine
 62
7
  6
CONTINUOUS
 10
52.7724448195
 20
102.2938680694
 11
52.4194226771
 21
102.4723481923
  0
LINE
  5
369
100
AcDbEntity
  8
0
100
AcDbLine
 62
7
  6
CONTINUOUS
 10
32.1341128982
 20
141.7576579712
 11
31.9556327753
 21
142.1106801136
  0
LINE
  5
36A
100
AcDbEntity
  8
0
100
AcDbLine
 62
7
  6
CONTINUOUS
 10
69.2657739796
 20
68.3186994949
 11
69.4442541026
 21
67.9656773525
  0
LINE
  5
36B
100
AcDbEntity
  8
0
100
AcDbLine
 62
7
  6
CONTINUOUS
 10
53.2657739796
 20
103.3186994949
 11
53.4442541026
 21
102.9656773525
  0
LINE
  5
36C
100
AcDbEntity
  8
0
100
AcDbLine
 62
7
  6
CONTINUOUS
 10
37.2657739796
 20
138.3186994949
 11
37.4442541026
 21
137.9656773525
  0
LINE
  5
36D
100
AcDbEntity
  8
0
100
AcDbLine
 62
7
  6
CONTINUOUS
 10
78.6749843387
 20
18.4441791932
 11
78.7984041842
 21
18.0683503372
  0
LINE
  5
36E
100
AcDbEntity
  8
0
100
AcDbLine
 62
7
  6
CONTINUOUS
 10
51.1749843387
 20
108.4441791932
 11
51.2984041842
 21
108.0683503372
  0
LINE
  5
36F
100
AcDbEntity
  8
0
100
AcDbLine
 62
7
  6
CONTINUOUS
 10
66.2249025392
 20
66.6321782729
 11
66.1014826936
 21
67.0080071289
  0
LINE
  5
370
100
AcDbEntity
  8
0
100
AcDbLine
 62
7
  6
CONTINUOUS
 10
67.1749843387
 20
73.4441791932
 11
67.2984041842
 21
73.0683503372
  0
LINE
  5
371
100
AcDbEntity
  8
0
100
AcDbLine
 62
7
  6
CONTINUOUS
 10
29.2249025392
 20
191.6321782729
 11
29.1014826936
 21
192.0080071289
  0
LINE
  5
372
100
AcDbEntity
  8
0
100
AcDbLine
 62
7
  6
CONTINUOUS
 10
63.6999434389
 20
24.6215121061
 11
63.6148370661
 21
25.2048454196
  0
LINE
  5
373
100
AcDbEntity
  8
0
100
AcDbLine
 62
7
  6
CONTINUOUS
 10
59.6999434389
 20
187.038178733
 11
59.6999434389
 21
184.038178733
  0
LINE
  5
374
100
AcDbEntity
  8
0
100
AcDbLine
 62
7
  6
CONTINUOUS
 10
59.6999434389
 20
26.038178733
 11
59.6999434389
 21
23.038178733
  0
LINE
  5
375
100
AcDbEntity
  8
0
100
AcDbLine
 62
7
  6
CONTINUOUS
 10
60.1254753627
 20
23.038178733
 11
60.1254753627
 21
25.3715120465
  0
LINE
  5
376
100
AcDbEntity
  8
0
100
AcDbLine
 62
7
  6
CONTINUOUS
 10
60.1254753627
 20
184.038178733
 11
60.1254753627
 21
186.3715120465
  0
LINE
  5
377
100
AcDbEntity
  8
A_ACHSEN
100
AcDbLine
 62
7
  6
CONTINUOUS
 10
61.6999434389
 20
35.6900305849
 11
61.6999434389
 21
34.3863268812
  0
LINE
  5
378
100
AcDbEntity
  8
A_ACHSEN
100
AcDbLine
 62
7
  6
CENTER
 10
61.6999434389
 20
31.7789194738
 11
61.6999434389
 21
27.4520316199
  0
LINE
  5
379
100
AcDbEntity
  8
A_ACHSEN
100
AcDbLine
 62
7
  6
CENTER
 10
61.6999434389
 20
35.9824141719
 11
61.6999434389
 21
42.6243258462
  0
LINE
  5
37A
100
AcDbEntity
  8
A_ACHSEN
100
AcDbLine
 62
7
  6
CENTER
 10
61.6999434389
 20
168.3845807283
 11
61.6999434389
 21
181.6917767377
  0
LINE
  5
37B
100
AcDbEntity
  8
0
100
AcDbLine
 62
7
  6
CONTINUOUS
 10
62.7637733377
 20
186.9548453972
 11
62.7637733377
 21
186.538178733
  0
LINE
  5
37C
100
AcDbEntity
  8
0
100
AcDbLine
 62
7
  6
CONTINUOUS
 10
62.7637733377
 20
25.9548453972
 11
62.7637733377
 21
25.538178733
  0
LINE
  5
37D
100
AcDbEntity
  8
0
100
AcDbLine
 62
7
  6
CONTINUOUS
 10
63.2744115747
 20
185.70484536
 11
63.2744115747
 21
185.3715121061
  0
LINE
  5
37E
100
AcDbEntity
  8
0
100
AcDbLine
 62
7
  6
CONTINUOUS
 10
63.2744115747
 20
24.70484536
 11
63.2744115747
 21
24.3715121061
  0
LINE
  5
37F
100
AcDbEntity
  8
0
100
AcDbLine
 62
7
  6
CONTINUOUS
 10
63.6999434389
 20
24.288178733
 11
63.6999434389
 21
24.6215121061
  0
LINE
  5
380
100
AcDbEntity
  8
0
100
AcDbLine
 62
7
  6
CONTINUOUS
 10
63.6999434389
 20
185.288178733
 11
63.6999434389
 21
185.6215121061
  0
LINE
  5
381
100
AcDbEntity
  8
0
100
AcDbLine
 62
7
  6
CONTINUOUS
 10
50.1014826936
 20
73.0683503372
 11
50.2249025392
 21
73.4441791932
  0
LINE
  5
382
100
AcDbEntity
  8
0
100
AcDbLine
 62
7
  6
CONTINUOUS
 10
30.2984041842
 20
12.0080071289
 11
30.1749843387
 21
11.6321782729
  0
LINE
  5
383
100
AcDbEntity
  8
0
100
AcDbLine
 62
7
  6
CONTINUOUS
 10
51.2984041842
 20
67.0080071289
 11
51.1749843387
 21
66.6321782729
  0
LINE
  5
384
100
AcDbEntity
  8
0
100
AcDbLine
 62
7
  6
CONTINUOUS
 10
74.370156125
 20
111.986095956
 11
74.5935605623
 21
112.131928733
  0
LINE
  5
385
100
AcDbEntity
  8
0
100
AcDbLine
 62
7
  6
CONTINUOUS
 10
48.9804642007
 20
102.4723481923
 11
48.6274420584
 21
102.2938680694
  0
LINE
  5
386
100
AcDbEntity
  8
0
100
AcDbLine
 62
7
  6
CONTINUOUS
 10
74.5190922774
 20
112.569428733
 11
74.2212199725
 21
112.423595956
  0
LINE
  5
387
100
AcDbEntity
  8
0
100
AcDbLine
 62
7
  6
CONTINUOUS
 10
47.2939429787
 20
105.5132196328
 11
47.6697718348
 21
105.6366394783
  0
LINE
  5
388
100
AcDbEntity
  8
0
100
AcDbLine
 62
7
  6
CONTINUOUS
 10
54.1059438991
 20
104.5631378333
 11
53.7301150431
 21
104.4397179877
  0
LINE
  5
389
100
AcDbEntity
  8
0
100
AcDbLine
 62
7
  6
CONTINUOUS
 10
75.1148370959
 20
102.4340115101
 11
74.7424967147
 21
102.361095956
  0
LINE
  5
38A
100
AcDbEntity
  8
0
100
AcDbLine
 62
7
  6
CONTINUOUS
 10
74.7424967147
 20
101.9965115101
 11
75.1893051721
 21
102.069428733
  0
LINE
  5
38B
100
AcDbEntity
  8
0
100
AcDbLine
 62
7
  6
CONTINUOUS
 10
76.1573902674
 20
99.225678733
 11
75.7105817057
 21
99.225678733
  0
LINE
  5
38C
100
AcDbEntity
  8
0
100
AcDbLine
 62
7
  6
CONTINUOUS
 10
75.1148370959
 20
99.8090123445
 11
75.7850497819
 21
99.8090123445
  0
LINE
  5
38D
100
AcDbEntity
  8
0
100
AcDbLine
 62
7
  6
CONTINUOUS
 10
75.7105817057
 20
100.1735951215
 11
75.1893051721
 21
100.1735951215
  0
LINE
  5
38E
100
AcDbEntity
  8
0
100
AcDbLine
 62
7
  6
CONTINUOUS
 10
75.1893051721
 20
102.069428733
 11
75.7105817057
 21
102.069428733
  0
LINE
  5
38F
100
AcDbEntity
  8
0
100
AcDbLine
 62
7
  6
CONTINUOUS
 10
75.7850497819
 20
102.4340115101
 11
75.1148370959
 21
102.4340115101
  0
LINE
  5
390
100
AcDbEntity
  8
A_ACHSEN
100
AcDbLine
 62
7
  6
CENTER
 10
19.9342331765
 20
105.038178733
 11
80.6721676561
 21
105.038178733
  0
LINE
  5
391
100
AcDbEntity
  8
0
100
AcDbLine
 62
7
  6
CONTINUOUS
 10
75.1893051721
 20
100.1735951215
 11
74.7424967147
 21
100.2465123445
  0
LINE
  5
392
100
AcDbEntity
  8
0
100
AcDbLine
 62
7
  6
CONTINUOUS
 10
75.7105817057
 20
102.069428733
 11
76.1573902674
 21
101.9965115101
  0
LINE
  5
393
100
AcDbEntity
  8
0
100
AcDbLine
 62
7
  6
CONTINUOUS
 10
74.7424967147
 20
99.881928733
 11
75.1148370959
 21
99.8090123445
  0
LINE
  5
394
100
AcDbEntity
  8
0
100
AcDbLine
 62
7
  6
CONTINUOUS
 10
76.1573902674
 20
102.361095956
 11
75.7850497819
 21
102.4340115101
  0
LINE
  5
395
100
AcDbEntity
  8
0
100
AcDbLine
 62
7
  6
CONTINUOUS
 10
76.6041987769
 20
95.6527623445
 11
76.3807944961
 21
95.725678733
  0
LINE
  5
396
100
AcDbEntity
  8
0
100
AcDbLine
 62
7
  6
CONTINUOUS
 10
74.5190922774
 20
99.9548451215
 11
74.7424967147
 21
99.881928733
  0
LINE
  5
397
100
AcDbEntity
  8
0
100
AcDbLine
 62
7
  6
CONTINUOUS
 10
47.6697718348
 20
104.4397179877
 11
47.2939429787
 21
104.5631378333
  0
LINE
  5
398
100
AcDbEntity
  8
0
100
AcDbLine
 62
7
  6
CONTINUOUS
 10
53.7301150431
 20
105.6366394783
 11
54.1059438991
 21
105.5132196328
  0
LINE
  5
399
100
AcDbEntity
  8
0
100
AcDbLine
 62
7
  6
CONTINUOUS
 10
74.6680286385
 20
95.288178733
 11
74.9659009434
 21
95.1423451215
  0
LINE
  5
39A
100
AcDbEntity
  8
0
100
AcDbLine
 62
7
  6
CONTINUOUS
 10
76.3807944961
 20
95.3610951215
 11
76.5297306485
 21
95.288178733
  0
LINE
  5
39B
100
AcDbEntity
  8
0
100
AcDbLine
 62
7
  6
CONTINUOUS
 10
74.2212199725
 20
100.100678733
 11
74.5190922774
 21
99.9548451215
  0
LINE
  5
39C
100
AcDbEntity
  8
0
100
AcDbLine
 62
7
  6
CONTINUOUS
 10
48.6274420584
 20
107.7824893967
 11
48.9804642007
 21
107.6040092738
  0
LINE
  5
39D
100
AcDbEntity
  8
0
100
AcDbLine
 62
7
  6
CONTINUOUS
 10
74.5190922774
 20
93.538178733
 11
74.2956880487
 21
93.6840123445
  0
LINE
  5
39E
100
AcDbEntity
  8
0
100
AcDbLine
 62
7
  6
CONTINUOUS
 10
75.1893051721
 20
95.4340123445
 11
74.9659009434
 21
95.5798451215
  0
LINE
  5
39F
100
AcDbEntity
  8
0
100
AcDbLine
 62
7
  6
CONTINUOUS
 10
76.8276030056
 20
95.506928733
 11
76.6041987769
 21
95.6527623445
  0
LINE
  5
3A0
100
AcDbEntity
  8
0
100
AcDbLine
 62
7
  6
CONTINUOUS
 10
73.6999434389
 20
98.0590123445
 11
75.7105817057
 21
96.3090123445
  0
LINE
  5
3A1
100
AcDbEntity
  8
0
100
AcDbLine
 62
7
  6
CONTINUOUS
 10
73.9233476676
 20
93.538178733
 11
74.2212199725
 21
93.2465119273
  0
LINE
  5
3A2
100
AcDbEntity
  8
0
100
AcDbLine
 62
7
  6
CONTINUOUS
 10
74.9659009434
 20
95.1423451215
 11
75.1148370959
 21
94.9965123445
  0
LINE
  5
3A3
100
AcDbEntity
  8
0
100
AcDbLine
 62
7
  6
CONTINUOUS
 10
50.2249025392
 20
136.6321782729
 11
50.1014826936
 21
137.0080071289
  0
LINE
  5
3A4
100
AcDbEntity
  8
0
100
AcDbLine
 62
7
  6
CONTINUOUS
 10
30.1749843387
 20
198.4441791932
 11
30.2984041842
 21
198.0683503372
  0
LINE
  5
3A5
100
AcDbEntity
  8
0
100
AcDbLine
 62
7
  6
CONTINUOUS
 10
51.1749843387
 20
143.4441791932
 11
51.2984041842
 21
143.0683503372
  0
LINE
  5
3A6
100
AcDbEntity
  8
A_ACHSEN
100
AcDbLine
 62
7
  6
CENTER
 10
66.6999434389
 20
48.6283718914
 11
66.6999434389
 21
59.4479855747
  0
LINE
  5
3A7
100
AcDbEntity
  8
A_ACHSEN
100
AcDbLine
 62
7
  6
CENTER
 10
66.6999434389
 20
62.7782216652
 11
66.6999434389
 21
77.2981358009
  0
LINE
  5
3A8
100
AcDbEntity
  8
A_ACHSEN
100
AcDbLine
 62
7
  6
CENTER
 10
66.6999434389
 20
132.7423399638
 11
66.6999434389
 21
147.3340175023
  0
LINE
  5
3A9
100
AcDbEntity
  8
A_ACHSEN
100
AcDbLine
 62
7
  6
CENTER
 10
66.6999434389
 20
151.0909604163
 11
66.6999434389
 21
160.9853970498
  0
LINE
  5
3AA
100
AcDbEntity
  8
0
100
AcDbLine
 62
7
  6
CONTINUOUS
 10
67.6999434389
 20
175.538178733
 11
67.6999434389
 21
175.038178733
  0
LINE
  5
3AB
100
AcDbEntity
  8
0
100
AcDbLine
 62
7
  6
CONTINUOUS
 10
67.6999434389
 20
35.538178733
 11
67.6999434389
 21
35.038178733
  0
LINE
  5
3AC
100
AcDbEntity
  8
0
100
AcDbLine
 62
7
  6
CONTINUOUS
 10
71.6999434389
 20
35.038178733
 11
71.6999434389
 21
35.538178733
  0
LINE
  5
3AD
100
AcDbEntity
  8
0
100
AcDbLine
 62
7
  6
CONTINUOUS
 10
71.6999434389
 20
175.038178733
 11
71.6999434389
 21
175.538178733
  0
LINE
  5
3AE
100
AcDbEntity
  8
0
100
AcDbLine
 62
7
  6
CONTINUOUS
 10
55.6148370661
 20
11.8715119869
 11
55.6999434389
 21
12.45484536
  0
LINE
  5
3AF
100
AcDbEntity
  8
0
100
AcDbLine
 62
7
  6
CONTINUOUS
 10
53.5722838797
 20
12.3715121061
 11
53.4871775068
 21
11.8715119869
  0
LINE
  5
3B0
100
AcDbEntity
  8
0
100
AcDbLine
 62
7
  6
CONTINUOUS
 10
52.1254753627
 20
12.788178733
 11
52.2105817355
 21
13.2048454196
  0
LINE
  5
3B1
100
AcDbEntity
  8
0
100
AcDbLine
 62
7
  6
CONTINUOUS
 10
73.7744115151
 20
111.8402615101
 11
73.6999434389
 21
111.475678733
  0
LINE
  5
3B2
100
AcDbEntity
  8
0
100
AcDbLine
 62
7
  6
CONTINUOUS
 10
74.1467518963
 20
111.475678733
 11
74.2212199725
 21
111.767345956
  0
LINE
  5
3B3
100
AcDbEntity
  8
0
100
AcDbLine
 62
7
  6
CONTINUOUS
 10
47.9556327753
 20
67.9656773525
 11
48.1341128982
 21
68.3186994949
  0
LINE
  5
3B4
100
AcDbEntity
  8
0
100
AcDbLine
 62
7
  6
CONTINUOUS
 10
53.4442541026
 20
72.1106801136
 11
53.2657739796
 21
71.7576579712
  0
LINE
  5
3B5
100
AcDbEntity
  8
0
100
AcDbLine
 62
7
  6
CONTINUOUS
 10
26.9556327753
 20
12.9656773525
 11
27.1341128982
 21
13.3186994949
  0
LINE
  5
3B6
100
AcDbEntity
  8
0
100
AcDbLine
 62
7
  6
CONTINUOUS
 10
73.9233476676
 20
112.131928733
 11
73.7744115151
 21
111.8402615101
  0
LINE
  5
3B7
100
AcDbEntity
  8
0
100
AcDbLine
 62
7
  6
CONTINUOUS
 10
73.9233476676
 20
108.704845956
 11
73.7744115151
 21
108.413178733
  0
LINE
  5
3B8
100
AcDbEntity
  8
0
100
AcDbLine
 62
7
  6
CONTINUOUS
 10
74.2212199725
 20
111.767345956
 11
74.370156125
 21
111.986095956
  0
LINE
  5
3B9
100
AcDbEntity
  8
0
100
AcDbLine
 62
7
  6
CONTINUOUS
 10
74.1467518963
 20
108.3402615101
 11
74.2956880487
 21
108.5590115101
  0
LINE
  5
3BA
100
AcDbEntity
  8
0
100
AcDbLine
 62
7
  6
CONTINUOUS
 10
75.6361136295
 20
108.413178733
 11
75.7850497819
 21
108.631928733
  0
LINE
  5
3BB
100
AcDbEntity
  8
0
100
AcDbLine
 62
7
  6
CONTINUOUS
 10
74.2212199725
 20
112.423595956
 11
73.9233476676
 21
112.131928733
  0
LINE
  5
3BC
100
AcDbEntity
  8
0
100
AcDbLine
 62
7
  6
CONTINUOUS
 10
74.2212199725
 20
108.9965115101
 11
73.9233476676
 21
108.704845956
  0
LINE
  5
3BD
100
AcDbEntity
  8
0
100
AcDbLine
 62
7
  6
CONTINUOUS
 10
76.6786668532
 20
107.100678733
 11
76.5297306485
 21
106.954845956
  0
LINE
  5
3BE
100
AcDbEntity
  8
0
100
AcDbLine
 62
7
  6
CONTINUOUS
 10
74.2956880487
 20
108.5590115101
 11
74.5190922774
 21
108.704845956
  0
LINE
  5
3BF
100
AcDbEntity
  8
0
100
AcDbLine
 62
7
  6
CONTINUOUS
 10
75.7850497819
 20
109.069428733
 11
75.5616455533
 21
108.923595956
  0
LINE
  5
3C0
100
AcDbEntity
  8
0
100
AcDbLine
 62
7
  6
CONTINUOUS
 10
76.6041987769
 20
106.5902615101
 11
76.8276030056
 21
106.736095956
  0
LINE
  5
3C1
100
AcDbEntity
  8
0
100
AcDbLine
 62
7
  6
CONTINUOUS
 10
74.2956880487
 20
101.704845956
 11
74.7424967147
 21
101.9965115101
  0
LINE
  5
3C2
100
AcDbEntity
  8
0
100
AcDbLine
 62
7
  6
CONTINUOUS
 10
75.7850497819
 20
108.631928733
 11
76.0829221912
 21
108.7777615101
  0
LINE
  5
3C3
100
AcDbEntity
  8
0
100
AcDbLine
 62
7
  6
CONTINUOUS
 10
76.5297306485
 20
106.954845956
 11
76.3807944961
 21
106.881928733
  0
LINE
  5
3C4
100
AcDbEntity
  8
0
100
AcDbLine
 62
7
  6
CONTINUOUS
 10
74.5190922774
 20
102.288178733
 11
74.2212199725
 21
102.142345956
  0
LINE
  5
3C5
100
AcDbEntity
  8
0
100
AcDbLine
 62
7
  6
CONTINUOUS
 10
76.3807944961
 20
106.517345956
 11
76.6041987769
 21
106.5902615101
  0
LINE
  5
3C6
100
AcDbEntity
  8
0
100
AcDbLine
 62
7
  6
CONTINUOUS
 10
74.7424967147
 20
102.361095956
 11
74.5190922774
 21
102.288178733
  0
LINE
  5
3C7
100
AcDbEntity
  8
0
100
AcDbLine
 62
7
  6
CONTINUOUS
 10
76.0829221912
 20
109.142345956
 11
75.7850497819
 21
109.069428733
  0
LINE
  5
3C8
100
AcDbEntity
  8
0
100
AcDbLine
 62
7
  6
CONTINUOUS
 10
74.5190922774
 20
109.069428733
 11
74.2212199725
 21
108.9965115101
  0
LINE
  5
3C9
100
AcDbEntity
  8
0
100
AcDbLine
 62
7
  6
CONTINUOUS
 10
74.5935605623
 20
112.131928733
 11
74.8914328672
 21
112.204845956
  0
LINE
  5
3CA
100
AcDbEntity
  8
0
100
AcDbLine
 62
7
  6
CONTINUOUS
 10
74.8914328672
 20
112.642345956
 11
74.5190922774
 21
112.569428733
  0
LINE
  5
3CB
100
AcDbEntity
  8
0
100
AcDbLine
 62
7
  6
CONTINUOUS
 10
75.2637732483
 20
107.6840115101
 11
75.5616455533
 21
107.6840115101
  0
LINE
  5
3CC
100
AcDbEntity
  8
0
100
AcDbLine
 62
7
  6
CONTINUOUS
 10
74.5190922774
 20
108.704845956
 11
74.6680286385
 21
108.704845956
  0
LINE
  5
3CD
100
AcDbEntity
  8
0
100
AcDbLine
 62
7
  6
CONTINUOUS
 10
76.0829221912
 20
108.7777615101
 11
76.3807944961
 21
108.7777615101
  0
LINE
  5
3CE
100
AcDbEntity
  8
0
100
AcDbLine
 62
7
  6
CONTINUOUS
 10
74.6680286385
 20
109.069428733
 11
74.5190922774
 21
109.069428733
  0
LINE
  5
3CF
100
AcDbEntity
  8
0
100
AcDbLine
 62
7
  6
CONTINUOUS
 10
76.3807944961
 20
109.142345956
 11
76.0829221912
 21
109.142345956
  0
LINE
  5
3D0
100
AcDbEntity
  8
0
100
AcDbLine
 62
7
  6
CONTINUOUS
 10
73.6999434389
 20
109.725678733
 11
77.1999434389
 21
109.725678733
  0
LINE
  5
3D1
100
AcDbEntity
  8
0
100
AcDbLine
 62
7
  6
CONTINUOUS
 10
76.7531349294
 20
110.163178733
 11
74.1467518963
 21
110.163178733
  0
LINE
  5
3D2
100
AcDbEntity
  8
0
100
AcDbLine
 62
7
  6
CONTINUOUS
 10
74.8914328672
 20
112.204845956
 11
76.0084541149
 21
112.204845956
  0
LINE
  5
3D3
100
AcDbEntity
  8
0
100
AcDbLine
 62
7
  6
CONTINUOUS
 10
76.0084541149
 20
112.642345956
 11
74.8914328672
 21
112.642345956
  0
LINE
  5
3D4
100
AcDbEntity
  8
0
100
AcDbLine
 62
7
  6
CONTINUOUS
 10
74.2212199725
 20
106.663178733
 11
74.5190922774
 21
106.5902615101
  0
LINE
  5
3D5
100
AcDbEntity
  8
0
100
AcDbLine
 62
7
  6
CONTINUOUS
 10
74.9659009434
 20
108.9965115101
 11
74.6680286385
 21
109.069428733
  0
LINE
  5
3D6
100
AcDbEntity
  8
0
100
AcDbLine
 62
7
  6
CONTINUOUS
 10
76.3807944961
 20
102.288178733
 11
76.1573902674
 21
102.361095956
  0
LINE
  5
3D7
100
AcDbEntity
  8
0
100
AcDbLine
 62
7
  6
CONTINUOUS
 10
76.6041987769
 20
109.069428733
 11
76.3807944961
 21
109.142345956
  0
LINE
  5
3D8
100
AcDbEntity
  8
0
100
AcDbLine
 62
7
  6
CONTINUOUS
 10
76.6786668532
 20
102.142345956
 11
76.3807944961
 21
102.288178733
  0
LINE
  5
3D9
100
AcDbEntity
  8
0
100
AcDbLine
 62
7
  6
CONTINUOUS
 10
74.6680286385
 20
108.704845956
 11
74.9659009434
 21
108.5590115101
  0
LINE
  5
3DA
100
AcDbEntity
  8
0
100
AcDbLine
 62
7
  6
CONTINUOUS
 10
74.7424967147
 20
100.2465123445
 11
74.2956880487
 21
100.538178733
  0
LINE
  5
3DB
100
AcDbEntity
  8
0
100
AcDbLine
 62
7
  6
CONTINUOUS
 10
76.1573902674
 20
101.9965115101
 11
76.6041987769
 21
101.704845956
  0
LINE
  5
3DC
100
AcDbEntity
  8
0
100
AcDbLine
 62
7
  6
CONTINUOUS
 10
74.5190922774
 20
106.954845956
 11
74.2956880487
 21
107.100678733
  0
LINE
  5
3DD
100
AcDbEntity
  8
0
100
AcDbLine
 62
7
  6
CONTINUOUS
 10
75.7105817057
 20
96.819428733
 11
74.2956880487
 21
98.0590123445
  0
LINE
  5
3DE
100
AcDbEntity
  8
0
100
AcDbLine
 62
7
  6
CONTINUOUS
 10
76.5297306485
 20
95.288178733
 11
76.6786668532
 21
95.1423451215
  0
LINE
  5
3DF
100
AcDbEntity
  8
0
100
AcDbLine
 62
7
  6
CONTINUOUS
 10
73.9978157438
 20
100.319428733
 11
74.2212199725
 21
100.100678733
  0
LINE
  5
3E0
100
AcDbEntity
  8
0
100
AcDbLine
 62
7
  6
CONTINUOUS
 10
76.9020711079
 20
101.923595956
 11
76.6786668532
 21
102.142345956
  0
LINE
  5
3E1
100
AcDbEntity
  8
0
100
AcDbLine
 62
7
  6
CONTINUOUS
 10
73.9233476676
 20
106.954845956
 11
74.2212199725
 21
106.663178733
  0
LINE
  5
3E2
100
AcDbEntity
  8
0
100
AcDbLine
 62
7
  6
CONTINUOUS
 10
75.4127094008
 20
95.1423451215
 11
75.1893051721
 21
95.4340123445
  0
LINE
  5
3E3
100
AcDbEntity
  8
0
100
AcDbLine
 62
7
  6
CONTINUOUS
 10
74.2956880487
 20
93.6840123445
 11
74.1467518963
 21
93.9027623445
  0
LINE
  5
3E4
100
AcDbEntity
  8
0
100
AcDbLine
 62
7
  6
CONTINUOUS
 10
76.9765391841
 20
95.288178733
 11
76.8276030056
 21
95.506928733
  0
LINE
  5
3E5
100
AcDbEntity
  8
0
100
AcDbLine
 62
7
  6
CONTINUOUS
 10
74.2956880487
 20
100.538178733
 11
74.1467518963
 21
100.756928733
  0
LINE
  5
3E6
100
AcDbEntity
  8
0
100
AcDbLine
 62
7
  6
CONTINUOUS
 10
76.6041987769
 20
101.704845956
 11
76.7531349294
 21
101.486095956
  0
LINE
  5
3E7
100
AcDbEntity
  8
0
100
AcDbLine
 62
7
  6
CONTINUOUS
 10
73.7744115151
 20
100.6840115101
 11
73.9978157438
 21
100.319428733
  0
LINE
  5
3E8
100
AcDbEntity
  8
0
100
AcDbLine
 62
7
  6
CONTINUOUS
 10
73.7744115151
 20
93.8298451215
 11
73.9233476676
 21
93.538178733
  0
LINE
  5
3E9
100
AcDbEntity
  8
0
100
AcDbLine
 62
7
  6
CONTINUOUS
 10
76.6786668532
 20
95.1423451215
 11
76.7531349294
 21
94.9965123445
  0
LINE
  5
3EA
100
AcDbEntity
  8
0
100
AcDbLine
 62
7
  6
CONTINUOUS
 10
77.1254753562
 20
94.9965123445
 11
76.9765391841
 21
95.288178733
  0
LINE
  5
3EB
100
AcDbEntity
  8
0
100
AcDbLine
 62
7
  6
CONTINUOUS
 10
48.1341128982
 20
141.7576579712
 11
47.9556327753
 21
142.1106801136
  0
LINE
  5
3EC
100
AcDbEntity
  8
0
100
AcDbLine
 62
7
  6
CONTINUOUS
 10
53.2657739796
 20
138.3186994949
 11
53.4442541026
 21
137.9656773525
  0
LINE
  5
3ED
100
AcDbEntity
  8
0
100
AcDbLine
 62
7
  6
CONTINUOUS
 10
27.1341128982
 20
196.7576579712
 11
26.9556327753
 21
197.1106801136
  0
LINE
  5
3EE
100
AcDbEntity
  8
0
100
AcDbLine
 62
7
  6
CONTINUOUS
 10
75.1148370959
 20
94.9965123445
 11
75.2637732483
 21
94.5590123445
  0
LINE
  5
3EF
100
AcDbEntity
  8
0
100
AcDbLine
 62
7
  6
CONTINUOUS
 10
52.2105817355
 20
193.8715119869
 11
52.1254753627
 21
194.288178733
  0
LINE
  5
3F0
100
AcDbEntity
  8
0
100
AcDbLine
 62
7
  6
CONTINUOUS
 10
74.1467518963
 20
93.9027623445
 11
74.0722838201
 21
94.2673451215
  0
LINE
  5
3F1
100
AcDbEntity
  8
0
100
AcDbLine
 62
7
  6
CONTINUOUS
 10
55.6999434389
 20
194.6215121061
 11
55.6148370661
 21
195.2048454196
  0
LINE
  5
3F2
100
AcDbEntity
  8
0
100
AcDbLine
 62
7
  6
CONTINUOUS
 10
73.6999434389
 20
94.3402623445
 11
73.7744115151
 21
93.8298451215
  0
LINE
  5
3F3
100
AcDbEntity
  8
0
100
AcDbLine
 62
7
  6
CONTINUOUS
 10
73.6999434389
 20
122.850678733
 11
73.6999434389
 21
119.934013179
  0
LINE
  5
3F4
100
AcDbEntity
  8
0
100
AcDbLine
 62
7
  6
CONTINUOUS
 10
73.6999434389
 20
119.350678733
 11
73.6999434389
 21
116.725678733
  0
LINE
  5
3F5
100
AcDbEntity
  8
0
100
AcDbLine
 62
7
  6
CONTINUOUS
 10
73.6999434389
 20
111.475678733
 11
73.6999434389
 21
109.725678733
  0
LINE
  5
3F6
100
AcDbEntity
  8
0
100
AcDbLine
 62
7
  6
CONTINUOUS
 10
73.6999434389
 20
107.9027615101
 11
73.6999434389
 21
107.756928733
  0
LINE
  5
3F7
100
AcDbEntity
  8
0
100
AcDbLine
 62
7
  6
CONTINUOUS
 10
73.6999434389
 20
98.4965123445
 11
73.6999434389
 21
98.0590123445
  0
LINE
  5
3F8
100
AcDbEntity
  8
0
100
AcDbLine
 62
7
  6
CONTINUOUS
 10
73.6999434389
 20
94.4860951215
 11
73.6999434389
 21
94.3402623445
  0
LINE
  5
3F9
100
AcDbEntity
  8
0
100
AcDbLine
 62
7
  6
CONTINUOUS
 10
73.6999434389
 20
92.5173455388
 11
73.6999434389
 21
89.8923453302
  0
LINE
  5
3FA
100
AcDbEntity
  8
0
100
AcDbLine
 62
7
  6
CONTINUOUS
 10
73.6999434389
 20
89.3090121359
 11
73.6999434389
 21
86.538178733
  0
LINE
  5
3FB
100
AcDbEntity
  8
0
100
AcDbLine
 62
7
  6
CONTINUOUS
 10
74.0722838201
 20
86.538178733
 11
74.0722838201
 21
87.7048454345
  0
LINE
  5
3FC
100
AcDbEntity
  8
0
100
AcDbLine
 62
7
  6
CONTINUOUS
 10
74.0722838201
 20
88.1423454345
 11
74.0722838201
 21
89.3090121359
  0
LINE
  5
3FD
100
AcDbEntity
  8
0
100
AcDbLine
 62
7
  6
CONTINUOUS
 10
74.0722838201
 20
94.2673451215
 11
74.0722838201
 21
94.5590123445
  0
LINE
  5
3FE
100
AcDbEntity
  8
0
100
AcDbLine
 62
7
  6
CONTINUOUS
 10
74.0722838201
 20
107.6840115101
 11
74.0722838201
 21
107.975678733
  0
LINE
  5
3FF
100
AcDbEntity
  8
0
100
AcDbLine
 62
7
  6
CONTINUOUS
 10
74.0722838201
 20
119.934013179
 11
74.0722838201
 21
122.4860942871
  0
LINE
  5
400
100
AcDbEntity
  8
0
100
AcDbLine
 62
7
  6
CONTINUOUS
 10
74.1467518963
 20
90.3298455388
 11
74.1467518963
 21
92.5173455388
  0
LINE
  5
401
100
AcDbEntity
  8
0
100
AcDbLine
 62
7
  6
CONTINUOUS
 10
74.1467518963
 20
110.163178733
 11
74.1467518963
 21
111.475678733
  0
LINE
  5
402
100
AcDbEntity
  8
0
100
AcDbLine
 62
7
  6
CONTINUOUS
 10
74.1467518963
 20
117.163178733
 11
74.1467518963
 21
119.350678733
  0
LINE
  5
403
100
AcDbEntity
  8
0
100
AcDbLine
 62
7
  6
CONTINUOUS
 10
74.5190922774
 20
93.1735955388
 11
74.5190922774
 21
93.538178733
  0
LINE
  5
404
100
AcDbEntity
  8
0
100
AcDbLine
 62
7
  6
CONTINUOUS
 10
74.5190922774
 20
106.5902615101
 11
74.5190922774
 21
106.954845956
  0
LINE
  5
405
100
AcDbEntity
  8
0
100
AcDbLine
 62
7
  6
CONTINUOUS
 10
75.1148370959
 20
119.059013179
 11
75.1148370959
 21
117.163178733
  0
LINE
  5
406
100
AcDbEntity
  8
0
100
AcDbLine
 62
7
  6
CONTINUOUS
 10
75.1148370959
 20
92.225678733
 11
75.1148370959
 21
90.3298455388
  0
LINE
  5
407
100
AcDbEntity
  8
0
100
AcDbLine
 62
7
  6
CONTINUOUS
 10
75.2637732483
 20
107.975678733
 11
75.2637732483
 21
107.6840115101
  0
LINE
  5
408
100
AcDbEntity
  8
0
100
AcDbLine
 62
7
  6
CONTINUOUS
 10
75.2637732483
 20
94.5590123445
 11
75.2637732483
 21
94.2673451215
  0
LINE
  5
409
100
AcDbEntity
  8
0
100
AcDbLine
 62
7
  6
CONTINUOUS
 10
75.5616455533
 20
90.3298455388
 11
75.5616455533
 21
92.225678733
  0
LINE
  5
40A
100
AcDbEntity
  8
0
100
AcDbLine
 62
7
  6
CONTINUOUS
 10
75.5616455533
 20
94.2673451215
 11
75.5616455533
 21
94.5590123445
  0
LINE
  5
40B
100
AcDbEntity
  8
0
100
AcDbLine
 62
7
  6
CONTINUOUS
 10
75.5616455533
 20
107.6840115101
 11
75.5616455533
 21
107.975678733
  0
LINE
  5
40C
100
AcDbEntity
  8
0
100
AcDbLine
 62
7
  6
CONTINUOUS
 10
75.5616455533
 20
117.163178733
 11
75.5616455533
 21
119.059013179
  0
LINE
  5
40D
100
AcDbEntity
  8
0
100
AcDbLine
 62
7
  6
CONTINUOUS
 10
75.7105817057
 20
99.225678733
 11
75.7105817057
 21
98.4965123445
  0
LINE
  5
40E
100
AcDbEntity
  8
0
100
AcDbLine
 62
7
  6
CONTINUOUS
 10
75.7105817057
 20
98.0590123445
 11
75.7105817057
 21
96.819428733
  0
LINE
  5
40F
100
AcDbEntity
  8
0
100
AcDbLine
 62
7
  6
CONTINUOUS
 10
76.1573902674
 20
96.3090123445
 11
76.1573902674
 21
98.0590123445
  0
LINE
  5
410
100
AcDbEntity
  8
0
100
AcDbLine
 62
7
  6
CONTINUOUS
 10
76.1573902674
 20
98.4965123445
 11
76.1573902674
 21
99.225678733
  0
LINE
  5
411
100
AcDbEntity
  8
0
100
AcDbLine
 62
7
  6
CONTINUOUS
 10
76.3807944961
 20
106.881928733
 11
76.3807944961
 21
106.517345956
  0
LINE
  5
412
100
AcDbEntity
  8
0
100
AcDbLine
 62
7
  6
CONTINUOUS
 10
76.3807944961
 20
93.4652619273
 11
76.3807944961
 21
93.100678733
  0
LINE
  5
413
100
AcDbEntity
  8
0
100
AcDbLine
 62
7
  6
CONTINUOUS
 10
76.7531349294
 20
122.850678733
 11
76.7531349294
 21
120.371513179
  0
LINE
  5
414
100
AcDbEntity
  8
0
100
AcDbLine
 62
7
  6
CONTINUOUS
 10
76.7531349294
 20
111.475678733
 11
76.7531349294
 21
110.163178733
  0
LINE
  5
415
100
AcDbEntity
  8
0
100
AcDbLine
 62
7
  6
CONTINUOUS
 10
76.7531349294
 20
92.5173455388
 11
76.7531349294
 21
90.3298455388
  0
LINE
  5
416
100
AcDbEntity
  8
0
100
AcDbLine
 62
7
  6
CONTINUOUS
 10
76.8276030056
 20
108.048595956
 11
76.8276030056
 21
107.611095956
  0
LINE
  5
417
100
AcDbEntity
  8
0
100
AcDbLine
 62
7
  6
CONTINUOUS
 10
76.8276030056
 20
94.631928733
 11
76.8276030056
 21
94.194428733
  0
LINE
  5
418
100
AcDbEntity
  8
0
100
AcDbLine
 62
7
  6
CONTINUOUS
 10
77.1999434389
 20
87.7048454345
 11
77.1999434389
 21
88.1423454345
  0
LINE
  5
419
100
AcDbEntity
  8
0
100
AcDbLine
 62
7
  6
CONTINUOUS
 10
77.1999434389
 20
89.8923453302
 11
77.1999434389
 21
92.5173455388
  0
LINE
  5
41A
100
AcDbEntity
  8
0
100
AcDbLine
 62
7
  6
CONTINUOUS
 10
77.1999434389
 20
94.1215123445
 11
77.1999434389
 21
94.7048451215
  0
LINE
  5
41B
100
AcDbEntity
  8
0
100
AcDbLine
 62
7
  6
CONTINUOUS
 10
77.1999434389
 20
98.0590123445
 11
77.1999434389
 21
98.4965123445
  0
LINE
  5
41C
100
AcDbEntity
  8
0
100
AcDbLine
 62
7
  6
CONTINUOUS
 10
77.1999434389
 20
107.538178733
 11
77.1999434389
 21
108.1215115101
  0
LINE
  5
41D
100
AcDbEntity
  8
0
100
AcDbLine
 62
7
  6
CONTINUOUS
 10
77.1999434389
 20
109.725678733
 11
77.1999434389
 21
111.475678733
  0
LINE
  5
41E
100
AcDbEntity
  8
0
100
AcDbLine
 62
7
  6
CONTINUOUS
 10
77.1999434389
 20
116.725678733
 11
77.1999434389
 21
117.163178733
  0
LINE
  5
41F
100
AcDbEntity
  8
0
100
AcDbLine
 62
7
  6
CONTINUOUS
 10
77.1999434389
 20
119.934013179
 11
77.1999434389
 21
122.850678733
  0
LINE
  5
420
100
AcDbEntity
  8
A_ACHSEN
100
AcDbLine
 62
7
  6
CENTER
 10
78.1999434389
 20
8.077389086
 11
78.1999434389
 21
21.9989683801
  0
LINE
  5
421
100
AcDbEntity
  8
A_ACHSEN
100
AcDbLine
 62
7
  6
CENTER
 10
78.1999434389
 20
188.1198110429
 11
78.1999434389
 21
201.9565464232
  0
LINE
  5
422
100
AcDbEntity
  8
0
100
AcDbLine
 62
7
  6
CONTINUOUS
 10
78.6999434389
 20
51.538178733
 11
78.6999434389
 21
158.538178733
  0
LINE
  5
423
100
AcDbEntity
  8
0
100
AcDbLine
 62
7
  6
CONTINUOUS
 10
73.7744115151
 20
108.413178733
 11
73.6999434389
 21
107.9027615101
  0
LINE
  5
424
100
AcDbEntity
  8
0
100
AcDbLine
 62
7
  6
CONTINUOUS
 10
73.7744115151
 20
94.9965123445
 11
73.6999434389
 21
94.4860951215
  0
LINE
  5
425
100
AcDbEntity
  8
0
100
AcDbLine
 62
7
  6
CONTINUOUS
 10
73.7744115151
 20
101.5590115101
 11
73.6999434389
 21
101.1215115101
  0
LINE
  5
426
100
AcDbEntity
  8
0
100
AcDbLine
 62
7
  6
CONTINUOUS
 10
75.5616455533
 20
107.975678733
 11
75.6361136295
 21
108.413178733
  0
LINE
  5
427
100
AcDbEntity
  8
0
100
AcDbLine
 62
7
  6
CONTINUOUS
 10
75.5616455533
 20
94.5590123445
 11
75.6361136295
 21
94.9965123445
  0
LINE
  5
428
100
AcDbEntity
  8
0
100
AcDbLine
 62
7
  6
CONTINUOUS
 10
63.6148370661
 20
23.788178733
 11
63.6999434389
 21
24.288178733
  0
LINE
  5
429
100
AcDbEntity
  8
0
100
AcDbLine
 62
7
  6
CONTINUOUS
 10
77.1254753562
 20
100.6840115101
 11
77.1999434389
 21
101.1215115101
  0
LINE
  5
42A
100
AcDbEntity
  8
0
100
AcDbLine
 62
7
  6
CONTINUOUS
 10
74.0722838201
 20
107.975678733
 11
74.1467518963
 21
108.3402615101
  0
LINE
  5
42B
100
AcDbEntity
  8
0
100
AcDbLine
 62
7
  6
CONTINUOUS
 10
55.2744115747
 20
12.3715121061
 11
55.1893052019
 21
11.9548454792
  0
LINE
  5
42C
100
AcDbEntity
  8
0
100
AcDbLine
 62
7
  6
CONTINUOUS
 10
74.0722838201
 20
101.1215115101
 11
74.1467518963
 21
101.486095956
  0
LINE
  5
42D
100
AcDbEntity
  8
0
100
AcDbLine
 62
7
  6
CONTINUOUS
 10
74.0722838201
 20
94.5590123445
 11
74.1467518963
 21
94.9235951215
  0
LINE
  5
42E
100
AcDbEntity
  8
0
100
AcDbLine
 62
7
  6
CONTINUOUS
 10
76.8276030056
 20
107.611095956
 11
76.7531349294
 21
107.2465115101
  0
LINE
  5
42F
100
AcDbEntity
  8
0
100
AcDbLine
 62
7
  6
CONTINUOUS
 10
76.8276030056
 20
101.1215115101
 11
76.7531349294
 21
100.756928733
  0
LINE
  5
430
100
AcDbEntity
  8
0
100
AcDbLine
 62
7
  6
CONTINUOUS
 10
76.8276030056
 20
94.194428733
 11
76.7531349294
 21
93.8298451215
  0
LINE
  5
431
100
AcDbEntity
  8
0
100
AcDbLine
 62
7
  6
CONTINUOUS
 10
63.2744115747
 20
24.3715121061
 11
63.1893052019
 21
23.9548454792
  0
LINE
  5
432
100
AcDbEntity
  8
0
100
AcDbLine
 62
7
  6
CONTINUOUS
 10
51.7850498192
 20
13.2048454196
 11
51.6999434389
 21
12.8715121061
  0
LINE
  5
433
100
AcDbEntity
  8
0
100
AcDbLine
 62
7
  6
CONTINUOUS
 10
77.1254753562
 20
107.2465115101
 11
77.1999434389
 21
107.538178733
  0
LINE
  5
434
100
AcDbEntity
  8
0
100
AcDbLine
 62
7
  6
CONTINUOUS
 10
77.1254753562
 20
93.8298451215
 11
77.1999434389
 21
94.1215123445
  0
LINE
  5
435
100
AcDbEntity
  8
0
100
AcDbLine
 62
7
  6
CONTINUOUS
 10
45.1014826936
 20
18.0683503372
 11
45.2249025392
 21
18.4441791932
  0
LINE
  5
436
100
AcDbEntity
  8
0
100
AcDbLine
 62
7
  6
CONTINUOUS
 10
66.1014826936
 20
73.0683503372
 11
66.2249025392
 21
73.4441791932
  0
LINE
  5
437
100
AcDbEntity
  8
0
100
AcDbLine
 62
7
  6
CONTINUOUS
 10
46.2984041842
 20
12.0080071289
 11
46.1749843387
 21
11.6321782729
  0
LINE
  5
438
100
AcDbEntity
  8
0
100
AcDbLine
 62
7
  6
CONTINUOUS
 10
53.1014826936
 20
28.0683503372
 11
53.2249025392
 21
28.4441791932
  0
LINE
  5
439
100
AcDbEntity
  8
0
100
AcDbLine
 62
7
  6
CONTINUOUS
 10
67.2984041842
 20
67.0080071289
 11
67.1749843387
 21
66.6321782729
  0
LINE
  5
43A
100
AcDbEntity
  8
0
100
AcDbLine
 62
7
  6
CONTINUOUS
 10
75.5616455533
 20
108.923595956
 11
75.4127094008
 21
108.5590115101
  0
LINE
  5
43B
100
AcDbEntity
  8
0
100
AcDbLine
 62
7
  6
CONTINUOUS
 10
75.5616455533
 20
95.506928733
 11
75.4127094008
 21
95.1423451215
  0
LINE
  5
43C
100
AcDbEntity
  8
0
100
AcDbLine
 62
7
  6
CONTINUOUS
 10
32.4442541026
 20
17.1106801136
 11
32.2657739796
 21
16.7576579712
  0
LINE
  5
43D
100
AcDbEntity
  8
0
100
AcDbLine
 62
7
  6
CONTINUOUS
 10
76.7531349294
 20
107.2465115101
 11
76.6786668532
 21
107.100678733
  0
LINE
  5
43E
100
AcDbEntity
  8
0
100
AcDbLine
 62
7
  6
CONTINUOUS
 10
76.9765391841
 20
106.954845956
 11
77.1254753562
 21
107.2465115101
  0
LINE
  5
43F
100
AcDbEntity
  8
0
100
AcDbLine
 62
7
  6
CONTINUOUS
 10
73.9233476676
 20
95.288178733
 11
73.7744115151
 21
94.9965123445
  0
LINE
  5
440
100
AcDbEntity
  8
0
100
AcDbLine
 62
7
  6
CONTINUOUS
 10
73.9978157438
 20
101.923595956
 11
73.7744115151
 21
101.5590115101
  0
LINE
  5
441
100
AcDbEntity
  8
0
100
AcDbLine
 62
7
  6
CONTINUOUS
 10
76.9020711079
 20
100.319428733
 11
77.1254753562
 21
100.6840115101
  0
LINE
  5
442
100
AcDbEntity
  8
0
100
AcDbLine
 62
7
  6
CONTINUOUS
 10
76.8276030056
 20
106.736095956
 11
76.9765391841
 21
106.954845956
  0
LINE
  5
443
100
AcDbEntity
  8
0
100
AcDbLine
 62
7
  6
CONTINUOUS
 10
74.1467518963
 20
101.486095956
 11
74.2956880487
 21
101.704845956
  0
LINE
  5
444
100
AcDbEntity
  8
0
100
AcDbLine
 62
7
  6
CONTINUOUS
 10
76.7531349294
 20
100.756928733
 11
76.6041987769
 21
100.538178733
  0
LINE
  5
445
100
AcDbEntity
  8
0
100
AcDbLine
 62
7
  6
CONTINUOUS
 10
74.1467518963
 20
94.9235951215
 11
74.2956880487
 21
95.1423451215
  0
LINE
  5
446
100
AcDbEntity
  8
0
100
AcDbLine
 62
7
  6
CONTINUOUS
 10
75.6361136295
 20
94.9965123445
 11
75.7850497819
 21
95.2152623445
  0
LINE
  5
447
100
AcDbEntity
  8
0
100
AcDbLine
 62
7
  6
CONTINUOUS
 10
74.2212199725
 20
102.142345956
 11
73.9978157438
 21
101.923595956
  0
LINE
  5
448
100
AcDbEntity
  8
0
100
AcDbLine
 62
7
  6
CONTINUOUS
 10
76.6786668532
 20
100.100678733
 11
76.9020711079
 21
100.319428733
  0
LINE
  5
449
100
AcDbEntity
  8
0
100
AcDbLine
 62
7
  6
CONTINUOUS
 10
74.2212199725
 20
95.5798451215
 11
73.9233476676
 21
95.288178733
  0
LINE
  5
44A
100
AcDbEntity
  8
0
100
AcDbLine
 62
7
  6
CONTINUOUS
 10
76.6041987769
 20
100.538178733
 11
76.1573902674
 21
100.2465123445
  0
LINE
  5
44B
100
AcDbEntity
  8
0
100
AcDbLine
 62
7
  6
CONTINUOUS
 10
74.2956880487
 20
95.1423451215
 11
74.5190922774
 21
95.288178733
  0
LINE
  5
44C
100
AcDbEntity
  8
0
100
AcDbLine
 62
7
  6
CONTINUOUS
 10
75.7850497819
 20
95.6527623445
 11
75.5616455533
 21
95.506928733
  0
LINE
  5
44D
100
AcDbEntity
  8
0
100
AcDbLine
 62
7
  6
CONTINUOUS
 10
76.3807944961
 20
99.9548451215
 11
76.6786668532
 21
100.100678733
  0
LINE
  5
44E
100
AcDbEntity
  8
0
100
AcDbLine
 62
7
  6
CONTINUOUS
 10
75.7850497819
 20
95.2152623445
 11
76.0829221912
 21
95.3610951215
  0
LINE
  5
44F
100
AcDbEntity
  8
0
100
AcDbLine
 62
7
  6
CONTINUOUS
 10
76.1573902674
 20
99.881928733
 11
76.3807944961
 21
99.9548451215
  0
LINE
  5
450
100
AcDbEntity
  8
0
100
AcDbLine
 62
7
  6
CONTINUOUS
 10
76.3807944961
 20
93.100678733
 11
76.6041987769
 21
93.1735955388
  0
LINE
  5
451
100
AcDbEntity
  8
0
100
AcDbLine
 62
7
  6
CONTINUOUS
 10
73.6999434389
 20
116.725678733
 11
77.1999434389
 21
116.725678733
  0
LINE
  5
452
100
AcDbEntity
  8
0
100
AcDbLine
 62
7
  6
CONTINUOUS
 10
77.1999434389
 20
117.163178733
 11
75.5616455533
 21
117.163178733
  0
LINE
  5
453
100
AcDbEntity
  8
0
100
AcDbLine
 62
7
  6
CONTINUOUS
 10
75.1148370959
 20
117.163178733
 11
74.1467518963
 21
117.163178733
  0
LINE
  5
454
100
AcDbEntity
  8
0
100
AcDbLine
 62
7
  6
CONTINUOUS
 10
75.5616455533
 20
119.059013179
 11
75.1148370959
 21
119.059013179
  0
LINE
  5
455
100
AcDbEntity
  8
0
100
AcDbLine
 62
7
  6
CONTINUOUS
 10
74.1467518963
 20
119.350678733
 11
73.6999434389
 21
119.350678733
  0
LINE
  5
456
100
AcDbEntity
  8
0
100
AcDbLine
 62
7
  6
CONTINUOUS
 10
73.6999434389
 20
119.934013179
 11
74.0722838201
 21
119.934013179
  0
LINE
  5
457
100
AcDbEntity
  8
0
100
AcDbLine
 62
7
  6
CONTINUOUS
 10
76.6041987769
 20
119.934013179
 11
77.1999434389
 21
119.934013179
  0
LINE
  5
458
100
AcDbEntity
  8
0
100
AcDbLine
 62
7
  6
CONTINUOUS
 10
76.3807944961
 20
112.569428733
 11
76.0084541149
 21
112.642345956
  0
LINE
  5
459
100
AcDbEntity
  8
0
100
AcDbLine
 62
7
  6
CONTINUOUS
 10
76.0084541149
 20
112.204845956
 11
76.3063264199
 21
112.131928733
  0
LINE
  5
45A
100
AcDbEntity
  8
0
100
AcDbLine
 62
7
  6
CONTINUOUS
 10
76.3807944961
 20
108.7777615101
 11
76.5297306485
 21
108.704845956
  0
LINE
  5
45B
100
AcDbEntity
  8
0
100
AcDbLine
 62
7
  6
CONTINUOUS
 10
76.6786668532
 20
112.423595956
 11
76.3807944961
 21
112.569428733
  0
LINE
  5
45C
100
AcDbEntity
  8
0
100
AcDbLine
 62
7
  6
CONTINUOUS
 10
75.1893051721
 20
108.850678733
 11
74.9659009434
 21
108.9965115101
  0
LINE
  5
45D
100
AcDbEntity
  8
0
100
AcDbLine
 62
7
  6
CONTINUOUS
 10
76.8276030056
 20
108.923595956
 11
76.6041987769
 21
109.069428733
  0
LINE
  5
45E
100
AcDbEntity
  8
0
100
AcDbLine
 62
7
  6
CONTINUOUS
 10
76.3063264199
 20
112.131928733
 11
76.5297306485
 21
111.986095956
  0
LINE
  5
45F
100
AcDbEntity
  8
0
100
AcDbLine
 62
7
  6
CONTINUOUS
 10
74.9659009434
 20
108.5590115101
 11
75.1148370959
 21
108.413178733
  0
LINE
  5
460
100
AcDbEntity
  8
0
100
AcDbLine
 62
7
  6
CONTINUOUS
 10
76.5297306485
 20
108.704845956
 11
76.6786668532
 21
108.5590115101
  0
LINE
  5
461
100
AcDbEntity
  8
0
100
AcDbLine
 62
7
  6
CONTINUOUS
 10
76.9765391841
 20
112.131928733
 11
76.6786668532
 21
112.423595956
  0
LINE
  5
462
100
AcDbEntity
  8
0
100
AcDbLine
 62
7
  6
CONTINUOUS
 10
75.4127094008
 20
108.5590115101
 11
75.1893051721
 21
108.850678733
  0
LINE
  5
463
100
AcDbEntity
  8
0
100
AcDbLine
 62
7
  6
CONTINUOUS
 10
74.2956880487
 20
107.100678733
 11
74.1467518963
 21
107.319428733
  0
LINE
  5
464
100
AcDbEntity
  8
0
100
AcDbLine
 62
7
  6
CONTINUOUS
 10
76.9765391841
 20
108.704845956
 11
76.8276030056
 21
108.923595956
  0
LINE
  5
465
100
AcDbEntity
  8
0
100
AcDbLine
 62
7
  6
CONTINUOUS
 10
76.5297306485
 20
111.986095956
 11
76.6786668532
 21
111.767345956
  0
LINE
  5
466
100
AcDbEntity
  8
0
100
AcDbLine
 62
7
  6
CONTINUOUS
 10
77.1254753562
 20
101.5590115101
 11
76.9020711079
 21
101.923595956
  0
LINE
  5
467
100
AcDbEntity
  8
0
100
AcDbLine
 62
7
  6
CONTINUOUS
 10
73.7744115151
 20
107.2465115101
 11
73.9233476676
 21
106.954845956
  0
LINE
  5
468
100
AcDbEntity
  8
0
100
AcDbLine
 62
7
  6
CONTINUOUS
 10
76.6786668532
 20
108.5590115101
 11
76.7531349294
 21
108.413178733
  0
LINE
  5
469
100
AcDbEntity
  8
0
100
AcDbLine
 62
7
  6
CONTINUOUS
 10
77.1254753562
 20
108.413178733
 11
76.9765391841
 21
108.704845956
  0
LINE
  5
46A
100
AcDbEntity
  8
0
100
AcDbLine
 62
7
  6
CONTINUOUS
 10
77.1254753562
 20
111.8402615101
 11
76.9765391841
 21
112.131928733
  0
LINE
  5
46B
100
AcDbEntity
  8
0
100
AcDbLine
 62
7
  6
CONTINUOUS
 10
32.2657739796
 20
193.3186994949
 11
32.4442541026
 21
192.9656773525
  0
LINE
  5
46C
100
AcDbEntity
  8
0
100
AcDbLine
 62
7
  6
CONTINUOUS
 10
75.1148370959
 20
108.413178733
 11
75.2637732483
 21
107.975678733
  0
LINE
  5
46D
100
AcDbEntity
  8
0
100
AcDbLine
 62
7
  6
CONTINUOUS
 10
45.2249025392
 20
191.6321782729
 11
45.1014826936
 21
192.0080071289
  0
LINE
  5
46E
100
AcDbEntity
  8
0
100
AcDbLine
 62
7
  6
CONTINUOUS
 10
66.2249025392
 20
136.6321782729
 11
66.1014826936
 21
137.0080071289
  0
LINE
  5
46F
100
AcDbEntity
  8
0
100
AcDbLine
 62
7
  6
CONTINUOUS
 10
46.1749843387
 20
198.4441791932
 11
46.2984041842
 21
198.0683503372
  0
LINE
  5
470
100
AcDbEntity
  8
0
100
AcDbLine
 62
7
  6
CONTINUOUS
 10
53.2249025392
 20
181.6321782729
 11
53.1014826936
 21
182.0080071289
  0
LINE
  5
471
100
AcDbEntity
  8
0
100
AcDbLine
 62
7
  6
CONTINUOUS
 10
67.1749843387
 20
143.4441791932
 11
67.2984041842
 21
143.0683503372
  0
LINE
  5
472
100
AcDbEntity
  8
0
100
AcDbLine
 62
7
  6
CONTINUOUS
 10
51.6999434389
 20
194.20484536
 11
51.7850498192
 21
193.8715119869
  0
LINE
  5
473
100
AcDbEntity
  8
0
100
AcDbLine
 62
7
  6
CONTINUOUS
 10
77.1999434389
 20
94.7048451215
 11
77.1254753562
 21
94.9965123445
  0
LINE
  5
474
100
AcDbEntity
  8
0
100
AcDbLine
 62
7
  6
CONTINUOUS
 10
77.1999434389
 20
108.1215115101
 11
77.1254753562
 21
108.413178733
  0
LINE
  5
475
100
AcDbEntity
  8
0
100
AcDbLine
 62
7
  6
CONTINUOUS
 10
76.6786668532
 20
111.767345956
 11
76.7531349294
 21
111.475678733
  0
LINE
  5
476
100
AcDbEntity
  8
0
100
AcDbLine
 62
7
  6
CONTINUOUS
 10
74.1467518963
 20
100.756928733
 11
74.0722838201
 21
101.1215115101
  0
LINE
  5
477
100
AcDbEntity
  8
0
100
AcDbLine
 62
7
  6
CONTINUOUS
 10
55.1893052019
 20
195.1215120465
 11
55.2744115747
 21
194.70484536
  0
LINE
  5
478
100
AcDbEntity
  8
0
100
AcDbLine
 62
7
  6
CONTINUOUS
 10
74.1467518963
 20
107.319428733
 11
74.0722838201
 21
107.6840115101
  0
LINE
  5
479
100
AcDbEntity
  8
0
100
AcDbLine
 62
7
  6
CONTINUOUS
 10
76.7531349294
 20
94.9965123445
 11
76.8276030056
 21
94.631928733
  0
LINE
  5
47A
100
AcDbEntity
  8
0
100
AcDbLine
 62
7
  6
CONTINUOUS
 10
76.7531349294
 20
101.486095956
 11
76.8276030056
 21
101.1215115101
  0
LINE
  5
47B
100
AcDbEntity
  8
0
100
AcDbLine
 62
7
  6
CONTINUOUS
 10
76.7531349294
 20
108.413178733
 11
76.8276030056
 21
108.048595956
  0
LINE
  5
47C
100
AcDbEntity
  8
0
100
AcDbLine
 62
7
  6
CONTINUOUS
 10
77.1999434389
 20
111.475678733
 11
77.1254753562
 21
111.8402615101
  0
LINE
  5
47D
100
AcDbEntity
  8
0
100
AcDbLine
 62
7
  6
CONTINUOUS
 10
63.1893052019
 20
186.1215120465
 11
63.2744115747
 21
185.70484536
  0
LINE
  5
47E
100
AcDbEntity
  8
0
100
AcDbLine
 62
7
  6
CONTINUOUS
 10
73.6999434389
 20
101.1215115101
 11
73.7744115151
 21
100.6840115101
  0
LINE
  5
47F
100
AcDbEntity
  8
0
100
AcDbLine
 62
7
  6
CONTINUOUS
 10
77.1999434389
 20
101.1215115101
 11
77.1254753562
 21
101.5590115101
  0
LINE
  5
480
100
AcDbEntity
  8
0
100
AcDbLine
 62
7
  6
CONTINUOUS
 10
73.6999434389
 20
107.756928733
 11
73.7744115151
 21
107.2465115101
  0
LINE
  5
481
100
AcDbEntity
  8
0
100
AcDbLine
 62
7
  6
CONTINUOUS
 10
63.6999434389
 20
185.6215121061
 11
63.6148370661
 21
186.2048454196
  0
LINE
  5
482
100
AcDbEntity
  8
A_ACHSEN
100
AcDbLine
 62
7
  6
CONTINUOUS
 10
85.6999434389
 20
174.6900305849
 11
85.6999434389
 21
173.3863268812
  0
LINE
  5
483
100
AcDbEntity
  8
A_ACHSEN
100
AcDbLine
 62
7
  6
CENTER
 10
85.6999434389
 20
173.2695548344
 11
85.6999434389
 21
169.238178733
  0
LINE
  5
484
100
AcDbEntity
  8
A_ACHSEN
100
AcDbLine
 62
7
  6
CENTER
 10
85.6999434389
 20
31.3013301538
 11
85.6999434389
 21
40.7750273122
  0
LINE
  5
485
100
AcDbEntity
  8
A_ACHSEN
100
AcDbLine
 62
7
  6
CENTER
 10
85.6999434389
 20
175.4224569158
 11
85.6999434389
 21
178.838178733
  0
LINE
  5
486
100
AcDbEntity
  8
A_RUNDUNGEN
100
AcDbLine
 62
7
  6
CONTINUOUS
 10
86.1999434389
 20
200.1239651707
 11
86.1999434389
 21
188.9523922954
  0
LINE
  5
487
100
AcDbEntity
  8
A_RUNDUNGEN
100
AcDbLine
 62
7
  6
CONTINUOUS
 10
86.1999434389
 20
21.1239651707
 11
86.1999434389
 21
9.9523922954
  0
LINE
  5
488
100
AcDbEntity
  8
0
100
AcDbLine
 62
7
  6
CONTINUOUS
 10
54.2984041842
 20
22.0080071289
 11
54.1749843387
 21
21.6321782729
  0
LINE
  5
489
100
AcDbEntity
  8
0
100
AcDbLine
 62
7
  6
CONTINUOUS
 10
61.1014826936
 20
38.0683503372
 11
61.2249025392
 21
38.4441791932
  0
LINE
  5
48A
100
AcDbEntity
  8
0
100
AcDbLine
 62
7
  6
CONTINUOUS
 10
62.2984041842
 20
32.0080071289
 11
62.1749843387
 21
31.6321782729
  0
LINE
  5
48B
100
AcDbEntity
  8
0
100
AcDbLine
 62
7
  6
CONTINUOUS
 10
63.9556327753
 20
67.9656773525
 11
64.1341128982
 21
68.3186994949
  0
LINE
  5
48C
100
AcDbEntity
  8
0
100
AcDbLine
 62
7
  6
CONTINUOUS
 10
69.4442541026
 20
72.1106801136
 11
69.2657739796
 21
71.7576579712
  0
LINE
  5
48D
100
AcDbEntity
  8
0
100
AcDbLine
 62
7
  6
CONTINUOUS
 10
42.9556327753
 20
12.9656773525
 11
43.1341128982
 21
13.3186994949
  0
LINE
  5
48E
100
AcDbEntity
  8
0
100
AcDbLine
 62
7
  6
CONTINUOUS
 10
76.7531349294
 20
93.8298451215
 11
76.6786668532
 21
93.6840123445
  0
LINE
  5
48F
100
AcDbEntity
  8
0
100
AcDbLine
 62
7
  6
CONTINUOUS
 10
76.9765391841
 20
93.538178733
 11
77.1254753562
 21
93.8298451215
  0
LINE
  5
490
100
AcDbEntity
  8
0
100
AcDbLine
 62
7
  6
CONTINUOUS
 10
76.8276030056
 20
93.319428733
 11
76.9765391841
 21
93.538178733
  0
LINE
  5
491
100
AcDbEntity
  8
0
100
AcDbLine
 62
7
  6
CONTINUOUS
 10
76.6786668532
 20
93.6840123445
 11
76.5297306485
 21
93.538178733
  0
LINE
  5
492
100
AcDbEntity
  8
0
100
AcDbLine
 62
7
  6
CONTINUOUS
 10
76.6041987769
 20
93.1735955388
 11
76.8276030056
 21
93.319428733
  0
LINE
  5
493
100
AcDbEntity
  8
0
100
AcDbLine
 62
7
  6
CONTINUOUS
 10
36.4194226771
 20
72.6040092738
 11
36.7724448195
 21
72.7824893967
  0
LINE
  5
494
100
AcDbEntity
  8
0
100
AcDbLine
 62
7
  6
CONTINUOUS
 10
32.9804642007
 20
67.4723481923
 11
32.6274420584
 21
67.2938680694
  0
LINE
  5
495
100
AcDbEntity
  8
0
100
AcDbLine
 62
7
  6
CONTINUOUS
 10
76.5297306485
 20
93.538178733
 11
76.3807944961
 21
93.4652619273
  0
LINE
  5
496
100
AcDbEntity
  8
0
100
AcDbLine
 62
7
  6
CONTINUOUS
 10
31.2939429787
 20
70.5132196328
 11
31.6697718348
 21
70.6366394783
  0
LINE
  5
497
100
AcDbEntity
  8
0
100
AcDbLine
 62
7
  6
CONTINUOUS
 10
77.1999434389
 20
122.850678733
 11
76.7531349294
 21
122.850678733
  0
LINE
  5
498
100
AcDbEntity
  8
0
100
AcDbLine
 62
7
  6
CONTINUOUS
 10
74.2212199725
 20
122.850678733
 11
73.6999434389
 21
122.850678733
  0
LINE
  5
499
100
AcDbEntity
  8
A_ACHSEN
100
AcDbLine
 62
7
  6
CENTER
 10
36.1788579729
 20
125.038178733
 11
51.221028905
 21
125.038178733
  0
LINE
  5
49A
100
AcDbEntity
  8
0
100
AcDbLine
 62
7
  6
CONTINUOUS
 10
31.6697718348
 20
139.4397179877
 11
31.2939429787
 21
139.5631378333
  0
LINE
  5
49B
100
AcDbEntity
  8
0
100
AcDbLine
 62
7
  6
CONTINUOUS
 10
36.7724448195
 20
137.2938680694
 11
36.4194226771
 21
137.4723481923
  0
LINE
  5
49C
100
AcDbEntity
  8
0
100
AcDbLine
 62
7
  6
CONTINUOUS
 10
32.6274420584
 20
142.7824893967
 11
32.9804642007
 21
142.6040092738
  0
LINE
  5
49D
100
AcDbEntity
  8
0
100
AcDbLine
 62
7
  6
CONTINUOUS
 10
76.7531349294
 20
120.371513179
 11
74.2212199725
 21
122.850678733
  0
LINE
  5
49E
100
AcDbEntity
  8
0
100
AcDbLine
 62
7
  6
CONTINUOUS
 10
74.0722838201
 20
122.4860942871
 11
76.6041987769
 21
119.934013179
  0
LINE
  5
49F
100
AcDbEntity
  8
0
100
AcDbLine
 62
7
  6
CONTINUOUS
 10
64.1341128982
 20
141.7576579712
 11
63.9556327753
 21
142.1106801136
  0
LINE
  5
4A0
100
AcDbEntity
  8
0
100
AcDbLine
 62
7
  6
CONTINUOUS
 10
69.2657739796
 20
138.3186994949
 11
69.4442541026
 21
137.9656773525
  0
LINE
  5
4A1
100
AcDbEntity
  8
0
100
AcDbLine
 62
7
  6
CONTINUOUS
 10
43.1341128982
 20
196.7576579712
 11
42.9556327753
 21
197.1106801136
  0
LINE
  5
4A2
100
AcDbEntity
  8
0
100
AcDbLine
 62
7
  6
CONTINUOUS
 10
54.0829221167
 20
193.8715119869
 11
53.912709371
 21
194.3715121061
  0
LINE
  5
4A3
100
AcDbEntity
  8
0
100
AcDbLine
 62
7
  6
CONTINUOUS
 10
54.1749843387
 20
188.4441791932
 11
54.2984041842
 21
188.0683503372
  0
LINE
  5
4A4
100
AcDbEntity
  8
0
100
AcDbLine
 62
7
  6
CONTINUOUS
 10
61.2249025392
 20
171.6321782729
 11
61.1014826936
 21
172.0080071289
  0
LINE
  5
4A5
100
AcDbEntity
  8
0
100
AcDbLine
 62
7
  6
CONTINUOUS
 10
62.1749843387
 20
178.4441791932
 11
62.2984041842
 21
178.0683503372
  0
LINE
  5
4A6
100
AcDbEntity
  8
A_RUNDUNGEN
100
AcDbLine
 62
7
  6
CONTINUOUS
 10
87.1999434389
 20
5.038178733
 11
87.1999434389
 21
8.1239651707
  0
LINE
  5
4A7
100
AcDbEntity
  8
A_RUNDUNGEN
100
AcDbLine
 62
7
  6
CONTINUOUS
 10
87.1999434389
 20
22.9523922954
 11
87.1999434389
 21
26.038178733
  0
LINE
  5
4A8
100
AcDbEntity
  8
A_RUNDUNGEN
100
AcDbLine
 62
7
  6
CONTINUOUS
 10
87.1999434389
 20
184.038178733
 11
87.1999434389
 21
187.1239651707
  0
LINE
  5
4A9
100
AcDbEntity
  8
A_RUNDUNGEN
100
AcDbLine
 62
7
  6
CONTINUOUS
 10
87.1999434389
 20
201.9523922954
 11
87.1999434389
 21
205.038178733
  0
LINE
  5
4AA
100
AcDbEntity
  8
0
100
AcDbLine
 62
7
  6
CONTINUOUS
 10
53.5722838797
 20
11.288178733
 11
53.7424966253
 21
11.7048454792
  0
LINE
  5
4AB
100
AcDbEntity
  8
0
100
AcDbLine
 62
7
  6
CONTINUOUS
 10
50.9556327753
 20
22.9656773525
 11
51.1341128982
 21
23.3186994949
  0
LINE
  5
4AC
100
AcDbEntity
  8
0
100
AcDbLine
 62
7
  6
CONTINUOUS
 10
48.4442541026
 20
17.1106801136
 11
48.2657739796
 21
16.7576579712
  0
LINE
  5
4AD
100
AcDbEntity
  8
0
100
AcDbLine
 62
7
  6
CONTINUOUS
 10
58.9556327753
 20
32.9656773525
 11
59.1341128982
 21
33.3186994949
  0
LINE
  5
4AE
100
AcDbEntity
  8
0
100
AcDbLine
 62
7
  6
CONTINUOUS
 10
56.4442541026
 20
27.1106801136
 11
56.2657739796
 21
26.7576579712
  0
LINE
  5
4AF
100
AcDbEntity
  8
0
100
AcDbLine
 62
7
  6
CONTINUOUS
 10
52.4194226771
 20
72.6040092738
 11
52.7724448195
 21
72.7824893967
  0
LINE
  5
4B0
100
AcDbEntity
  8
0
100
AcDbLine
 62
7
  6
CONTINUOUS
 10
48.9804642007
 20
67.4723481923
 11
48.6274420584
 21
67.2938680694
  0
LINE
  5
4B1
100
AcDbEntity
  8
0
100
AcDbLine
 62
7
  6
CONTINUOUS
 10
38.1059438991
 20
69.5631378333
 11
37.7301150431
 21
69.4397179877
  0
LINE
  5
4B2
100
AcDbEntity
  8
0
100
AcDbLine
 62
7
  6
CONTINUOUS
 10
47.2939429787
 20
70.5132196328
 11
47.6697718348
 21
70.6366394783
  0
LINE
  5
4B3
100
AcDbEntity
  8
0
100
AcDbLine
 62
7
  6
CONTINUOUS
 10
37.7301150431
 20
140.6366394783
 11
38.1059438991
 21
140.5132196328
  0
LINE
  5
4B4
100
AcDbEntity
  8
0
100
AcDbLine
 62
7
  6
CONTINUOUS
 10
47.6697718348
 20
139.4397179877
 11
47.2939429787
 21
139.5631378333
  0
LINE
  5
4B5
100
AcDbEntity
  8
0
100
AcDbLine
 62
7
  6
CONTINUOUS
 10
52.7724448195
 20
137.2938680694
 11
52.4194226771
 21
137.4723481923
  0
LINE
  5
4B6
100
AcDbEntity
  8
0
100
AcDbLine
 62
7
  6
CONTINUOUS
 10
48.6274420584
 20
142.7824893967
 11
48.9804642007
 21
142.6040092738
  0
LINE
  5
4B7
100
AcDbEntity
  8
0
100
AcDbLine
 62
7
  6
CONTINUOUS
 10
51.7850498192
 20
193.8715119869
 11
51.9552625872
 21
193.538178733
  0
LINE
  5
4B8
100
AcDbEntity
  8
0
100
AcDbLine
 62
7
  6
CONTINUOUS
 10
52.2956881084
 20
193.7048454792
 11
52.2105817355
 21
193.8715119869
  0
LINE
  5
4B9
100
AcDbEntity
  8
0
100
AcDbLine
 62
7
  6
CONTINUOUS
 10
51.1341128982
 20
186.7576579712
 11
50.9556327753
 21
187.1106801136
  0
LINE
  5
4BA
100
AcDbEntity
  8
0
100
AcDbLine
 62
7
  6
CONTINUOUS
 10
48.2657739796
 20
193.3186994949
 11
48.4442541026
 21
192.9656773525
  0
LINE
  5
4BB
100
AcDbEntity
  8
0
100
AcDbLine
 62
7
  6
CONTINUOUS
 10
59.1341128982
 20
176.7576579712
 11
58.9556327753
 21
177.1106801136
  0
LINE
  5
4BC
100
AcDbEntity
  8
0
100
AcDbLine
 62
7
  6
CONTINUOUS
 10
56.2657739796
 20
183.3186994949
 11
56.4442541026
 21
182.9656773525
  0
LINE
  5
4BD
100
AcDbEntity
  8
A_ACHSEN
100
AcDbLine
 62
7
  6
CENTER
 10
100.6999434389
 20
173.9219494045
 11
100.6999434389
 21
169.238178733
  0
LINE
  5
4BE
100
AcDbEntity
  8
A_ACHSEN
100
AcDbLine
 62
7
  6
CENTER
 10
100.6999434389
 20
31.436884181
 11
100.6999434389
 21
40.6394732851
  0
LINE
  5
4BF
100
AcDbEntity
  8
A_ACHSEN
100
AcDbLine
 62
7
  6
CONTINUOUS
 10
100.6999434389
 20
173.9219494045
 11
100.6999434389
 21
174.4438650606
  0
LINE
  5
4C0
100
AcDbEntity
  8
A_ACHSEN
100
AcDbLine
 62
7
  6
CENTER
 10
100.6999434389
 20
174.4438650606
 11
100.6999434389
 21
178.838178733
  0
LINE
  5
4C1
100
AcDbEntity
  8
0
100
AcDbLine
 62
7
  6
CONTINUOUS
 10
64.4442541026
 20
37.1106801136
 11
64.2657739796
 21
36.7576579712
  0
LINE
  5
4C2
100
AcDbEntity
  8
0
100
AcDbLine
 62
7
  6
CONTINUOUS
 10
51.9552625872
 20
13.538178733
 11
51.7850498192
 21
13.2048454196
  0
LINE
  5
4C3
100
AcDbEntity
  8
0
100
AcDbLine
 62
7
  6
CONTINUOUS
 10
52.2105817355
 20
13.2048454196
 11
52.2956881084
 21
13.3715120465
  0
LINE
  5
4C4
100
AcDbEntity
  8
0
100
AcDbLine
 62
7
  6
CONTINUOUS
 10
55.4446243204
 20
11.538178733
 11
55.6148370661
 21
11.8715119869
  0
LINE
  5
4C5
100
AcDbEntity
  8
0
100
AcDbLine
 62
7
  6
CONTINUOUS
 10
63.4446243204
 20
23.4548454792
 11
63.6148370661
 21
23.788178733
  0
LINE
  5
4C6
100
AcDbEntity
  8
0
100
AcDbLine
 62
7
  6
CONTINUOUS
 10
68.4194226771
 20
72.6040092738
 11
68.7724448195
 21
72.7824893967
  0
LINE
  5
4C7
100
AcDbEntity
  8
0
100
AcDbLine
 62
7
  6
CONTINUOUS
 10
64.9804642007
 20
67.4723481923
 11
64.6274420584
 21
67.2938680694
  0
LINE
  5
4C8
100
AcDbEntity
  8
0
100
AcDbLine
 62
7
  6
CONTINUOUS
 10
54.1059438991
 20
69.5631378333
 11
53.7301150431
 21
69.4397179877
  0
LINE
  5
4C9
100
AcDbEntity
  8
0
100
AcDbLine
 62
7
  6
CONTINUOUS
 10
63.2939429787
 20
70.5132196328
 11
63.6697718348
 21
70.6366394783
  0
LINE
  5
4CA
100
AcDbEntity
  8
0
100
AcDbLine
 62
7
  6
CONTINUOUS
 10
70.1059438991
 20
69.5631378333
 11
69.7301150431
 21
69.4397179877
  0
LINE
  5
4CB
100
AcDbEntity
  8
A_ACHSEN
100
AcDbLine
 62
7
  6
CENTER
 10
26.6538972489
 20
140.038178733
 11
42.745989629
 21
140.038178733
  0
LINE
  5
4CC
100
AcDbEntity
  8
A_ACHSEN
100
AcDbLine
 62
7
  6
CENTER
 10
42.8985220452
 20
140.038178733
 11
58.5013648326
 21
140.038178733
  0
LINE
  5
4CD
100
AcDbEntity
  8
A_ACHSEN
100
AcDbLine
 62
7
  6
CENTER
 10
59.4041046697
 20
140.038178733
 11
73.9957822081
 21
140.038178733
  0
LINE
  5
4CE
100
AcDbEntity
  8
0
100
AcDbLine
 62
7
  6
CONTINUOUS
 10
53.7301150431
 20
140.6366394783
 11
54.1059438991
 21
140.5132196328
  0
LINE
  5
4CF
100
AcDbEntity
  8
0
100
AcDbLine
 62
7
  6
CONTINUOUS
 10
63.6697718348
 20
139.4397179877
 11
63.2939429787
 21
139.5631378333
  0
LINE
  5
4D0
100
AcDbEntity
  8
0
100
AcDbLine
 62
7
  6
CONTINUOUS
 10
69.7301150431
 20
140.6366394783
 11
70.1059438991
 21
140.5132196328
  0
LINE
  5
4D1
100
AcDbEntity
  8
0
100
AcDbLine
 62
7
  6
CONTINUOUS
 10
68.7724448195
 20
137.2938680694
 11
68.4194226771
 21
137.4723481923
  0
LINE
  5
4D2
100
AcDbEntity
  8
0
100
AcDbLine
 62
7
  6
CONTINUOUS
 10
64.6274420584
 20
142.7824893967
 11
64.9804642007
 21
142.6040092738
  0
LINE
  5
4D3
100
AcDbEntity
  8
0
100
AcDbLine
 62
7
  6
CONTINUOUS
 10
55.6148370661
 20
195.2048454196
 11
55.4446243204
 21
195.538178733
  0
LINE
  5
4D4
100
AcDbEntity
  8
0
100
AcDbLine
 62
7
  6
CONTINUOUS
 10
63.6148370661
 20
186.2048454196
 11
63.4446243204
 21
186.538178733
  0
LINE
  5
4D5
100
AcDbEntity
  8
0
100
AcDbLine
 62
7
  6
CONTINUOUS
 10
64.2657739796
 20
173.3186994949
 11
64.4442541026
 21
172.9656773525
  0
LINE
  5
4D6
100
AcDbEntity
  8
A_RUNDUNGEN
100
AcDbLine
 62
7
  6
CONTINUOUS
 10
107.1999434389
 20
171.038178733
 11
107.1999434389
 21
170.538178733
  0
LINE
  5
4D7
100
AcDbEntity
  8
A_RUNDUNGEN
100
AcDbLine
 62
7
  6
CONTINUOUS
 10
107.1999434389
 20
39.538178733
 11
107.1999434389
 21
39.038178733
  0
LINE
  5
4D8
100
AcDbEntity
  8
0
100
AcDbLine
 62
7
  6
CONTINUOUS
 10
77.6014826936
 20
18.0683503372
 11
77.7249025392
 21
18.4441791932
  0
LINE
  5
4D9
100
AcDbEntity
  8
0
100
AcDbLine
 62
7
  6
CONTINUOUS
 10
78.7984041842
 20
12.0080071289
 11
78.6749843387
 21
11.6321782729
  0
LINE
  5
4DA
100
AcDbEntity
  8
0
100
AcDbLine
 62
7
  6
CONTINUOUS
 10
52.1254753627
 20
13.788178733
 11
51.9552625872
 21
13.538178733
  0
LINE
  5
4DB
100
AcDbEntity
  8
0
100
AcDbLine
 62
7
  6
CONTINUOUS
 10
53.4871775068
 20
11.8715119869
 11
53.3169647612
 21
11.6215119869
  0
LINE
  5
4DC
100
AcDbEntity
  8
0
100
AcDbLine
 62
7
  6
CONTINUOUS
 10
51.9552625872
 20
193.538178733
 11
52.1254753627
 21
193.288178733
  0
LINE
  5
4DD
100
AcDbEntity
  8
0
100
AcDbLine
 62
7
  6
CONTINUOUS
 10
55.0190924562
 20
195.3715120465
 11
55.1893052019
 21
195.1215120465
  0
LINE
  5
4DE
100
AcDbEntity
  8
0
100
AcDbLine
 62
7
  6
CONTINUOUS
 10
77.7249025392
 20
191.6321782729
 11
77.6014826936
 21
192.0080071289
  0
LINE
  5
4DF
100
AcDbEntity
  8
0
100
AcDbLine
 62
7
  6
CONTINUOUS
 10
78.6749843387
 20
198.4441791932
 11
78.7984041842
 21
198.0683503372
  0
LINE
  5
4E0
100
AcDbEntity
  8
0
100
AcDbLine
 62
7
  6
CONTINUOUS
 10
75.4556327753
 20
12.9656773525
 11
75.6341128982
 21
13.3186994949
  0
LINE
  5
4E1
100
AcDbEntity
  8
0
100
AcDbLine
 62
7
  6
CONTINUOUS
 10
63.1893052019
 20
23.9548454792
 11
63.0190924562
 21
23.7048454792
  0
LINE
  5
4E2
100
AcDbEntity
  8
0
100
AcDbLine
 62
7
  6
CONTINUOUS
 10
55.1893052019
 20
11.9548454792
 11
55.0190924562
 21
11.7048454792
  0
LINE
  5
4E3
100
AcDbEntity
  8
A_ACHSEN
100
AcDbLine
 62
7
  6
CONTINUOUS
 10
41.6999434389
 20
151.888178733
 11
66.6999434389
 21
151.888178733
  0
LINE
  5
4E4
100
AcDbEntity
  8
A_ACHSEN
100
AcDbLine
 62
7
  6
CENTER
 10
36.1136185158
 20
156.038178733
 11
71.6471617557
 21
156.038178733
  0
LINE
  5
4E5
100
AcDbEntity
  8
0
100
AcDbLine
 62
7
  6
CONTINUOUS
 10
60.1254753627
 20
186.3715120465
 11
61.9978157438
 21
184.288178733
  0
LINE
  5
4E6
100
AcDbEntity
  8
0
100
AcDbLine
 62
7
  6
CONTINUOUS
 10
53.7424966253
 20
193.7048454792
 11
53.9978157438
 21
193.3715119869
  0
LINE
  5
4E7
100
AcDbEntity
  8
0
100
AcDbLine
 62
7
  6
CONTINUOUS
 10
63.0190924562
 20
186.3715120465
 11
63.1893052019
 21
186.1215120465
  0
LINE
  5
4E8
100
AcDbEntity
  8
0
100
AcDbLine
 62
7
  6
CONTINUOUS
 10
75.6341128982
 20
196.7576579712
 11
75.4556327753
 21
197.1106801136
  0
LINE
  5
4E9
100
AcDbEntity
  8
0
100
AcDbLine
 62
7
  6
CONTINUOUS
 10
80.9442541026
 20
17.1106801136
 11
80.7657739796
 21
16.7576579712
  0
LINE
  5
4EA
100
AcDbEntity
  8
0
100
AcDbLine
 62
7
  6
CONTINUOUS
 10
52.2956881084
 20
13.3715120465
 11
52.4659009136
 21
13.538178733
  0
LINE
  5
4EB
100
AcDbEntity
  8
0
100
AcDbLine
 62
7
  6
CONTINUOUS
 10
63.1041988291
 20
23.1215119869
 11
63.4446243204
 21
23.4548454792
  0
LINE
  5
4EC
100
AcDbEntity
  8
A_ACHSEN
100
AcDbLine
 62
7
  6
CONTINUOUS
 10
66.6999434389
 20
160.188178733
 11
41.6999434389
 21
160.188178733
  0
LINE
  5
4ED
100
AcDbEntity
  8
0
100
AcDbLine
 62
7
  6
CONTINUOUS
 10
70.423347608
 20
176.038178733
 11
71.0190924562
 21
175.538178733
  0
LINE
  5
4EE
100
AcDbEntity
  8
0
100
AcDbLine
 62
7
  6
CONTINUOUS
 10
71.6999434389
 20
175.538178733
 11
71.1041988291
 21
176.038178733
  0
LINE
  5
4EF
100
AcDbEntity
  8
0
100
AcDbLine
 62
7
  6
CONTINUOUS
 10
52.4659009136
 20
193.538178733
 11
52.2956881084
 21
193.7048454792
  0
LINE
  5
4F0
100
AcDbEntity
  8
0
100
AcDbLine
 62
7
  6
CONTINUOUS
 10
54.2531348623
 20
193.7048454792
 11
54.0829221167
 21
193.8715119869
  0
LINE
  5
4F1
100
AcDbEntity
  8
0
100
AcDbLine
 62
7
  6
CONTINUOUS
 10
63.4446243204
 20
186.538178733
 11
63.1041988291
 21
186.8715120614
  0
LINE
  5
4F2
100
AcDbEntity
  8
0
100
AcDbLine
 62
7
  6
CONTINUOUS
 10
55.4446243204
 20
195.538178733
 11
55.1041988291
 21
195.8715120614
  0
LINE
  5
4F3
100
AcDbEntity
  8
0
100
AcDbLine
 62
7
  6
CONTINUOUS
 10
62.2531348623
 20
184.7048454792
 11
60.1254753627
 21
187.038178733
  0
LINE
  5
4F4
100
AcDbEntity
  8
0
100
AcDbLine
 62
7
  6
CONTINUOUS
 10
80.7657739796
 20
193.3186994949
 11
80.9442541026
 21
192.9656773525
  0
LINE
  5
4F5
100
AcDbEntity
  8
0
100
AcDbLine
 62
7
  6
CONTINUOUS
 10
55.1041988291
 20
11.2048454792
 11
55.4446243204
 21
11.538178733
  0
LINE
  5
4F6
100
AcDbEntity
  8
0
100
AcDbLine
 62
7
  6
CONTINUOUS
 10
63.4194226771
 20
37.6040092738
 11
63.7724448195
 21
37.7824893967
  0
LINE
  5
4F7
100
AcDbEntity
  8
0
100
AcDbLine
 62
7
  6
CONTINUOUS
 10
59.9804642007
 20
32.4723481923
 11
59.6274420584
 21
32.2938680694
  0
LINE
  5
4F8
100
AcDbEntity
  8
0
100
AcDbLine
 62
7
  6
CONTINUOUS
 10
31.4194226771
 20
17.6040092738
 11
31.7724448195
 21
17.7824893967
  0
LINE
  5
4F9
100
AcDbEntity
  8
0
100
AcDbLine
 62
7
  6
CONTINUOUS
 10
55.4194226771
 20
27.6040092738
 11
55.7724448195
 21
27.7824893967
  0
LINE
  5
4FA
100
AcDbEntity
  8
0
100
AcDbLine
 62
7
  6
CONTINUOUS
 10
27.9804642007
 20
12.4723481923
 11
27.6274420584
 21
12.2938680694
  0
LINE
  5
4FB
100
AcDbEntity
  8
0
100
AcDbLine
 62
7
  6
CONTINUOUS
 10
58.2939429787
 20
35.5132196328
 11
58.6697718348
 21
35.6366394783
  0
LINE
  5
4FC
100
AcDbEntity
  8
A_RUNDUNGEN
100
AcDbLine
 62
7
  6
CONTINUOUS
 10
105.1999434389
 20
168.538178733
 11
102.3331930196
 21
168.538178733
  0
LINE
  5
4FD
100
AcDbEntity
  8
0
100
AcDbLine
 62
7
  6
CONTINUOUS
 10
90.6999434389
 20
170.538178733
 11
95.6999434389
 21
170.538178733
  0
LINE
  5
4FE
100
AcDbEntity
  8
0
100
AcDbLine
 62
7
  6
CONTINUOUS
 10
58.6697718348
 20
174.4397179877
 11
58.2939429787
 21
174.5631378333
  0
LINE
  5
4FF
100
AcDbEntity
  8
0
100
AcDbLine
 62
7
  6
CONTINUOUS
 10
63.7724448195
 20
172.2938680694
 11
63.4194226771
 21
172.4723481923
  0
LINE
  5
500
100
AcDbEntity
  8
0
100
AcDbLine
 62
7
  6
CONTINUOUS
 10
59.6274420584
 20
177.7824893967
 11
59.9804642007
 21
177.6040092738
  0
LINE
  5
501
100
AcDbEntity
  8
0
100
AcDbLine
 62
7
  6
CONTINUOUS
 10
31.7724448195
 20
192.2938680694
 11
31.4194226771
 21
192.4723481923
  0
LINE
  5
502
100
AcDbEntity
  8
0
100
AcDbLine
 62
7
  6
CONTINUOUS
 10
55.7724448195
 20
182.2938680694
 11
55.4194226771
 21
182.4723481923
  0
LINE
  5
503
100
AcDbEntity
  8
0
100
AcDbLine
 62
7
  6
CONTINUOUS
 10
27.6274420584
 20
197.7824893967
 11
27.9804642007
 21
197.6040092738
  0
LINE
  5
504
100
AcDbEntity
  8
0
100
AcDbLine
 62
7
  6
CONTINUOUS
 10
61.9978157438
 20
184.288178733
 11
62.2531348623
 21
184.1215119869
  0
LINE
  5
505
100
AcDbEntity
  8
0
100
AcDbLine
 62
7
  6
CONTINUOUS
 10
63.0190924562
 20
23.7048454792
 11
62.7637733377
 21
23.538178733
  0
LINE
  5
506
100
AcDbEntity
  8
0
100
AcDbLine
 62
7
  6
CONTINUOUS
 10
52.3807944812
 20
13.9548453972
 11
52.1254753627
 21
13.788178733
  0
LINE
  5
507
100
AcDbEntity
  8
0
100
AcDbLine
 62
7
  6
CONTINUOUS
 10
53.3169647612
 20
11.1215119869
 11
53.5722838797
 21
11.288178733
  0
LINE
  5
508
100
AcDbEntity
  8
0
100
AcDbLine
 62
7
  6
CONTINUOUS
 10
55.0190924562
 20
11.7048454792
 11
54.7637733377
 21
11.538178733
  0
LINE
  5
509
100
AcDbEntity
  8
0
100
AcDbLine
 62
7
  6
CONTINUOUS
 10
51.9804642007
 20
22.4723481923
 11
51.6274420584
 21
22.2938680694
  0
LINE
  5
50A
100
AcDbEntity
  8
0
100
AcDbLine
 62
7
  6
CONTINUOUS
 10
47.4194226771
 20
17.6040092738
 11
47.7724448195
 21
17.7824893967
  0
LINE
  5
50B
100
AcDbEntity
  8
0
100
AcDbLine
 62
7
  6
CONTINUOUS
 10
43.9804642007
 20
12.4723481923
 11
43.6274420584
 21
12.2938680694
  0
LINE
  5
50C
100
AcDbEntity
  8
0
100
AcDbLine
 62
7
  6
CONTINUOUS
 10
65.1059438991
 20
34.5631378333
 11
64.7301150431
 21
34.4397179877
  0
LINE
  5
50D
100
AcDbEntity
  8
0
100
AcDbLine
 62
7
  6
CONTINUOUS
 10
50.2939429787
 20
25.5132196328
 11
50.6697718348
 21
25.6366394783
  0
LINE
  5
50E
100
AcDbEntity
  8
0
100
AcDbLine
 62
7
  6
CONTINUOUS
 10
26.2939429787
 20
15.5132196328
 11
26.6697718348
 21
15.6366394783
  0
LINE
  5
50F
100
AcDbEntity
  8
A_ACHSEN
100
AcDbLine
 62
7
  6
CENTER
 10
100.9300384253
 20
174.038178733
 11
95.8999434389
 21
174.038178733
  0
LINE
  5
510
100
AcDbEntity
  8
A_ACHSEN
100
AcDbLine
 62
7
  6
CONTINUOUS
 10
85.6640054842
 20
174.038178733
 11
85.0480915871
 21
174.038178733
  0
LINE
  5
511
100
AcDbEntity
  8
A_ACHSEN
100
AcDbLine
 62
7
  6
CENTER
 10
84.685413629
 20
174.038178733
 11
80.8999434389
 21
174.038178733
  0
LINE
  5
512
100
AcDbEntity
  8
A_ACHSEN
100
AcDbLine
 62
7
  6
CENTER
 10
85.6640054842
 20
174.038178733
 11
90.4999434389
 21
174.038178733
  0
LINE
  5
513
100
AcDbEntity
  8
A_ACHSEN
100
AcDbLine
 62
7
  6
CONTINUOUS
 10
100.9300384253
 20
174.038178733
 11
101.1909962534
 21
174.038178733
  0
LINE
  5
514
100
AcDbEntity
  8
A_ACHSEN
100
AcDbLine
 62
7
  6
CENTER
 10
101.1909962534
 20
174.038178733
 11
105.4999434389
 21
174.038178733
  0
LINE
  5
515
100
AcDbEntity
  8
A_ACHSEN
100
AcDbLine
 62
7
  6
CENTER
 10
55.0463454342
 20
175.038178733
 11
68.3535414436
 21
175.038178733
  0
LINE
  5
516
100
AcDbEntity
  8
0
100
AcDbLine
 62
7
  6
CONTINUOUS
 10
67.6999434389
 20
175.038178733
 11
71.6999434389
 21
175.038178733
  0
LINE
  5
517
100
AcDbEntity
  8
0
100
AcDbLine
 62
7
  6
CONTINUOUS
 10
71.0190924562
 20
175.538178733
 11
67.6999434389
 21
175.538178733
  0
LINE
  5
518
100
AcDbEntity
  8
0
100
AcDbLine
 62
7
  6
CONTINUOUS
 10
71.1041988291
 20
176.038178733
 11
70.423347608
 21
176.038178733
  0
LINE
  5
519
100
AcDbEntity
  8
0
100
AcDbLine
 62
7
  6
CONTINUOUS
 10
64.7301150431
 20
175.6366394783
 11
65.1059438991
 21
175.5132196328
  0
LINE
  5
51A
100
AcDbEntity
  8
0
100
AcDbLine
 62
7
  6
CONTINUOUS
 10
50.6697718348
 20
184.4397179877
 11
50.2939429787
 21
184.5631378333
  0
LINE
  5
51B
100
AcDbEntity
  8
0
100
AcDbLine
 62
7
  6
CONTINUOUS
 10
26.6697718348
 20
194.4397179877
 11
26.2939429787
 21
194.5631378333
  0
LINE
  5
51C
100
AcDbEntity
  8
0
100
AcDbLine
 62
7
  6
CONTINUOUS
 10
62.5935603537
 20
184.538178733
 11
62.2531348623
 21
184.7048454792
  0
LINE
  5
51D
100
AcDbEntity
  8
0
100
AcDbLine
 62
7
  6
CONTINUOUS
 10
51.6274420584
 20
187.7824893967
 11
51.9804642007
 21
187.6040092738
  0
LINE
  5
51E
100
AcDbEntity
  8
0
100
AcDbLine
 62
7
  6
CONTINUOUS
 10
47.7724448195
 20
192.2938680694
 11
47.4194226771
 21
192.4723481923
  0
LINE
  5
51F
100
AcDbEntity
  8
0
100
AcDbLine
 62
7
  6
CONTINUOUS
 10
43.6274420584
 20
197.7824893967
 11
43.9804642007
 21
197.6040092738
  0
LINE
  5
520
100
AcDbEntity
  8
0
100
AcDbLine
 62
7
  6
CONTINUOUS
 10
52.1254753627
 20
193.288178733
 11
52.3807944812
 21
193.1215119869
  0
LINE
  5
521
100
AcDbEntity
  8
0
100
AcDbLine
 62
7
  6
CONTINUOUS
 10
62.7637733377
 20
186.538178733
 11
63.0190924562
 21
186.3715120465
  0
LINE
  5
522
100
AcDbEntity
  8
0
100
AcDbLine
 62
7
  6
CONTINUOUS
 10
53.9978157438
 20
193.3715119869
 11
54.2531348623
 21
193.2048454792
  0
LINE
  5
523
100
AcDbEntity
  8
0
100
AcDbLine
 62
7
  6
CONTINUOUS
 10
54.7637733377
 20
195.538178733
 11
55.0190924562
 21
195.3715120465
  0
LINE
  5
524
100
AcDbEntity
  8
A_RUNDUNGEN
100
AcDbLine
 62
7
  6
CONTINUOUS
 10
86.9070502201
 20
22.2452855142
 11
86.4928366577
 21
21.8310719518
  0
LINE
  5
525
100
AcDbEntity
  8
0
100
AcDbLine
 62
7
  6
CONTINUOUS
 10
52.4659009136
 20
13.538178733
 11
52.6361136593
 21
13.6215120763
  0
LINE
  5
526
100
AcDbEntity
  8
0
100
AcDbLine
 62
7
  6
CONTINUOUS
 10
53.3169647612
 20
11.6215119869
 11
52.9765391506
 21
11.4548454792
  0
LINE
  5
527
100
AcDbEntity
  8
0
100
AcDbLine
 62
7
  6
CONTINUOUS
 10
57.1059438991
 20
24.5631378333
 11
56.7301150431
 21
24.4397179877
  0
LINE
  5
528
100
AcDbEntity
  8
0
100
AcDbLine
 62
7
  6
CONTINUOUS
 10
33.1059438991
 20
14.5631378333
 11
32.7301150431
 21
14.4397179877
  0
LINE
  5
529
100
AcDbEntity
  8
0
100
AcDbLine
 62
7
  6
CONTINUOUS
 10
42.2939429787
 20
15.5132196328
 11
42.6697718348
 21
15.6366394783
  0
LINE
  5
52A
100
AcDbEntity
  8
0
100
AcDbLine
 62
7
  6
CONTINUOUS
 10
62.7637733377
 20
184.038178733
 11
63.1041988291
 21
184.1215119869
  0
LINE
  5
52B
100
AcDbEntity
  8
0
100
AcDbLine
 62
7
  6
CONTINUOUS
 10
89.6999434389
 20
183.038178733
 11
88.1999434389
 21
183.038178733
  0
LINE
  5
52C
100
AcDbEntity
  8
0
100
AcDbLine
 62
7
  6
CONTINUOUS
 10
59.6999434389
 20
184.038178733
 11
60.1254753627
 21
184.038178733
  0
LINE
  5
52D
100
AcDbEntity
  8
0
100
AcDbLine
 62
7
  6
CONTINUOUS
 10
62.5935603537
 20
184.038178733
 11
62.7637733377
 21
184.038178733
  0
LINE
  5
52E
100
AcDbEntity
  8
0
100
AcDbLine
 62
7
  6
CONTINUOUS
 10
62.7637733377
 20
184.538178733
 11
62.5935603537
 21
184.538178733
  0
LINE
  5
52F
100
AcDbEntity
  8
A_ACHSEN
100
AcDbLine
 62
7
  6
CENTER
 10
47.2635391703
 20
185.038178733
 11
60.1363477075
 21
185.038178733
  0
LINE
  5
530
100
AcDbEntity
  8
0
100
AcDbLine
 62
7
  6
CONTINUOUS
 10
91.6999434389
 20
185.038178733
 11
93.1999434389
 21
185.038178733
  0
LINE
  5
531
100
AcDbEntity
  8
0
100
AcDbLine
 62
7
  6
CONTINUOUS
 10
62.2531348623
 20
184.1215119869
 11
62.5935603537
 21
184.038178733
  0
LINE
  5
532
100
AcDbEntity
  8
0
100
AcDbLine
 62
7
  6
CONTINUOUS
 10
63.1041988291
 20
186.8715120614
 11
62.7637733377
 21
186.9548453972
  0
LINE
  5
533
100
AcDbEntity
  8
0
100
AcDbLine
 62
7
  6
CONTINUOUS
 10
52.3807944812
 20
193.1215119869
 11
52.6361136593
 21
193.038178733
  0
LINE
  5
534
100
AcDbEntity
  8
0
100
AcDbLine
 62
7
  6
CONTINUOUS
 10
56.7301150431
 20
185.6366394783
 11
57.1059438991
 21
185.5132196328
  0
LINE
  5
535
100
AcDbEntity
  8
0
100
AcDbLine
 62
7
  6
CONTINUOUS
 10
32.7301150431
 20
195.6366394783
 11
33.1059438991
 21
195.5132196328
  0
LINE
  5
536
100
AcDbEntity
  8
0
100
AcDbLine
 62
7
  6
CONTINUOUS
 10
42.6697718348
 20
194.4397179877
 11
42.2939429787
 21
194.5631378333
  0
LINE
  5
537
100
AcDbEntity
  8
0
100
AcDbLine
 62
7
  6
CONTINUOUS
 10
52.6361136593
 20
193.4548454792
 11
52.4659009136
 21
193.538178733
  0
LINE
  5
538
100
AcDbEntity
  8
0
100
AcDbLine
 62
7
  6
CONTINUOUS
 10
54.5935603537
 20
193.538178733
 11
54.2531348623
 21
193.7048454792
  0
LINE
  5
539
100
AcDbEntity
  8
A_RUNDUNGEN
100
AcDbLine
 62
7
  6
CONTINUOUS
 10
86.4928366577
 20
188.2452855142
 11
86.9070502201
 21
187.8310719518
  0
LINE
  5
53A
100
AcDbEntity
  8
0
100
AcDbLine
 62
7
  6
CONTINUOUS
 10
79.9194226771
 20
17.6040092738
 11
80.2724448195
 21
17.7824893967
  0
LINE
  5
53B
100
AcDbEntity
  8
0
100
AcDbLine
 62
7
  6
CONTINUOUS
 10
49.1059438991
 20
14.5631378333
 11
48.7301150431
 21
14.4397179877
  0
LINE
  5
53C
100
AcDbEntity
  8
0
100
AcDbLine
 62
7
  6
CONTINUOUS
 10
52.6361136593
 20
14.038178733
 11
52.3807944812
 21
13.9548453972
  0
LINE
  5
53D
100
AcDbEntity
  8
0
100
AcDbLine
 62
7
  6
CONTINUOUS
 10
54.7637733377
 20
193.1215119869
 11
55.1041988291
 21
193.2048454792
  0
LINE
  5
53E
100
AcDbEntity
  8
0
100
AcDbLine
 62
7
  6
CONTINUOUS
 10
60.1254753627
 20
187.038178733
 11
59.6999434389
 21
187.038178733
  0
LINE
  5
53F
100
AcDbEntity
  8
0
100
AcDbLine
 62
7
  6
CONTINUOUS
 10
54.2531348623
 20
193.2048454792
 11
54.5935603537
 21
193.1215119869
  0
LINE
  5
540
100
AcDbEntity
  8
0
100
AcDbLine
 62
7
  6
CONTINUOUS
 10
55.1041988291
 20
195.8715120614
 11
54.7637733377
 21
195.9548453972
  0
LINE
  5
541
100
AcDbEntity
  8
0
100
AcDbLine
 62
7
  6
CONTINUOUS
 10
48.7301150431
 20
195.6366394783
 11
49.1059438991
 21
195.5132196328
  0
LINE
  5
542
100
AcDbEntity
  8
0
100
AcDbLine
 62
7
  6
CONTINUOUS
 10
80.2724448195
 20
192.2938680694
 11
79.9194226771
 21
192.4723481923
  0
LINE
  5
543
100
AcDbEntity
  8
0
100
AcDbLine
 62
7
  6
CONTINUOUS
 10
76.4804642007
 20
12.4723481923
 11
76.1274420584
 21
12.2938680694
  0
LINE
  5
544
100
AcDbEntity
  8
0
100
AcDbLine
 62
7
  6
CONTINUOUS
 10
74.7939429787
 20
15.5132196328
 11
75.1697718348
 21
15.6366394783
  0
LINE
  5
545
100
AcDbEntity
  8
0
100
AcDbLine
 62
7
  6
CONTINUOUS
 10
81.6059438991
 20
14.5631378333
 11
81.2301150431
 21
14.4397179877
  0
LINE
  5
546
100
AcDbEntity
  8
0
100
AcDbLine
 62
7
  6
CONTINUOUS
 10
52.9765391506
 20
193.038178733
 11
53.3169647612
 21
193.1215119869
  0
LINE
  5
547
100
AcDbEntity
  8
0
100
AcDbLine
 62
7
  6
CONTINUOUS
 10
52.6361136593
 20
193.038178733
 11
52.9765391506
 21
193.038178733
  0
LINE
  5
548
100
AcDbEntity
  8
0
100
AcDbLine
 62
7
  6
CONTINUOUS
 10
54.5935603537
 20
193.1215119869
 11
54.7637733377
 21
193.1215119869
  0
LINE
  5
549
100
AcDbEntity
  8
0
100
AcDbLine
 62
7
  6
CONTINUOUS
 10
52.9765391506
 20
193.4548454792
 11
52.6361136593
 21
193.4548454792
  0
LINE
  5
54A
100
AcDbEntity
  8
0
100
AcDbLine
 62
7
  6
CONTINUOUS
 10
54.7637733377
 20
193.538178733
 11
54.5935603537
 21
193.538178733
  0
LINE
  5
54B
100
AcDbEntity
  8
0
100
AcDbLine
 62
7
  6
CONTINUOUS
 10
53.912709371
 20
194.70484536
 11
53.5722838797
 21
194.70484536
  0
LINE
  5
54C
100
AcDbEntity
  8
A_ACHSEN
100
AcDbLine
 62
7
  6
CENTER
 10
23.2653353868
 20
195.038178733
 11
36.134551491
 21
195.038178733
  0
LINE
  5
54D
100
AcDbEntity
  8
A_ACHSEN
100
AcDbLine
 62
7
  6
CENTER
 10
39.1185234411
 20
195.038178733
 11
52.2813634367
 21
195.038178733
  0
LINE
  5
54E
100
AcDbEntity
  8
A_ACHSEN
100
AcDbLine
 62
7
  6
CENTER
 10
71.2815757488
 20
195.038178733
 11
85.118311129
 21
195.038178733
  0
LINE
  5
54F
100
AcDbEntity
  8
0
100
AcDbLine
 62
7
  6
CONTINUOUS
 10
75.1697718348
 20
194.4397179877
 11
74.7939429787
 21
194.5631378333
  0
LINE
  5
550
100
AcDbEntity
  8
0
100
AcDbLine
 62
7
  6
CONTINUOUS
 10
81.2301150431
 20
195.6366394783
 11
81.6059438991
 21
195.5132196328
  0
LINE
  5
551
100
AcDbEntity
  8
0
100
AcDbLine
 62
7
  6
CONTINUOUS
 10
76.1274420584
 20
197.7824893967
 11
76.4804642007
 21
197.6040092738
  0
LINE
  5
552
100
AcDbEntity
  8
0
100
AcDbLine
 62
7
  6
CONTINUOUS
 10
21.6999434389
 20
205.038178733
 11
87.1999434389
 21
205.038178733
  0
CIRCLE
  5
553
100
AcDbEntity
  8
A_ACHSEN
100
AcDbCircle
 62
7
  6
CONTINUOUS
 10
29.6999434389
 20
15.038178733
 40
5.0
  0
CIRCLE
  5
554
100
AcDbEntity
  8
A_ACHSEN
100
AcDbCircle
 62
7
  6
CONTINUOUS
 10
45.6999434389
 20
15.038178733
 40
5.0
  0
ARC
  5
555
100
AcDbEntity
  8
A_ACHSEN
100
AcDbCircle
 62
7
  6
CONTINUOUS
 10
41.6999434389
 20
54.038178733
 40
4.15
100
AcDbArc
 50
90.0
 51
270.0
  0
ARC
  5
556
100
AcDbEntity
  8
0
100
AcDbCircle
 62
7
  6
CONTINUOUS
 10
42.4201710985
 20
16.3967049179
 40
0.8
100
AcDbArc
 50
288.1798566915
 51
26.8201433085
  0
ARC
  5
557
100
AcDbEntity
  8
0
100
AcDbCircle
 62
7
  6
CONTINUOUS
 10
44.341417254
 20
18.3179510734
 40
0.8
100
AcDbArc
 50
243.1798566915
 51
341.8201433085
  0
ARC
  5
558
100
AcDbEntity
  8
0
100
AcDbCircle
 62
7
  6
CONTINUOUS
 10
44.341417254
 20
11.7584063926
 40
0.8
100
AcDbArc
 50
18.1798566915
 51
116.8201433086
  0
ARC
  5
559
100
AcDbEntity
  8
0
100
AcDbCircle
 62
7
  6
CONTINUOUS
 10
42.4201710985
 20
13.6796525481
 40
0.8
100
AcDbArc
 50
333.1798566915
 51
71.8201433085
  0
ARC
  5
55A
100
AcDbEntity
  8
0
100
AcDbCircle
 62
7
  6
CONTINUOUS
 10
31.0584696238
 20
18.3179510734
 40
0.8
100
AcDbArc
 50
198.1798566915
 51
296.8201433085
  0
ARC
  5
55B
100
AcDbEntity
  8
0
100
AcDbCircle
 62
7
  6
CONTINUOUS
 10
32.9797157793
 20
16.3967049179
 40
0.8
100
AcDbArc
 50
153.1798566915
 51
251.8201433085
  0
ARC
  5
55C
100
AcDbEntity
  8
0
100
AcDbCircle
 62
7
  6
CONTINUOUS
 10
32.9797157793
 20
13.6796525481
 40
0.8
100
AcDbArc
 50
108.1798566915
 51
206.8201433085
  0
ARC
  5
55D
100
AcDbEntity
  8
0
100
AcDbCircle
 62
7
  6
CONTINUOUS
 10
31.0584696238
 20
11.7584063926
 40
0.8
100
AcDbArc
 50
63.1798566915
 51
161.8201433085
  0
ARC
  5
55E
100
AcDbEntity
  8
0
100
AcDbCircle
 62
7
  6
CONTINUOUS
 10
26.4201710985
 20
16.3967049179
 40
0.8
100
AcDbArc
 50
288.1798566915
 51
26.8201433085
  0
ARC
  5
55F
100
AcDbEntity
  8
0
100
AcDbCircle
 62
7
  6
CONTINUOUS
 10
28.341417254
 20
18.3179510734
 40
0.8
100
AcDbArc
 50
243.1798566915
 51
341.8201433085
  0
ARC
  5
560
100
AcDbEntity
  8
0
100
AcDbCircle
 62
7
  6
CONTINUOUS
 10
28.341417254
 20
11.7584063926
 40
0.8
100
AcDbArc
 50
18.1798566915
 51
116.8201433085
  0
ARC
  5
561
100
AcDbEntity
  8
0
100
AcDbCircle
 62
7
  6
CONTINUOUS
 10
26.4201710985
 20
13.6796525481
 40
0.8
100
AcDbArc
 50
333.1798566915
 51
71.8201433085
  0
ARC
  5
562
100
AcDbEntity
  8
0
100
AcDbCircle
 62
7
  6
CONTINUOUS
 10
43.4018464001
 20
17.3362757719
 40
0.5
100
AcDbArc
 50
63.1798566915
 51
206.8201433085
  0
ARC
  5
563
100
AcDbEntity
  8
0
100
AcDbCircle
 62
7
  6
CONTINUOUS
 10
45.6999434389
 20
18.288178733
 40
0.5
100
AcDbArc
 50
18.1798566914
 51
161.8201433085
  0
ARC
  5
564
100
AcDbEntity
  8
0
100
AcDbCircle
 62
7
  6
CONTINUOUS
 10
45.6999434389
 20
11.788178733
 40
0.5
100
AcDbArc
 50
198.1798566915
 51
341.8201433085
  0
ARC
  5
565
100
AcDbEntity
  8
0
100
AcDbCircle
 62
7
  6
CONTINUOUS
 10
43.4018464001
 20
12.7400816942
 40
0.5
100
AcDbArc
 50
153.1798566915
 51
296.8201433086
  0
ARC
  5
566
100
AcDbEntity
  8
0
100
AcDbCircle
 62
7
  6
CONTINUOUS
 10
42.4499434389
 20
15.038178733
 40
0.5
100
AcDbArc
 50
108.1798566915
 51
251.8201433085
  0
ARC
  5
567
100
AcDbEntity
  8
0
100
AcDbCircle
 62
7
  6
CONTINUOUS
 10
31.9980404778
 20
17.3362757719
 40
0.5
100
AcDbArc
 50
333.1798566915
 51
116.8201433085
  0
ARC
  5
568
100
AcDbEntity
  8
0
100
AcDbCircle
 62
7
  6
CONTINUOUS
 10
32.9499434389
 20
15.038178733
 40
0.5
100
AcDbArc
 50
288.1798566915
 51
71.8201433085
  0
ARC
  5
569
100
AcDbEntity
  8
0
100
AcDbCircle
 62
7
  6
CONTINUOUS
 10
31.9980404778
 20
12.7400816942
 40
0.5
100
AcDbArc
 50
243.1798566915
 51
26.8201433085
  0
ARC
  5
56A
100
AcDbEntity
  8
0
100
AcDbCircle
 62
7
  6
CONTINUOUS
 10
27.4018464001
 20
17.3362757719
 40
0.5
100
AcDbArc
 50
63.1798566915
 51
206.8201433085
  0
ARC
  5
56B
100
AcDbEntity
  8
0
100
AcDbCircle
 62
7
  6
CONTINUOUS
 10
29.6999434389
 20
18.288178733
 40
0.5
100
AcDbArc
 50
18.1798566915
 51
161.8201433085
  0
ARC
  5
56C
100
AcDbEntity
  8
0
100
AcDbCircle
 62
7
  6
CONTINUOUS
 10
29.6999434389
 20
11.788178733
 40
0.5
100
AcDbArc
 50
198.1798566915
 51
341.8201433085
  0
ARC
  5
56D
100
AcDbEntity
  8
0
100
AcDbCircle
 62
7
  6
CONTINUOUS
 10
27.4018464001
 20
12.7400816942
 40
0.5
100
AcDbArc
 50
153.1798566915
 51
296.8201433085
  0
ARC
  5
56E
100
AcDbEntity
  8
0
100
AcDbCircle
 62
7
  6
CONTINUOUS
 10
26.4499434389
 20
15.038178733
 40
0.5
100
AcDbArc
 50
108.1798566915
 51
251.8201433085
  0
CIRCLE
  5
56F
100
AcDbEntity
  8
A_ACHSEN
100
AcDbCircle
 62
7
  6
CONTINUOUS
 10
43.6999434389
 20
85.038178733
 40
5.5
  0
CIRCLE
  5
570
100
AcDbEntity
  8
A_ACHSEN
100
AcDbCircle
 62
7
  6
CONTINUOUS
 10
34.6999434389
 20
70.038178733
 40
5.0
  0
ARC
  5
571
100
AcDbEntity
  8
0
100
AcDbCircle
 62
7
  6
CONTINUOUS
 10
36.0584696238
 20
73.3179510734
 40
0.8
100
AcDbArc
 50
198.1798566915
 51
296.8201433085
  0
ARC
  5
572
100
AcDbEntity
  8
0
100
AcDbCircle
 62
7
  6
CONTINUOUS
 10
37.9797157793
 20
71.3967049179
 40
0.8
100
AcDbArc
 50
153.1798566915
 51
251.8201433085
  0
ARC
  5
573
100
AcDbEntity
  8
0
100
AcDbCircle
 62
7
  6
CONTINUOUS
 10
37.9797157793
 20
68.6796525481
 40
0.8
100
AcDbArc
 50
108.1798566915
 51
206.8201433085
  0
ARC
  5
574
100
AcDbEntity
  8
0
100
AcDbCircle
 62
7
  6
CONTINUOUS
 10
36.0584696238
 20
66.7584063926
 40
0.8
100
AcDbArc
 50
63.1798566915
 51
161.8201433085
  0
ARC
  5
575
100
AcDbEntity
  8
0
100
AcDbCircle
 62
7
  6
CONTINUOUS
 10
31.4201710985
 20
71.3967049179
 40
0.8
100
AcDbArc
 50
288.1798566915
 51
26.8201433085
  0
ARC
  5
576
100
AcDbEntity
  8
0
100
AcDbCircle
 62
7
  6
CONTINUOUS
 10
33.341417254
 20
73.3179510734
 40
0.8
100
AcDbArc
 50
243.1798566915
 51
341.8201433085
  0
ARC
  5
577
100
AcDbEntity
  8
0
100
AcDbCircle
 62
7
  6
CONTINUOUS
 10
33.341417254
 20
66.7584063926
 40
0.8
100
AcDbArc
 50
18.1798566915
 51
116.8201433085
  0
ARC
  5
578
100
AcDbEntity
  8
0
100
AcDbCircle
 62
7
  6
CONTINUOUS
 10
31.4201710985
 20
68.6796525481
 40
0.8
100
AcDbArc
 50
333.1798566915
 51
71.8201433085
  0
ARC
  5
579
100
AcDbEntity
  8
0
100
AcDbCircle
 62
7
  6
CONTINUOUS
 10
32.9797157793
 20
103.6796525481
 40
0.8
100
AcDbArc
 50
108.1798566915
 51
206.8201433085
  0
ARC
  5
57A
100
AcDbEntity
  8
0
100
AcDbCircle
 62
7
  6
CONTINUOUS
 10
31.0584696238
 20
101.7584063926
 40
0.8
100
AcDbArc
 50
63.1798566915
 51
161.8201433085
  0
ARC
  5
57B
100
AcDbEntity
  8
0
100
AcDbCircle
 62
7
  6
CONTINUOUS
 10
28.341417254
 20
101.7584063926
 40
0.8
100
AcDbArc
 50
18.1798566915
 51
116.8201433085
  0
ARC
  5
57C
100
AcDbEntity
  8
0
100
AcDbCircle
 62
7
  6
CONTINUOUS
 10
26.4201710985
 20
103.6796525481
 40
0.8
100
AcDbArc
 50
333.1798566915
 51
71.8201433085
  0
ARC
  5
57D
100
AcDbEntity
  8
0
100
AcDbCircle
 62
7
  6
CONTINUOUS
 10
36.9980404778
 20
72.3362757719
 40
0.5
100
AcDbArc
 50
333.1798566915
 51
116.8201433085
  0
ARC
  5
57E
100
AcDbEntity
  8
0
100
AcDbCircle
 62
7
  6
CONTINUOUS
 10
37.9499434389
 20
70.038178733
 40
0.5
100
AcDbArc
 50
288.1798566915
 51
71.8201433085
  0
ARC
  5
57F
100
AcDbEntity
  8
0
100
AcDbCircle
 62
7
  6
CONTINUOUS
 10
36.9980404778
 20
67.7400816942
 40
0.5
100
AcDbArc
 50
243.1798566915
 51
26.8201433085
  0
ARC
  5
580
100
AcDbEntity
  8
0
100
AcDbCircle
 62
7
  6
CONTINUOUS
 10
32.4018464001
 20
72.3362757719
 40
0.5
100
AcDbArc
 50
63.1798566915
 51
206.8201433085
  0
ARC
  5
581
100
AcDbEntity
  8
0
100
AcDbCircle
 62
7
  6
CONTINUOUS
 10
34.6999434389
 20
73.288178733
 40
0.5
100
AcDbArc
 50
18.1798566915
 51
161.8201433085
  0
ARC
  5
582
100
AcDbEntity
  8
0
100
AcDbCircle
 62
7
  6
CONTINUOUS
 10
34.6999434389
 20
66.788178733
 40
0.5
100
AcDbArc
 50
198.1798566915
 51
341.8201433085
  0
ARC
  5
583
100
AcDbEntity
  8
0
100
AcDbCircle
 62
7
  6
CONTINUOUS
 10
32.4018464001
 20
67.7400816942
 40
0.5
100
AcDbArc
 50
153.1798566915
 51
296.8201433085
  0
ARC
  5
584
100
AcDbEntity
  8
0
100
AcDbCircle
 62
7
  6
CONTINUOUS
 10
31.4499434389
 20
70.038178733
 40
0.5
100
AcDbArc
 50
108.1798566915
 51
251.8201433085
  0
ARC
  5
585
100
AcDbEntity
  8
0
100
AcDbCircle
 62
7
  6
CONTINUOUS
 10
31.9980404778
 20
102.7400816942
 40
0.5
100
AcDbArc
 50
243.1798566915
 51
26.8201433085
  0
ARC
  5
586
100
AcDbEntity
  8
0
100
AcDbCircle
 62
7
  6
CONTINUOUS
 10
29.6999434389
 20
101.788178733
 40
0.5
100
AcDbArc
 50
198.1798566915
 51
341.8201433085
  0
ARC
  5
587
100
AcDbEntity
  8
0
100
AcDbCircle
 62
7
  6
CONTINUOUS
 10
27.4018464001
 20
102.7400816942
 40
0.5
100
AcDbArc
 50
153.1798566915
 51
296.8201433085
  0
ARC
  5
588
100
AcDbEntity
  8
0
100
AcDbCircle
 62
7
  6
CONTINUOUS
 10
55.0584696238
 20
21.7584063926
 40
0.8
100
AcDbArc
 50
63.1798566915
 51
161.8201433085
  0
ARC
  5
589
100
AcDbEntity
  8
0
100
AcDbCircle
 62
7
  6
CONTINUOUS
 10
52.341417254
 20
21.7584063926
 40
0.8
100
AcDbArc
 50
18.1798566915
 51
116.8201433086
  0
ARC
  5
58A
100
AcDbEntity
  8
0
100
AcDbCircle
 62
7
  6
CONTINUOUS
 10
50.4201710985
 20
23.6796525481
 40
0.8
100
AcDbArc
 50
333.1798566915
 51
71.8201433085
  0
ARC
  5
58B
100
AcDbEntity
  8
0
100
AcDbCircle
 62
7
  6
CONTINUOUS
 10
47.0584696238
 20
18.3179510734
 40
0.8
100
AcDbArc
 50
198.1798566914
 51
296.8201433085
  0
ARC
  5
58C
100
AcDbEntity
  8
0
100
AcDbCircle
 62
7
  6
CONTINUOUS
 10
48.9797157793
 20
16.3967049179
 40
0.8
100
AcDbArc
 50
153.1798566915
 51
251.8201433085
  0
ARC
  5
58D
100
AcDbEntity
  8
0
100
AcDbCircle
 62
7
  6
CONTINUOUS
 10
48.9797157793
 20
13.6796525481
 40
0.8
100
AcDbArc
 50
108.1798566915
 51
206.8201433085
  0
ARC
  5
58E
100
AcDbEntity
  8
0
100
AcDbCircle
 62
7
  6
CONTINUOUS
 10
47.0584696238
 20
11.7584063926
 40
0.8
100
AcDbArc
 50
63.1798566915
 51
161.8201433085
  0
ARC
  5
58F
100
AcDbEntity
  8
0
100
AcDbCircle
 62
7
  6
CONTINUOUS
 10
55.9980404778
 20
22.7400816942
 40
0.5
100
AcDbArc
 50
243.1798566915
 51
26.8201433085
  0
ARC
  5
590
100
AcDbEntity
  8
0
100
AcDbCircle
 62
7
  6
CONTINUOUS
 10
53.6999434389
 20
21.788178733
 40
0.5
100
AcDbArc
 50
198.1798566915
 51
341.8201433085
  0
ARC
  5
591
100
AcDbEntity
  8
0
100
AcDbCircle
 62
7
  6
CONTINUOUS
 10
51.4018464001
 20
22.7400816942
 40
0.5
100
AcDbArc
 50
153.1798566915
 51
296.8201433086
  0
ARC
  5
592
100
AcDbEntity
  8
0
100
AcDbCircle
 62
7
  6
CONTINUOUS
 10
47.9980404778
 20
17.3362757719
 40
0.5
100
AcDbArc
 50
333.1798566915
 51
116.8201433085
  0
ARC
  5
593
100
AcDbEntity
  8
0
100
AcDbCircle
 62
7
  6
CONTINUOUS
 10
48.9499434389
 20
15.038178733
 40
0.5
100
AcDbArc
 50
288.1798566915
 51
71.8201433085
  0
ARC
  5
594
100
AcDbEntity
  8
0
100
AcDbCircle
 62
7
  6
CONTINUOUS
 10
47.9980404778
 20
12.7400816942
 40
0.5
100
AcDbArc
 50
243.1798566915
 51
26.8201433085
  0
CIRCLE
  5
595
100
AcDbEntity
  8
A_ACHSEN
100
AcDbCircle
 62
7
  6
CONTINUOUS
 10
53.6999434389
 20
25.038178733
 40
5.0
  0
ARC
  5
596
100
AcDbEntity
  8
0
100
AcDbCircle
 62
7
  6
CONTINUOUS
 10
55.0584696238
 20
28.3179510734
 40
0.8
100
AcDbArc
 50
198.1798566914
 51
296.8201433085
  0
ARC
  5
597
100
AcDbEntity
  8
0
100
AcDbCircle
 62
7
  6
CONTINUOUS
 10
50.4201710985
 20
26.3967049179
 40
0.8
100
AcDbArc
 50
288.1798566915
 51
26.8201433085
  0
ARC
  5
598
100
AcDbEntity
  8
0
100
AcDbCircle
 62
7
  6
CONTINUOUS
 10
52.341417254
 20
28.3179510734
 40
0.8
100
AcDbArc
 50
243.1798566915
 51
341.8201433085
  0
ARC
  5
599
100
AcDbEntity
  8
0
100
AcDbCircle
 62
7
  6
CONTINUOUS
 10
55.9980404778
 20
27.3362757719
 40
0.5
100
AcDbArc
 50
333.1798566915
 51
116.8201433085
  0
ARC
  5
59A
100
AcDbEntity
  8
0
100
AcDbCircle
 62
7
  6
CONTINUOUS
 10
51.4018464001
 20
27.3362757719
 40
0.5
100
AcDbArc
 50
63.1798566915
 51
206.8201433085
  0
ARC
  5
59B
100
AcDbEntity
  8
0
100
AcDbCircle
 62
7
  6
CONTINUOUS
 10
53.6999434389
 20
28.288178733
 40
0.5
100
AcDbArc
 50
18.1798566914
 51
161.8201433085
  0
ARC
  5
59C
100
AcDbEntity
  8
0
100
AcDbCircle
 62
7
  6
CONTINUOUS
 10
50.4499434389
 20
25.038178733
 40
0.5
100
AcDbArc
 50
108.1798566915
 51
251.8201433085
  0
ARC
  5
59D
100
AcDbEntity
  8
0
100
AcDbCircle
 62
7
  6
CONTINUOUS
 10
56.9797157793
 20
23.6796525481
 40
0.8
100
AcDbArc
 50
108.1798566915
 51
206.8201433085
  0
CIRCLE
  5
59E
100
AcDbEntity
  8
A_ACHSEN
100
AcDbCircle
 62
7
  6
CONTINUOUS
 10
61.6999434389
 20
35.038178733
 40
5.0
  0
ARC
  5
59F
100
AcDbEntity
  8
0
100
AcDbCircle
 62
7
  6
CONTINUOUS
 10
63.0584696238
 20
38.3179510734
 40
0.8
100
AcDbArc
 50
198.1798566914
 51
296.8201433085
  0
ARC
  5
5A0
100
AcDbEntity
  8
0
100
AcDbCircle
 62
7
  6
CONTINUOUS
 10
64.9797157793
 20
36.3967049179
 40
0.8
100
AcDbArc
 50
153.1798566915
 51
251.8201433085
  0
ARC
  5
5A1
100
AcDbEntity
  8
0
100
AcDbCircle
 62
7
  6
CONTINUOUS
 10
64.9797157793
 20
33.6796525481
 40
0.8
100
AcDbArc
 50
108.1798566915
 51
206.8201433085
  0
ARC
  5
5A2
100
AcDbEntity
  8
0
100
AcDbCircle
 62
7
  6
CONTINUOUS
 10
63.0584696238
 20
31.7584063926
 40
0.8
100
AcDbArc
 50
63.1798566915
 51
161.8201433085
  0
ARC
  5
5A3
100
AcDbEntity
  8
0
100
AcDbCircle
 62
7
  6
CONTINUOUS
 10
58.4201710985
 20
36.3967049179
 40
0.8
100
AcDbArc
 50
288.1798566915
 51
26.8201433085
  0
ARC
  5
5A4
100
AcDbEntity
  8
0
100
AcDbCircle
 62
7
  6
CONTINUOUS
 10
60.341417254
 20
38.3179510734
 40
0.8
100
AcDbArc
 50
243.1798566915
 51
341.8201433085
  0
ARC
  5
5A5
100
AcDbEntity
  8
0
100
AcDbCircle
 62
7
  6
CONTINUOUS
 10
60.341417254
 20
31.7584063926
 40
0.8
100
AcDbArc
 50
18.1798566915
 51
116.8201433086
  0
ARC
  5
5A6
100
AcDbEntity
  8
0
100
AcDbCircle
 62
7
  6
CONTINUOUS
 10
58.4201710985
 20
33.6796525481
 40
0.8
100
AcDbArc
 50
333.1798566915
 51
71.8201433085
  0
ARC
  5
5A7
100
AcDbEntity
  8
0
100
AcDbCircle
 62
7
  6
CONTINUOUS
 10
56.9797157793
 20
26.3967049179
 40
0.8
100
AcDbArc
 50
153.1798566915
 51
251.8201433085
  0
ARC
  5
5A8
100
AcDbEntity
  8
0
100
AcDbCircle
 62
7
  6
CONTINUOUS
 10
63.9980404778
 20
37.3362757719
 40
0.5
100
AcDbArc
 50
333.1798566915
 51
116.8201433085
  0
ARC
  5
5A9
100
AcDbEntity
  8
0
100
AcDbCircle
 62
7
  6
CONTINUOUS
 10
64.9499434389
 20
35.038178733
 40
0.5
100
AcDbArc
 50
288.1798566915
 51
71.8201433085
  0
ARC
  5
5AA
100
AcDbEntity
  8
0
100
AcDbCircle
 62
7
  6
CONTINUOUS
 10
63.9980404778
 20
32.7400816942
 40
0.5
100
AcDbArc
 50
243.1798566915
 51
26.8201433085
  0
ARC
  5
5AB
100
AcDbEntity
  8
0
100
AcDbCircle
 62
7
  6
CONTINUOUS
 10
59.4018464001
 20
37.3362757719
 40
0.5
100
AcDbArc
 50
63.1798566915
 51
206.8201433085
  0
ARC
  5
5AC
100
AcDbEntity
  8
0
100
AcDbCircle
 62
7
  6
CONTINUOUS
 10
61.6999434389
 20
38.288178733
 40
0.5
100
AcDbArc
 50
18.1798566914
 51
161.8201433085
  0
ARC
  5
5AD
100
AcDbEntity
  8
0
100
AcDbCircle
 62
7
  6
CONTINUOUS
 10
61.6999434389
 20
31.788178733
 40
0.5
100
AcDbArc
 50
198.1798566915
 51
341.8201433085
  0
ARC
  5
5AE
100
AcDbEntity
  8
0
100
AcDbCircle
 62
7
  6
CONTINUOUS
 10
59.4018464001
 20
32.7400816942
 40
0.5
100
AcDbArc
 50
153.1798566915
 51
296.8201433086
  0
ARC
  5
5AF
100
AcDbEntity
  8
0
100
AcDbCircle
 62
7
  6
CONTINUOUS
 10
58.4499434389
 20
35.038178733
 40
0.5
100
AcDbArc
 50
108.1798566915
 51
251.8201433085
  0
ARC
  5
5B0
100
AcDbEntity
  8
0
100
AcDbCircle
 62
7
  6
CONTINUOUS
 10
56.9499434389
 20
25.038178733
 40
0.5
100
AcDbArc
 50
288.1798566915
 51
71.8201433085
  0
CIRCLE
  5
5B1
100
AcDbEntity
  8
A_ACHSEN
100
AcDbCircle
 62
7
  6
CONTINUOUS
 10
50.6999434389
 20
70.038178733
 40
5.0
  0
ARC
  5
5B2
100
AcDbEntity
  8
0
100
AcDbCircle
 62
7
  6
CONTINUOUS
 10
63.4201710985
 20
71.3967049179
 40
0.8
100
AcDbArc
 50
288.1798566915
 51
26.8201433085
  0
ARC
  5
5B3
100
AcDbEntity
  8
0
100
AcDbCircle
 62
7
  6
CONTINUOUS
 10
65.341417254
 20
73.3179510734
 40
0.8
100
AcDbArc
 50
243.1798566915
 51
341.8201433085
  0
ARC
  5
5B4
100
AcDbEntity
  8
0
100
AcDbCircle
 62
7
  6
CONTINUOUS
 10
65.341417254
 20
66.7584063926
 40
0.8
100
AcDbArc
 50
18.1798566915
 51
116.8201433086
  0
ARC
  5
5B5
100
AcDbEntity
  8
0
100
AcDbCircle
 62
7
  6
CONTINUOUS
 10
63.4201710985
 20
68.6796525481
 40
0.8
100
AcDbArc
 50
333.1798566915
 51
71.8201433085
  0
ARC
  5
5B6
100
AcDbEntity
  8
0
100
AcDbCircle
 62
7
  6
CONTINUOUS
 10
52.0584696238
 20
73.3179510734
 40
0.8
100
AcDbArc
 50
198.1798566915
 51
296.8201433085
  0
ARC
  5
5B7
100
AcDbEntity
  8
0
100
AcDbCircle
 62
7
  6
CONTINUOUS
 10
53.9797157793
 20
71.3967049179
 40
0.8
100
AcDbArc
 50
153.1798566915
 51
251.8201433085
  0
ARC
  5
5B8
100
AcDbEntity
  8
0
100
AcDbCircle
 62
7
  6
CONTINUOUS
 10
53.9797157793
 20
68.6796525481
 40
0.8
100
AcDbArc
 50
108.1798566915
 51
206.8201433085
  0
ARC
  5
5B9
100
AcDbEntity
  8
0
100
AcDbCircle
 62
7
  6
CONTINUOUS
 10
52.0584696238
 20
66.7584063926
 40
0.8
100
AcDbArc
 50
63.1798566915
 51
161.8201433085
  0
ARC
  5
5BA
100
AcDbEntity
  8
0
100
AcDbCircle
 62
7
  6
CONTINUOUS
 10
47.4201710985
 20
71.3967049179
 40
0.8
100
AcDbArc
 50
288.1798566915
 51
26.8201433085
  0
ARC
  5
5BB
100
AcDbEntity
  8
0
100
AcDbCircle
 62
7
  6
CONTINUOUS
 10
49.341417254
 20
73.3179510734
 40
0.8
100
AcDbArc
 50
243.1798566915
 51
341.8201433085
  0
ARC
  5
5BC
100
AcDbEntity
  8
0
100
AcDbCircle
 62
7
  6
CONTINUOUS
 10
49.341417254
 20
66.7584063926
 40
0.8
100
AcDbArc
 50
18.1798566915
 51
116.8201433085
  0
ARC
  5
5BD
100
AcDbEntity
  8
0
100
AcDbCircle
 62
7
  6
CONTINUOUS
 10
47.4201710985
 20
68.6796525481
 40
0.8
100
AcDbArc
 50
333.1798566915
 51
71.8201433085
  0
ARC
  5
5BE
100
AcDbEntity
  8
0
100
AcDbCircle
 62
7
  6
CONTINUOUS
 10
53.9797157793
 20
103.6796525481
 40
0.8
100
AcDbArc
 50
108.1798566915
 51
206.8201433085
  0
ARC
  5
5BF
100
AcDbEntity
  8
0
100
AcDbCircle
 62
7
  6
CONTINUOUS
 10
52.0584696238
 20
101.7584063926
 40
0.8
100
AcDbArc
 50
63.1798566915
 51
161.8201433085
  0
ARC
  5
5C0
100
AcDbEntity
  8
0
100
AcDbCircle
 62
7
  6
CONTINUOUS
 10
49.341417254
 20
101.7584063926
 40
0.8
100
AcDbArc
 50
18.1798566915
 51
116.8201433085
  0
ARC
  5
5C1
100
AcDbEntity
  8
0
100
AcDbCircle
 62
7
  6
CONTINUOUS
 10
47.4201710985
 20
103.6796525481
 40
0.8
100
AcDbArc
 50
333.1798566915
 51
71.8201433085
  0
ARC
  5
5C2
100
AcDbEntity
  8
0
100
AcDbCircle
 62
7
  6
CONTINUOUS
 10
64.4018464001
 20
72.3362757719
 40
0.5
100
AcDbArc
 50
63.1798566915
 51
206.8201433085
  0
ARC
  5
5C3
100
AcDbEntity
  8
0
100
AcDbCircle
 62
7
  6
CONTINUOUS
 10
64.4018464001
 20
67.7400816942
 40
0.5
100
AcDbArc
 50
153.1798566915
 51
296.8201433086
  0
ARC
  5
5C4
100
AcDbEntity
  8
0
100
AcDbCircle
 62
7
  6
CONTINUOUS
 10
63.4499434389
 20
70.038178733
 40
0.5
100
AcDbArc
 50
108.1798566915
 51
251.8201433085
  0
ARC
  5
5C5
100
AcDbEntity
  8
0
100
AcDbCircle
 62
7
  6
CONTINUOUS
 10
52.9980404778
 20
72.3362757719
 40
0.5
100
AcDbArc
 50
333.1798566915
 51
116.8201433085
  0
ARC
  5
5C6
100
AcDbEntity
  8
0
100
AcDbCircle
 62
7
  6
CONTINUOUS
 10
53.9499434389
 20
70.038178733
 40
0.5
100
AcDbArc
 50
288.1798566915
 51
71.8201433085
  0
ARC
  5
5C7
100
AcDbEntity
  8
0
100
AcDbCircle
 62
7
  6
CONTINUOUS
 10
52.9980404778
 20
67.7400816942
 40
0.5
100
AcDbArc
 50
243.1798566915
 51
26.8201433085
  0
ARC
  5
5C8
100
AcDbEntity
  8
0
100
AcDbCircle
 62
7
  6
CONTINUOUS
 10
48.4018464001
 20
72.3362757719
 40
0.5
100
AcDbArc
 50
63.1798566915
 51
206.8201433085
  0
ARC
  5
5C9
100
AcDbEntity
  8
0
100
AcDbCircle
 62
7
  6
CONTINUOUS
 10
50.6999434389
 20
73.288178733
 40
0.5
100
AcDbArc
 50
18.1798566915
 51
161.8201433085
  0
ARC
  5
5CA
100
AcDbEntity
  8
0
100
AcDbCircle
 62
7
  6
CONTINUOUS
 10
50.6999434389
 20
66.788178733
 40
0.5
100
AcDbArc
 50
198.1798566915
 51
341.8201433085
  0
ARC
  5
5CB
100
AcDbEntity
  8
0
100
AcDbCircle
 62
7
  6
CONTINUOUS
 10
48.4018464001
 20
67.7400816942
 40
0.5
100
AcDbArc
 50
153.1798566915
 51
296.8201433085
  0
ARC
  5
5CC
100
AcDbEntity
  8
0
100
AcDbCircle
 62
7
  6
CONTINUOUS
 10
47.4499434389
 20
70.038178733
 40
0.5
100
AcDbArc
 50
108.1798566915
 51
251.8201433085
  0
ARC
  5
5CD
100
AcDbEntity
  8
0
100
AcDbCircle
 62
7
  6
CONTINUOUS
 10
52.9980404778
 20
102.7400816942
 40
0.5
100
AcDbArc
 50
243.1798566915
 51
26.8201433085
  0
ARC
  5
5CE
100
AcDbEntity
  8
0
100
AcDbCircle
 62
7
  6
CONTINUOUS
 10
50.6999434389
 20
101.788178733
 40
0.5
100
AcDbArc
 50
198.1798566915
 51
341.8201433085
  0
ARC
  5
5CF
100
AcDbEntity
  8
0
100
AcDbCircle
 62
7
  6
CONTINUOUS
 10
48.4018464001
 20
102.7400816942
 40
0.5
100
AcDbArc
 50
153.1798566915
 51
296.8201433085
  0
CIRCLE
  5
5D0
100
AcDbEntity
  8
A_ACHSEN
100
AcDbCircle
 62
7
  6
CONTINUOUS
 10
43.6999434389
 20
125.038178733
 40
5.5
  0
CIRCLE
  5
5D1
100
AcDbEntity
  8
A_ACHSEN
100
AcDbCircle
 62
7
  6
CONTINUOUS
 10
29.6999434389
 20
105.038178733
 40
5.0
  0
CIRCLE
  5
5D2
100
AcDbEntity
  8
A_ACHSEN
100
AcDbCircle
 62
7
  6
CONTINUOUS
 10
34.6999434389
 20
140.038178733
 40
5.0
  0
ARC
  5
5D3
100
AcDbEntity
  8
0
100
AcDbCircle
 62
7
  6
CONTINUOUS
 10
36.0584696238
 20
143.3179510734
 40
0.8
100
AcDbArc
 50
198.1798566915
 51
296.8201433085
  0
ARC
  5
5D4
100
AcDbEntity
  8
0
100
AcDbCircle
 62
7
  6
CONTINUOUS
 10
37.9797157793
 20
141.3967049179
 40
0.8
100
AcDbArc
 50
153.1798566915
 51
251.8201433085
  0
ARC
  5
5D5
100
AcDbEntity
  8
0
100
AcDbCircle
 62
7
  6
CONTINUOUS
 10
37.9797157793
 20
138.6796525481
 40
0.8
100
AcDbArc
 50
108.1798566915
 51
206.8201433085
  0
ARC
  5
5D6
100
AcDbEntity
  8
0
100
AcDbCircle
 62
7
  6
CONTINUOUS
 10
36.0584696238
 20
136.7584063926
 40
0.8
100
AcDbArc
 50
63.1798566915
 51
161.8201433085
  0
ARC
  5
5D7
100
AcDbEntity
  8
0
100
AcDbCircle
 62
7
  6
CONTINUOUS
 10
31.4201710985
 20
141.3967049179
 40
0.8
100
AcDbArc
 50
288.1798566915
 51
26.8201433085
  0
ARC
  5
5D8
100
AcDbEntity
  8
0
100
AcDbCircle
 62
7
  6
CONTINUOUS
 10
33.341417254
 20
143.3179510734
 40
0.8
100
AcDbArc
 50
243.1798566915
 51
341.8201433085
  0
ARC
  5
5D9
100
AcDbEntity
  8
0
100
AcDbCircle
 62
7
  6
CONTINUOUS
 10
33.341417254
 20
136.7584063926
 40
0.8
100
AcDbArc
 50
18.1798566915
 51
116.8201433085
  0
ARC
  5
5DA
100
AcDbEntity
  8
0
100
AcDbCircle
 62
7
  6
CONTINUOUS
 10
31.4201710985
 20
138.6796525481
 40
0.8
100
AcDbArc
 50
333.1798566915
 51
71.8201433085
  0
ARC
  5
5DB
100
AcDbEntity
  8
0
100
AcDbCircle
 62
7
  6
CONTINUOUS
 10
31.0584696238
 20
108.3179510734
 40
0.8
100
AcDbArc
 50
198.1798566915
 51
296.8201433085
  0
ARC
  5
5DC
100
AcDbEntity
  8
0
100
AcDbCircle
 62
7
  6
CONTINUOUS
 10
32.9797157793
 20
106.3967049179
 40
0.8
100
AcDbArc
 50
153.1798566915
 51
251.8201433085
  0
ARC
  5
5DD
100
AcDbEntity
  8
0
100
AcDbCircle
 62
7
  6
CONTINUOUS
 10
26.4201710985
 20
106.3967049179
 40
0.8
100
AcDbArc
 50
288.1798566915
 51
26.8201433085
  0
ARC
  5
5DE
100
AcDbEntity
  8
0
100
AcDbCircle
 62
7
  6
CONTINUOUS
 10
28.341417254
 20
108.3179510734
 40
0.8
100
AcDbArc
 50
243.1798566915
 51
341.8201433085
  0
ARC
  5
5DF
100
AcDbEntity
  8
0
100
AcDbCircle
 62
7
  6
CONTINUOUS
 10
36.9980404778
 20
142.3362757719
 40
0.5
100
AcDbArc
 50
333.1798566915
 51
116.8201433085
  0
ARC
  5
5E0
100
AcDbEntity
  8
0
100
AcDbCircle
 62
7
  6
CONTINUOUS
 10
37.9499434389
 20
140.038178733
 40
0.5
100
AcDbArc
 50
288.1798566915
 51
71.8201433085
  0
ARC
  5
5E1
100
AcDbEntity
  8
0
100
AcDbCircle
 62
7
  6
CONTINUOUS
 10
36.9980404778
 20
137.7400816942
 40
0.5
100
AcDbArc
 50
243.1798566915
 51
26.8201433085
  0
ARC
  5
5E2
100
AcDbEntity
  8
0
100
AcDbCircle
 62
7
  6
CONTINUOUS
 10
32.4018464001
 20
142.3362757719
 40
0.5
100
AcDbArc
 50
63.1798566915
 51
206.8201433085
  0
ARC
  5
5E3
100
AcDbEntity
  8
0
100
AcDbCircle
 62
7
  6
CONTINUOUS
 10
34.6999434389
 20
143.288178733
 40
0.5
100
AcDbArc
 50
18.1798566915
 51
161.8201433085
  0
ARC
  5
5E4
100
AcDbEntity
  8
0
100
AcDbCircle
 62
7
  6
CONTINUOUS
 10
34.6999434389
 20
136.788178733
 40
0.5
100
AcDbArc
 50
198.1798566915
 51
341.8201433085
  0
ARC
  5
5E5
100
AcDbEntity
  8
0
100
AcDbCircle
 62
7
  6
CONTINUOUS
 10
32.4018464001
 20
137.7400816942
 40
0.5
100
AcDbArc
 50
153.1798566915
 51
296.8201433085
  0
ARC
  5
5E6
100
AcDbEntity
  8
0
100
AcDbCircle
 62
7
  6
CONTINUOUS
 10
31.4499434389
 20
140.038178733
 40
0.5
100
AcDbArc
 50
108.1798566915
 51
251.8201433085
  0
ARC
  5
5E7
100
AcDbEntity
  8
0
100
AcDbCircle
 62
7
  6
CONTINUOUS
 10
31.9980404778
 20
107.3362757719
 40
0.5
100
AcDbArc
 50
333.1798566915
 51
116.8201433085
  0
ARC
  5
5E8
100
AcDbEntity
  8
0
100
AcDbCircle
 62
7
  6
CONTINUOUS
 10
32.9499434389
 20
105.038178733
 40
0.5
100
AcDbArc
 50
288.1798566915
 51
71.8201433085
  0
ARC
  5
5E9
100
AcDbEntity
  8
0
100
AcDbCircle
 62
7
  6
CONTINUOUS
 10
27.4018464001
 20
107.3362757719
 40
0.5
100
AcDbArc
 50
63.1798566915
 51
206.8201433085
  0
ARC
  5
5EA
100
AcDbEntity
  8
0
100
AcDbCircle
 62
7
  6
CONTINUOUS
 10
29.6999434389
 20
108.288178733
 40
0.5
100
AcDbArc
 50
18.1798566915
 51
161.8201433085
  0
ARC
  5
5EB
100
AcDbEntity
  8
0
100
AcDbCircle
 62
7
  6
CONTINUOUS
 10
26.4499434389
 20
105.038178733
 40
0.5
100
AcDbArc
 50
108.1798566915
 51
251.8201433085
  0
CIRCLE
  5
5EC
100
AcDbEntity
  8
A_ACHSEN
100
AcDbCircle
 62
7
  6
CONTINUOUS
 10
29.6999434389
 20
195.038178733
 40
5.0
  0
CIRCLE
  5
5ED
100
AcDbEntity
  8
A_ACHSEN
100
AcDbCircle
 62
7
  6
CONTINUOUS
 10
45.6999434389
 20
195.038178733
 40
5.0
  0
ARC
  5
5EE
100
AcDbEntity
  8
A_ACHSEN
100
AcDbCircle
 62
7
  6
CONTINUOUS
 10
41.6999434389
 20
156.038178733
 40
4.15
100
AcDbArc
 50
90.0
 51
270.0
  0
ARC
  5
5EF
100
AcDbEntity
  8
0
100
AcDbCircle
 62
7
  6
CONTINUOUS
 10
42.4201710985
 20
196.3967049179
 40
0.8
100
AcDbArc
 50
288.1798566915
 51
26.8201433085
  0
ARC
  5
5F0
100
AcDbEntity
  8
0
100
AcDbCircle
 62
7
  6
CONTINUOUS
 10
44.341417254
 20
198.3179510734
 40
0.8
100
AcDbArc
 50
243.1798566915
 51
341.8201433085
  0
ARC
  5
5F1
100
AcDbEntity
  8
0
100
AcDbCircle
 62
7
  6
CONTINUOUS
 10
44.341417254
 20
191.7584063926
 40
0.8
100
AcDbArc
 50
18.1798566915
 51
116.8201433085
  0
ARC
  5
5F2
100
AcDbEntity
  8
0
100
AcDbCircle
 62
7
  6
CONTINUOUS
 10
42.4201710985
 20
193.6796525481
 40
0.8
100
AcDbArc
 50
333.1798566915
 51
71.8201433085
  0
ARC
  5
5F3
100
AcDbEntity
  8
0
100
AcDbCircle
 62
7
  6
CONTINUOUS
 10
31.0584696238
 20
198.3179510734
 40
0.8
100
AcDbArc
 50
198.1798566914
 51
296.8201433085
  0
ARC
  5
5F4
100
AcDbEntity
  8
0
100
AcDbCircle
 62
7
  6
CONTINUOUS
 10
32.9797157793
 20
196.3967049179
 40
0.8
100
AcDbArc
 50
153.1798566915
 51
251.8201433085
  0
ARC
  5
5F5
100
AcDbEntity
  8
0
100
AcDbCircle
 62
7
  6
CONTINUOUS
 10
32.9797157793
 20
193.6796525481
 40
0.8
100
AcDbArc
 50
108.1798566915
 51
206.8201433085
  0
ARC
  5
5F6
100
AcDbEntity
  8
0
100
AcDbCircle
 62
7
  6
CONTINUOUS
 10
31.0584696238
 20
191.7584063926
 40
0.8
100
AcDbArc
 50
63.1798566915
 51
161.8201433085
  0
ARC
  5
5F7
100
AcDbEntity
  8
0
100
AcDbCircle
 62
7
  6
CONTINUOUS
 10
26.4201710985
 20
196.3967049179
 40
0.8
100
AcDbArc
 50
288.1798566915
 51
26.8201433085
  0
ARC
  5
5F8
100
AcDbEntity
  8
0
100
AcDbCircle
 62
7
  6
CONTINUOUS
 10
28.341417254
 20
198.3179510734
 40
0.8
100
AcDbArc
 50
243.1798566915
 51
341.8201433085
  0
ARC
  5
5F9
100
AcDbEntity
  8
0
100
AcDbCircle
 62
7
  6
CONTINUOUS
 10
28.341417254
 20
191.7584063926
 40
0.8
100
AcDbArc
 50
18.1798566915
 51
116.8201433086
  0
ARC
  5
5FA
100
AcDbEntity
  8
0
100
AcDbCircle
 62
7
  6
CONTINUOUS
 10
26.4201710985
 20
193.6796525481
 40
0.8
100
AcDbArc
 50
333.1798566915
 51
71.8201433085
  0
ARC
  5
5FB
100
AcDbEntity
  8
0
100
AcDbCircle
 62
7
  6
CONTINUOUS
 10
43.4018464001
 20
197.3362757719
 40
0.5
100
AcDbArc
 50
63.1798566915
 51
206.8201433085
  0
ARC
  5
5FC
100
AcDbEntity
  8
0
100
AcDbCircle
 62
7
  6
CONTINUOUS
 10
45.6999434389
 20
198.288178733
 40
0.5
100
AcDbArc
 50
18.1798566915
 51
161.8201433085
  0
ARC
  5
5FD
100
AcDbEntity
  8
0
100
AcDbCircle
 62
7
  6
CONTINUOUS
 10
45.6999434389
 20
191.788178733
 40
0.5
100
AcDbArc
 50
198.1798566915
 51
341.8201433086
  0
ARC
  5
5FE
100
AcDbEntity
  8
0
100
AcDbCircle
 62
7
  6
CONTINUOUS
 10
43.4018464001
 20
192.7400816942
 40
0.5
100
AcDbArc
 50
153.1798566915
 51
296.8201433085
  0
ARC
  5
5FF
100
AcDbEntity
  8
0
100
AcDbCircle
 62
7
  6
CONTINUOUS
 10
42.4499434389
 20
195.038178733
 40
0.5
100
AcDbArc
 50
108.1798566915
 51
251.8201433085
  0
ARC
  5
600
100
AcDbEntity
  8
0
100
AcDbCircle
 62
7
  6
CONTINUOUS
 10
31.9980404778
 20
197.3362757719
 40
0.5
100
AcDbArc
 50
333.1798566915
 51
116.8201433085
  0
ARC
  5
601
100
AcDbEntity
  8
0
100
AcDbCircle
 62
7
  6
CONTINUOUS
 10
32.9499434389
 20
195.038178733
 40
0.5
100
AcDbArc
 50
288.1798566915
 51
71.8201433085
  0
ARC
  5
602
100
AcDbEntity
  8
0
100
AcDbCircle
 62
7
  6
CONTINUOUS
 10
31.9980404778
 20
192.7400816942
 40
0.5
100
AcDbArc
 50
243.1798566915
 51
26.8201433085
  0
ARC
  5
603
100
AcDbEntity
  8
0
100
AcDbCircle
 62
7
  6
CONTINUOUS
 10
27.4018464001
 20
197.3362757719
 40
0.5
100
AcDbArc
 50
63.1798566915
 51
206.8201433085
  0
ARC
  5
604
100
AcDbEntity
  8
0
100
AcDbCircle
 62
7
  6
CONTINUOUS
 10
29.6999434389
 20
198.288178733
 40
0.5
100
AcDbArc
 50
18.1798566914
 51
161.8201433085
  0
ARC
  5
605
100
AcDbEntity
  8
0
100
AcDbCircle
 62
7
  6
CONTINUOUS
 10
29.6999434389
 20
191.788178733
 40
0.5
100
AcDbArc
 50
198.1798566915
 51
341.8201433085
  0
ARC
  5
606
100
AcDbEntity
  8
0
100
AcDbCircle
 62
7
  6
CONTINUOUS
 10
27.4018464001
 20
192.7400816942
 40
0.5
100
AcDbArc
 50
153.1798566915
 51
296.8201433086
  0
ARC
  5
607
100
AcDbEntity
  8
0
100
AcDbCircle
 62
7
  6
CONTINUOUS
 10
26.4499434389
 20
195.038178733
 40
0.5
100
AcDbArc
 50
108.1798566915
 51
251.8201433085
  0
CIRCLE
  5
608
100
AcDbEntity
  8
A_ACHSEN
100
AcDbCircle
 62
7
  6
CONTINUOUS
 10
50.6999434389
 20
105.038178733
 40
5.0
  0
CIRCLE
  5
609
100
AcDbEntity
  8
A_ACHSEN
100
AcDbCircle
 62
7
  6
CONTINUOUS
 10
50.6999434389
 20
140.038178733
 40
5.0
  0
ARC
  5
60A
100
AcDbEntity
  8
0
100
AcDbCircle
 62
7
  6
CONTINUOUS
 10
63.4201710985
 20
141.3967049179
 40
0.8
100
AcDbArc
 50
288.1798566915
 51
26.8201433085
  0
ARC
  5
60B
100
AcDbEntity
  8
0
100
AcDbCircle
 62
7
  6
CONTINUOUS
 10
65.341417254
 20
143.3179510734
 40
0.8
100
AcDbArc
 50
243.1798566915
 51
341.8201433085
  0
ARC
  5
60C
100
AcDbEntity
  8
0
100
AcDbCircle
 62
7
  6
CONTINUOUS
 10
65.341417254
 20
136.7584063926
 40
0.8
100
AcDbArc
 50
18.1798566915
 51
116.8201433086
  0
ARC
  5
60D
100
AcDbEntity
  8
0
100
AcDbCircle
 62
7
  6
CONTINUOUS
 10
63.4201710985
 20
138.6796525481
 40
0.8
100
AcDbArc
 50
333.1798566915
 51
71.8201433085
  0
ARC
  5
60E
100
AcDbEntity
  8
0
100
AcDbCircle
 62
7
  6
CONTINUOUS
 10
52.0584696238
 20
143.3179510734
 40
0.8
100
AcDbArc
 50
198.1798566915
 51
296.8201433085
  0
ARC
  5
60F
100
AcDbEntity
  8
0
100
AcDbCircle
 62
7
  6
CONTINUOUS
 10
53.9797157793
 20
141.3967049179
 40
0.8
100
AcDbArc
 50
153.1798566915
 51
251.8201433085
  0
ARC
  5
610
100
AcDbEntity
  8
0
100
AcDbCircle
 62
7
  6
CONTINUOUS
 10
53.9797157793
 20
138.6796525481
 40
0.8
100
AcDbArc
 50
108.1798566915
 51
206.8201433085
  0
ARC
  5
611
100
AcDbEntity
  8
0
100
AcDbCircle
 62
7
  6
CONTINUOUS
 10
52.0584696238
 20
136.7584063926
 40
0.8
100
AcDbArc
 50
63.1798566915
 51
161.8201433085
  0
ARC
  5
612
100
AcDbEntity
  8
0
100
AcDbCircle
 62
7
  6
CONTINUOUS
 10
47.4201710985
 20
141.3967049179
 40
0.8
100
AcDbArc
 50
288.1798566915
 51
26.8201433085
  0
ARC
  5
613
100
AcDbEntity
  8
0
100
AcDbCircle
 62
7
  6
CONTINUOUS
 10
49.341417254
 20
143.3179510734
 40
0.8
100
AcDbArc
 50
243.1798566915
 51
341.8201433085
  0
ARC
  5
614
100
AcDbEntity
  8
0
100
AcDbCircle
 62
7
  6
CONTINUOUS
 10
49.341417254
 20
136.7584063926
 40
0.8
100
AcDbArc
 50
18.1798566915
 51
116.8201433085
  0
ARC
  5
615
100
AcDbEntity
  8
0
100
AcDbCircle
 62
7
  6
CONTINUOUS
 10
47.4201710985
 20
138.6796525481
 40
0.8
100
AcDbArc
 50
333.1798566915
 51
71.8201433085
  0
ARC
  5
616
100
AcDbEntity
  8
0
100
AcDbCircle
 62
7
  6
CONTINUOUS
 10
52.0584696238
 20
108.3179510734
 40
0.8
100
AcDbArc
 50
198.1798566915
 51
296.8201433085
  0
ARC
  5
617
100
AcDbEntity
  8
0
100
AcDbCircle
 62
7
  6
CONTINUOUS
 10
53.9797157793
 20
106.3967049179
 40
0.8
100
AcDbArc
 50
153.1798566915
 51
251.8201433085
  0
ARC
  5
618
100
AcDbEntity
  8
0
100
AcDbCircle
 62
7
  6
CONTINUOUS
 10
47.4201710985
 20
106.3967049179
 40
0.8
100
AcDbArc
 50
288.1798566915
 51
26.8201433085
  0
ARC
  5
619
100
AcDbEntity
  8
0
100
AcDbCircle
 62
7
  6
CONTINUOUS
 10
49.341417254
 20
108.3179510734
 40
0.8
100
AcDbArc
 50
243.1798566915
 51
341.8201433085
  0
ARC
  5
61A
100
AcDbEntity
  8
0
100
AcDbCircle
 62
7
  6
CONTINUOUS
 10
64.4018464001
 20
142.3362757719
 40
0.5
100
AcDbArc
 50
63.1798566915
 51
206.8201433085
  0
ARC
  5
61B
100
AcDbEntity
  8
0
100
AcDbCircle
 62
7
  6
CONTINUOUS
 10
64.4018464001
 20
137.7400816942
 40
0.5
100
AcDbArc
 50
153.1798566915
 51
296.8201433086
  0
ARC
  5
61C
100
AcDbEntity
  8
0
100
AcDbCircle
 62
7
  6
CONTINUOUS
 10
63.4499434389
 20
140.038178733
 40
0.5
100
AcDbArc
 50
108.1798566915
 51
251.8201433085
  0
ARC
  5
61D
100
AcDbEntity
  8
0
100
AcDbCircle
 62
7
  6
CONTINUOUS
 10
52.9980404778
 20
142.3362757719
 40
0.5
100
AcDbArc
 50
333.1798566915
 51
116.8201433085
  0
ARC
  5
61E
100
AcDbEntity
  8
0
100
AcDbCircle
 62
7
  6
CONTINUOUS
 10
53.9499434389
 20
140.038178733
 40
0.5
100
AcDbArc
 50
288.1798566915
 51
71.8201433085
  0
ARC
  5
61F
100
AcDbEntity
  8
0
100
AcDbCircle
 62
7
  6
CONTINUOUS
 10
52.9980404778
 20
137.7400816942
 40
0.5
100
AcDbArc
 50
243.1798566915
 51
26.8201433085
  0
ARC
  5
620
100
AcDbEntity
  8
0
100
AcDbCircle
 62
7
  6
CONTINUOUS
 10
48.4018464001
 20
142.3362757719
 40
0.5
100
AcDbArc
 50
63.1798566915
 51
206.8201433085
  0
ARC
  5
621
100
AcDbEntity
  8
0
100
AcDbCircle
 62
7
  6
CONTINUOUS
 10
50.6999434389
 20
143.288178733
 40
0.5
100
AcDbArc
 50
18.1798566915
 51
161.8201433085
  0
ARC
  5
622
100
AcDbEntity
  8
0
100
AcDbCircle
 62
7
  6
CONTINUOUS
 10
50.6999434389
 20
136.788178733
 40
0.5
100
AcDbArc
 50
198.1798566915
 51
341.8201433085
  0
ARC
  5
623
100
AcDbEntity
  8
0
100
AcDbCircle
 62
7
  6
CONTINUOUS
 10
48.4018464001
 20
137.7400816942
 40
0.5
100
AcDbArc
 50
153.1798566915
 51
296.8201433085
  0
ARC
  5
624
100
AcDbEntity
  8
0
100
AcDbCircle
 62
7
  6
CONTINUOUS
 10
47.4499434389
 20
140.038178733
 40
0.5
100
AcDbArc
 50
108.1798566915
 51
251.8201433085
  0
ARC
  5
625
100
AcDbEntity
  8
0
100
AcDbCircle
 62
7
  6
CONTINUOUS
 10
52.9980404778
 20
107.3362757719
 40
0.5
100
AcDbArc
 50
333.1798566915
 51
116.8201433085
  0
ARC
  5
626
100
AcDbEntity
  8
0
100
AcDbCircle
 62
7
  6
CONTINUOUS
 10
53.9499434389
 20
105.038178733
 40
0.5
100
AcDbArc
 50
288.1798566915
 51
71.8201433085
  0
ARC
  5
627
100
AcDbEntity
  8
0
100
AcDbCircle
 62
7
  6
CONTINUOUS
 10
48.4018464001
 20
107.3362757719
 40
0.5
100
AcDbArc
 50
63.1798566915
 51
206.8201433085
  0
ARC
  5
628
100
AcDbEntity
  8
0
100
AcDbCircle
 62
7
  6
CONTINUOUS
 10
50.6999434389
 20
108.288178733
 40
0.5
100
AcDbArc
 50
18.1798566915
 51
161.8201433085
  0
ARC
  5
629
100
AcDbEntity
  8
0
100
AcDbCircle
 62
7
  6
CONTINUOUS
 10
47.4499434389
 20
105.038178733
 40
0.5
100
AcDbArc
 50
108.1798566915
 51
251.8201433085
  0
ARC
  5
62A
100
AcDbEntity
  8
0
100
AcDbCircle
 62
7
  6
CONTINUOUS
 10
55.0584696238
 20
181.7584063926
 40
0.8
100
AcDbArc
 50
63.1798566915
 51
161.8201433085
  0
ARC
  5
62B
100
AcDbEntity
  8
0
100
AcDbCircle
 62
7
  6
CONTINUOUS
 10
52.341417254
 20
181.7584063926
 40
0.8
100
AcDbArc
 50
18.1798566915
 51
116.8201433086
  0
ARC
  5
62C
100
AcDbEntity
  8
0
100
AcDbCircle
 62
7
  6
CONTINUOUS
 10
50.4201710985
 20
183.6796525481
 40
0.8
100
AcDbArc
 50
333.1798566915
 51
71.8201433085
  0
ARC
  5
62D
100
AcDbEntity
  8
0
100
AcDbCircle
 62
7
  6
CONTINUOUS
 10
55.9980404778
 20
182.7400816942
 40
0.5
100
AcDbArc
 50
243.1798566915
 51
26.8201433085
  0
ARC
  5
62E
100
AcDbEntity
  8
0
100
AcDbCircle
 62
7
  6
CONTINUOUS
 10
53.6999434389
 20
181.788178733
 40
0.5
100
AcDbArc
 50
198.1798566915
 51
341.8201433085
  0
ARC
  5
62F
100
AcDbEntity
  8
0
100
AcDbCircle
 62
7
  6
CONTINUOUS
 10
51.4018464001
 20
182.7400816942
 40
0.5
100
AcDbArc
 50
153.1798566915
 51
296.8201433086
  0
CIRCLE
  5
630
100
AcDbEntity
  8
A_ACHSEN
100
AcDbCircle
 62
7
  6
CONTINUOUS
 10
53.6999434389
 20
185.038178733
 40
5.0
  0
ARC
  5
631
100
AcDbEntity
  8
0
100
AcDbCircle
 62
7
  6
CONTINUOUS
 10
55.0584696238
 20
188.3179510734
 40
0.8
100
AcDbArc
 50
198.1798566914
 51
296.8201433085
  0
ARC
  5
632
100
AcDbEntity
  8
0
100
AcDbCircle
 62
7
  6
CONTINUOUS
 10
50.4201710985
 20
186.3967049179
 40
0.8
100
AcDbArc
 50
288.1798566915
 51
26.8201433085
  0
ARC
  5
633
100
AcDbEntity
  8
0
100
AcDbCircle
 62
7
  6
CONTINUOUS
 10
52.341417254
 20
188.3179510734
 40
0.8
100
AcDbArc
 50
243.1798566915
 51
341.8201433085
  0
ARC
  5
634
100
AcDbEntity
  8
0
100
AcDbCircle
 62
7
  6
CONTINUOUS
 10
47.0584696238
 20
198.3179510734
 40
0.8
100
AcDbArc
 50
198.1798566915
 51
296.8201433085
  0
ARC
  5
635
100
AcDbEntity
  8
0
100
AcDbCircle
 62
7
  6
CONTINUOUS
 10
48.9797157793
 20
196.3967049179
 40
0.8
100
AcDbArc
 50
153.1798566914
 51
251.8201433085
  0
ARC
  5
636
100
AcDbEntity
  8
0
100
AcDbCircle
 62
7
  6
CONTINUOUS
 10
48.9797157793
 20
193.6796525481
 40
0.8
100
AcDbArc
 50
108.1798566915
 51
206.8201433085
  0
ARC
  5
637
100
AcDbEntity
  8
0
100
AcDbCircle
 62
7
  6
CONTINUOUS
 10
47.0584696238
 20
191.7584063926
 40
0.8
100
AcDbArc
 50
63.1798566915
 51
161.8201433085
  0
ARC
  5
638
100
AcDbEntity
  8
0
100
AcDbCircle
 62
7
  6
CONTINUOUS
 10
55.9980404778
 20
187.3362757719
 40
0.5
100
AcDbArc
 50
333.1798566915
 51
116.8201433085
  0
ARC
  5
639
100
AcDbEntity
  8
0
100
AcDbCircle
 62
7
  6
CONTINUOUS
 10
51.4018464001
 20
187.3362757719
 40
0.5
100
AcDbArc
 50
63.1798566915
 51
206.8201433085
  0
ARC
  5
63A
100
AcDbEntity
  8
0
100
AcDbCircle
 62
7
  6
CONTINUOUS
 10
53.6999434389
 20
188.288178733
 40
0.5
100
AcDbArc
 50
18.1798566914
 51
161.8201433085
  0
ARC
  5
63B
100
AcDbEntity
  8
0
100
AcDbCircle
 62
7
  6
CONTINUOUS
 10
50.4499434389
 20
185.038178733
 40
0.5
100
AcDbArc
 50
108.1798566915
 51
251.8201433085
  0
ARC
  5
63C
100
AcDbEntity
  8
0
100
AcDbCircle
 62
7
  6
CONTINUOUS
 10
47.9980404778
 20
197.3362757719
 40
0.5
100
AcDbArc
 50
333.1798566914
 51
116.8201433085
  0
ARC
  5
63D
100
AcDbEntity
  8
0
100
AcDbCircle
 62
7
  6
CONTINUOUS
 10
48.9499434389
 20
195.038178733
 40
0.5
100
AcDbArc
 50
288.1798566915
 51
71.8201433085
  0
ARC
  5
63E
100
AcDbEntity
  8
0
100
AcDbCircle
 62
7
  6
CONTINUOUS
 10
47.9980404778
 20
192.7400816942
 40
0.5
100
AcDbArc
 50
243.1798566915
 51
26.8201433085
  0
CIRCLE
  5
63F
100
AcDbEntity
  8
A_ACHSEN
100
AcDbCircle
 62
7
  6
CONTINUOUS
 10
61.6999434389
 20
175.038178733
 40
5.0
  0
ARC
  5
640
100
AcDbEntity
  8
0
100
AcDbCircle
 62
7
  6
CONTINUOUS
 10
63.0584696238
 20
178.3179510734
 40
0.8
100
AcDbArc
 50
198.1798566914
 51
296.8201433085
  0
ARC
  5
641
100
AcDbEntity
  8
0
100
AcDbCircle
 62
7
  6
CONTINUOUS
 10
64.9797157793
 20
176.3967049179
 40
0.8
100
AcDbArc
 50
153.1798566915
 51
251.8201433085
  0
ARC
  5
642
100
AcDbEntity
  8
0
100
AcDbCircle
 62
7
  6
CONTINUOUS
 10
64.9797157793
 20
173.6796525481
 40
0.8
100
AcDbArc
 50
108.1798566915
 51
206.8201433085
  0
ARC
  5
643
100
AcDbEntity
  8
0
100
AcDbCircle
 62
7
  6
CONTINUOUS
 10
63.0584696238
 20
171.7584063926
 40
0.8
100
AcDbArc
 50
63.1798566915
 51
161.8201433085
  0
ARC
  5
644
100
AcDbEntity
  8
0
100
AcDbCircle
 62
7
  6
CONTINUOUS
 10
58.4201710985
 20
176.3967049179
 40
0.8
100
AcDbArc
 50
288.1798566915
 51
26.8201433085
  0
ARC
  5
645
100
AcDbEntity
  8
0
100
AcDbCircle
 62
7
  6
CONTINUOUS
 10
60.341417254
 20
178.3179510734
 40
0.8
100
AcDbArc
 50
243.1798566915
 51
341.8201433085
  0
ARC
  5
646
100
AcDbEntity
  8
0
100
AcDbCircle
 62
7
  6
CONTINUOUS
 10
60.341417254
 20
171.7584063926
 40
0.8
100
AcDbArc
 50
18.1798566915
 51
116.8201433086
  0
ARC
  5
647
100
AcDbEntity
  8
0
100
AcDbCircle
 62
7
  6
CONTINUOUS
 10
58.4201710985
 20
173.6796525481
 40
0.8
100
AcDbArc
 50
333.1798566915
 51
71.8201433085
  0
ARC
  5
648
100
AcDbEntity
  8
0
100
AcDbCircle
 62
7
  6
CONTINUOUS
 10
56.9797157793
 20
183.6796525481
 40
0.8
100
AcDbArc
 50
108.1798566915
 51
206.8201433085
  0
ARC
  5
649
100
AcDbEntity
  8
0
100
AcDbCircle
 62
7
  6
CONTINUOUS
 10
63.9980404778
 20
177.3362757719
 40
0.5
100
AcDbArc
 50
333.1798566915
 51
116.8201433085
  0
ARC
  5
64A
100
AcDbEntity
  8
0
100
AcDbCircle
 62
7
  6
CONTINUOUS
 10
64.9499434389
 20
175.038178733
 40
0.5
100
AcDbArc
 50
288.1798566915
 51
71.8201433085
  0
ARC
  5
64B
100
AcDbEntity
  8
0
100
AcDbCircle
 62
7
  6
CONTINUOUS
 10
63.9980404778
 20
172.7400816942
 40
0.5
100
AcDbArc
 50
243.1798566915
 51
26.8201433085
  0
ARC
  5
64C
100
AcDbEntity
  8
0
100
AcDbCircle
 62
7
  6
CONTINUOUS
 10
59.4018464001
 20
177.3362757719
 40
0.5
100
AcDbArc
 50
63.1798566915
 51
206.8201433085
  0
ARC
  5
64D
100
AcDbEntity
  8
0
100
AcDbCircle
 62
7
  6
CONTINUOUS
 10
61.6999434389
 20
178.288178733
 40
0.5
100
AcDbArc
 50
18.1798566914
 51
161.8201433085
  0
ARC
  5
64E
100
AcDbEntity
  8
0
100
AcDbCircle
 62
7
  6
CONTINUOUS
 10
61.6999434389
 20
171.788178733
 40
0.5
100
AcDbArc
 50
198.1798566915
 51
341.8201433085
  0
ARC
  5
64F
100
AcDbEntity
  8
0
100
AcDbCircle
 62
7
  6
CONTINUOUS
 10
59.4018464001
 20
172.7400816942
 40
0.5
100
AcDbArc
 50
153.1798566915
 51
296.8201433086
  0
ARC
  5
650
100
AcDbEntity
  8
0
100
AcDbCircle
 62
7
  6
CONTINUOUS
 10
58.4499434389
 20
175.038178733
 40
0.5
100
AcDbArc
 50
108.1798566915
 51
251.8201433085
  0
ARC
  5
651
100
AcDbEntity
  8
0
100
AcDbCircle
 62
7
  6
CONTINUOUS
 10
56.9797157793
 20
186.3967049179
 40
0.8
100
AcDbArc
 50
153.1798566915
 51
251.8201433085
  0
ARC
  5
652
100
AcDbEntity
  8
0
100
AcDbCircle
 62
7
  6
CONTINUOUS
 10
56.9499434389
 20
185.038178733
 40
0.5
100
AcDbArc
 50
288.1798566915
 51
71.8201433085
  0
CIRCLE
  5
653
100
AcDbEntity
  8
A_ACHSEN
100
AcDbCircle
 62
7
  6
CONTINUOUS
 10
78.1999434389
 20
15.038178733
 40
5.0
  0
ARC
  5
654
100
AcDbEntity
  8
0
100
AcDbCircle
 62
2
  6
CONTINUOUS
 10
85.6999434389
 20
36.038178733
 40
2.5
100
AcDbArc
 50
255.0
 51
195.0
  0
CIRCLE
  5
655
100
AcDbEntity
  8
A_ACHSEN
100
AcDbCircle
 62
7
  6
CONTINUOUS
 10
85.6999434389
 20
36.038178733
 40
1.8
  0
ARC
  5
656
100
AcDbEntity
  8
0
100
AcDbCircle
 62
7
  6
CONTINUOUS
 10
79.5584696238
 20
18.3179510734
 40
0.8
100
AcDbArc
 50
198.1798566915
 51
296.8201433085
  0
ARC
  5
657
100
AcDbEntity
  8
0
100
AcDbCircle
 62
7
  6
CONTINUOUS
 10
81.4797157793
 20
16.3967049179
 40
0.8
100
AcDbArc
 50
153.1798566915
 51
251.8201433085
  0
ARC
  5
658
100
AcDbEntity
  8
0
100
AcDbCircle
 62
7
  6
CONTINUOUS
 10
81.4797157793
 20
13.6796525481
 40
0.8
100
AcDbArc
 50
108.1798566915
 51
206.8201433085
  0
ARC
  5
659
100
AcDbEntity
  8
0
100
AcDbCircle
 62
7
  6
CONTINUOUS
 10
79.5584696238
 20
11.7584063926
 40
0.8
100
AcDbArc
 50
63.1798566915
 51
161.8201433085
  0
ARC
  5
65A
100
AcDbEntity
  8
0
100
AcDbCircle
 62
7
  6
CONTINUOUS
 10
74.9201710985
 20
16.3967049179
 40
0.8
100
AcDbArc
 50
288.1798566915
 51
26.8201433085
  0
ARC
  5
65B
100
AcDbEntity
  8
0
100
AcDbCircle
 62
7
  6
CONTINUOUS
 10
76.841417254
 20
18.3179510734
 40
0.8
100
AcDbArc
 50
243.1798566915
 51
341.8201433085
  0
ARC
  5
65C
100
AcDbEntity
  8
0
100
AcDbCircle
 62
7
  6
CONTINUOUS
 10
76.841417254
 20
11.7584063926
 40
0.8
100
AcDbArc
 50
18.1798566915
 51
116.8201433085
  0
ARC
  5
65D
100
AcDbEntity
  8
0
100
AcDbCircle
 62
7
  6
CONTINUOUS
 10
74.9201710985
 20
13.6796525481
 40
0.8
100
AcDbArc
 50
333.1798566915
 51
71.8201433085
  0
ARC
  5
65E
100
AcDbEntity
  8
0
100
AcDbCircle
 62
7
  6
CONTINUOUS
 10
80.4980404778
 20
17.3362757719
 40
0.5
100
AcDbArc
 50
333.1798566915
 51
116.8201433085
  0
ARC
  5
65F
100
AcDbEntity
  8
0
100
AcDbCircle
 62
7
  6
CONTINUOUS
 10
81.4499434389
 20
15.038178733
 40
0.5
100
AcDbArc
 50
288.1798566915
 51
71.8201433085
  0
ARC
  5
660
100
AcDbEntity
  8
0
100
AcDbCircle
 62
7
  6
CONTINUOUS
 10
80.4980404778
 20
12.7400816942
 40
0.5
100
AcDbArc
 50
243.1798566915
 51
26.8201433085
  0
ARC
  5
661
100
AcDbEntity
  8
0
100
AcDbCircle
 62
7
  6
CONTINUOUS
 10
75.9018464001
 20
17.3362757719
 40
0.5
100
AcDbArc
 50
63.1798566915
 51
206.8201433085
  0
ARC
  5
662
100
AcDbEntity
  8
0
100
AcDbCircle
 62
7
  6
CONTINUOUS
 10
78.1999434389
 20
18.288178733
 40
0.5
100
AcDbArc
 50
18.1798566915
 51
161.8201433085
  0
ARC
  5
663
100
AcDbEntity
  8
0
100
AcDbCircle
 62
7
  6
CONTINUOUS
 10
78.1999434389
 20
11.788178733
 40
0.5
100
AcDbArc
 50
198.1798566915
 51
341.8201433085
  0
ARC
  5
664
100
AcDbEntity
  8
0
100
AcDbCircle
 62
7
  6
CONTINUOUS
 10
75.9018464001
 20
12.7400816942
 40
0.5
100
AcDbArc
 50
153.1798566915
 51
296.8201433085
  0
ARC
  5
665
100
AcDbEntity
  8
0
100
AcDbCircle
 62
7
  6
CONTINUOUS
 10
74.9499434389
 20
15.038178733
 40
0.5
100
AcDbArc
 50
108.1798566915
 51
251.8201433085
  0
CIRCLE
  5
666
100
AcDbEntity
  8
A_ACHSEN
100
AcDbCircle
 62
7
  6
CONTINUOUS
 10
66.6999434389
 20
70.038178733
 40
5.0
  0
ARC
  5
667
100
AcDbEntity
  8
A_ACHSEN
100
AcDbCircle
 62
7
  6
CONTINUOUS
 10
66.6999434389
 20
54.038178733
 40
4.15
100
AcDbArc
 50
270.0
 51
90.0
  0
ARC
  5
668
100
AcDbEntity
  8
0
100
AcDbCircle
 62
7
  6
CONTINUOUS
 10
68.0584696238
 20
73.3179510734
 40
0.8
100
AcDbArc
 50
198.1798566915
 51
296.8201433085
  0
ARC
  5
669
100
AcDbEntity
  8
0
100
AcDbCircle
 62
7
  6
CONTINUOUS
 10
69.9797157793
 20
71.3967049179
 40
0.8
100
AcDbArc
 50
153.1798566915
 51
251.8201433085
  0
ARC
  5
66A
100
AcDbEntity
  8
0
100
AcDbCircle
 62
7
  6
CONTINUOUS
 10
69.9797157793
 20
68.6796525481
 40
0.8
100
AcDbArc
 50
108.1798566915
 51
206.8201433085
  0
ARC
  5
66B
100
AcDbEntity
  8
0
100
AcDbCircle
 62
7
  6
CONTINUOUS
 10
68.0584696238
 20
66.7584063926
 40
0.8
100
AcDbArc
 50
63.1798566915
 51
161.8201433085
  0
ARC
  5
66C
100
AcDbEntity
  8
0
100
AcDbCircle
 62
7
  6
CONTINUOUS
 10
68.9980404778
 20
72.3362757719
 40
0.5
100
AcDbArc
 50
333.1798566915
 51
116.8201433085
  0
ARC
  5
66D
100
AcDbEntity
  8
0
100
AcDbCircle
 62
7
  6
CONTINUOUS
 10
69.9499434389
 20
70.038178733
 40
0.5
100
AcDbArc
 50
288.1798566915
 51
71.8201433085
  0
ARC
  5
66E
100
AcDbEntity
  8
0
100
AcDbCircle
 62
7
  6
CONTINUOUS
 10
68.9980404778
 20
67.7400816942
 40
0.5
100
AcDbArc
 50
243.1798566915
 51
26.8201433085
  0
ARC
  5
66F
100
AcDbEntity
  8
0
100
AcDbCircle
 62
7
  6
CONTINUOUS
 10
66.6999434389
 20
73.288178733
 40
0.5
100
AcDbArc
 50
18.1798566915
 51
161.8201433085
  0
ARC
  5
670
100
AcDbEntity
  8
0
100
AcDbCircle
 62
7
  6
CONTINUOUS
 10
66.6999434389
 20
66.788178733
 40
0.5
100
AcDbArc
 50
198.1798566915
 51
341.8201433085
  0
ARC
  5
671
100
AcDbEntity
  8
0
100
AcDbCircle
 62
7
  6
CONTINUOUS
 10
93.1999434389
 20
39.038178733
 40
14.0
100
AcDbArc
 50
270.0
 51
360.0
  0
ARC
  5
672
100
AcDbEntity
  8
0
100
AcDbCircle
 62
2
  6
CONTINUOUS
 10
100.6999434389
 20
36.038178733
 40
2.5
100
AcDbArc
 50
255.0
 51
195.0
  0
ARC
  5
673
100
AcDbEntity
  8
A_RUNDUNGEN
100
AcDbCircle
 62
7
  6
CONTINUOUS
 10
105.1999434389
 20
39.538178733
 40
2.0
100
AcDbArc
 50
0.0
 51
90.0
  0
CIRCLE
  5
674
100
AcDbEntity
  8
A_ACHSEN
100
AcDbCircle
 62
7
  6
CONTINUOUS
 10
100.6999434389
 20
36.038178733
 40
1.8
  0
ARC
  5
675
100
AcDbEntity
  8
0
100
AcDbCircle
 62
7
  6
CONTINUOUS
 10
91.6999434389
 20
26.038178733
 40
1.0
100
AcDbArc
 50
180.0
 51
270.0
  0
ARC
  5
676
100
AcDbEntity
  8
0
100
AcDbCircle
 62
7
  6
CONTINUOUS
 10
89.6999434389
 20
26.038178733
 40
1.0
100
AcDbArc
 50
0.0
 51
90.0
  0
ARC
  5
677
100
AcDbEntity
  8
0
100
AcDbCircle
 62
7
  6
CONTINUOUS
 10
88.1999434389
 20
26.038178733
 40
1.0
100
AcDbArc
 50
90.0
 51
180.0
  0
ARC
  5
678
100
AcDbEntity
  8
A_RUNDUNGEN
100
AcDbCircle
 62
7
  6
CONTINUOUS
 10
86.1999434389
 20
22.9523922954
 40
1.0
100
AcDbArc
 50
315.0
 51
360.0
  0
ARC
  5
679
100
AcDbEntity
  8
A_RUNDUNGEN
100
AcDbCircle
 62
7
  6
CONTINUOUS
 10
86.1999434389
 20
8.1239651707
 40
1.0
100
AcDbArc
 50
0.0
 51
45.0
  0
ARC
  5
67A
100
AcDbEntity
  8
A_RUNDUNGEN
100
AcDbCircle
 62
7
  6
CONTINUOUS
 10
87.1999434389
 20
9.9523922954
 40
1.0
100
AcDbArc
 50
180.0
 51
225.0
  0
ARC
  5
67B
100
AcDbEntity
  8
A_RUNDUNGEN
100
AcDbCircle
 62
7
  6
CONTINUOUS
 10
87.1999434389
 20
21.1239651707
 40
1.0
100
AcDbArc
 50
135.0
 51
180.0
  0
ARC
  5
67C
100
AcDbEntity
  8
0
100
AcDbCircle
 62
7
  6
CONTINUOUS
 10
90.6999434389
 20
51.538178733
 40
12.0
100
AcDbArc
 50
180.0
 51
270.0
  0
ARC
  5
67D
100
AcDbEntity
  8
0
100
AcDbCircle
 62
7
  6
CONTINUOUS
 10
95.6999434389
 20
51.538178733
 40
12.0
100
AcDbArc
 50
270.0
 51
303.5573097619
  0
CIRCLE
  5
67E
100
AcDbEntity
  8
A_ACHSEN
100
AcDbCircle
 62
7
  6
CONTINUOUS
 10
66.6999434389
 20
140.038178733
 40
5.0
  0
ARC
  5
67F
100
AcDbEntity
  8
A_ACHSEN
100
AcDbCircle
 62
7
  6
CONTINUOUS
 10
66.6999434389
 20
156.038178733
 40
4.15
100
AcDbArc
 50
270.0
 51
90.0
  0
ARC
  5
680
100
AcDbEntity
  8
0
100
AcDbCircle
 62
7
  6
CONTINUOUS
 10
68.0584696238
 20
143.3179510734
 40
0.8
100
AcDbArc
 50
198.1798566914
 51
296.8201433085
  0
ARC
  5
681
100
AcDbEntity
  8
0
100
AcDbCircle
 62
7
  6
CONTINUOUS
 10
69.9797157793
 20
141.3967049179
 40
0.8
100
AcDbArc
 50
153.1798566915
 51
251.8201433085
  0
ARC
  5
682
100
AcDbEntity
  8
0
100
AcDbCircle
 62
7
  6
CONTINUOUS
 10
69.9797157793
 20
138.6796525481
 40
0.8
100
AcDbArc
 50
108.1798566915
 51
206.8201433085
  0
ARC
  5
683
100
AcDbEntity
  8
0
100
AcDbCircle
 62
7
  6
CONTINUOUS
 10
68.0584696238
 20
136.7584063926
 40
0.8
100
AcDbArc
 50
63.1798566915
 51
161.8201433085
  0
ARC
  5
684
100
AcDbEntity
  8
0
100
AcDbCircle
 62
7
  6
CONTINUOUS
 10
68.9980404778
 20
142.3362757719
 40
0.5
100
AcDbArc
 50
333.1798566915
 51
116.8201433085
  0
ARC
  5
685
100
AcDbEntity
  8
0
100
AcDbCircle
 62
7
  6
CONTINUOUS
 10
69.9499434389
 20
140.038178733
 40
0.5
100
AcDbArc
 50
288.1798566915
 51
71.8201433085
  0
ARC
  5
686
100
AcDbEntity
  8
0
100
AcDbCircle
 62
7
  6
CONTINUOUS
 10
68.9980404778
 20
137.7400816942
 40
0.5
100
AcDbArc
 50
243.1798566915
 51
26.8201433085
  0
ARC
  5
687
100
AcDbEntity
  8
0
100
AcDbCircle
 62
7
  6
CONTINUOUS
 10
66.6999434389
 20
143.288178733
 40
0.5
100
AcDbArc
 50
18.1798566914
 51
161.8201433085
  0
ARC
  5
688
100
AcDbEntity
  8
0
100
AcDbCircle
 62
7
  6
CONTINUOUS
 10
66.6999434389
 20
136.788178733
 40
0.5
100
AcDbArc
 50
198.1798566915
 51
341.8201433085
  0
CIRCLE
  5
689
100
AcDbEntity
  8
A_ACHSEN
100
AcDbCircle
 62
7
  6
CONTINUOUS
 10
78.1999434389
 20
195.038178733
 40
5.0
  0
ARC
  5
68A
100
AcDbEntity
  8
0
100
AcDbCircle
 62
2
  6
CONTINUOUS
 10
85.6999434389
 20
174.038178733
 40
2.5
100
AcDbArc
 50
255.0
 51
195.0
  0
CIRCLE
  5
68B
100
AcDbEntity
  8
A_ACHSEN
100
AcDbCircle
 62
7
  6
CONTINUOUS
 10
85.6999434389
 20
174.038178733
 40
1.8
  0
ARC
  5
68C
100
AcDbEntity
  8
0
100
AcDbCircle
 62
7
  6
CONTINUOUS
 10
79.5584696238
 20
198.3179510734
 40
0.8
100
AcDbArc
 50
198.1798566915
 51
296.8201433085
  0
ARC
  5
68D
100
AcDbEntity
  8
0
100
AcDbCircle
 62
7
  6
CONTINUOUS
 10
81.4797157793
 20
196.3967049179
 40
0.8
100
AcDbArc
 50
153.1798566915
 51
251.8201433085
  0
ARC
  5
68E
100
AcDbEntity
  8
0
100
AcDbCircle
 62
7
  6
CONTINUOUS
 10
81.4797157793
 20
193.6796525481
 40
0.8
100
AcDbArc
 50
108.1798566915
 51
206.8201433085
  0
ARC
  5
68F
100
AcDbEntity
  8
0
100
AcDbCircle
 62
7
  6
CONTINUOUS
 10
79.5584696238
 20
191.7584063926
 40
0.8
100
AcDbArc
 50
63.1798566915
 51
161.8201433085
  0
ARC
  5
690
100
AcDbEntity
  8
0
100
AcDbCircle
 62
7
  6
CONTINUOUS
 10
74.9201710985
 20
196.3967049179
 40
0.8
100
AcDbArc
 50
288.1798566915
 51
26.8201433085
  0
ARC
  5
691
100
AcDbEntity
  8
0
100
AcDbCircle
 62
7
  6
CONTINUOUS
 10
76.841417254
 20
198.3179510734
 40
0.8
100
AcDbArc
 50
243.1798566915
 51
341.8201433085
  0
ARC
  5
692
100
AcDbEntity
  8
0
100
AcDbCircle
 62
7
  6
CONTINUOUS
 10
76.841417254
 20
191.7584063926
 40
0.8
100
AcDbArc
 50
18.1798566915
 51
116.8201433085
  0
ARC
  5
693
100
AcDbEntity
  8
0
100
AcDbCircle
 62
7
  6
CONTINUOUS
 10
74.9201710985
 20
193.6796525481
 40
0.8
100
AcDbArc
 50
333.1798566915
 51
71.8201433085
  0
ARC
  5
694
100
AcDbEntity
  8
0
100
AcDbCircle
 62
7
  6
CONTINUOUS
 10
80.4980404778
 20
197.3362757719
 40
0.5
100
AcDbArc
 50
333.1798566915
 51
116.8201433085
  0
ARC
  5
695
100
AcDbEntity
  8
0
100
AcDbCircle
 62
7
  6
CONTINUOUS
 10
81.4499434389
 20
195.038178733
 40
0.5
100
AcDbArc
 50
288.1798566915
 51
71.8201433085
  0
ARC
  5
696
100
AcDbEntity
  8
0
100
AcDbCircle
 62
7
  6
CONTINUOUS
 10
80.4980404778
 20
192.7400816942
 40
0.5
100
AcDbArc
 50
243.1798566915
 51
26.8201433085
  0
ARC
  5
697
100
AcDbEntity
  8
0
100
AcDbCircle
 62
7
  6
CONTINUOUS
 10
75.9018464001
 20
197.3362757719
 40
0.5
100
AcDbArc
 50
63.1798566915
 51
206.8201433085
  0
ARC
  5
698
100
AcDbEntity
  8
0
100
AcDbCircle
 62
7
  6
CONTINUOUS
 10
78.1999434389
 20
198.288178733
 40
0.5
100
AcDbArc
 50
18.1798566915
 51
161.8201433085
  0
ARC
  5
699
100
AcDbEntity
  8
0
100
AcDbCircle
 62
7
  6
CONTINUOUS
 10
78.1999434389
 20
191.788178733
 40
0.5
100
AcDbArc
 50
198.1798566915
 51
341.8201433085
  0
ARC
  5
69A
100
AcDbEntity
  8
0
100
AcDbCircle
 62
7
  6
CONTINUOUS
 10
75.9018464001
 20
192.7400816942
 40
0.5
100
AcDbArc
 50
153.1798566915
 51
296.8201433085
  0
ARC
  5
69B
100
AcDbEntity
  8
0
100
AcDbCircle
 62
7
  6
CONTINUOUS
 10
74.9499434389
 20
195.038178733
 40
0.5
100
AcDbArc
 50
108.1798566915
 51
251.8201433085
  0
ARC
  5
69C
100
AcDbEntity
  8
0
100
AcDbCircle
 62
7
  6
CONTINUOUS
 10
95.6999434389
 20
158.538178733
 40
12.0
100
AcDbArc
 50
56.4426902381
 51
90.0
  0
ARC
  5
69D
100
AcDbEntity
  8
0
100
AcDbCircle
 62
7
  6
CONTINUOUS
 10
90.6999434389
 20
158.538178733
 40
12.0
100
AcDbArc
 50
90.0
 51
180.0
  0
ARC
  5
69E
100
AcDbEntity
  8
0
100
AcDbCircle
 62
7
  6
CONTINUOUS
 10
93.1999434389
 20
171.038178733
 40
14.0
100
AcDbArc
 50
0.0
 51
90.0
  0
ARC
  5
69F
100
AcDbEntity
  8
0
100
AcDbCircle
 62
2
  6
CONTINUOUS
 10
100.6999434389
 20
174.038178733
 40
2.5
100
AcDbArc
 50
255.0
 51
195.0
  0
ARC
  5
6A0
100
AcDbEntity
  8
A_RUNDUNGEN
100
AcDbCircle
 62
7
  6
CONTINUOUS
 10
105.1999434389
 20
170.538178733
 40
2.0
100
AcDbArc
 50
270.0
 51
360.0
  0
CIRCLE
  5
6A1
100
AcDbEntity
  8
A_ACHSEN
100
AcDbCircle
 62
7
  6
CONTINUOUS
 10
100.6999434389
 20
174.038178733
 40
1.8
  0
ARC
  5
6A2
100
AcDbEntity
  8
A_RUNDUNGEN
100
AcDbCircle
 62
7
  6
CONTINUOUS
 10
86.1999434389
 20
201.9523922954
 40
1.0
100
AcDbArc
 50
315.0
 51
360.0
  0
ARC
  5
6A3
100
AcDbEntity
  8
A_RUNDUNGEN
100
AcDbCircle
 62
7
  6
CONTINUOUS
 10
86.1999434389
 20
187.1239651707
 40
1.0
100
AcDbArc
 50
0.0
 51
45.0
  0
ARC
  5
6A4
100
AcDbEntity
  8
0
100
AcDbCircle
 62
7
  6
CONTINUOUS
 10
88.1999434389
 20
184.038178733
 40
1.0
100
AcDbArc
 50
180.0
 51
270.0
  0
ARC
  5
6A5
100
AcDbEntity
  8
0
100
AcDbCircle
 62
7
  6
CONTINUOUS
 10
89.6999434389
 20
184.038178733
 40
1.0
100
AcDbArc
 50
270.0
 51
360.0
  0
ARC
  5
6A6
100
AcDbEntity
  8
0
100
AcDbCircle
 62
7
  6
CONTINUOUS
 10
91.6999434389
 20
184.038178733
 40
1.0
100
AcDbArc
 50
90.0
 51
180.0
  0
ARC
  5
6A7
100
AcDbEntity
  8
A_RUNDUNGEN
100
AcDbCircle
 62
7
  6
CONTINUOUS
 10
87.1999434389
 20
188.9523922954
 40
1.0
100
AcDbArc
 50
180.0
 51
225.0
  0
ARC
  5
6A8
100
AcDbEntity
  8
A_RUNDUNGEN
100
AcDbCircle
 62
7
  6
CONTINUOUS
 10
87.1999434389
 20
200.1239651707
 40
1.0
100
AcDbArc
 50
135.0
 51
180.0
  0
ENDSEC
  0
SECTION
  2
OBJECTS
  0
DICTIONARY
  5
6A9
100
AcDbDictionary
  3
ACAD_GROUP
350
6AA
  3
ACAD_MLINESTYLE
350
6AB
  0
DICTIONARY
  5
6AA
102
{ACAD_REACTORS
330
6A9
102
}
100
AcDbDictionary
  0
DICTIONARY
  5
6AB
102
{ACAD_REACTORS
330
6A9
102
}
100
AcDbDictionary
  3
STANDARD
350
6AC
  0
MLINESTYLE
  5
6AC
102
{ACAD_REACTORS
330
6AB
102
}
100
AcDbMlineStyle
  2
STANDARD
 70
0
  3

 62
256
 51
90.0
 52
90.0
 71
2
 49
0.5
 62
256
  6
BYLAYER
 49
-0.5
 62
256
  6
BYLAYER
  0
ENDSEC
  0
EOF
