999
DXF file: d:\tmp\workingDir\0000064714\te_680_3d_fd_v01_01.dxf
999
Pro/ENGINEER 2016380 by Parametric Technology Corporation
  0
SECTION
  2
HEADER
  9
$ACADVER
  1
AC1014
  9
$DWGCODEPAGE
  3
ANSI_1252
  9
$EXTMAX
 10
160.02
 20
280.0
 30
0.0
  9
$EXTMIN
 10
0.0
 20
0.0
 30
0.0
  9
$LIMMIN
 10
0.0
 20
0.0
  9
$LIMMAX
 10
160.02
 20
280.0
  9
$VIEWCTR
 10
80.01
 20
140.0
  9
$VIEWSIZE
 40
280.0
  9
$CLAYER
  8
0
  9
$LTSCALE
 40
18.2518518519
  9
$CELTYPE
  6
BYLAYER
  9
$DIMSCALE
 40
1.0
  9
$DIMASZ
 40
3.5
  9
$DIMEXO
 40
0.0
  9
$DIMDLI
 40
12.6103703704
  9
$DIMEXE
 40
2.0
  9
$DIMCEN
 40
2.9866666667
  9
$DIMLFAC
 40
1.0
  9
$DIMBLK
  1
_ARROW_FILLED
  9
$DIMALT
 70
0
  9
$DIMALTF
 40
25.4
  9
$DIMTXT
 40
3.5
  9
$DIMTOL
 70
1
  9
$DIMLIM
 70
0
  9
$DIMTFAC
 40
1.0
  9
$DIMTP
 40
0.01
  9
$DIMTM
 40
0.01
  9
$DIMGAP
 40
0.625
  9
$AUNITS
 70
0
  9
$PDMODE
 70
0
  9
$PDSIZE
 40
0.04
  9
$HANDSEED
  5
3C9
  9
$TILEMODE
 70
1
  9
$MEASUREMENT
 70
1
  0
ENDSEC
  0
SECTION
  2
CLASSES
  0
ENDSEC
  0
SECTION
  2
TABLES
  0
TABLE
  2
VPORT
  5
8
100
AcDbSymbolTable
 70
2
  0
VPORT
  5
1F4
100
AcDbSymbolTableRecord
100
AcDbViewportTableRecord
  2
*ACTIVE
 70
0
 10
0.0
 20
0.0
 11
1.0
 21
1.0
 12
80.01
 22
140.0
 13
0.0
 23
0.0
 14
1.0
 24
1.0
 15
0.0
 25
0.0
 16
0.0
 26
0.0
 36
1.0
 17
0.0
 27
0.0
 37
0.0
 40
280.0
 41
0.5715
 42
50.0
 43
0.0
 44
0.0
 50
0.0
 51
0.0
 71
0
 72
100
 73
1
 74
1
 75
0
 76
0
 77
0
 78
0
  0
ENDTAB
  0
TABLE
  2
LTYPE
  5
5
100
AcDbSymbolTable
 70
6
  0
LTYPE
  5
14
100
AcDbSymbolTableRecord
100
AcDbLinetypeTableRecord
  2
BYBLOCK
 70
0
  3

 72
65
 73
0
 40
0.0
  0
LTYPE
  5
15
100
AcDbSymbolTableRecord
100
AcDbLinetypeTableRecord
  2
BYLAYER
 70
0
  3

 72
65
 73
0
 40
0.0
  0
LTYPE
  5
16
100
AcDbSymbolTableRecord
100
AcDbLinetypeTableRecord
  2
CONTINUOUS
 70
64
  3
Solid line
 72
65
 73
0
 40
0.0
  0
LTYPE
  5
1F5
100
AcDbSymbolTableRecord
100
AcDbLinetypeTableRecord
  2
CENTER
 70
64
  3
____ _ ____ _ ____ _ ____ _ ____ _ ____ _ ____
 72
65
 73
4
 40
0.6
 49
0.375
 74
0
 49
-0.075
 74
0
 49
0.075
 74
0
 49
-0.075
 74
0
  0
LTYPE
  5
1F6
100
AcDbSymbolTableRecord
100
AcDbLinetypeTableRecord
  2
HIDDEN
 70
64
  3
- - - - - - - - - - - - - - - - - - - -
 72
65
 73
2
 40
0.2
 49
0.1
 74
0
 49
-0.1
 74
0
  0
LTYPE
  5
1F7
100
AcDbSymbolTableRecord
100
AcDbLinetypeTableRecord
  2
PHANTOM
 70
64
  3
_____ _ _ _____ _ _ _____ _ _ _____
 72
65
 73
6
 40
0.8
 49
0.45
 74
0
 49
-0.05
 74
0
 49
0.1
 74
0
 49
-0.05
 74
0
 49
0.1
 74
0
 49
-0.05
 74
0
  0
LTYPE
  5
1F8
100
AcDbSymbolTableRecord
100
AcDbLinetypeTableRecord
  2
DOT
 70
64
  3
. . . . . . . . . . . . . . . . . . . .
 72
65
 73
2
 40
0.2
 49
0.1
 74
0
 49
-0.1
 74
0
  0
LTYPE
  5
1F9
100
AcDbSymbolTableRecord
100
AcDbLinetypeTableRecord
  2
DASHED
 70
64
  3
- - - - - - - - - - - - - - - - - - - -
 72
65
 73
2
 40
0.2
 49
0.1
 74
0
 49
-0.1
 74
0
  0
ENDTAB
  0
TABLE
  2
LAYER
  5
2
100
AcDbSymbolTable
 70
36
  0
LAYER
  5
10
100
AcDbSymbolTableRecord
100
AcDbLayerTableRecord
  2
0
 70
0
 62
7
  6
CONTINUOUS
  0
LAYER
  5
1FA
100
AcDbSymbolTableRecord
100
AcDbLayerTableRecord
  2
DEFAULT_1
 70
0
 62
7
  6
CENTER
  0
LAYER
  5
1FB
100
AcDbSymbolTableRecord
100
AcDbLayerTableRecord
  2
DEFAULT_2
 70
0
 62
8
  6
HIDDEN
  0
LAYER
  5
1FC
100
AcDbSymbolTableRecord
100
AcDbLayerTableRecord
  2
DEFAULT_3
 70
0
 62
7
  6
PHANTOM
  0
LAYER
  5
1FD
100
AcDbSymbolTableRecord
100
AcDbLayerTableRecord
  2
A_ACHSEN
 70
0
 62
7
  6
CONTINUOUS
  0
LAYER
  5
1FE
100
AcDbSymbolTableRecord
100
AcDbLayerTableRecord
  2
A_BASISEBENEN
 70
0
 62
7
  6
CONTINUOUS
  0
LAYER
  5
1FF
100
AcDbSymbolTableRecord
100
AcDbLayerTableRecord
  2
A_BEMASSUNGEN
 70
0
 62
7
  6
CONTINUOUS
  0
LAYER
  5
200
100
AcDbSymbolTableRecord
100
AcDbLayerTableRecord
  2
A_BOHRUNGEN
 70
0
 62
7
  6
CONTINUOUS
  0
LAYER
  5
201
100
AcDbSymbolTableRecord
100
AcDbLayerTableRecord
  2
A_EBENEN
 70
0
 62
7
  6
CONTINUOUS
  0
LAYER
  5
202
100
AcDbSymbolTableRecord
100
AcDbLayerTableRecord
  2
A_FASEN
 70
0
 62
7
  6
CONTINUOUS
  0
LAYER
  5
203
100
AcDbSymbolTableRecord
100
AcDbLayerTableRecord
  2
A_FLAECHEN
 70
0
 62
7
  6
CONTINUOUS
  0
LAYER
  5
204
100
AcDbSymbolTableRecord
100
AcDbLayerTableRecord
  2
A_FL_VERBAENDE
 70
0
 62
7
  6
CONTINUOUS
  0
LAYER
  5
205
100
AcDbSymbolTableRecord
100
AcDbLayerTableRecord
  2
A_KURVEN
 70
0
 62
7
  6
CONTINUOUS
  0
LAYER
  5
206
100
AcDbSymbolTableRecord
100
AcDbLayerTableRecord
  2
A_NOTIZEN_SYMB
 70
0
 62
7
  6
CONTINUOUS
  0
LAYER
  5
207
100
AcDbSymbolTableRecord
100
AcDbLayerTableRecord
  2
A_PUNKTE
 70
0
 62
7
  6
CONTINUOUS
  0
LAYER
  5
208
100
AcDbSymbolTableRecord
100
AcDbLayerTableRecord
  2
A_RUNDUNGEN
 70
0
 62
7
  6
CONTINUOUS
  0
LAYER
  5
209
100
AcDbSymbolTableRecord
100
AcDbLayerTableRecord
  2
BASISEBENEN
 70
0
 62
7
  6
CONTINUOUS
  0
LAYER
  5
20A
100
AcDbSymbolTableRecord
100
AcDbLayerTableRecord
  2
GRUNDEBENE
 70
0
 62
7
  6
CONTINUOUS
  0
LAYER
  5
20B
100
AcDbSymbolTableRecord
100
AcDbLayerTableRecord
  2
INTFCLR_3
 70
0
 62
7
  6
CONTINUOUS
  0
LAYER
  5
20C
100
AcDbSymbolTableRecord
100
AcDbLayerTableRecord
  2
INTF_YELLOW
 70
0
 62
7
  6
CONTINUOUS
  0
LAYER
  5
20D
100
AcDbSymbolTableRecord
100
AcDbLayerTableRecord
  2
PROFIL
 70
0
 62
7
  6
CONTINUOUS
  0
LAYER
  5
20E
100
AcDbSymbolTableRecord
100
AcDbLayerTableRecord
  2
SCHRAFFUR
 70
0
 62
7
  6
CONTINUOUS
  0
ENDTAB
  0
TABLE
  2
STYLE
  5
3
100
AcDbSymbolTable
 70
1
  0
STYLE
  5
11
100
AcDbSymbolTableRecord
100
AcDbTextStyleTableRecord
  2
STANDARD
 70
0
 40
0.0
 41
1.0
 50
0.0
 71
0
 42
0.2
  3
txt
  4

  0
STYLE
  5
20F
100
AcDbSymbolTableRecord
100
AcDbTextStyleTableRecord
  2
TEXTSTYLE_1
 70
0
 40
0.0
 41
0.8
 50
0.0
 71
0
 42
0.2
  3
gdt
  4

  0
STYLE
  5
210
100
AcDbSymbolTableRecord
100
AcDbTextStyleTableRecord
  2
TEXTSTYLE_2
 70
0
 40
0.0
 41
1.0
 50
0.0
 71
0
 42
0.2
  3
txt
  4

  0
ENDTAB
  0
TABLE
  2
VIEW
  5
6
100
AcDbSymbolTable
 70
0
  0
ENDTAB
  0
TABLE
  2
UCS
  5
7
100
AcDbSymbolTable
 70
0
  0
ENDTAB
  0
TABLE
  2
APPID
  5
9
100
AcDbSymbolTable
 70
1
  0
APPID
  5
211
100
AcDbSymbolTableRecord
100
AcDbRegAppTableRecord
  2
ACAD
 70
0
  0
ENDTAB
  0
TABLE
  2
BLOCK_RECORD
  5
1
100
AcDbSymbolTable
 70
0
  0
BLOCK_RECORD
  5
1F
100
AcDbSymbolTableRecord
100
AcDbBlockTableRecord
  2
*MODEL_SPACE
  0
BLOCK_RECORD
  5
1B
100
AcDbSymbolTableRecord
100
AcDbBlockTableRecord
  2
*PAPER_SPACE
  0
BLOCK_RECORD
  5
212
100
AcDbSymbolTableRecord
100
AcDbBlockTableRecord
  2
_ARROW_FILLED
  0
BLOCK_RECORD
  5
213
100
AcDbSymbolTableRecord
100
AcDbBlockTableRecord
  2
*D0
  0
BLOCK_RECORD
  5
214
100
AcDbSymbolTableRecord
100
AcDbBlockTableRecord
  2
*D1
  0
BLOCK_RECORD
  5
215
100
AcDbSymbolTableRecord
100
AcDbBlockTableRecord
  2
*D2
  0
BLOCK_RECORD
  5
216
100
AcDbSymbolTableRecord
100
AcDbBlockTableRecord
  2
*D3
  0
BLOCK_RECORD
  5
217
100
AcDbSymbolTableRecord
100
AcDbBlockTableRecord
  2
*D4
  0
ENDTAB
  0
TABLE
  2
DIMSTYLE
  5
A
100
AcDbSymbolTable
 70
1
  0
DIMSTYLE
105
218
100
AcDbSymbolTableRecord
100
AcDbDimStyleTableRecord
  2
STANDARD
 70
0
  3

  4

  5
_ARROW_FILLED
  6
_ARROW_FILLED
  7
_ARROW_FILLED
 40
1.0
 41
3.5
 42
0.0
 43
0.38
 44
2.0
 45
0.0
 46
0.0
 47
0.01
 48
0.01
140
3.5
141
0.09
142
0.0
143
25.4
144
1.0
145
0.0
146
1.0
147
0.625
 71
1.0
 72
0.0
 73
0
 74
0
 75
0
 76
0
 77
1
 78
8
170
0
171
1
172
0
173
0
174
0
175
0
176
0
177
0
178
5
270
2
271
2
272
2
273
2
274
2
275
0
280
0
281
0
282
0
283
1
284
8
285
0
286
0
287
3
288
0
340
11
  0
DIMSTYLE
105
219
100
AcDbSymbolTableRecord
100
AcDbDimStyleTableRecord
  2
DIMSTYLE_1
 70
0
  3

  4

  5
_ARROW_FILLED
  6
_ARROW_FILLED
  7
_ARROW_FILLED
 40
1.0
 41
3.5
 42
0.0
 43
0.38
 44
2.0
 45
0.0
 46
0.0
 47
0.3
 48
0.3
140
3.5
141
0.09
142
0.0
143
25.4
144
1.0
145
0.0
146
1.0
147
0.875
 71
0.0
 72
0.0
 73
0
 74
0
 75
0
 76
0
 77
1
 78
8
170
0
171
1
172
0
173
0
174
0
175
0
176
0
177
0
178
5
270
2
271
4
272
-1
273
2
274
2
275
0
280
0
281
0
282
0
283
1
284
8
285
0
286
0
287
3
288
0
340
210
  0
DIMSTYLE
105
21A
100
AcDbSymbolTableRecord
100
AcDbDimStyleTableRecord
  2
DIMSTYLE_2
 70
0
  3

  4

  5
_ARROW_FILLED
  6
_ARROW_FILLED
  7
_ARROW_FILLED
 40
1.0
 41
3.5
 42
0.0
 43
0.38
 44
2.0
 45
0.0
 46
0.0
 47
0.2
 48
0.2
140
3.5
141
0.09
142
0.0
143
25.4
144
1.0
145
0.0
146
1.0
147
0.875
 71
0.0
 72
0.0
 73
0
 74
0
 75
0
 76
0
 77
1
 78
8
170
0
171
1
172
0
173
0
174
0
175
0
176
0
177
0
178
5
270
2
271
4
272
-1
273
2
274
2
275
0
280
0
281
0
282
0
283
1
284
8
285
0
286
0
287
3
288
0
340
210
  0
DIMSTYLE
105
21B
100
AcDbSymbolTableRecord
100
AcDbDimStyleTableRecord
  2
DIMSTYLE_3
 70
0
  3

  4

  5
_ARROW_FILLED
  6
_ARROW_FILLED
  7
_ARROW_FILLED
 40
1.0
 41
3.5
 42
0.0
 43
0.38
 44
2.0
 45
0.0
 46
0.0
 47
0.2
 48
0.2
140
3.5
141
0.09
142
0.0
143
25.4
144
1.0
145
0.0
146
1.0
147
0.875
 71
0.0
 72
0.0
 73
0
 74
0
 75
0
 76
0
 77
1
 78
8
170
0
171
1
172
0
173
0
174
0
175
0
176
0
177
0
178
5
270
2
271
0
272
-1
273
2
274
2
275
0
280
0
281
0
282
0
283
1
284
8
285
0
286
0
287
3
288
0
340
210
  0
DIMSTYLE
105
21C
100
AcDbSymbolTableRecord
100
AcDbDimStyleTableRecord
  2
DIMSTYLE_4
 70
0
  3

  4

  5
_ARROW_FILLED
  6
_ARROW_FILLED
  7
_ARROW_FILLED
 40
1.0
 41
3.5
 42
0.0
 43
0.38
 44
2.0
 45
0.0
 46
0.0
 47
0.5
 48
0.5
140
3.5
141
0.09
142
0.0
143
25.4
144
1.0
145
0.0
146
1.0
147
0.875
 71
0.0
 72
0.0
 73
0
 74
0
 75
0
 76
0
 77
1
 78
8
170
0
171
1
172
0
173
0
174
0
175
0
176
0
177
0
178
5
270
2
271
0
272
-1
273
2
274
2
275
0
280
0
281
0
282
0
283
1
284
8
285
0
286
0
287
3
288
0
340
210
  0
DIMSTYLE
105
21D
100
AcDbSymbolTableRecord
100
AcDbDimStyleTableRecord
  2
DIMSTYLE_5
 70
0
  3

  4

  5
_ARROW_FILLED
  6
_ARROW_FILLED
  7
_ARROW_FILLED
 40
1.0
 41
3.5
 42
0.0
 43
0.38
 44
2.0
 45
0.0
 46
0.0
 47
0.5
 48
0.5
140
3.5
141
0.09
142
0.0
143
25.4
144
1.0
145
0.0
146
1.0
147
0.875
 71
0.0
 72
0.0
 73
0
 74
0
 75
0
 76
0
 77
1
 78
8
170
0
171
1
172
0
173
0
174
0
175
0
176
0
177
0
178
5
270
2
271
4
272
-1
273
2
274
2
275
0
280
0
281
0
282
0
283
1
284
8
285
0
286
0
287
3
288
0
340
210
  0
ENDTAB
  0
ENDSEC
  0
SECTION
  2
BLOCKS
  0
BLOCK
  5
20
100
AcDbEntity
  8
0
100
AcDbBlockBegin
  2
*MODEL_SPACE
 70
0
 10
0.0
 20
0.0
 30
0.0
  3
*MODEL_SPACE
  1

  0
ENDBLK
  5
21
100
AcDbEntity
  8
0
100
AcDbBlockEnd
  0
BLOCK
  5
1C
100
AcDbEntity
  8
0
100
AcDbBlockBegin
  2
*PAPER_SPACE
 70
0
 10
0.0
 20
0.0
 30
0.0
  3
*PAPER_SPACE
  1

  0
ENDBLK
  5
1D
100
AcDbEntity
  8
0
100
AcDbBlockEnd
  0
BLOCK
  5
21E
100
AcDbEntity
  8
0
100
AcDbBlockBegin
  2
_ARROW_FILLED
 70
64
 10
0.0
 20
0.0
  3
_ARROW_FILLED
  1

  0
SOLID
  5
21F
100
AcDbEntity
  8
0
  6
BYBLOCK
 62
0
100
AcDbTrace
 10
0.0
 20
0.0
 11
-1.0
 21
0.1428571429
 12
-1.0
 22
-0.1428571429
 13
-1.0
 23
-0.1428571429
  0
ENDBLK
  5
220
100
AcDbEntity
  8
0
  6
BYBLOCK
 62
0
100
AcDbBlockEnd
  0
BLOCK
  5
221
100
AcDbEntity
  8
A_BEMASSUNGEN
100
AcDbBlockBegin
 62
2
  6
CONTINUOUS
  2
*D0
 70
65
 10
0.0
 20
0.0
  3
*D0
  1

  0
MTEXT
  5
222
100
AcDbEntity
  8
A_BEMASSUNGEN
100
AcDbMText
 62
5
  6
CONTINUOUS
  7
TEXTSTYLE_2
 71
2
 72
1
 10
56.9034924281
 20
71.0958086918
 30
0.0
 11
1.0
 21
0.0
 31
0.0
  1
40.5
 40
3.5
 41
15.0
  0
LINE
  5
223
100
AcDbEntity
  8
A_BEMASSUNGEN
100
AcDbLine
 62
2
  6
CONTINUOUS
 10
36.7006167485
 20
88.4737767914
 11
36.7006167485
 21
67.5958086918
  0
LINE
  5
224
100
AcDbEntity
  8
A_BEMASSUNGEN
100
AcDbLine
 62
2
  6
CONTINUOUS
 10
36.7006167485
 20
67.5958086918
 11
36.7006167485
 21
64.7208086918
  0
LINE
  5
225
100
AcDbEntity
  8
A_BEMASSUNGEN
100
AcDbLine
 62
2
  6
CONTINUOUS
 10
77.1063681076
 20
88.4737767914
 11
77.1063681076
 21
67.5958086918
  0
LINE
  5
226
100
AcDbEntity
  8
A_BEMASSUNGEN
100
AcDbLine
 62
2
  6
CONTINUOUS
 10
77.1063681076
 20
67.5958086918
 11
77.1063681076
 21
64.7208086918
  0
LINE
  5
227
100
AcDbEntity
  8
A_BEMASSUNGEN
100
AcDbLine
 62
2
  6
CONTINUOUS
 10
36.7006167485
 20
66.7208086918
 11
56.9034924281
 21
66.7208086918
  0
LINE
  5
228
100
AcDbEntity
  8
A_BEMASSUNGEN
100
AcDbLine
 62
2
  6
CONTINUOUS
 10
77.1063681076
 20
66.7208086918
 11
56.9034924281
 21
66.7208086918
  0
INSERT
  5
229
100
AcDbEntity
  8
A_BEMASSUNGEN
100
AcDbBlockReference
 62
2
  6
CONTINUOUS
  2
_ARROW_FILLED
 10
36.7006167485
 20
66.7208086918
 41
3.5
 42
3.5
 43
3.5
 50
180.0
  0
INSERT
  5
22A
100
AcDbEntity
  8
A_BEMASSUNGEN
100
AcDbBlockReference
 62
2
  6
CONTINUOUS
  2
_ARROW_FILLED
 10
77.1063681076
 20
66.7208086918
 41
3.5
 42
3.5
 43
3.5
  0
ENDBLK
  5
22B
100
AcDbEntity
  8
0
  6
BYBLOCK
 62
0
100
AcDbBlockEnd
  0
BLOCK
  5
22C
100
AcDbEntity
  8
A_BEMASSUNGEN
100
AcDbBlockBegin
 62
2
  6
CONTINUOUS
  2
*D1
 70
65
 10
0.0
 20
0.0
  3
*D1
  1

  0
MTEXT
  5
22D
100
AcDbEntity
  8
A_BEMASSUNGEN
100
AcDbMText
 62
5
  6
CONTINUOUS
  7
TEXTSTYLE_2
 71
2
 72
1
 10
85.1063681076
 20
70.9902141507
 30
0.0
 11
1.0
 21
0.0
 31
0.0
  1
16
 40
3.5
 41
7.125
  0
LINE
  5
22E
100
AcDbEntity
  8
A_BEMASSUNGEN
100
AcDbLine
 62
2
  6
CONTINUOUS
 10
77.1063681076
 20
88.4737767914
 11
77.1063681076
 21
64.6152141507
  0
LINE
  5
22F
100
AcDbEntity
  8
A_BEMASSUNGEN
100
AcDbLine
 62
2
  6
CONTINUOUS
 10
77.1063681076
 20
66.6152141507
 11
85.1063681076
 21
66.6152141507
  0
LINE
  5
230
100
AcDbEntity
  8
A_BEMASSUNGEN
100
AcDbLine
 62
2
  6
CONTINUOUS
 10
93.1063681076
 20
66.6152141507
 11
85.1063681076
 21
66.6152141507
  0
INSERT
  5
231
100
AcDbEntity
  8
A_BEMASSUNGEN
100
AcDbBlockReference
 62
2
  6
CONTINUOUS
  2
_ARROW_FILLED
 10
77.1063681076
 20
66.6152141507
 41
3.5
 42
3.5
 43
3.5
 50
180.0
  0
INSERT
  5
232
100
AcDbEntity
  8
A_BEMASSUNGEN
100
AcDbBlockReference
 62
2
  6
CONTINUOUS
  2
_ARROW_FILLED
 10
93.1063681076
 20
66.6152141507
 41
3.5
 42
3.5
 43
3.5
  0
ENDBLK
  5
233
100
AcDbEntity
  8
0
  6
BYBLOCK
 62
0
100
AcDbBlockEnd
  0
BLOCK
  5
234
100
AcDbEntity
  8
A_BEMASSUNGEN
100
AcDbBlockBegin
 62
2
  6
CONTINUOUS
  2
*D2
 70
65
 10
0.0
 20
0.0
  3
*D2
  1

  0
MTEXT
  5
235
100
AcDbEntity
  8
A_BEMASSUNGEN
100
AcDbMText
 62
5
  6
CONTINUOUS
  7
TEXTSTYLE_2
 71
2
 72
1
 10
108.0063681076
 20
19.4221905385
 30
0.0
 11
1.0
 21
0.0
 31
0.0
  1
30
 40
3.5
 41
7.875
  0
LINE
  5
236
100
AcDbEntity
  8
A_BEMASSUNGEN
100
AcDbLine
 62
2
  6
CONTINUOUS
 10
93.1063681076
 20
38.4237767914
 11
93.1063681076
 21
13.0471905385
  0
LINE
  5
237
100
AcDbEntity
  8
A_BEMASSUNGEN
100
AcDbLine
 62
2
  6
CONTINUOUS
 10
122.9063681076
 20
38.4237767914
 11
122.9063681076
 21
13.0471905385
  0
LINE
  5
238
100
AcDbEntity
  8
A_BEMASSUNGEN
100
AcDbLine
 62
2
  6
CONTINUOUS
 10
93.1063681076
 20
15.0471905385
 11
108.0063681076
 21
15.0471905385
  0
LINE
  5
239
100
AcDbEntity
  8
A_BEMASSUNGEN
100
AcDbLine
 62
2
  6
CONTINUOUS
 10
122.9063681076
 20
15.0471905385
 11
108.0063681076
 21
15.0471905385
  0
INSERT
  5
23A
100
AcDbEntity
  8
A_BEMASSUNGEN
100
AcDbBlockReference
 62
2
  6
CONTINUOUS
  2
_ARROW_FILLED
 10
93.1063681076
 20
15.0471905385
 41
3.5
 42
3.5
 43
3.5
 50
180.0
  0
INSERT
  5
23B
100
AcDbEntity
  8
A_BEMASSUNGEN
100
AcDbBlockReference
 62
2
  6
CONTINUOUS
  2
_ARROW_FILLED
 10
122.9063681076
 20
15.0471905385
 41
3.5
 42
3.5
 43
3.5
  0
ENDBLK
  5
23C
100
AcDbEntity
  8
0
  6
BYBLOCK
 62
0
100
AcDbBlockEnd
  0
BLOCK
  5
23D
100
AcDbEntity
  8
A_BEMASSUNGEN
100
AcDbBlockBegin
 62
2
  6
CONTINUOUS
  2
*D3
 70
65
 10
0.0
 20
0.0
  3
*D3
  1

  0
MTEXT
  5
23E
100
AcDbEntity
  8
A_BEMASSUNGEN
100
AcDbMText
 62
5
  6
CONTINUOUS
  7
TEXTSTYLE_2
 71
2
 72
1
 10
135.8786882343
 20
148.4237767914
 30
0.0
 11
0.0
 21
1.0
 31
0.0
  1
250
 40
3.5
 41
12.0
  0
LINE
  5
23F
100
AcDbEntity
  8
A_BEMASSUNGEN
100
AcDbLine
 62
2
  6
CONTINUOUS
 10
108.0063681076
 20
273.3237767914
 11
142.2536882343
 21
273.3237767914
  0
LINE
  5
240
100
AcDbEntity
  8
A_BEMASSUNGEN
100
AcDbLine
 62
2
  6
CONTINUOUS
 10
108.0063681076
 20
23.5237767914
 11
121.4158066154
 21
23.5237767914
  0
LINE
  5
241
100
AcDbEntity
  8
A_BEMASSUNGEN
100
AcDbLine
 62
2
  6
CONTINUOUS
 10
125.1648281619
 20
23.5237767914
 11
142.2536882343
 21
23.5237767914
  0
LINE
  5
242
100
AcDbEntity
  8
A_BEMASSUNGEN
100
AcDbLine
 62
2
  6
CONTINUOUS
 10
140.2536882343
 20
273.3237767914
 11
140.2536882343
 21
148.4237767914
  0
LINE
  5
243
100
AcDbEntity
  8
A_BEMASSUNGEN
100
AcDbLine
 62
2
  6
CONTINUOUS
 10
140.2536882343
 20
23.5237767914
 11
140.2536882343
 21
148.4237767914
  0
INSERT
  5
244
100
AcDbEntity
  8
A_BEMASSUNGEN
100
AcDbBlockReference
 62
2
  6
CONTINUOUS
  2
_ARROW_FILLED
 10
140.2536882343
 20
273.3237767914
 41
3.5
 42
3.5
 43
3.5
 50
90.0
  0
INSERT
  5
245
100
AcDbEntity
  8
A_BEMASSUNGEN
100
AcDbBlockReference
 62
2
  6
CONTINUOUS
  2
_ARROW_FILLED
 10
140.2536882343
 20
23.5237767914
 41
3.5
 42
3.5
 43
3.5
 50
270.0
  0
ENDBLK
  5
246
100
AcDbEntity
  8
0
  6
BYBLOCK
 62
0
100
AcDbBlockEnd
  0
BLOCK
  5
247
100
AcDbEntity
  8
A_BEMASSUNGEN
100
AcDbBlockBegin
 62
2
  6
CONTINUOUS
  2
*D4
 70
65
 10
0.0
 20
0.0
  3
*D4
  1

  0
MTEXT
  5
248
100
AcDbEntity
  8
A_BEMASSUNGEN
100
AcDbMText
 62
5
  6
CONTINUOUS
  7
TEXTSTYLE_2
 71
2
 72
1
 10
16.0473217736
 20
148.4237767914
 30
0.0
 11
0.0
 21
1.0
 31
0.0
  1
140
 40
3.5
 41
11.25
  0
LINE
  5
249
100
AcDbEntity
  8
A_BEMASSUNGEN
100
AcDbLine
 62
2
  6
CONTINUOUS
 10
54.5142350854
 20
218.4237767914
 11
18.4223217736
 21
218.4237767914
  0
LINE
  5
24A
100
AcDbEntity
  8
A_BEMASSUNGEN
100
AcDbLine
 62
2
  6
CONTINUOUS
 10
54.5142350854
 20
78.4237767914
 11
37.7030585018
 21
78.4237767914
  0
LINE
  5
24B
100
AcDbEntity
  8
A_BEMASSUNGEN
100
AcDbLine
 62
2
  6
CONTINUOUS
 10
35.2376301104
 20
78.4237767914
 11
18.4223217736
 21
78.4237767914
  0
LINE
  5
24C
100
AcDbEntity
  8
A_BEMASSUNGEN
100
AcDbLine
 62
2
  6
CONTINUOUS
 10
20.4223217736
 20
218.4237767914
 11
20.4223217736
 21
148.4237767914
  0
LINE
  5
24D
100
AcDbEntity
  8
A_BEMASSUNGEN
100
AcDbLine
 62
2
  6
CONTINUOUS
 10
20.4223217736
 20
78.4237767914
 11
20.4223217736
 21
148.4237767914
  0
INSERT
  5
24E
100
AcDbEntity
  8
A_BEMASSUNGEN
100
AcDbBlockReference
 62
2
  6
CONTINUOUS
  2
_ARROW_FILLED
 10
20.4223217736
 20
218.4237767914
 41
3.5
 42
3.5
 43
3.5
 50
90.0
  0
INSERT
  5
24F
100
AcDbEntity
  8
A_BEMASSUNGEN
100
AcDbBlockReference
 62
2
  6
CONTINUOUS
  2
_ARROW_FILLED
 10
20.4223217736
 20
78.4237767914
 41
3.5
 42
3.5
 43
3.5
 50
270.0
  0
ENDBLK
  5
250
100
AcDbEntity
  8
0
  6
BYBLOCK
 62
0
100
AcDbBlockEnd
  0
ENDSEC
  0
SECTION
  2
ENTITIES
  0
DIMENSION
  5
251
100
AcDbEntity
  8
A_BEMASSUNGEN
100
AcDbDimension
 62
2
  6
CONTINUOUS
  2
*D0
 10
77.1063681076
 20
66.7208086918
 11
56.4034924769
 21
66.7208086918
 70
160
  1
40.5
  3
DIMSTYLE_1
100
AcDbAlignedDimension
 13
36.7006167485
 23
88.4737767914
 14
77.1063681076
 24
88.4737767914
100
AcDbRotatedDimension
  0
DIMENSION
  5
252
100
AcDbEntity
  8
A_BEMASSUNGEN
100
AcDbDimension
 62
2
  6
CONTINUOUS
  2
*D1
 10
93.1063681076
 20
66.6152141507
 11
84.6063729745
 21
66.6152141507
 70
160
  3
DIMSTYLE_2
100
AcDbAlignedDimension
 13
77.1063681076
 23
88.4737767914
 14
93.1063681076
 24
94.6237767914
100
AcDbRotatedDimension
  0
DIMENSION
  5
253
100
AcDbEntity
  8
A_BEMASSUNGEN
100
AcDbDimension
 62
2
  6
CONTINUOUS
  2
*D2
 10
122.9063681076
 20
15.0471905385
 11
107.5063686343
 21
15.0471905385
 70
160
  3
DIMSTYLE_3
100
AcDbAlignedDimension
 13
93.1063681076
 23
38.4237767914
 14
122.9063681076
 24
38.4237767914
100
AcDbRotatedDimension
  0
DIMENSION
  5
254
100
AcDbEntity
  8
A_BEMASSUNGEN
100
AcDbDimension
 62
2
  6
CONTINUOUS
  2
*D3
 10
140.2536882343
 20
23.5237767914
 11
140.2536882343
 21
147.9237777931
 70
160
  3
DIMSTYLE_4
100
AcDbAlignedDimension
 13
108.0063681076
 23
273.3237767914
 14
108.0063681076
 24
23.5237767914
 50
270.0
100
AcDbRotatedDimension
  0
DIMENSION
  5
255
100
AcDbEntity
  8
A_BEMASSUNGEN
100
AcDbDimension
 62
2
  6
CONTINUOUS
  2
*D4
 10
20.4223217736
 20
78.4237767914
 11
20.4223217736
 21
147.9237748962
 70
160
  3
DIMSTYLE_5
100
AcDbAlignedDimension
 13
54.5142350854
 23
218.4237767914
 14
54.5142350854
 24
78.4237767914
 50
270.0
100
AcDbRotatedDimension
  0
MTEXT
  5
256
100
AcDbEntity
  8
A_NOTIZEN_SYMB
100
AcDbMText
 62
5
  6
CONTINUOUS
  7
TEXTSTYLE_2
 71
1
 72
1
 10
27.381189676
 20
152.4981742323
 30
0.0
 11
1.0
 21
0.0
 31
0.0
  1
BBL
 40
2.5
 41
9.0178571429
  0
LINE
  5
257
100
AcDbEntity
  8
A_NOTIZEN_SYMB
100
AcDbLine
 62
7
  6
PHANTOM
 10
24.9254111135
 20
148.5328893797
 11
126.0338316784
 21
148.4964027153
  0
LINE
  5
258
100
AcDbEntity
  8
A_ACHSEN
100
AcDbLine
 62
7
  6
CENTER
 10
93.4100575237
 20
32.4237767914
 11
123.1921505189
 21
32.4237767914
  0
LINE
  5
259
100
AcDbEntity
  8
0
100
AcDbLine
 62
7
  6
CONTINUOUS
 10
122.9563681076
 20
48.4237767914
 11
122.9063681076
 21
48.4237767914
  0
LINE
  5
25A
100
AcDbEntity
  8
0
100
AcDbLine
 62
7
  6
CONTINUOUS
 10
93.0563681076
 20
48.4237767914
 11
93.1063681076
 21
48.4237767914
  0
LINE
  5
25B
100
AcDbEntity
  8
0
100
AcDbLine
 62
7
  6
CONTINUOUS
 10
107.4063681076
 20
62.9237767914
 11
108.6063681076
 21
62.9237767914
  0
LINE
  5
25C
100
AcDbEntity
  8
0
100
AcDbLine
 62
7
  6
CONTINUOUS
 10
105.5063681076
 20
64.8237767914
 11
106.9063681076
 21
64.8237767914
  0
LINE
  5
25D
100
AcDbEntity
  8
0
100
AcDbLine
 62
7
  6
CONTINUOUS
 10
109.1063681076
 20
64.8237767914
 11
110.5063681076
 21
64.8237767914
  0
LINE
  5
25E
100
AcDbEntity
  8
0
100
AcDbLine
 62
7
  6
CONTINUOUS
 10
106.1400690161
 20
65.2701455709
 11
106.9063681076
 21
65.2701455709
  0
LINE
  5
25F
100
AcDbEntity
  8
0
100
AcDbLine
 62
7
  6
CONTINUOUS
 10
109.1063681076
 20
65.2701455709
 11
109.8726671991
 21
65.2701455709
  0
LINE
  5
260
100
AcDbEntity
  8
DEFAULT_1
100
AcDbLine
 62
7
  6
CENTER
 10
101.3805123427
 20
65.4237767914
 11
114.6322238726
 21
65.4237767914
  0
LINE
  5
261
100
AcDbEntity
  8
0
100
AcDbLine
 62
7
  6
CONTINUOUS
 10
109.8726671991
 20
65.5774080119
 11
109.1063681076
 21
65.5774080119
  0
LINE
  5
262
100
AcDbEntity
  8
0
100
AcDbLine
 62
7
  6
CONTINUOUS
 10
106.9063681076
 20
65.5774080119
 11
106.1400690161
 21
65.5774080119
  0
LINE
  5
263
100
AcDbEntity
  8
0
100
AcDbLine
 62
7
  6
CONTINUOUS
 10
110.5063681076
 20
66.0237767914
 11
109.1063681076
 21
66.0237767914
  0
LINE
  5
264
100
AcDbEntity
  8
0
100
AcDbLine
 62
7
  6
CONTINUOUS
 10
106.9063681076
 20
66.0237767914
 11
105.5063681076
 21
66.0237767914
  0
LINE
  5
265
100
AcDbEntity
  8
0
100
AcDbLine
 62
7
  6
CONTINUOUS
 10
108.6063681076
 20
67.9237767914
 11
107.4063681076
 21
67.9237767914
  0
LINE
  5
266
100
AcDbEntity
  8
0
100
AcDbLine
 62
7
  6
CONTINUOUS
 10
54.4241800608
 20
78.4237767914
 11
59.461890272
 21
78.4237767914
  0
LINE
  5
267
100
AcDbEntity
  8
0
100
AcDbLine
 62
7
  6
CONTINUOUS
 10
59.4702051311
 20
78.4237767914
 11
65.1063681076
 21
78.4237767914
  0
LINE
  5
268
100
AcDbEntity
  8
0
100
AcDbLine
 62
7
  6
CONTINUOUS
 10
65.1063681076
 20
78.4737767914
 11
67.1063681076
 21
78.4737767914
  0
LINE
  5
269
100
AcDbEntity
  8
0
100
AcDbLine
 62
7
  6
CONTINUOUS
 10
54.4227702277
 20
78.5680254323
 11
46.6063681076
 21
78.5680254323
  0
LINE
  5
26A
100
AcDbEntity
  8
A_RUNDUNGEN
100
AcDbLine
 62
7
  6
CONTINUOUS
 10
51.1067107826
 20
80.4737767914
 11
46.6063681076
 21
80.4737767914
  0
LINE
  5
26B
100
AcDbEntity
  8
A_FASEN
100
AcDbLine
 62
7
  6
CONTINUOUS
 10
108.9414390058
 20
232.5709797239
 11
109.42058167
 21
232.8379903537
  0
LINE
  5
26C
100
AcDbEntity
  8
A_FASEN
100
AcDbLine
 62
7
  6
CONTINUOUS
 10
107.0712972094
 20
230.2765738588
 11
106.5921545452
 21
230.009563229
  0
LINE
  5
26D
100
AcDbEntity
  8
A_ACHSEN
100
AcDbLine
 62
7
  6
CENTER
 10
37.1734702435
 20
88.4237767914
 11
54.0392659717
 21
88.4237767914
  0
LINE
  5
26E
100
AcDbEntity
  8
A_RUNDUNGEN
100
AcDbLine
 62
7
  6
CONTINUOUS
 10
51.2063681076
 20
93.4237767914
 11
46.6063681076
 21
93.4237767914
  0
LINE
  5
26F
100
AcDbEntity
  8
A_RUNDUNGEN
100
AcDbLine
 62
7
  6
CONTINUOUS
 10
108.4063681076
 20
94.6237767914
 11
93.1063681076
 21
94.6237767914
  0
LINE
  5
270
100
AcDbEntity
  8
0
100
AcDbLine
 62
7
  6
CONTINUOUS
 10
104.1063681076
 20
95.7237767914
 11
101.1063681076
 21
95.7237767914
  0
LINE
  5
271
100
AcDbEntity
  8
A_RUNDUNGEN
100
AcDbLine
 62
7
  6
CONTINUOUS
 10
38.7549607903
 20
96.4237767914
 11
38.6063681076
 21
96.4237767914
  0
LINE
  5
272
100
AcDbEntity
  8
0
100
AcDbLine
 62
7
  6
CONTINUOUS
 10
37.3063681076
 20
96.4237767914
 11
38.6063681076
 21
96.4237767914
  0
LINE
  5
273
100
AcDbEntity
  8
A_FASEN
100
AcDbLine
 62
7
  6
CONTINUOUS
 10
109.42058167
 20
64.009563229
 11
108.9414390058
 21
64.2765738588
  0
LINE
  5
274
100
AcDbEntity
  8
A_FASEN
100
AcDbLine
 62
7
  6
CONTINUOUS
 10
106.5921545452
 20
66.8379903537
 11
107.0712972094
 21
66.5709797239
  0
LINE
  5
275
100
AcDbEntity
  8
0
100
AcDbLine
 62
7
  6
CONTINUOUS
 10
36.7006167485
 20
208.3737767914
 11
36.7006167485
 21
88.4737767914
  0
LINE
  5
276
100
AcDbEntity
  8
A_RUNDUNGEN
100
AcDbLine
 62
7
  6
CONTINUOUS
 10
66.1063300307
 20
97.3237767914
 11
77.1063681076
 21
97.3237767914
  0
LINE
  5
277
100
AcDbEntity
  8
0
100
AcDbLine
 62
7
  6
CONTINUOUS
 10
54.4241800608
 20
97.4237767914
 11
59.461890272
 21
97.4237767914
  0
LINE
  5
278
100
AcDbEntity
  8
0
100
AcDbLine
 62
7
  6
CONTINUOUS
 10
59.4702051311
 20
97.4237767914
 11
65.1063681076
 21
97.4237767914
  0
LINE
  5
279
100
AcDbEntity
  8
0
100
AcDbLine
 62
7
  6
CONTINUOUS
 10
76.0642345858
 20
97.4237767914
 11
91.5373307031
 21
97.4237767914
  0
LINE
  5
27A
100
AcDbEntity
  8
A_RUNDUNGEN
100
AcDbLine
 62
7
  6
CONTINUOUS
 10
53.1064823877
 20
97.4808604116
 11
55.1062538275
 21
97.4808604116
  0
LINE
  5
27B
100
AcDbEntity
  8
A_RUNDUNGEN
100
AcDbLine
 62
7
  6
CONTINUOUS
 10
52.7134650518
 20
97.6118395838
 11
55.4992711634
 21
97.6118395838
  0
LINE
  5
27C
100
AcDbEntity
  8
A_RUNDUNGEN
100
AcDbLine
 62
7
  6
CONTINUOUS
 10
65.8182672383
 20
97.6118395838
 11
66.1063681076
 21
97.6118395838
  0
LINE
  5
27D
100
AcDbEntity
  8
A_RUNDUNGEN
100
AcDbLine
 62
7
  6
CONTINUOUS
 10
64.6063681076
 20
97.6737767914
 11
52.7063681076
 21
97.6737767914
  0
LINE
  5
27E
100
AcDbEntity
  8
0
100
AcDbLine
 62
7
  6
CONTINUOUS
 10
66.1063681076
 20
98.3237767914
 11
76.0632462754
 21
98.3237767914
  0
LINE
  5
27F
100
AcDbEntity
  8
0
100
AcDbLine
 62
7
  6
CONTINUOUS
 10
66.6063681076
 20
98.5237767914
 11
106.1063681076
 21
98.5237767914
  0
LINE
  5
280
100
AcDbEntity
  8
A_ACHSEN
100
AcDbLine
 62
7
  6
CENTER
 10
56.1102480005
 20
104.4237767914
 11
49.690861835
 21
104.4237767914
  0
LINE
  5
281
100
AcDbEntity
  8
A_ACHSEN
100
AcDbLine
 62
7
  6
CONTINUOUS
 10
56.1102480005
 20
104.4237767914
 11
57.1305456613
 21
104.4237767914
  0
LINE
  5
282
100
AcDbEntity
  8
A_ACHSEN
100
AcDbLine
 62
7
  6
CENTER
 10
57.1305456613
 20
104.4237767914
 11
63.5218743802
 21
104.4237767914
  0
LINE
  5
283
100
AcDbEntity
  8
0
100
AcDbLine
 62
7
  6
CONTINUOUS
 10
37.3063681076
 20
200.4237767914
 11
37.3063681076
 21
96.4237767914
  0
LINE
  5
284
100
AcDbEntity
  8
0
100
AcDbLine
 62
7
  6
CONTINUOUS
 10
38.6063681076
 20
88.4737767914
 11
38.6063681076
 21
96.4237767914
  0
LINE
  5
285
100
AcDbEntity
  8
0
100
AcDbLine
 62
7
  6
CONTINUOUS
 10
38.6063681076
 20
200.4237767914
 11
38.6063681076
 21
208.3737767914
  0
LINE
  5
286
100
AcDbEntity
  8
A_ACHSEN
100
AcDbLine
 62
7
  6
CENTER
 10
45.6063681076
 20
79.9908789273
 11
45.6063681076
 21
96.8566746554
  0
LINE
  5
287
100
AcDbEntity
  8
A_ACHSEN
100
AcDbLine
 62
7
  6
CENTER
 10
45.6063681076
 20
200.5450735083
 11
45.6063681076
 21
216.3024800744
  0
LINE
  5
288
100
AcDbEntity
  8
A_FASEN
100
AcDbLine
 62
7
  6
CONTINUOUS
 10
106.5921545452
 20
230.009563229
 11
107.3497757271
 21
230.767754788
  0
LINE
  5
289
100
AcDbEntity
  8
A_FASEN
100
AcDbLine
 62
7
  6
CONTINUOUS
 10
109.42058167
 20
232.8379903537
 11
108.6629604881
 21
232.0797987947
  0
LINE
  5
28A
100
AcDbEntity
  8
0
100
AcDbLine
 62
7
  6
CONTINUOUS
 10
108.6063681076
 20
233.9237767914
 11
108.2178168299
 21
233.5352255136
  0
LINE
  5
28B
100
AcDbEntity
  8
0
100
AcDbLine
 62
7
  6
CONTINUOUS
 10
105.5063681076
 20
230.8237767914
 11
105.8949193854
 21
231.2123280691
  0
LINE
  5
28C
100
AcDbEntity
  8
A_FASEN
100
AcDbLine
 62
7
  6
CONTINUOUS
 10
107.1775108027
 20
230.8070515208
 11
106.8591651751
 21
230.4887058932
  0
LINE
  5
28D
100
AcDbEntity
  8
A_FASEN
100
AcDbLine
 62
7
  6
CONTINUOUS
 10
108.6230933782
 20
232.2526340963
 11
108.9414390058
 21
232.5709797239
  0
LINE
  5
28E
100
AcDbEntity
  8
A_FASEN
100
AcDbLine
 62
7
  6
CONTINUOUS
 10
107.0712972094
 20
230.2765738588
 11
107.389642837
 21
230.5949194864
  0
LINE
  5
28F
100
AcDbEntity
  8
A_FASEN
100
AcDbLine
 62
7
  6
CONTINUOUS
 10
108.8352254126
 20
232.040502062
 11
109.1535710402
 21
232.3588476896
  0
LINE
  5
290
100
AcDbEntity
  8
0
100
AcDbLine
 62
7
  6
CONTINUOUS
 10
110.5063681076
 20
232.0237767914
 11
110.1178168299
 21
231.6352255136
  0
LINE
  5
291
100
AcDbEntity
  8
0
100
AcDbLine
 62
7
  6
CONTINUOUS
 10
107.4063681076
 20
228.9237767914
 11
107.7949193854
 21
229.3123280691
  0
LINE
  5
292
100
AcDbEntity
  8
A_FASEN
100
AcDbLine
 62
7
  6
CONTINUOUS
 10
109.42058167
 20
64.009563229
 11
108.6623901125
 21
64.7671844106
  0
LINE
  5
293
100
AcDbEntity
  8
A_FASEN
100
AcDbLine
 62
7
  6
CONTINUOUS
 10
106.5921545452
 20
66.8379903537
 11
107.3503461043
 21
66.0803691719
  0
LINE
  5
294
100
AcDbEntity
  8
0
100
AcDbLine
 62
7
  6
CONTINUOUS
 10
108.6063681076
 20
62.9237767914
 11
108.2178168299
 21
63.3123280691
  0
LINE
  5
295
100
AcDbEntity
  8
0
100
AcDbLine
 62
7
  6
CONTINUOUS
 10
105.5063681076
 20
66.0237767914
 11
105.8949193854
 21
65.6352255136
  0
LINE
  5
296
100
AcDbEntity
  8
A_FASEN
100
AcDbLine
 62
7
  6
CONTINUOUS
 10
106.8591651751
 20
66.3588476896
 11
107.1775108027
 21
66.040502062
  0
LINE
  5
297
100
AcDbEntity
  8
A_FASEN
100
AcDbLine
 62
7
  6
CONTINUOUS
 10
108.6230933782
 20
64.5949194864
 11
108.9414390058
 21
64.2765738588
  0
LINE
  5
298
100
AcDbEntity
  8
A_FASEN
100
AcDbLine
 62
7
  6
CONTINUOUS
 10
107.389642837
 20
66.2526340963
 11
107.0712972094
 21
66.5709797239
  0
LINE
  5
299
100
AcDbEntity
  8
A_FASEN
100
AcDbLine
 62
7
  6
CONTINUOUS
 10
108.8352254126
 20
64.8070515208
 11
109.1535710402
 21
64.4887058932
  0
LINE
  5
29A
100
AcDbEntity
  8
0
100
AcDbLine
 62
7
  6
CONTINUOUS
 10
110.5063681076
 20
64.8237767914
 11
110.1178168299
 21
65.2123280691
  0
LINE
  5
29B
100
AcDbEntity
  8
0
100
AcDbLine
 62
7
  6
CONTINUOUS
 10
107.4063681076
 20
67.9237767914
 11
107.7949193854
 21
67.5352255136
  0
LINE
  5
29C
100
AcDbEntity
  8
A_RUNDUNGEN
100
AcDbLine
 62
7
  6
CONTINUOUS
 10
46.1063681076
 20
93.9237767914
 11
46.1063681076
 21
202.9237767914
  0
LINE
  5
29D
100
AcDbEntity
  8
A_RUNDUNGEN
100
AcDbLine
 62
7
  6
CONTINUOUS
 10
51.7063681076
 20
202.9237767914
 11
51.7063681076
 21
200.1737767914
  0
LINE
  5
29E
100
AcDbEntity
  8
A_RUNDUNGEN
100
AcDbLine
 62
7
  6
CONTINUOUS
 10
51.7063681076
 20
96.6737767914
 11
51.7063681076
 21
93.9237767914
  0
LINE
  5
29F
100
AcDbEntity
  8
A_RUNDUNGEN
100
AcDbLine
 62
7
  6
CONTINUOUS
 10
52.1063681076
 20
215.3741194664
 11
52.1063681076
 21
200.3665028068
  0
LINE
  5
2A0
100
AcDbEntity
  8
A_RUNDUNGEN
100
AcDbLine
 62
7
  6
CONTINUOUS
 10
52.1063681076
 20
96.481050776
 11
52.1063681076
 21
81.4734341163
  0
LINE
  5
2A1
100
AcDbEntity
  8
0
100
AcDbLine
 62
7
  6
CONTINUOUS
 10
54.4227702277
 20
78.4237767914
 11
54.4227702277
 21
97.4237767914
  0
LINE
  5
2A2
100
AcDbEntity
  8
0
100
AcDbLine
 62
7
  6
CONTINUOUS
 10
54.4227702277
 20
199.4237767914
 11
54.4227702277
 21
218.4237767914
  0
LINE
  5
2A3
100
AcDbEntity
  8
A_ACHSEN
100
AcDbLine
 62
7
  6
CENTER
 10
56.6063681076
 20
104.0324638785
 11
56.6063681076
 21
97.5082705187
  0
LINE
  5
2A4
100
AcDbEntity
  8
A_ACHSEN
100
AcDbLine
 62
7
  6
CONTINUOUS
 10
56.6063681076
 20
104.0324638785
 11
56.6063681076
 21
105.0952739418
  0
LINE
  5
2A5
100
AcDbEntity
  8
A_ACHSEN
100
AcDbLine
 62
7
  6
CENTER
 10
56.6063681076
 20
105.0952739418
 11
56.6063681076
 21
111.339283064
  0
LINE
  5
2A6
100
AcDbEntity
  8
A_ACHSEN
100
AcDbLine
 62
7
  6
CENTER
 10
56.6063681076
 20
185.4973638053
 11
56.6063681076
 21
198.8489152262
  0
LINE
  5
2A7
100
AcDbEntity
  8
0
100
AcDbLine
 62
7
  6
CONTINUOUS
 10
59.4618945154
 20
78.4237767914
 11
59.4618945154
 21
97.4237767914
  0
LINE
  5
2A8
100
AcDbEntity
  8
0
100
AcDbLine
 62
7
  6
CONTINUOUS
 10
59.4618945154
 20
199.4237767914
 11
59.4618945154
 21
218.4237767914
  0
LINE
  5
2A9
100
AcDbEntity
  8
0
100
AcDbLine
 62
7
  6
CONTINUOUS
 10
60.6169990767
 20
78.4237767914
 11
60.6169990767
 21
97.4237767914
  0
LINE
  5
2AA
100
AcDbEntity
  8
0
100
AcDbLine
 62
7
  6
CONTINUOUS
 10
60.6169990767
 20
199.4237767914
 11
60.6169990767
 21
218.4237767914
  0
LINE
  5
2AB
100
AcDbEntity
  8
A_RUNDUNGEN
100
AcDbLine
 62
7
  6
CONTINUOUS
 10
65.1063681076
 20
218.3737767914
 11
65.1063681076
 21
200.5237387144
  0
LINE
  5
2AC
100
AcDbEntity
  8
A_RUNDUNGEN
100
AcDbLine
 62
7
  6
CONTINUOUS
 10
65.1063681076
 20
198.6737767914
 11
65.1063681076
 21
98.1737767914
  0
LINE
  5
2AD
100
AcDbEntity
  8
A_RUNDUNGEN
100
AcDbLine
 62
7
  6
CONTINUOUS
 10
65.1063681076
 20
96.3238148683
 11
65.1063681076
 21
78.4737767914
  0
LINE
  5
2AE
100
AcDbEntity
  8
0
100
AcDbLine
 62
7
  6
CONTINUOUS
 10
65.1063681076
 20
78.4237767914
 11
65.1063681076
 21
78.4737767914
  0
LINE
  5
2AF
100
AcDbEntity
  8
0
100
AcDbLine
 62
7
  6
CONTINUOUS
 10
65.1063681076
 20
218.3737767914
 11
65.1063681076
 21
218.4237767914
  0
LINE
  5
2B0
100
AcDbEntity
  8
0
100
AcDbLine
 62
7
  6
CONTINUOUS
 10
66.1063681076
 20
199.5237767914
 11
66.1063681076
 21
198.5237767914
  0
LINE
  5
2B1
100
AcDbEntity
  8
0
100
AcDbLine
 62
7
  6
CONTINUOUS
 10
66.1063681076
 20
98.3237767914
 11
66.1063681076
 21
97.3237767914
  0
LINE
  5
2B2
100
AcDbEntity
  8
0
100
AcDbLine
 62
7
  6
CONTINUOUS
 10
66.6063681076
 20
98.5237767914
 11
66.6063681076
 21
198.3237767914
  0
LINE
  5
2B3
100
AcDbEntity
  8
A_ACHSEN
100
AcDbLine
 62
7
  6
CONTINUOUS
 10
68.6563681076
 20
198.5237767914
 11
68.6563681076
 21
198.3237767914
  0
LINE
  5
2B4
100
AcDbEntity
  8
A_ACHSEN
100
AcDbLine
 62
7
  6
CONTINUOUS
 10
68.6563681076
 20
98.3237767914
 11
68.6563681076
 21
98.5237767914
  0
LINE
  5
2B5
100
AcDbEntity
  8
A_ACHSEN
100
AcDbLine
 62
7
  6
CENTER
 10
71.6063681076
 20
74.2336931997
 11
71.6063681076
 21
221.4524007048
  0
LINE
  5
2B6
100
AcDbEntity
  8
A_FASEN
100
AcDbLine
 62
7
  6
CONTINUOUS
 10
106.5921545452
 20
230.009563229
 11
106.8591651751
 21
230.4887058932
  0
LINE
  5
2B7
100
AcDbEntity
  8
A_FASEN
100
AcDbLine
 62
7
  6
CONTINUOUS
 10
109.42058167
 20
232.8379903537
 11
109.1535710402
 21
232.3588476896
  0
LINE
  5
2B8
100
AcDbEntity
  8
A_FASEN
100
AcDbLine
 62
7
  6
CONTINUOUS
 10
106.8591651751
 20
66.3588476896
 11
106.5921545452
 21
66.8379903537
  0
LINE
  5
2B9
100
AcDbEntity
  8
A_FASEN
100
AcDbLine
 62
7
  6
CONTINUOUS
 10
109.1535710402
 20
64.4887058932
 11
109.42058167
 21
64.009563229
  0
LINE
  5
2BA
100
AcDbEntity
  8
A_ACHSEN
100
AcDbLine
 62
7
  6
CONTINUOUS
 10
74.5563681076
 20
198.5237767914
 11
74.5563681076
 21
198.3237767914
  0
LINE
  5
2BB
100
AcDbEntity
  8
A_ACHSEN
100
AcDbLine
 62
7
  6
CONTINUOUS
 10
74.5563681076
 20
98.3237767914
 11
74.5563681076
 21
98.5237767914
  0
LINE
  5
2BC
100
AcDbEntity
  8
0
100
AcDbLine
 62
7
  6
CONTINUOUS
 10
76.0632462754
 20
97.4237767914
 11
76.0632462754
 21
98.5237767914
  0
LINE
  5
2BD
100
AcDbEntity
  8
0
100
AcDbLine
 62
7
  6
CONTINUOUS
 10
76.0632462754
 20
198.3237767914
 11
76.0632462754
 21
199.4237767914
  0
LINE
  5
2BE
100
AcDbEntity
  8
0
100
AcDbLine
 62
7
  6
CONTINUOUS
 10
77.1063681076
 20
88.4737767914
 11
77.1063681076
 21
97.4237767914
  0
LINE
  5
2BF
100
AcDbEntity
  8
0
100
AcDbLine
 62
7
  6
CONTINUOUS
 10
77.1063681076
 20
199.4237767914
 11
77.1063681076
 21
208.3737767914
  0
LINE
  5
2C0
100
AcDbEntity
  8
0
100
AcDbLine
 62
7
  6
CONTINUOUS
 10
80.3470501673
 20
97.4237767914
 11
80.3470501673
 21
98.5237767914
  0
LINE
  5
2C1
100
AcDbEntity
  8
0
100
AcDbLine
 62
7
  6
CONTINUOUS
 10
80.3470501673
 20
198.3237767914
 11
80.3470501673
 21
199.4237767914
  0
LINE
  5
2C2
100
AcDbEntity
  8
0
100
AcDbLine
 62
7
  6
CONTINUOUS
 10
91.5373310258
 20
97.4237767914
 11
91.5373310258
 21
98.5237767914
  0
LINE
  5
2C3
100
AcDbEntity
  8
0
100
AcDbLine
 62
7
  6
CONTINUOUS
 10
91.5373310258
 20
198.3237767914
 11
91.5373310258
 21
199.4237767914
  0
LINE
  5
2C4
100
AcDbEntity
  8
0
100
AcDbLine
 62
7
  6
CONTINUOUS
 10
93.0563681076
 20
258.4237767914
 11
93.0563681076
 21
248.4237767914
  0
LINE
  5
2C5
100
AcDbEntity
  8
0
100
AcDbLine
 62
7
  6
CONTINUOUS
 10
93.0563681076
 20
48.4237767914
 11
93.0563681076
 21
38.4237767914
  0
LINE
  5
2C6
100
AcDbEntity
  8
0
100
AcDbLine
 62
7
  6
CONTINUOUS
 10
93.1063681076
 20
258.4237767914
 11
93.1063681076
 21
202.2237767914
  0
LINE
  5
2C7
100
AcDbEntity
  8
0
100
AcDbLine
 62
7
  6
CONTINUOUS
 10
93.1063681076
 20
94.6237767914
 11
93.1063681076
 21
38.4237767914
  0
LINE
  5
2C8
100
AcDbEntity
  8
A_RUNDUNGEN
100
AcDbLine
 62
7
  6
CONTINUOUS
 10
93.1063681076
 20
94.6237767914
 11
93.1063681076
 21
98.5237767914
  0
LINE
  5
2C9
100
AcDbEntity
  8
A_RUNDUNGEN
100
AcDbLine
 62
7
  6
CONTINUOUS
 10
93.1063681076
 20
198.3237767914
 11
93.1063681076
 21
202.2237767914
  0
LINE
  5
2CA
100
AcDbEntity
  8
0
100
AcDbLine
 62
7
  6
CONTINUOUS
 10
94.5063681076
 20
202.2237767914
 11
94.5063681076
 21
198.3237767914
  0
LINE
  5
2CB
100
AcDbEntity
  8
0
100
AcDbLine
 62
7
  6
CONTINUOUS
 10
94.5063681076
 20
98.5237767914
 11
94.5063681076
 21
94.6237767914
  0
LINE
  5
2CC
100
AcDbEntity
  8
A_RUNDUNGEN
100
AcDbLine
 62
7
  6
CONTINUOUS
 10
94.7849099177
 20
202.2237767914
 11
94.7849099177
 21
198.3237767914
  0
LINE
  5
2CD
100
AcDbEntity
  8
A_RUNDUNGEN
100
AcDbLine
 62
7
  6
CONTINUOUS
 10
94.7849099177
 20
98.5237767914
 11
94.7849099177
 21
94.6237767914
  0
LINE
  5
2CE
100
AcDbEntity
  8
A_RUNDUNGEN
100
AcDbLine
 62
7
  6
CONTINUOUS
 10
96.1063681076
 20
94.6237767914
 11
96.1063681076
 21
98.5237767914
  0
LINE
  5
2CF
100
AcDbEntity
  8
A_RUNDUNGEN
100
AcDbLine
 62
7
  6
CONTINUOUS
 10
96.1063681076
 20
198.3237767914
 11
96.1063681076
 21
202.2237767914
  0
LINE
  5
2D0
100
AcDbEntity
  8
A_RUNDUNGEN
100
AcDbLine
 62
7
  6
CONTINUOUS
 10
122.9563681076
 20
248.4237767914
 11
122.9063681076
 21
248.2570947227
  0
LINE
  5
2D1
100
AcDbEntity
  8
A_RUNDUNGEN
100
AcDbLine
 62
7
  6
CONTINUOUS
 10
122.9563681076
 20
48.4237767914
 11
122.9063681076
 21
48.59045886
  0
LINE
  5
2D2
100
AcDbEntity
  8
A_ACHSEN
100
AcDbLine
 62
7
  6
CENTER
 10
101.0063681076
 20
24.8274662074
 11
101.0063681076
 21
40.0200873753
  0
LINE
  5
2D3
100
AcDbEntity
  8
A_ACHSEN
100
AcDbLine
 62
7
  6
CENTER
 10
101.0063681076
 20
255.9227695563
 11
101.0063681076
 21
272.9247840264
  0
LINE
  5
2D4
100
AcDbEntity
  8
0
100
AcDbLine
 62
7
  6
CONTINUOUS
 10
105.5063681076
 20
232.0237767914
 11
105.5063681076
 21
230.8237767914
  0
LINE
  5
2D5
100
AcDbEntity
  8
0
100
AcDbLine
 62
7
  6
CONTINUOUS
 10
105.5063681076
 20
66.0237767914
 11
105.5063681076
 21
64.8237767914
  0
LINE
  5
2D6
100
AcDbEntity
  8
0
100
AcDbLine
 62
7
  6
CONTINUOUS
 10
106.1063681076
 20
98.5237767914
 11
106.1063681076
 21
198.3237767914
  0
LINE
  5
2D7
100
AcDbEntity
  8
0
100
AcDbLine
 62
7
  6
CONTINUOUS
 10
107.4063681076
 20
233.9237767914
 11
107.4063681076
 21
232.5237767914
  0
LINE
  5
2D8
100
AcDbEntity
  8
0
100
AcDbLine
 62
7
  6
CONTINUOUS
 10
107.4063681076
 20
230.3237767914
 11
107.4063681076
 21
228.9237767914
  0
LINE
  5
2D9
100
AcDbEntity
  8
0
100
AcDbLine
 62
7
  6
CONTINUOUS
 10
107.4063681076
 20
67.9237767914
 11
107.4063681076
 21
66.5237767914
  0
LINE
  5
2DA
100
AcDbEntity
  8
0
100
AcDbLine
 62
7
  6
CONTINUOUS
 10
107.4063681076
 20
64.3237767914
 11
107.4063681076
 21
62.9237767914
  0
LINE
  5
2DB
100
AcDbEntity
  8
0
100
AcDbLine
 62
7
  6
CONTINUOUS
 10
107.8527368871
 20
233.2900758829
 11
107.8527368871
 21
232.5237767914
  0
LINE
  5
2DC
100
AcDbEntity
  8
0
100
AcDbLine
 62
7
  6
CONTINUOUS
 10
107.8527368871
 20
230.3237767914
 11
107.8527368871
 21
229.5574776999
  0
LINE
  5
2DD
100
AcDbEntity
  8
0
100
AcDbLine
 62
7
  6
CONTINUOUS
 10
107.8527368871
 20
67.2900758829
 11
107.8527368871
 21
66.5237767914
  0
LINE
  5
2DE
100
AcDbEntity
  8
0
100
AcDbLine
 62
7
  6
CONTINUOUS
 10
107.8527368871
 20
64.3237767914
 11
107.8527368871
 21
63.5574776999
  0
LINE
  5
2DF
100
AcDbEntity
  8
DEFAULT_1
100
AcDbLine
 62
7
  6
CENTER
 10
108.0063681076
 20
58.7979210264
 11
108.0063681076
 21
72.0496325563
  0
LINE
  5
2E0
100
AcDbEntity
  8
A_ACHSEN
100
AcDbLine
 62
7
  6
CENTER
 10
108.0063681076
 20
224.7231652937
 11
108.0063681076
 21
238.124388289
  0
LINE
  5
2E1
100
AcDbEntity
  8
0
100
AcDbLine
 62
7
  6
CONTINUOUS
 10
108.1599993281
 20
63.5574776999
 11
108.1599993281
 21
64.3237767914
  0
LINE
  5
2E2
100
AcDbEntity
  8
0
100
AcDbLine
 62
7
  6
CONTINUOUS
 10
108.1599993281
 20
66.5237767914
 11
108.1599993281
 21
67.2900758829
  0
LINE
  5
2E3
100
AcDbEntity
  8
0
100
AcDbLine
 62
7
  6
CONTINUOUS
 10
108.1599993281
 20
229.5574776999
 11
108.1599993281
 21
230.3237767914
  0
LINE
  5
2E4
100
AcDbEntity
  8
0
100
AcDbLine
 62
7
  6
CONTINUOUS
 10
108.1599993281
 20
232.5237767914
 11
108.1599993281
 21
233.2900758829
  0
LINE
  5
2E5
100
AcDbEntity
  8
0
100
AcDbLine
 62
7
  6
CONTINUOUS
 10
108.6063681076
 20
62.9237767914
 11
108.6063681076
 21
64.3237767914
  0
LINE
  5
2E6
100
AcDbEntity
  8
0
100
AcDbLine
 62
7
  6
CONTINUOUS
 10
108.6063681076
 20
66.5237767914
 11
108.6063681076
 21
67.9237767914
  0
LINE
  5
2E7
100
AcDbEntity
  8
0
100
AcDbLine
 62
7
  6
CONTINUOUS
 10
108.6063681076
 20
228.9237767914
 11
108.6063681076
 21
230.3237767914
  0
LINE
  5
2E8
100
AcDbEntity
  8
0
100
AcDbLine
 62
7
  6
CONTINUOUS
 10
108.6063681076
 20
232.5237767914
 11
108.6063681076
 21
233.9237767914
  0
LINE
  5
2E9
100
AcDbEntity
  8
A_RUNDUNGEN
100
AcDbLine
 62
7
  6
CONTINUOUS
 10
108.9063681076
 20
201.7237767914
 11
108.9063681076
 21
95.1237767914
  0
LINE
  5
2EA
100
AcDbEntity
  8
0
100
AcDbLine
 62
7
  6
CONTINUOUS
 10
110.5063681076
 20
64.8237767914
 11
110.5063681076
 21
66.0237767914
  0
LINE
  5
2EB
100
AcDbEntity
  8
0
100
AcDbLine
 62
7
  6
CONTINUOUS
 10
110.5063681076
 20
230.8237767914
 11
110.5063681076
 21
232.0237767914
  0
LINE
  5
2EC
100
AcDbEntity
  8
A_ACHSEN
100
AcDbLine
 62
7
  6
CENTER
 10
115.0063681076
 20
24.2379943801
 11
115.0063681076
 21
40.6095592026
  0
LINE
  5
2ED
100
AcDbEntity
  8
A_ACHSEN
100
AcDbLine
 62
7
  6
CENTER
 10
115.0063681076
 20
256.8127212034
 11
115.0063681076
 21
272.0348323794
  0
LINE
  5
2EE
100
AcDbEntity
  8
0
100
AcDbLine
 62
7
  6
CONTINUOUS
 10
122.9063681076
 20
38.4237767914
 11
122.9063681076
 21
258.4237767914
  0
LINE
  5
2EF
100
AcDbEntity
  8
0
100
AcDbLine
 62
7
  6
CONTINUOUS
 10
122.9563681076
 20
38.4237767914
 11
122.9563681076
 21
48.4237767914
  0
LINE
  5
2F0
100
AcDbEntity
  8
0
100
AcDbLine
 62
7
  6
CONTINUOUS
 10
122.9563681076
 20
248.4237767914
 11
122.9563681076
 21
258.4237767914
  0
LINE
  5
2F1
100
AcDbEntity
  8
A_RUNDUNGEN
100
AcDbLine
 62
7
  6
CONTINUOUS
 10
93.0563681076
 20
48.4237767914
 11
93.1063681076
 21
48.59045886
  0
LINE
  5
2F2
100
AcDbEntity
  8
A_ACHSEN
100
AcDbLine
 62
7
  6
CENTER
 10
49.626816002
 20
192.4237767914
 11
62.9783674228
 21
192.4237767914
  0
LINE
  5
2F3
100
AcDbEntity
  8
A_RUNDUNGEN
100
AcDbLine
 62
7
  6
CONTINUOUS
 10
93.0563681076
 20
248.4237767914
 11
93.1063681076
 21
248.2570947227
  0
LINE
  5
2F4
100
AcDbEntity
  8
0
100
AcDbLine
 62
7
  6
CONTINUOUS
 10
66.6063681076
 20
198.3237767914
 11
106.1063681076
 21
198.3237767914
  0
LINE
  5
2F5
100
AcDbEntity
  8
0
100
AcDbLine
 62
7
  6
CONTINUOUS
 10
76.0632462754
 20
198.5237767914
 11
66.1063681076
 21
198.5237767914
  0
LINE
  5
2F6
100
AcDbEntity
  8
A_RUNDUNGEN
100
AcDbLine
 62
7
  6
CONTINUOUS
 10
52.7063681076
 20
199.1737767914
 11
64.6063681076
 21
199.1737767914
  0
LINE
  5
2F7
100
AcDbEntity
  8
A_RUNDUNGEN
100
AcDbLine
 62
7
  6
CONTINUOUS
 10
66.1063681076
 20
199.2357139989
 11
65.8182672383
 21
199.2357139989
  0
LINE
  5
2F8
100
AcDbEntity
  8
A_RUNDUNGEN
100
AcDbLine
 62
7
  6
CONTINUOUS
 10
55.4992711634
 20
199.2357139989
 11
52.7134650518
 21
199.2357139989
  0
LINE
  5
2F9
100
AcDbEntity
  8
A_RUNDUNGEN
100
AcDbLine
 62
7
  6
CONTINUOUS
 10
53.1064823877
 20
199.3666931711
 11
55.1062538275
 21
199.3666931711
  0
LINE
  5
2FA
100
AcDbEntity
  8
0
100
AcDbLine
 62
7
  6
CONTINUOUS
 10
54.4241800608
 20
199.4237767914
 11
59.461890272
 21
199.4237767914
  0
LINE
  5
2FB
100
AcDbEntity
  8
0
100
AcDbLine
 62
7
  6
CONTINUOUS
 10
59.4702051311
 20
199.4237767914
 11
65.1063681076
 21
199.4237767914
  0
LINE
  5
2FC
100
AcDbEntity
  8
0
100
AcDbLine
 62
7
  6
CONTINUOUS
 10
76.0642345858
 20
199.4237767914
 11
91.5373307031
 21
199.4237767914
  0
LINE
  5
2FD
100
AcDbEntity
  8
A_RUNDUNGEN
100
AcDbLine
 62
7
  6
CONTINUOUS
 10
66.1063300307
 20
199.5237767914
 11
77.1063681076
 21
199.5237767914
  0
LINE
  5
2FE
100
AcDbEntity
  8
0
100
AcDbLine
 62
7
  6
CONTINUOUS
 10
37.3063681076
 20
200.4237767914
 11
38.6063681076
 21
200.4237767914
  0
LINE
  5
2FF
100
AcDbEntity
  8
A_RUNDUNGEN
100
AcDbLine
 62
7
  6
CONTINUOUS
 10
38.6063681076
 20
200.4237767914
 11
38.7549607903
 21
200.4237767914
  0
LINE
  5
300
100
AcDbEntity
  8
0
100
AcDbLine
 62
7
  6
CONTINUOUS
 10
101.1063681076
 20
201.1237767914
 11
104.1063681076
 21
201.1237767914
  0
LINE
  5
301
100
AcDbEntity
  8
A_RUNDUNGEN
100
AcDbLine
 62
7
  6
CONTINUOUS
 10
93.1063681076
 20
202.2237767914
 11
108.4063681076
 21
202.2237767914
  0
LINE
  5
302
100
AcDbEntity
  8
A_RUNDUNGEN
100
AcDbLine
 62
7
  6
CONTINUOUS
 10
46.6063681076
 20
203.4237767914
 11
51.2063681076
 21
203.4237767914
  0
LINE
  5
303
100
AcDbEntity
  8
A_ACHSEN
100
AcDbLine
 62
7
  6
CENTER
 10
37.7276648245
 20
208.4237767914
 11
53.4850713907
 21
208.4237767914
  0
LINE
  5
304
100
AcDbEntity
  8
A_FASEN
100
AcDbLine
 62
7
  6
CONTINUOUS
 10
106.5921545452
 20
64.009563229
 11
106.8591651751
 21
64.4887058932
  0
LINE
  5
305
100
AcDbEntity
  8
A_FASEN
100
AcDbLine
 62
7
  6
CONTINUOUS
 10
109.42058167
 20
66.8379903537
 11
109.1535710402
 21
66.3588476896
  0
LINE
  5
306
100
AcDbEntity
  8
A_RUNDUNGEN
100
AcDbLine
 62
7
  6
CONTINUOUS
 10
46.6063681076
 20
216.3737767914
 11
51.1067107826
 21
216.3737767914
  0
LINE
  5
307
100
AcDbEntity
  8
0
100
AcDbLine
 62
7
  6
CONTINUOUS
 10
46.6063681076
 20
218.2795281505
 11
54.4227702277
 21
218.2795281505
  0
LINE
  5
308
100
AcDbEntity
  8
0
100
AcDbLine
 62
7
  6
CONTINUOUS
 10
67.1063681076
 20
218.3737767914
 11
65.1063681076
 21
218.3737767914
  0
LINE
  5
309
100
AcDbEntity
  8
0
100
AcDbLine
 62
7
  6
CONTINUOUS
 10
54.4241800608
 20
218.4237767914
 11
59.461890272
 21
218.4237767914
  0
LINE
  5
30A
100
AcDbEntity
  8
0
100
AcDbLine
 62
7
  6
CONTINUOUS
 10
59.4702051311
 20
218.4237767914
 11
65.1063681076
 21
218.4237767914
  0
LINE
  5
30B
100
AcDbEntity
  8
A_FASEN
100
AcDbLine
 62
7
  6
CONTINUOUS
 10
106.8591651751
 20
232.3588476896
 11
106.5921545452
 21
232.8379903537
  0
LINE
  5
30C
100
AcDbEntity
  8
A_FASEN
100
AcDbLine
 62
7
  6
CONTINUOUS
 10
109.1535710402
 20
230.4887058932
 11
109.42058167
 21
230.009563229
  0
LINE
  5
30D
100
AcDbEntity
  8
A_FASEN
100
AcDbLine
 62
7
  6
CONTINUOUS
 10
106.5921545452
 20
64.009563229
 11
107.3497757271
 21
64.767754788
  0
LINE
  5
30E
100
AcDbEntity
  8
A_FASEN
100
AcDbLine
 62
7
  6
CONTINUOUS
 10
109.42058167
 20
66.8379903537
 11
108.6629604881
 21
66.0797987947
  0
LINE
  5
30F
100
AcDbEntity
  8
0
100
AcDbLine
 62
7
  6
CONTINUOUS
 10
108.6063681076
 20
67.9237767914
 11
108.2178168299
 21
67.5352255136
  0
LINE
  5
310
100
AcDbEntity
  8
0
100
AcDbLine
 62
7
  6
CONTINUOUS
 10
105.5063681076
 20
64.8237767914
 11
105.8949193854
 21
65.2123280691
  0
LINE
  5
311
100
AcDbEntity
  8
A_FASEN
100
AcDbLine
 62
7
  6
CONTINUOUS
 10
107.1775108027
 20
64.8070515208
 11
106.8591651751
 21
64.4887058932
  0
LINE
  5
312
100
AcDbEntity
  8
A_FASEN
100
AcDbLine
 62
7
  6
CONTINUOUS
 10
108.6230933782
 20
66.2526340963
 11
108.9414390058
 21
66.5709797239
  0
LINE
  5
313
100
AcDbEntity
  8
A_FASEN
100
AcDbLine
 62
7
  6
CONTINUOUS
 10
107.0712972094
 20
64.2765738588
 11
107.389642837
 21
64.5949194864
  0
LINE
  5
314
100
AcDbEntity
  8
A_FASEN
100
AcDbLine
 62
7
  6
CONTINUOUS
 10
108.8352254126
 20
66.040502062
 11
109.1535710402
 21
66.3588476896
  0
LINE
  5
315
100
AcDbEntity
  8
0
100
AcDbLine
 62
7
  6
CONTINUOUS
 10
110.5063681076
 20
66.0237767914
 11
110.1178168299
 21
65.6352255136
  0
LINE
  5
316
100
AcDbEntity
  8
0
100
AcDbLine
 62
7
  6
CONTINUOUS
 10
107.4063681076
 20
62.9237767914
 11
107.7949193854
 21
63.3123280691
  0
LINE
  5
317
100
AcDbEntity
  8
A_FASEN
100
AcDbLine
 62
7
  6
CONTINUOUS
 10
109.42058167
 20
230.009563229
 11
108.6623901125
 21
230.7671844106
  0
LINE
  5
318
100
AcDbEntity
  8
A_FASEN
100
AcDbLine
 62
7
  6
CONTINUOUS
 10
106.5921545452
 20
232.8379903537
 11
107.3503461043
 21
232.0803691719
  0
LINE
  5
319
100
AcDbEntity
  8
0
100
AcDbLine
 62
7
  6
CONTINUOUS
 10
105.5063681076
 20
232.0237767914
 11
105.8949193854
 21
231.6352255136
  0
LINE
  5
31A
100
AcDbEntity
  8
0
100
AcDbLine
 62
7
  6
CONTINUOUS
 10
108.6063681076
 20
228.9237767914
 11
108.2178168299
 21
229.3123280691
  0
LINE
  5
31B
100
AcDbEntity
  8
A_FASEN
100
AcDbLine
 62
7
  6
CONTINUOUS
 10
108.6230933782
 20
230.5949194864
 11
108.9414390058
 21
230.2765738588
  0
LINE
  5
31C
100
AcDbEntity
  8
A_FASEN
100
AcDbLine
 62
7
  6
CONTINUOUS
 10
107.1375705295
 20
232.0804423351
 11
106.8591651751
 21
232.3588476896
  0
LINE
  5
31D
100
AcDbEntity
  8
A_FASEN
100
AcDbLine
 62
7
  6
CONTINUOUS
 10
109.1535710402
 20
230.4887058932
 11
108.8352254126
 21
230.8070515208
  0
LINE
  5
31E
100
AcDbEntity
  8
A_FASEN
100
AcDbLine
 62
7
  6
CONTINUOUS
 10
107.389642837
 20
232.2526340963
 11
107.0712972094
 21
232.5709797239
  0
LINE
  5
31F
100
AcDbEntity
  8
0
100
AcDbLine
 62
7
  6
CONTINUOUS
 10
107.4063681076
 20
233.9237767914
 11
107.7949193854
 21
233.5352255136
  0
LINE
  5
320
100
AcDbEntity
  8
0
100
AcDbLine
 62
7
  6
CONTINUOUS
 10
110.5063681076
 20
230.8237767914
 11
110.1178168299
 21
231.2123280691
  0
LINE
  5
321
100
AcDbEntity
  8
A_FASEN
100
AcDbLine
 62
7
  6
CONTINUOUS
 10
108.9414390058
 20
66.5709797239
 11
109.42058167
 21
66.8379903537
  0
LINE
  5
322
100
AcDbEntity
  8
A_FASEN
100
AcDbLine
 62
7
  6
CONTINUOUS
 10
107.0712972094
 20
64.2765738588
 11
106.5921545452
 21
64.009563229
  0
LINE
  5
323
100
AcDbEntity
  8
0
100
AcDbLine
 62
7
  6
CONTINUOUS
 10
107.4063681076
 20
228.9237767914
 11
108.6063681076
 21
228.9237767914
  0
LINE
  5
324
100
AcDbEntity
  8
0
100
AcDbLine
 62
7
  6
CONTINUOUS
 10
105.5063681076
 20
230.8237767914
 11
106.9063681076
 21
230.8237767914
  0
LINE
  5
325
100
AcDbEntity
  8
0
100
AcDbLine
 62
7
  6
CONTINUOUS
 10
109.1063681076
 20
230.8237767914
 11
110.5063681076
 21
230.8237767914
  0
LINE
  5
326
100
AcDbEntity
  8
0
100
AcDbLine
 62
7
  6
CONTINUOUS
 10
106.1400690161
 20
231.2701455709
 11
106.9063681076
 21
231.2701455709
  0
LINE
  5
327
100
AcDbEntity
  8
0
100
AcDbLine
 62
7
  6
CONTINUOUS
 10
109.1063681076
 20
231.2701455709
 11
109.8726671991
 21
231.2701455709
  0
LINE
  5
328
100
AcDbEntity
  8
A_ACHSEN
100
AcDbLine
 62
7
  6
CENTER
 10
101.30575661
 20
231.4237767914
 11
114.7069796052
 21
231.4237767914
  0
LINE
  5
329
100
AcDbEntity
  8
0
100
AcDbLine
 62
7
  6
CONTINUOUS
 10
109.8726671991
 20
231.5774080119
 11
109.1063681076
 21
231.5774080119
  0
LINE
  5
32A
100
AcDbEntity
  8
0
100
AcDbLine
 62
7
  6
CONTINUOUS
 10
106.9063681076
 20
231.5774080119
 11
106.1400690161
 21
231.5774080119
  0
LINE
  5
32B
100
AcDbEntity
  8
0
100
AcDbLine
 62
7
  6
CONTINUOUS
 10
110.5063681076
 20
232.0237767914
 11
109.1063681076
 21
232.0237767914
  0
LINE
  5
32C
100
AcDbEntity
  8
0
100
AcDbLine
 62
7
  6
CONTINUOUS
 10
106.9063681076
 20
232.0237767914
 11
105.5063681076
 21
232.0237767914
  0
LINE
  5
32D
100
AcDbEntity
  8
0
100
AcDbLine
 62
7
  6
CONTINUOUS
 10
108.6063681076
 20
233.9237767914
 11
107.4063681076
 21
233.9237767914
  0
LINE
  5
32E
100
AcDbEntity
  8
A_FASEN
100
AcDbLine
 62
7
  6
CONTINUOUS
 10
109.42058167
 20
230.009563229
 11
108.9414390058
 21
230.2765738588
  0
LINE
  5
32F
100
AcDbEntity
  8
A_FASEN
100
AcDbLine
 62
7
  6
CONTINUOUS
 10
106.5921545452
 20
232.8379903537
 11
107.0712972094
 21
232.5709797239
  0
LINE
  5
330
100
AcDbEntity
  8
0
100
AcDbLine
 62
7
  6
CONTINUOUS
 10
122.9563681076
 20
248.4237767914
 11
122.9063681076
 21
248.4237767914
  0
LINE
  5
331
100
AcDbEntity
  8
0
100
AcDbLine
 62
7
  6
CONTINUOUS
 10
93.0563681076
 20
248.4237767914
 11
93.1063681076
 21
248.4237767914
  0
LINE
  5
332
100
AcDbEntity
  8
A_ACHSEN
100
AcDbLine
 62
7
  6
CENTER
 10
92.5053608726
 20
264.4237767914
 11
122.6174236956
 21
264.4237767914
  0
ARC
  5
333
100
AcDbEntity
  8
0
100
AcDbCircle
 62
7
  6
CONTINUOUS
 10
67.1063681076
 20
88.4737767914
 40
10.0
100
AcDbArc
 50
270.0
 51
360.0
  0
ARC
  5
334
100
AcDbEntity
  8
0
100
AcDbCircle
 62
7
  6
CONTINUOUS
 10
46.6063681076
 20
88.4737767914
 40
9.9057513591
100
AcDbArc
 50
180.0
 51
270.0
  0
ARC
  5
335
100
AcDbEntity
  8
0
100
AcDbCircle
 62
7
  6
CONTINUOUS
 10
46.6063681076
 20
88.4737767914
 40
8.0
100
AcDbArc
 50
180.0
 51
270.0
  0
ARC
  5
336
100
AcDbEntity
  8
A_RUNDUNGEN
100
AcDbCircle
 62
7
  6
CONTINUOUS
 10
45.6063681076
 20
88.4237767914
 40
5.25
100
AcDbArc
 50
83.2799007314
 51
73.0778751706
  0
CIRCLE
  5
337
100
AcDbEntity
  8
A_ACHSEN
100
AcDbCircle
 62
7
  6
CONTINUOUS
 10
56.6063681076
 20
104.4237767914
 40
4.5
  0
CIRCLE
  5
338
100
AcDbEntity
  8
A_ACHSEN
100
AcDbCircle
 62
7
  6
CONTINUOUS
 10
45.6063681076
 20
88.4237767914
 40
3.0
  0
CIRCLE
  5
339
100
AcDbEntity
  8
A_ACHSEN
100
AcDbCircle
 62
7
  6
CONTINUOUS
 10
56.6063681076
 20
104.4237767914
 40
3.0
  0
ARC
  5
33A
100
AcDbEntity
  8
A_RUNDUNGEN
100
AcDbCircle
 62
7
  6
CONTINUOUS
 10
74.1016071621
 20
98.5340073238
 40
1.0047612236
100
AcDbArc
 50
347.7882171358
 51
359.9573671077
  0
ARC
  5
33B
100
AcDbEntity
  8
A_RUNDUNGEN
100
AcDbCircle
 62
7
  6
CONTINUOUS
 10
52.7063681076
 20
96.6737767914
 40
1.0
100
AcDbArc
 50
90.0
 51
180.0
  0
ARC
  5
33C
100
AcDbEntity
  8
A_RUNDUNGEN
100
AcDbCircle
 62
7
  6
CONTINUOUS
 10
46.6063681076
 20
93.9237767914
 40
0.5
100
AcDbArc
 50
180.0
 51
270.0
  0
ARC
  5
33D
100
AcDbEntity
  8
A_RUNDUNGEN
100
AcDbCircle
 62
7
  6
CONTINUOUS
 10
64.6063681076
 20
98.1737767914
 40
0.5
100
AcDbArc
 50
270.0
 51
360.0
  0
ARC
  5
33E
100
AcDbEntity
  8
A_RUNDUNGEN
100
AcDbCircle
 62
7
  6
CONTINUOUS
 10
51.2063681076
 20
93.9237767914
 40
0.5
100
AcDbArc
 50
270.0
 51
360.0
  0
ARC
  5
33F
100
AcDbEntity
  8
0
100
AcDbCircle
 62
7
  6
CONTINUOUS
 10
67.1063681076
 20
208.3737767914
 40
10.0
100
AcDbArc
 50
0.0
 51
90.0
  0
ARC
  5
340
100
AcDbEntity
  8
0
100
AcDbCircle
 62
7
  6
CONTINUOUS
 10
46.6063681076
 20
208.3737767914
 40
9.9057513591
100
AcDbArc
 50
90.0
 51
180.0
  0
ARC
  5
341
100
AcDbEntity
  8
0
100
AcDbCircle
 62
7
  6
CONTINUOUS
 10
46.6063681076
 20
208.3737767914
 40
8.0
100
AcDbArc
 50
90.0
 51
180.0
  0
ARC
  5
342
100
AcDbEntity
  8
A_RUNDUNGEN
100
AcDbCircle
 62
7
  6
CONTINUOUS
 10
45.6063681076
 20
208.4237767914
 40
5.25
100
AcDbArc
 50
286.9221248294
 51
276.7200992686
  0
CIRCLE
  5
343
100
AcDbEntity
  8
A_ACHSEN
100
AcDbCircle
 62
7
  6
CONTINUOUS
 10
56.6063681076
 20
192.4237767914
 40
4.5
  0
CIRCLE
  5
344
100
AcDbEntity
  8
A_ACHSEN
100
AcDbCircle
 62
7
  6
CONTINUOUS
 10
45.6063681076
 20
208.4237767914
 40
3.0
  0
CIRCLE
  5
345
100
AcDbEntity
  8
A_ACHSEN
100
AcDbCircle
 62
7
  6
CONTINUOUS
 10
56.6063681076
 20
192.4237767914
 40
3.0
  0
ARC
  5
346
100
AcDbEntity
  8
A_RUNDUNGEN
100
AcDbCircle
 62
7
  6
CONTINUOUS
 10
52.7063681076
 20
200.1737767914
 40
1.0
100
AcDbArc
 50
180.0
 51
270.0
  0
ARC
  5
347
100
AcDbEntity
  8
A_RUNDUNGEN
100
AcDbCircle
 62
7
  6
CONTINUOUS
 10
74.1130687492
 20
198.3150752621
 40
0.9932999104
100
AcDbArc
 50
0.0604023649
 51
12.2651595349
  0
ARC
  5
348
100
AcDbEntity
  8
A_RUNDUNGEN
100
AcDbCircle
 62
7
  6
CONTINUOUS
 10
46.6063681076
 20
202.9237767914
 40
0.5
100
AcDbArc
 50
90.0
 51
180.0
  0
ARC
  5
349
100
AcDbEntity
  8
A_RUNDUNGEN
100
AcDbCircle
 62
7
  6
CONTINUOUS
 10
51.2063681076
 20
202.9237767914
 40
0.5
100
AcDbArc
 50
0.0
 51
90.0
  0
ARC
  5
34A
100
AcDbEntity
  8
A_RUNDUNGEN
100
AcDbCircle
 62
7
  6
CONTINUOUS
 10
64.6063681076
 20
198.6737767914
 40
0.5
100
AcDbArc
 50
0.0
 51
90.0
  0
CIRCLE
  5
34B
100
AcDbEntity
  8
DEFAULT_2
100
AcDbCircle
 62
8
  6
HIDDEN
 10
101.0063681076
 20
32.4237767914
 40
5.1
  0
CIRCLE
  5
34C
100
AcDbEntity
  8
DEFAULT_2
100
AcDbCircle
 62
8
  6
HIDDEN
 10
101.0063681076
 20
32.4237767914
 40
5.0473640402
  0
CIRCLE
  5
34D
100
AcDbEntity
  8
A_ACHSEN
100
AcDbCircle
 62
8
  6
HIDDEN
 10
101.0063681076
 20
32.4237767914
 40
3.0
  0
ARC
  5
34E
100
AcDbEntity
  8
0
100
AcDbCircle
 62
7
  6
CONTINUOUS
 10
98.0227469333
 20
65.4233467238
 40
7.8750232848
100
AcDbArc
 50
0.0031290137
 51
1.541738367
  0
ARC
  5
34F
100
AcDbEntity
  8
0
100
AcDbCircle
 62
7
  6
CONTINUOUS
 10
98.0227469333
 20
65.4242068589
 40
7.8750232848
100
AcDbArc
 50
358.458261633
 51
359.9968709863
  0
ARC
  5
350
100
AcDbEntity
  8
0
100
AcDbCircle
 62
7
  6
CONTINUOUS
 10
104.1063681076
 20
91.4237767914
 40
4.3
100
AcDbArc
 50
48.4401498934
 51
90.0
  0
ARC
  5
351
100
AcDbEntity
  8
0
100
AcDbCircle
 62
7
  6
CONTINUOUS
 10
101.1063681076
 20
91.4237767914
 40
4.3
100
AcDbArc
 50
90.0
 51
131.5598501066
  0
ARC
  5
352
100
AcDbEntity
  8
A_RUNDUNGEN
100
AcDbCircle
 62
7
  6
CONTINUOUS
 10
102.6063681076
 20
91.4237767914
 40
4.25
100
AcDbArc
 50
49.4375230493
 51
130.5624769556
  0
ARC
  5
353
100
AcDbEntity
  8
0
100
AcDbCircle
 62
7
  6
CONTINUOUS
 10
106.9063681076
 20
64.3237767914
 40
0.9463687795
100
AcDbArc
 50
0.0
 51
90.0
  0
ARC
  5
354
100
AcDbEntity
  8
0
100
AcDbCircle
 62
7
  6
CONTINUOUS
 10
106.9063681076
 20
66.5237767914
 40
0.9463687795
100
AcDbArc
 50
270.0
 51
360.0
  0
ARC
  5
355
100
AcDbEntity
  8
0
100
AcDbCircle
 62
7
  6
CONTINUOUS
 10
106.9063681076
 20
66.5237767914
 40
0.5
100
AcDbArc
 50
270.0
 51
297.5423968763
  0
ARC
  5
356
100
AcDbEntity
  8
0
100
AcDbCircle
 62
7
  6
CONTINUOUS
 10
106.9063681076
 20
64.3237767914
 40
0.5
100
AcDbArc
 50
62.4576031237
 51
90.0
  0
ARC
  5
357
100
AcDbEntity
  8
0
100
AcDbCircle
 62
7
  6
CONTINUOUS
 10
106.9063681076
 20
66.5237767914
 40
0.5
100
AcDbArc
 50
332.4576031237
 51
360.0
  0
ARC
  5
358
100
AcDbEntity
  8
0
100
AcDbCircle
 62
7
  6
CONTINUOUS
 10
106.9063681076
 20
64.3237767914
 40
0.5
100
AcDbArc
 50
0.0
 51
27.5423968763
  0
ARC
  5
359
100
AcDbEntity
  8
0
100
AcDbCircle
 62
7
  6
CONTINUOUS
 10
108.0063681076
 20
38.4237767914
 40
14.95
100
AcDbArc
 50
180.0
 51
360.0
  0
ARC
  5
35A
100
AcDbEntity
  8
0
100
AcDbCircle
 62
7
  6
CONTINUOUS
 10
108.0063681076
 20
38.4237767914
 40
14.9
100
AcDbArc
 50
180.0
 51
360.0
  0
ARC
  5
35B
100
AcDbEntity
  8
0
100
AcDbCircle
 62
7
  6
CONTINUOUS
 10
108.0063681076
 20
55.439084887
 40
7.8760820696
100
AcDbArc
 50
88.461598663
 51
91.538401337
  0
CIRCLE
  5
35C
100
AcDbEntity
  8
DEFAULT_2
100
AcDbCircle
 62
8
  6
HIDDEN
 10
115.0063681076
 20
32.4237767914
 40
5.1
  0
CIRCLE
  5
35D
100
AcDbEntity
  8
DEFAULT_2
100
AcDbCircle
 62
8
  6
HIDDEN
 10
115.0063681076
 20
32.4237767914
 40
5.0473640402
  0
CIRCLE
  5
35E
100
AcDbEntity
  8
A_ACHSEN
100
AcDbCircle
 62
8
  6
HIDDEN
 10
115.0063681076
 20
32.4237767914
 40
3.0
  0
ARC
  5
35F
100
AcDbEntity
  8
0
100
AcDbCircle
 62
7
  6
CONTINUOUS
 10
108.0063681076
 20
75.4084686958
 40
7.8760820696
100
AcDbArc
 50
268.461598663
 51
271.538401337
  0
ARC
  5
360
100
AcDbEntity
  8
0
100
AcDbCircle
 62
7
  6
CONTINUOUS
 10
117.9899892819
 20
65.4242068589
 40
7.8750232848
100
AcDbArc
 50
180.0031290137
 51
181.541738367
  0
ARC
  5
361
100
AcDbEntity
  8
0
100
AcDbCircle
 62
7
  6
CONTINUOUS
 10
117.9899892819
 20
65.4233467238
 40
7.8750232848
100
AcDbArc
 50
178.458261633
 51
179.9968709863
  0
CIRCLE
  5
362
100
AcDbEntity
  8
0
100
AcDbCircle
 62
7
  6
CONTINUOUS
 10
108.0063681076
 20
65.4237767914
 40
4.0
  0
ARC
  5
363
100
AcDbEntity
  8
0
100
AcDbCircle
 62
7
  6
CONTINUOUS
 10
109.1063681076
 20
64.3237767914
 40
0.9463687795
100
AcDbArc
 50
90.0
 51
180.0
  0
ARC
  5
364
100
AcDbEntity
  8
0
100
AcDbCircle
 62
7
  6
CONTINUOUS
 10
109.1063681076
 20
66.5237767914
 40
0.9463687795
100
AcDbArc
 50
180.0
 51
270.0
  0
ARC
  5
365
100
AcDbEntity
  8
0
100
AcDbCircle
 62
7
  6
CONTINUOUS
 10
109.1063681076
 20
64.3237767914
 40
0.5
100
AcDbArc
 50
90.0
 51
117.5423968763
  0
ARC
  5
366
100
AcDbEntity
  8
0
100
AcDbCircle
 62
7
  6
CONTINUOUS
 10
109.1063681076
 20
66.5237767914
 40
0.5
100
AcDbArc
 50
242.4576031237
 51
270.0
  0
ARC
  5
367
100
AcDbEntity
  8
0
100
AcDbCircle
 62
7
  6
CONTINUOUS
 10
109.1063681076
 20
66.5237767914
 40
0.5
100
AcDbArc
 50
180.0
 51
207.5423968763
  0
ARC
  5
368
100
AcDbEntity
  8
0
100
AcDbCircle
 62
7
  6
CONTINUOUS
 10
109.1063681076
 20
64.3237767914
 40
0.5
100
AcDbArc
 50
152.4576031237
 51
180.0
  0
ARC
  5
369
100
AcDbEntity
  8
A_RUNDUNGEN
100
AcDbCircle
 62
7
  6
CONTINUOUS
 10
108.4063681076
 20
95.1237767914
 40
0.5
100
AcDbArc
 50
270.0
 51
360.0
  0
ARC
  5
36A
100
AcDbEntity
  8
0
100
AcDbCircle
 62
7
  6
CONTINUOUS
 10
104.1063681076
 20
205.4237767914
 40
4.3
100
AcDbArc
 50
270.0
 51
311.5598501066
  0
ARC
  5
36B
100
AcDbEntity
  8
0
100
AcDbCircle
 62
7
  6
CONTINUOUS
 10
101.1063681076
 20
205.4237767914
 40
4.3
100
AcDbArc
 50
228.4401498934
 51
270.0
  0
ARC
  5
36C
100
AcDbEntity
  8
A_RUNDUNGEN
100
AcDbCircle
 62
7
  6
CONTINUOUS
 10
102.6063681076
 20
205.4237767914
 40
4.25
100
AcDbArc
 50
229.4375230493
 51
310.5624769556
  0
ARC
  5
36D
100
AcDbEntity
  8
0
100
AcDbCircle
 62
7
  6
CONTINUOUS
 10
98.0227469333
 20
231.4233467238
 40
7.8750232848
100
AcDbArc
 50
0.0031290137
 51
1.541738367
  0
ARC
  5
36E
100
AcDbEntity
  8
0
100
AcDbCircle
 62
7
  6
CONTINUOUS
 10
98.0227469333
 20
231.4242068589
 40
7.8750232848
100
AcDbArc
 50
358.458261633
 51
359.9968709863
  0
CIRCLE
  5
36F
100
AcDbEntity
  8
DEFAULT_2
100
AcDbCircle
 62
8
  6
HIDDEN
 10
101.0063681076
 20
264.4237767914
 40
5.1
  0
CIRCLE
  5
370
100
AcDbEntity
  8
DEFAULT_2
100
AcDbCircle
 62
8
  6
HIDDEN
 10
101.0063681076
 20
264.4237767914
 40
5.0473640402
  0
CIRCLE
  5
371
100
AcDbEntity
  8
A_ACHSEN
100
AcDbCircle
 62
8
  6
HIDDEN
 10
101.0063681076
 20
264.4237767914
 40
3.0
  0
ARC
  5
372
100
AcDbEntity
  8
0
100
AcDbCircle
 62
7
  6
CONTINUOUS
 10
106.9063681076
 20
230.3237767914
 40
0.9463687795
100
AcDbArc
 50
0.0
 51
90.0
  0
ARC
  5
373
100
AcDbEntity
  8
0
100
AcDbCircle
 62
7
  6
CONTINUOUS
 10
106.9063681076
 20
232.5237767914
 40
0.9463687795
100
AcDbArc
 50
270.0
 51
360.0
  0
ARC
  5
374
100
AcDbEntity
  8
0
100
AcDbCircle
 62
7
  6
CONTINUOUS
 10
106.9063681076
 20
232.5237767914
 40
0.5
100
AcDbArc
 50
270.0
 51
297.5423968763
  0
ARC
  5
375
100
AcDbEntity
  8
0
100
AcDbCircle
 62
7
  6
CONTINUOUS
 10
106.9063681076
 20
230.3237767914
 40
0.5
100
AcDbArc
 50
62.4576031237
 51
90.0
  0
ARC
  5
376
100
AcDbEntity
  8
0
100
AcDbCircle
 62
7
  6
CONTINUOUS
 10
106.9063681076
 20
232.5237767914
 40
0.5
100
AcDbArc
 50
332.4576031237
 51
360.0
  0
ARC
  5
377
100
AcDbEntity
  8
0
100
AcDbCircle
 62
7
  6
CONTINUOUS
 10
106.9063681076
 20
230.3237767914
 40
0.5
100
AcDbArc
 50
0.0
 51
27.5423968763
  0
ARC
  5
378
100
AcDbEntity
  8
A_RUNDUNGEN
100
AcDbCircle
 62
7
  6
CONTINUOUS
 10
111.6063681076
 20
148.4237767914
 40
4.3
100
AcDbArc
 50
129.1216769707
 51
230.8783230293
  0
ARC
  5
379
100
AcDbEntity
  8
A_RUNDUNGEN
100
AcDbCircle
 62
7
  6
CONTINUOUS
 10
113.1063681076
 20
148.4237767914
 40
4.25
100
AcDbArc
 50
175.6525698308
 51
184.345069866
  0
ARC
  5
37A
100
AcDbEntity
  8
A_RUNDUNGEN
100
AcDbCircle
 62
7
  6
CONTINUOUS
 10
108.4063681076
 20
201.7237767914
 40
0.5
100
AcDbArc
 50
0.0
 51
90.0
  0
ARC
  5
37B
100
AcDbEntity
  8
0
100
AcDbCircle
 62
7
  6
CONTINUOUS
 10
108.0063681076
 20
258.4237767914
 40
14.95
100
AcDbArc
 50
0.0
 51
180.0
  0
ARC
  5
37C
100
AcDbEntity
  8
0
100
AcDbCircle
 62
7
  6
CONTINUOUS
 10
108.0063681076
 20
258.4237767914
 40
14.9
100
AcDbArc
 50
0.0
 51
180.0
  0
ARC
  5
37D
100
AcDbEntity
  8
0
100
AcDbCircle
 62
7
  6
CONTINUOUS
 10
108.0063681076
 20
221.439084887
 40
7.8760820696
100
AcDbArc
 50
88.461598663
 51
91.538401337
  0
ARC
  5
37E
100
AcDbEntity
  8
0
100
AcDbCircle
 62
7
  6
CONTINUOUS
 10
108.0063681076
 20
241.4084686958
 40
7.8760820696
100
AcDbArc
 50
268.461598663
 51
271.538401337
  0
ARC
  5
37F
100
AcDbEntity
  8
0
100
AcDbCircle
 62
7
  6
CONTINUOUS
 10
117.9899892819
 20
231.4242068589
 40
7.8750232848
100
AcDbArc
 50
180.0031290137
 51
181.541738367
  0
ARC
  5
380
100
AcDbEntity
  8
0
100
AcDbCircle
 62
7
  6
CONTINUOUS
 10
117.9899892819
 20
231.4233467238
 40
7.8750232848
100
AcDbArc
 50
178.458261633
 51
179.9968709863
  0
CIRCLE
  5
381
100
AcDbEntity
  8
DEFAULT_2
100
AcDbCircle
 62
8
  6
HIDDEN
 10
115.0063681076
 20
264.4237767914
 40
5.1
  0
CIRCLE
  5
382
100
AcDbEntity
  8
DEFAULT_2
100
AcDbCircle
 62
8
  6
HIDDEN
 10
115.0063681076
 20
264.4237767914
 40
5.0473640402
  0
CIRCLE
  5
383
100
AcDbEntity
  8
A_ACHSEN
100
AcDbCircle
 62
7
  6
CONTINUOUS
 10
108.0063681076
 20
231.4237767914
 40
4.0
  0
CIRCLE
  5
384
100
AcDbEntity
  8
A_ACHSEN
100
AcDbCircle
 62
8
  6
HIDDEN
 10
115.0063681076
 20
264.4237767914
 40
3.0
  0
ARC
  5
385
100
AcDbEntity
  8
0
100
AcDbCircle
 62
7
  6
CONTINUOUS
 10
109.1063681076
 20
230.3237767914
 40
0.9463687795
100
AcDbArc
 50
90.0
 51
180.0
  0
ARC
  5
386
100
AcDbEntity
  8
0
100
AcDbCircle
 62
7
  6
CONTINUOUS
 10
109.1063681076
 20
232.5237767914
 40
0.9463687795
100
AcDbArc
 50
180.0
 51
270.0
  0
ARC
  5
387
100
AcDbEntity
  8
0
100
AcDbCircle
 62
7
  6
CONTINUOUS
 10
109.1063681076
 20
230.3237767914
 40
0.5
100
AcDbArc
 50
90.0
 51
117.5423968763
  0
ARC
  5
388
100
AcDbEntity
  8
0
100
AcDbCircle
 62
7
  6
CONTINUOUS
 10
109.1063681076
 20
232.5237767914
 40
0.5
100
AcDbArc
 50
242.4576031237
 51
270.0
  0
ARC
  5
389
100
AcDbEntity
  8
0
100
AcDbCircle
 62
7
  6
CONTINUOUS
 10
109.1063681076
 20
232.5237767914
 40
0.5
100
AcDbArc
 50
180.0
 51
207.5423968763
  0
ARC
  5
38A
100
AcDbEntity
  8
0
100
AcDbCircle
 62
7
  6
CONTINUOUS
 10
109.1063681076
 20
230.3237767914
 40
0.5
100
AcDbArc
 50
152.4576031237
 51
180.0
  0
SPLINE
  5
38B
100
AcDbEntity
  8
0
100
AcDbSpline
 62
7
  6
CONTINUOUS
 70
0
 71
3
 72
9
 73
5
 74
0
 42
0.0000001
 43
0.0000001
 44
0.0000000001
 40
0.0
 40
0.0
 40
0.0
 40
0.0
 40
0.2784473277
 40
1.0
 40
1.0
 40
1.0
 40
1.0
 10
109.9485098585
 20
65.598663668
 30
0.0
 10
109.9413607166
 20
65.5971207824
 30
0.0
 10
109.9157671101
 20
65.5912399784
 30
0.0
 10
109.8904358977
 20
65.5840009509
 30
0.0
 10
109.8726671991
 20
65.5774080119
 30
0.0
  0
SPLINE
  5
38C
100
AcDbEntity
  8
0
100
AcDbSpline
 62
7
  6
CONTINUOUS
 70
0
 71
3
 72
9
 73
5
 74
0
 42
0.0000001
 43
0.0000001
 44
0.0000000001
 40
0.0
 40
0.0
 40
0.0
 40
0.0
 40
0.2210837564
 40
1.0
 40
1.0
 40
1.0
 40
1.0
 10
108.1599993281
 20
67.2900758829
 30
0.0
 10
108.1620195406
 20
67.2955205785
 30
0.0
 10
108.1705316191
 20
67.3203800711
 30
0.0
 10
108.176938694
 20
67.3459185045
 30
0.0
 10
108.1812549843
 20
67.3659185422
 30
0.0
  0
SPLINE
  5
38D
100
AcDbEntity
  8
0
100
AcDbSpline
 62
7
  6
CONTINUOUS
 70
0
 71
3
 72
9
 73
5
 74
0
 42
0.0000001
 43
0.0000001
 44
0.0000000001
 40
0.0
 40
0.0
 40
0.0
 40
0.0
 40
0.2784473277
 40
1.0
 40
1.0
 40
1.0
 40
1.0
 10
107.8314812309
 20
67.3659185422
 30
0.0
 10
107.8330241166
 20
67.3587694003
 30
0.0
 10
107.8389049206
 20
67.3331757939
 30
0.0
 10
107.8461439481
 20
67.3078445814
 30
0.0
 10
107.8527368871
 20
67.2900758829
 30
0.0
  0
SPLINE
  5
38E
100
AcDbEntity
  8
0
100
AcDbSpline
 62
7
  6
CONTINUOUS
 70
0
 71
3
 72
9
 73
5
 74
0
 42
0.0000001
 43
0.0000001
 44
0.0000000001
 40
0.0
 40
0.0
 40
0.0
 40
0.0
 40
0.2210837564
 40
1.0
 40
1.0
 40
1.0
 40
1.0
 10
106.1400690161
 20
65.5774080119
 30
0.0
 10
106.1346243205
 20
65.5794282243
 30
0.0
 10
106.1097648279
 20
65.5879403028
 30
0.0
 10
106.0842263945
 20
65.5943473778
 30
0.0
 10
106.0642263568
 20
65.598663668
 30
0.0
  0
SPLINE
  5
38F
100
AcDbEntity
  8
0
100
AcDbSpline
 62
7
  6
CONTINUOUS
 70
0
 71
3
 72
9
 73
5
 74
0
 42
0.0000001
 43
0.0000001
 44
0.0000000001
 40
0.0
 40
0.0
 40
0.0
 40
0.0
 40
0.2784473277
 40
1.0
 40
1.0
 40
1.0
 40
1.0
 10
106.0642263568
 20
65.2488899147
 30
0.0
 10
106.0713754986
 20
65.2504328004
 30
0.0
 10
106.0969691051
 20
65.2563136044
 30
0.0
 10
106.1223003175
 20
65.2635526318
 30
0.0
 10
106.1400690161
 20
65.2701455709
 30
0.0
  0
SPLINE
  5
390
100
AcDbEntity
  8
0
100
AcDbSpline
 62
7
  6
CONTINUOUS
 70
0
 71
3
 72
9
 73
5
 74
0
 42
0.0000001
 43
0.0000001
 44
0.0000000001
 40
0.0
 40
0.0
 40
0.0
 40
0.0
 40
0.2210837564
 40
1.0
 40
1.0
 40
1.0
 40
1.0
 10
107.8527368871
 20
63.5574776999
 30
0.0
 10
107.8507166746
 20
63.5520330042
 30
0.0
 10
107.8422045961
 20
63.5271735117
 30
0.0
 10
107.8357975212
 20
63.5016350783
 30
0.0
 10
107.8314812309
 20
63.4816350405
 30
0.0
  0
SPLINE
  5
391
100
AcDbEntity
  8
0
100
AcDbSpline
 62
7
  6
CONTINUOUS
 70
0
 71
3
 72
9
 73
5
 74
0
 42
0.0000001
 43
0.0000001
 44
0.0000000001
 40
0.0
 40
0.0
 40
0.0
 40
0.0
 40
0.2784473277
 40
1.0
 40
1.0
 40
1.0
 40
1.0
 10
108.1812549843
 20
63.4816350405
 30
0.0
 10
108.1797120986
 20
63.4887841824
 30
0.0
 10
108.1738312946
 20
63.5143777889
 30
0.0
 10
108.1665922671
 20
63.5397090013
 30
0.0
 10
108.1599993281
 20
63.5574776999
 30
0.0
  0
SPLINE
  5
392
100
AcDbEntity
  8
0
100
AcDbSpline
 62
7
  6
CONTINUOUS
 70
0
 71
3
 72
9
 73
5
 74
0
 42
0.0000001
 43
0.0000001
 44
0.0000000001
 40
0.0
 40
0.0
 40
0.0
 40
0.0
 40
0.2210837564
 40
1.0
 40
1.0
 40
1.0
 40
1.0
 10
109.8726671991
 20
65.2701455709
 30
0.0
 10
109.8781118948
 20
65.2681253584
 30
0.0
 10
109.9029713873
 20
65.2596132799
 30
0.0
 10
109.9285098207
 20
65.253206205
 30
0.0
 10
109.9485098585
 20
65.2488899147
 30
0.0
  0
LINE
  5
393
100
AcDbEntity
  8
0
100
AcDbLine
 62
7
  6
CONTINUOUS
 10
107.7949193854
 20
63.3123280691
 11
107.8314812309
 21
63.4816350405
  0
LINE
  5
394
100
AcDbEntity
  8
0
100
AcDbLine
 62
7
  6
CONTINUOUS
 10
108.1812549843
 20
63.4816350405
 11
108.2178168299
 21
63.3123280691
  0
LINE
  5
395
100
AcDbEntity
  8
0
100
AcDbLine
 62
7
  6
CONTINUOUS
 10
110.1178168299
 20
65.2123280691
 11
109.9485098585
 21
65.2488899147
  0
LINE
  5
396
100
AcDbEntity
  8
0
100
AcDbLine
 62
7
  6
CONTINUOUS
 10
109.9485098585
 20
65.598663668
 11
110.1178168299
 21
65.6352255136
  0
LINE
  5
397
100
AcDbEntity
  8
0
100
AcDbLine
 62
7
  6
CONTINUOUS
 10
108.2178168299
 20
67.5352255136
 11
108.1812549843
 21
67.3659185422
  0
LINE
  5
398
100
AcDbEntity
  8
0
100
AcDbLine
 62
7
  6
CONTINUOUS
 10
107.8314812309
 20
67.3659185422
 11
107.7949193854
 21
67.5352255136
  0
LINE
  5
399
100
AcDbEntity
  8
0
100
AcDbLine
 62
7
  6
CONTINUOUS
 10
105.8949193854
 20
65.6352255136
 11
106.0642263568
 21
65.598663668
  0
LINE
  5
39A
100
AcDbEntity
  8
0
100
AcDbLine
 62
7
  6
CONTINUOUS
 10
106.0642263568
 20
65.2488899147
 11
105.8949193854
 21
65.2123280691
  0
SPLINE
  5
39B
100
AcDbEntity
  8
A_FASEN
100
AcDbSpline
 62
7
  6
CONTINUOUS
 70
0
 71
3
 72
9
 73
5
 74
0
 42
0.0000001
 43
0.0000001
 44
0.0000000001
 40
0.0
 40
0.0
 40
0.0
 40
0.0
 40
0.5077120265
 40
1.0
 40
1.0
 40
1.0
 40
1.0
 10
108.6230933782
 20
64.5949194864
 30
0.0
 10
108.6259813878
 20
64.6247488597
 30
0.0
 10
108.634826352
 20
64.6833604027
 30
0.0
 10
108.6527747951
 20
64.7397629405
 30
0.0
 10
108.6623901125
 20
64.7671844106
 30
0.0
  0
SPLINE
  5
39C
100
AcDbEntity
  8
A_FASEN
100
AcDbSpline
 62
7
  6
CONTINUOUS
 70
0
 71
3
 72
9
 73
5
 74
0
 42
0.0000001
 43
0.0000001
 44
0.0000000001
 40
0.0
 40
0.0
 40
0.0
 40
0.0
 40
0.4919819283
 40
1.0
 40
1.0
 40
1.0
 40
1.0
 10
108.6629636978
 20
64.7677358058
 30
0.0
 10
108.6903734935
 20
64.7773444495
 30
0.0
 10
108.7466720831
 20
64.795715001
 30
0.0
 10
108.8053730837
 20
64.8041612886
 30
0.0
 10
108.8352254126
 20
64.8070515208
 30
0.0
  0
SPLINE
  5
39D
100
AcDbEntity
  8
A_FASEN
100
AcDbSpline
 62
7
  6
CONTINUOUS
 70
0
 71
3
 72
9
 73
5
 74
0
 42
0.0000001
 43
0.0000001
 44
0.0000000001
 40
0.0
 40
0.0
 40
0.0
 40
0.0
 40
0.507711987
 40
1.0
 40
1.0
 40
1.0
 40
1.0
 10
108.8352254126
 20
66.040502062
 30
0.0
 10
108.8053960422
 20
66.0433900713
 30
0.0
 10
108.7467845103
 20
66.0522350853
 30
0.0
 10
108.6903819598
 20
66.0701834767
 30
0.0
 10
108.6629604881
 20
66.0797987947
 30
0.0
  0
SPLINE
  5
39E
100
AcDbEntity
  8
A_FASEN
100
AcDbSpline
 62
7
  6
CONTINUOUS
 70
0
 71
3
 72
9
 73
5
 74
0
 42
0.0000001
 43
0.0000001
 44
0.0000000001
 40
0.0
 40
0.0
 40
0.0
 40
0.0
 40
0.4919819283
 40
1.0
 40
1.0
 40
1.0
 40
1.0
 10
108.6624090932
 20
66.0803723816
 30
0.0
 10
108.6528004495
 20
66.1077821773
 30
0.0
 10
108.6344298979
 20
66.1640807668
 30
0.0
 10
108.6259836103
 20
66.2227817674
 30
0.0
 10
108.6230933782
 20
66.2526340963
 30
0.0
  0
SPLINE
  5
39F
100
AcDbEntity
  8
A_FASEN
100
AcDbSpline
 62
7
  6
CONTINUOUS
 70
0
 71
3
 72
9
 73
5
 74
0
 42
0.0000001
 43
0.0000001
 44
0.0000000001
 40
0.0
 40
0.0
 40
0.0
 40
0.0
 40
0.507711987
 40
1.0
 40
1.0
 40
1.0
 40
1.0
 10
107.389642837
 20
66.2526340963
 30
0.0
 10
107.3867548277
 20
66.2228047259
 30
0.0
 10
107.3779098137
 20
66.164193194
 30
0.0
 10
107.3599614223
 20
66.1077906436
 30
0.0
 10
107.3503461043
 20
66.0803691719
 30
0.0
  0
SPLINE
  5
3A0
100
AcDbEntity
  8
A_FASEN
100
AcDbSpline
 62
7
  6
CONTINUOUS
 70
0
 71
3
 72
9
 73
5
 74
0
 42
0.0000001
 43
0.0000001
 44
0.0000000001
 40
0.0
 40
0.0
 40
0.0
 40
0.0
 40
0.4919819283
 40
1.0
 40
1.0
 40
1.0
 40
1.0
 10
107.3497725174
 20
66.079817777
 30
0.0
 10
107.3223627217
 20
66.0702091333
 30
0.0
 10
107.2660641321
 20
66.0518385817
 30
0.0
 10
107.2073631315
 20
66.0433922941
 30
0.0
 10
107.1775108027
 20
66.040502062
 30
0.0
  0
SPLINE
  5
3A1
100
AcDbEntity
  8
A_FASEN
100
AcDbSpline
 62
7
  6
CONTINUOUS
 70
0
 71
3
 72
9
 73
5
 74
0
 42
0.0000001
 43
0.0000001
 44
0.0000000001
 40
0.0
 40
0.0
 40
0.0
 40
0.0
 40
0.507711987
 40
1.0
 40
1.0
 40
1.0
 40
1.0
 10
107.1775108027
 20
64.8070515208
 30
0.0
 10
107.2073401731
 20
64.8041635114
 30
0.0
 10
107.265951705
 20
64.7953184974
 30
0.0
 10
107.3223542554
 20
64.777370106
 30
0.0
 10
107.3497757271
 20
64.767754788
 30
0.0
  0
SPLINE
  5
3A2
100
AcDbEntity
  8
A_FASEN
100
AcDbSpline
 62
7
  6
CONTINUOUS
 70
0
 71
3
 72
9
 73
5
 74
0
 42
0.0000001
 43
0.0000001
 44
0.0000000001
 40
0.0
 40
0.0
 40
0.0
 40
0.0
 40
0.4919819283
 40
1.0
 40
1.0
 40
1.0
 40
1.0
 10
107.350327122
 20
64.7671812012
 30
0.0
 10
107.3599357657
 20
64.7397714054
 30
0.0
 10
107.3783063173
 20
64.6834728159
 30
0.0
 10
107.3867526049
 20
64.6247718153
 30
0.0
 10
107.389642837
 20
64.5949194864
 30
0.0
  0
SPLINE
  5
3A3
100
AcDbEntity
  8
0
100
AcDbSpline
 62
7
  6
CONTINUOUS
 70
0
 71
3
 72
9
 73
5
 74
0
 42
0.0000001
 43
0.0000001
 44
0.0000000001
 40
0.0
 40
0.0
 40
0.0
 40
0.0
 40
0.2784473277
 40
1.0
 40
1.0
 40
1.0
 40
1.0
 10
109.9485098585
 20
231.598663668
 30
0.0
 10
109.9413607166
 20
231.5971207824
 30
0.0
 10
109.9157671101
 20
231.5912399784
 30
0.0
 10
109.8904358977
 20
231.5840009509
 30
0.0
 10
109.8726671991
 20
231.5774080119
 30
0.0
  0
SPLINE
  5
3A4
100
AcDbEntity
  8
0
100
AcDbSpline
 62
7
  6
CONTINUOUS
 70
0
 71
3
 72
9
 73
5
 74
0
 42
0.0000001
 43
0.0000001
 44
0.0000000001
 40
0.0
 40
0.0
 40
0.0
 40
0.0
 40
0.2210837564
 40
1.0
 40
1.0
 40
1.0
 40
1.0
 10
108.1599993281
 20
233.2900758829
 30
0.0
 10
108.1620195406
 20
233.2955205785
 30
0.0
 10
108.1705316191
 20
233.3203800711
 30
0.0
 10
108.176938694
 20
233.3459185045
 30
0.0
 10
108.1812549843
 20
233.3659185422
 30
0.0
  0
SPLINE
  5
3A5
100
AcDbEntity
  8
0
100
AcDbSpline
 62
7
  6
CONTINUOUS
 70
0
 71
3
 72
9
 73
5
 74
0
 42
0.0000001
 43
0.0000001
 44
0.0000000001
 40
0.0
 40
0.0
 40
0.0
 40
0.0
 40
0.2784473277
 40
1.0
 40
1.0
 40
1.0
 40
1.0
 10
107.8314812309
 20
233.3659185422
 30
0.0
 10
107.8330241166
 20
233.3587694003
 30
0.0
 10
107.8389049206
 20
233.3331757939
 30
0.0
 10
107.8461439481
 20
233.3078445814
 30
0.0
 10
107.8527368871
 20
233.2900758829
 30
0.0
  0
SPLINE
  5
3A6
100
AcDbEntity
  8
0
100
AcDbSpline
 62
7
  6
CONTINUOUS
 70
0
 71
3
 72
9
 73
5
 74
0
 42
0.0000001
 43
0.0000001
 44
0.0000000001
 40
0.0
 40
0.0
 40
0.0
 40
0.0
 40
0.2210837564
 40
1.0
 40
1.0
 40
1.0
 40
1.0
 10
106.1400690161
 20
231.5774080119
 30
0.0
 10
106.1346243205
 20
231.5794282243
 30
0.0
 10
106.1097648279
 20
231.5879403028
 30
0.0
 10
106.0842263945
 20
231.5943473778
 30
0.0
 10
106.0642263568
 20
231.598663668
 30
0.0
  0
SPLINE
  5
3A7
100
AcDbEntity
  8
0
100
AcDbSpline
 62
7
  6
CONTINUOUS
 70
0
 71
3
 72
9
 73
5
 74
0
 42
0.0000001
 43
0.0000001
 44
0.0000000001
 40
0.0
 40
0.0
 40
0.0
 40
0.0
 40
0.2784473277
 40
1.0
 40
1.0
 40
1.0
 40
1.0
 10
106.0642263568
 20
231.2488899147
 30
0.0
 10
106.0713754986
 20
231.2504328004
 30
0.0
 10
106.0969691051
 20
231.2563136044
 30
0.0
 10
106.1223003175
 20
231.2635526318
 30
0.0
 10
106.1400690161
 20
231.2701455709
 30
0.0
  0
SPLINE
  5
3A8
100
AcDbEntity
  8
0
100
AcDbSpline
 62
7
  6
CONTINUOUS
 70
0
 71
3
 72
9
 73
5
 74
0
 42
0.0000001
 43
0.0000001
 44
0.0000000001
 40
0.0
 40
0.0
 40
0.0
 40
0.0
 40
0.2210837564
 40
1.0
 40
1.0
 40
1.0
 40
1.0
 10
107.8527368871
 20
229.5574776999
 30
0.0
 10
107.8507166746
 20
229.5520330042
 30
0.0
 10
107.8422045961
 20
229.5271735117
 30
0.0
 10
107.8357975212
 20
229.5016350783
 30
0.0
 10
107.8314812309
 20
229.4816350405
 30
0.0
  0
SPLINE
  5
3A9
100
AcDbEntity
  8
0
100
AcDbSpline
 62
7
  6
CONTINUOUS
 70
0
 71
3
 72
9
 73
5
 74
0
 42
0.0000001
 43
0.0000001
 44
0.0000000001
 40
0.0
 40
0.0
 40
0.0
 40
0.0
 40
0.2784473277
 40
1.0
 40
1.0
 40
1.0
 40
1.0
 10
108.1812549843
 20
229.4816350405
 30
0.0
 10
108.1797120986
 20
229.4887841824
 30
0.0
 10
108.1738312946
 20
229.5143777889
 30
0.0
 10
108.1665922671
 20
229.5397090013
 30
0.0
 10
108.1599993281
 20
229.5574776999
 30
0.0
  0
SPLINE
  5
3AA
100
AcDbEntity
  8
0
100
AcDbSpline
 62
7
  6
CONTINUOUS
 70
0
 71
3
 72
9
 73
5
 74
0
 42
0.0000001
 43
0.0000001
 44
0.0000000001
 40
0.0
 40
0.0
 40
0.0
 40
0.0
 40
0.2210837564
 40
1.0
 40
1.0
 40
1.0
 40
1.0
 10
109.8726671991
 20
231.2701455709
 30
0.0
 10
109.8781118948
 20
231.2681253584
 30
0.0
 10
109.9029713873
 20
231.2596132799
 30
0.0
 10
109.9285098207
 20
231.253206205
 30
0.0
 10
109.9485098585
 20
231.2488899147
 30
0.0
  0
LINE
  5
3AB
100
AcDbEntity
  8
0
100
AcDbLine
 62
7
  6
CONTINUOUS
 10
107.7949193854
 20
229.3123280691
 11
107.8314812309
 21
229.4816350405
  0
LINE
  5
3AC
100
AcDbEntity
  8
0
100
AcDbLine
 62
7
  6
CONTINUOUS
 10
108.1812549843
 20
229.4816350405
 11
108.2178168299
 21
229.3123280691
  0
LINE
  5
3AD
100
AcDbEntity
  8
0
100
AcDbLine
 62
7
  6
CONTINUOUS
 10
110.1178168299
 20
231.2123280691
 11
109.9485098585
 21
231.2488899147
  0
LINE
  5
3AE
100
AcDbEntity
  8
0
100
AcDbLine
 62
7
  6
CONTINUOUS
 10
109.9485098585
 20
231.598663668
 11
110.1178168299
 21
231.6352255136
  0
LINE
  5
3AF
100
AcDbEntity
  8
0
100
AcDbLine
 62
7
  6
CONTINUOUS
 10
108.2178168299
 20
233.5352255136
 11
108.1812549843
 21
233.3659185422
  0
LINE
  5
3B0
100
AcDbEntity
  8
0
100
AcDbLine
 62
7
  6
CONTINUOUS
 10
107.8314812309
 20
233.3659185422
 11
107.7949193854
 21
233.5352255136
  0
LINE
  5
3B1
100
AcDbEntity
  8
0
100
AcDbLine
 62
7
  6
CONTINUOUS
 10
105.8949193854
 20
231.6352255136
 11
106.0642263568
 21
231.598663668
  0
LINE
  5
3B2
100
AcDbEntity
  8
0
100
AcDbLine
 62
7
  6
CONTINUOUS
 10
106.0642263568
 20
231.2488899147
 11
105.8949193854
 21
231.2123280691
  0
SPLINE
  5
3B3
100
AcDbEntity
  8
A_FASEN
100
AcDbSpline
 62
7
  6
CONTINUOUS
 70
0
 71
3
 72
9
 73
5
 74
0
 42
0.0000001
 43
0.0000001
 44
0.0000000001
 40
0.0
 40
0.0
 40
0.0
 40
0.0
 40
0.5077120265
 40
1.0
 40
1.0
 40
1.0
 40
1.0
 10
108.6230933782
 20
230.5949194864
 30
0.0
 10
108.6259813878
 20
230.6247488597
 30
0.0
 10
108.634826352
 20
230.6833604027
 30
0.0
 10
108.6527747951
 20
230.7397629405
 30
0.0
 10
108.6623901125
 20
230.7671844106
 30
0.0
  0
SPLINE
  5
3B4
100
AcDbEntity
  8
A_FASEN
100
AcDbSpline
 62
7
  6
CONTINUOUS
 70
0
 71
3
 72
9
 73
5
 74
0
 42
0.0000001
 43
0.0000001
 44
0.0000000001
 40
0.0
 40
0.0
 40
0.0
 40
0.0
 40
0.4919819283
 40
1.0
 40
1.0
 40
1.0
 40
1.0
 10
108.6629636978
 20
230.7677358058
 30
0.0
 10
108.6903734935
 20
230.7773444495
 30
0.0
 10
108.7466720831
 20
230.795715001
 30
0.0
 10
108.8053730837
 20
230.8041612886
 30
0.0
 10
108.8352254126
 20
230.8070515208
 30
0.0
  0
SPLINE
  5
3B5
100
AcDbEntity
  8
A_FASEN
100
AcDbSpline
 62
7
  6
CONTINUOUS
 70
0
 71
3
 72
9
 73
5
 74
0
 42
0.0000001
 43
0.0000001
 44
0.0000000001
 40
0.0
 40
0.0
 40
0.0
 40
0.0
 40
0.507711987
 40
1.0
 40
1.0
 40
1.0
 40
1.0
 10
108.8352254126
 20
232.040502062
 30
0.0
 10
108.8053960422
 20
232.0433900713
 30
0.0
 10
108.7467845103
 20
232.0522350853
 30
0.0
 10
108.6903819598
 20
232.0701834767
 30
0.0
 10
108.6629604881
 20
232.0797987947
 30
0.0
  0
SPLINE
  5
3B6
100
AcDbEntity
  8
A_FASEN
100
AcDbSpline
 62
7
  6
CONTINUOUS
 70
0
 71
3
 72
9
 73
5
 74
0
 42
0.0000001
 43
0.0000001
 44
0.0000000001
 40
0.0
 40
0.0
 40
0.0
 40
0.0
 40
0.4919819283
 40
1.0
 40
1.0
 40
1.0
 40
1.0
 10
108.6624090932
 20
232.0803723816
 30
0.0
 10
108.6528004495
 20
232.1077821773
 30
0.0
 10
108.6344298979
 20
232.1640807668
 30
0.0
 10
108.6259836103
 20
232.2227817674
 30
0.0
 10
108.6230933782
 20
232.2526340963
 30
0.0
  0
SPLINE
  5
3B7
100
AcDbEntity
  8
A_FASEN
100
AcDbSpline
 62
7
  6
CONTINUOUS
 70
0
 71
3
 72
9
 73
5
 74
0
 42
0.0000001
 43
0.0000001
 44
0.0000000001
 40
0.0
 40
0.0
 40
0.0
 40
0.0
 40
0.507711987
 40
1.0
 40
1.0
 40
1.0
 40
1.0
 10
107.389642837
 20
232.2526340963
 30
0.0
 10
107.3867548277
 20
232.2228047259
 30
0.0
 10
107.3779098137
 20
232.164193194
 30
0.0
 10
107.3599614223
 20
232.1077906436
 30
0.0
 10
107.3503461043
 20
232.0803691719
 30
0.0
  0
SPLINE
  5
3B8
100
AcDbEntity
  8
A_FASEN
100
AcDbSpline
 62
7
  6
CONTINUOUS
 70
0
 71
3
 72
9
 73
5
 74
0
 42
0.0000001
 43
0.0000001
 44
0.0000000001
 40
0.0
 40
0.0
 40
0.0
 40
0.0
 40
0.4919819283
 40
1.0
 40
1.0
 40
1.0
 40
1.0
 10
107.3497725174
 20
232.079817777
 30
0.0
 10
107.3223627217
 20
232.0702091333
 30
0.0
 10
107.2660641321
 20
232.0518385817
 30
0.0
 10
107.2073631315
 20
232.0433922941
 30
0.0
 10
107.1775108027
 20
232.040502062
 30
0.0
  0
SPLINE
  5
3B9
100
AcDbEntity
  8
A_FASEN
100
AcDbSpline
 62
7
  6
CONTINUOUS
 70
0
 71
3
 72
9
 73
5
 74
0
 42
0.0000001
 43
0.0000001
 44
0.0000000001
 40
0.0
 40
0.0
 40
0.0
 40
0.0
 40
0.507711987
 40
1.0
 40
1.0
 40
1.0
 40
1.0
 10
107.1775108027
 20
230.8070515208
 30
0.0
 10
107.2073401731
 20
230.8041635114
 30
0.0
 10
107.265951705
 20
230.7953184974
 30
0.0
 10
107.3223542554
 20
230.777370106
 30
0.0
 10
107.3497757271
 20
230.767754788
 30
0.0
  0
SPLINE
  5
3BA
100
AcDbEntity
  8
A_FASEN
100
AcDbSpline
 62
7
  6
CONTINUOUS
 70
0
 71
3
 72
9
 73
5
 74
0
 42
0.0000001
 43
0.0000001
 44
0.0000000001
 40
0.0
 40
0.0
 40
0.0
 40
0.0
 40
0.4919819283
 40
1.0
 40
1.0
 40
1.0
 40
1.0
 10
107.350327122
 20
230.7671812012
 30
0.0
 10
107.3599357657
 20
230.7397714054
 30
0.0
 10
107.3783063173
 20
230.6834728159
 30
0.0
 10
107.3867526049
 20
230.6247718153
 30
0.0
 10
107.389642837
 20
230.5949194864
 30
0.0
  0
LINE
  5
3BB
100
AcDbEntity
  8
A_RUNDUNGEN
100
AcDbLine
 62
7
  6
CONTINUOUS
 10
107.6063681076
 20
97.0237767914
 11
106.1063681076
 21
98.5237767914
  0
LINE
  5
3BC
100
AcDbEntity
  8
A_RUNDUNGEN
100
AcDbLine
 62
7
  6
CONTINUOUS
 10
107.6063681076
 20
199.8237767914
 11
106.1063681076
 21
198.3237767914
  0
ELLIPSE
  5
3BD
100
AcDbEntity
  8
A_RUNDUNGEN
100
AcDbEllipse
 62
7
  6
CONTINUOUS
 10
51.1060253151
 20
215.3734339989
 30
0.0
 11
0.7075914799
 21
0.7075914799
 31
0.0
 40
0.999315002
 41
-0.7850555471
 42
0.7850555471
  0
ELLIPSE
  5
3BE
100
AcDbEntity
  8
A_RUNDUNGEN
100
AcDbEllipse
 62
7
  6
CONTINUOUS
 10
66.106406186
 20
96.323738713
 30
0.0
 11
0.7071606311
 21
-0.7071606311
 31
0.0
 40
0.9999238505
 41
2.3562325664
 42
3.9269527408
  0
ELLIPSE
  5
3BF
100
AcDbEntity
  8
A_RUNDUNGEN
100
AcDbEllipse
 62
7
  6
CONTINUOUS
 10
51.1060253151
 20
81.4741195839
 30
0.0
 11
0.7075914799
 21
-0.7075914799
 31
0.0
 40
0.999315002
 41
-0.7850555471
 42
0.7850555471
  0
ELLIPSE
  5
3C0
100
AcDbEntity
  8
A_RUNDUNGEN
100
AcDbEllipse
 62
7
  6
CONTINUOUS
 10
66.106406186
 20
200.5238148698
 30
0.0
 11
-0.7071606311
 21
-0.7071606311
 31
0.0
 40
0.9999238505
 41
-0.7853600872
 42
0.7853600872
  0
ELLIPSE
  5
3C1
100
AcDbEntity
  8
A_RUNDUNGEN
100
AcDbEllipse
 62
7
  6
CONTINUOUS
 10
53.1067109001
 20
96.4808223332
 30
0.0
 11
-0.9490638846
 21
0.3162903786
 31
0.0
 40
0.9996192872
 41
-1.2489924673
 42
0.3215754254
  0
ELLIPSE
  5
3C2
100
AcDbEntity
  8
A_RUNDUNGEN
100
AcDbEllipse
 62
7
  6
CONTINUOUS
 10
55.1060253151
 20
96.4808223332
 30
0.0
 11
0.9490638846
 21
0.3162903786
 31
0.0
 40
0.9996192872
 41
0.9271852243
 42
1.2489924673
  0
ELLIPSE
  5
3C3
100
AcDbEntity
  8
A_RUNDUNGEN
100
AcDbEllipse
 62
7
  6
CONTINUOUS
 10
55.1060253151
 20
200.3667312495
 30
0.0
 11
-0.9490638846
 21
0.3162903786
 31
0.0
 40
0.9996192872
 41
1.8926001863
 42
2.2144074293
  0
ELLIPSE
  5
3C4
100
AcDbEntity
  8
A_RUNDUNGEN
100
AcDbEllipse
 62
7
  6
CONTINUOUS
 10
53.1067109001
 20
200.3667312495
 30
0.0
 11
0.9490638846
 21
0.3162903786
 31
0.0
 40
0.9996192872
 41
2.8200172282
 42
4.3905851209
  0
ENDSEC
  0
SECTION
  2
OBJECTS
  0
DICTIONARY
  5
3C5
100
AcDbDictionary
  3
ACAD_GROUP
350
3C6
  3
ACAD_MLINESTYLE
350
3C7
  0
DICTIONARY
  5
3C6
102
{ACAD_REACTORS
330
3C5
102
}
100
AcDbDictionary
  0
DICTIONARY
  5
3C7
102
{ACAD_REACTORS
330
3C5
102
}
100
AcDbDictionary
  3
STANDARD
350
3C8
  0
MLINESTYLE
  5
3C8
102
{ACAD_REACTORS
330
3C7
102
}
100
AcDbMlineStyle
  2
STANDARD
 70
0
  3

 62
256
 51
90.0
 52
90.0
 71
2
 49
0.5
 62
256
  6
BYLAYER
 49
-0.5
 62
256
  6
BYLAYER
  0
ENDSEC
  0
EOF
