  0
SECTION
  2
HEADER
  9
$ACADVER
  1
AC1018
  9
$ACADMAINTVER
 70
     0
  9
$DWGCODEPAGE
  3
ANSI_1252
  9
$INSBASE
 10
0.0
 20
0.0
 30
0.0
  9
$EXTMIN
 10
10970.9477077202
 20
15041.5144206108
 30
0.0
  9
$EXTMAX
 10
11106.6825583177
 20
15174.4329545862
 30
0.0
  9
$LIMMIN
 10
0.0
 20
0.0
  9
$LIMMAX
 10
12.0
 20
9.0
  9
$ORTHOMODE
 70
     0
  9
$REGENMODE
 70
     1
  9
$FILLMODE
 70
     1
  9
$QTEXTMODE
 70
     0
  9
$MIRRTEXT
 70
     1
  9
$LTSCALE
 40
1.0
  9
$ATTMODE
 70
     1
  9
$TEXTSIZE
 40
0.2
  9
$TRACEWID
 40
0.05
  9
$TEXTSTYLE
  7
Standard
  9
$CLAYER
  8
0
  9
$CELTYPE
  6
ByLayer
  9
$CECOLOR
 62
   256
  9
$CELTSCALE
 40
1.0
  9
$DISPSILH
 70
     0
  9
$DIMSCALE
 40
1.0
  9
$DIMASZ
 40
0.18
  9
$DIMEXO
 40
0.0625
  9
$DIMDLI
 40
0.38
  9
$DIMRND
 40
0.0
  9
$DIMDLE
 40
0.0
  9
$DIMEXE
 40
0.18
  9
$DIMTP
 40
0.0
  9
$DIMTM
 40
0.0
  9
$DIMTXT
 40
0.18
  9
$DIMCEN
 40
0.09
  9
$DIMTSZ
 40
0.0
  9
$DIMTOL
 70
     0
  9
$DIMLIM
 70
     0
  9
$DIMTIH
 70
     1
  9
$DIMTOH
 70
     1
  9
$DIMSE1
 70
     0
  9
$DIMSE2
 70
     0
  9
$DIMTAD
 70
     0
  9
$DIMZIN
 70
     0
  9
$DIMBLK
  1

  9
$DIMASO
 70
     1
  9
$DIMSHO
 70
     1
  9
$DIMPOST
  1

  9
$DIMAPOST
  1

  9
$DIMALT
 70
     0
  9
$DIMALTD
 70
     2
  9
$DIMALTF
 40
25.4
  9
$DIMLFAC
 40
1.0
  9
$DIMTOFL
 70
     0
  9
$DIMTVP
 40
0.0
  9
$DIMTIX
 70
     0
  9
$DIMSOXD
 70
     0
  9
$DIMSAH
 70
     0
  9
$DIMBLK1
  1

  9
$DIMBLK2
  1

  9
$DIMSTYLE
  2
Standard
  9
$DIMCLRD
 70
     0
  9
$DIMCLRE
 70
     0
  9
$DIMCLRT
 70
     0
  9
$DIMTFAC
 40
1.0
  9
$DIMGAP
 40
0.09
  9
$DIMJUST
 70
     0
  9
$DIMSD1
 70
     0
  9
$DIMSD2
 70
     0
  9
$DIMTOLJ
 70
     1
  9
$DIMTZIN
 70
     0
  9
$DIMALTZ
 70
     0
  9
$DIMALTTZ
 70
     0
  9
$DIMUPT
 70
     0
  9
$DIMDEC
 70
     4
  9
$DIMTDEC
 70
     4
  9
$DIMALTU
 70
     2
  9
$DIMALTTD
 70
     2
  9
$DIMTXSTY
  7
Standard
  9
$DIMAUNIT
 70
     0
  9
$DIMADEC
 70
     0
  9
$DIMALTRND
 40
0.0
  9
$DIMAZIN
 70
     0
  9
$DIMDSEP
 70
    46
  9
$DIMATFIT
 70
     3
  9
$DIMFRAC
 70
     0
  9
$DIMLDRBLK
  1

  9
$DIMLUNIT
 70
     2
  9
$DIMLWD
 70
    -2
  9
$DIMLWE
 70
    -2
  9
$DIMTMOVE
 70
     0
  9
$LUNITS
 70
     2
  9
$LUPREC
 70
     4
  9
$SKETCHINC
 40
0.1
  9
$FILLETRAD
 40
0.5
  9
$AUNITS
 70
     0
  9
$AUPREC
 70
     0
  9
$MENU
  1
.
  9
$ELEVATION
 40
0.0
  9
$PELEVATION
 40
0.0
  9
$THICKNESS
 40
0.0
  9
$LIMCHECK
 70
     0
  9
$CHAMFERA
 40
0.5
  9
$CHAMFERB
 40
0.5
  9
$CHAMFERC
 40
1.0
  9
$CHAMFERD
 40
0.0
  9
$SKPOLY
 70
     0
  9
$TDCREATE
 40
2454483.384062315
  9
$TDUCREATE
 40
2454483.342395648
  9
$TDUPDATE
 40
2454483.384062327
  9
$TDUUPDATE
 40
2454483.34239566
  9
$TDINDWG
 40
0.0000000116
  9
$TDUSRTIMER
 40
0.0000000116
  9
$USRTIMER
 70
     1
  9
$ANGBASE
 50
0.0
  9
$ANGDIR
 70
     0
  9
$PDMODE
 70
     0
  9
$PDSIZE
 40
0.0
  9
$PLINEWID
 40
0.0
  9
$SPLFRAME
 70
     0
  9
$SPLINETYPE
 70
     6
  9
$SPLINESEGS
 70
     8
  9
$HANDSEED
  5
114
  9
$SURFTAB1
 70
     6
  9
$SURFTAB2
 70
     6
  9
$SURFTYPE
 70
     6
  9
$SURFU
 70
     6
  9
$SURFV
 70
     6
  9
$UCSBASE
  2

  9
$UCSNAME
  2

  9
$UCSORG
 10
0.0
 20
0.0
 30
0.0
  9
$UCSXDIR
 10
1.0
 20
0.0
 30
0.0
  9
$UCSYDIR
 10
0.0
 20
1.0
 30
0.0
  9
$UCSORTHOREF
  2

  9
$UCSORTHOVIEW
 70
     0
  9
$UCSORGTOP
 10
0.0
 20
0.0
 30
0.0
  9
$UCSORGBOTTOM
 10
0.0
 20
0.0
 30
0.0
  9
$UCSORGLEFT
 10
0.0
 20
0.0
 30
0.0
  9
$UCSORGRIGHT
 10
0.0
 20
0.0
 30
0.0
  9
$UCSORGFRONT
 10
0.0
 20
0.0
 30
0.0
  9
$UCSORGBACK
 10
0.0
 20
0.0
 30
0.0
  9
$PUCSBASE
  2

  9
$PUCSNAME
  2

  9
$PUCSORG
 10
0.0
 20
0.0
 30
0.0
  9
$PUCSXDIR
 10
1.0
 20
0.0
 30
0.0
  9
$PUCSYDIR
 10
0.0
 20
1.0
 30
0.0
  9
$PUCSORTHOREF
  2

  9
$PUCSORTHOVIEW
 70
     0
  9
$PUCSORGTOP
 10
0.0
 20
0.0
 30
0.0
  9
$PUCSORGBOTTOM
 10
0.0
 20
0.0
 30
0.0
  9
$PUCSORGLEFT
 10
0.0
 20
0.0
 30
0.0
  9
$PUCSORGRIGHT
 10
0.0
 20
0.0
 30
0.0
  9
$PUCSORGFRONT
 10
0.0
 20
0.0
 30
0.0
  9
$PUCSORGBACK
 10
0.0
 20
0.0
 30
0.0
  9
$USERI1
 70
     0
  9
$USERI2
 70
     0
  9
$USERI3
 70
     0
  9
$USERI4
 70
     0
  9
$USERI5
 70
     0
  9
$USERR1
 40
14.5
  9
$USERR2
 40
0.0
  9
$USERR3
 40
0.0
  9
$USERR4
 40
0.0
  9
$USERR5
 40
0.0
  9
$WORLDVIEW
 70
     1
  9
$SHADEDGE
 70
     3
  9
$SHADEDIF
 70
    70
  9
$TILEMODE
 70
     1
  9
$MAXACTVP
 70
    64
  9
$PINSBASE
 10
0.0
 20
0.0
 30
0.0
  9
$PLIMCHECK
 70
     0
  9
$PEXTMIN
 10
1.00000000000000E+20
 20
1.00000000000000E+20
 30
1.00000000000000E+20
  9
$PEXTMAX
 10
-1.00000000000000E+20
 20
-1.00000000000000E+20
 30
-1.00000000000000E+20
  9
$PLIMMIN
 10
0.0
 20
0.0
  9
$PLIMMAX
 10
12.0
 20
9.0
  9
$UNITMODE
 70
     0
  9
$VISRETAIN
 70
     1
  9
$PLINEGEN
 70
     0
  9
$PSLTSCALE
 70
     1
  9
$TREEDEPTH
 70
  3020
  9
$CMLSTYLE
  2
Standard
  9
$CMLJUST
 70
     0
  9
$CMLSCALE
 40
1.0
  9
$PROXYGRAPHICS
 70
     1
  9
$MEASUREMENT
 70
     1
  9
$CELWEIGHT
370
    -1
  9
$ENDCAPS
280
     0
  9
$JOINSTYLE
280
     0
  9
$LWDISPLAY
290
     0
  9
$INSUNITS
 70
     1
  9
$HYPERLINKBASE
  1

  9
$STYLESHEET
  1

  9
$XEDIT
290
     1
  9
$CEPSNTYPE
380
     0
  9
$PSTYLEMODE
290
     1
  9
$FINGERPRINTGUID
  2
{3301DBBF-D5AF-4DC4-BA06-6658679E0529}
  9
$VERSIONGUID
  2
{FAEB1C32-E019-11D5-929B-00C0DF256EC4}
  9
$EXTNAMES
290
     1
  9
$PSVPSCALE
 40
0.0
  9
$OLESTARTUP
290
     0
  9
$SORTENTS
280
   127
  9
$INDEXCTL
280
     0
  9
$HIDETEXT
280
     1
  9
$XCLIPFRAME
290
     0
  9
$HALOGAP
280
     0
  9
$OBSCOLOR
 70
   257
  9
$OBSLTYPE
280
     0
  9
$INTERSECTIONDISPLAY
280
     0
  9
$INTERSECTIONCOLOR
 70
   257
  9
$DIMASSOC
280
     2
  9
$PROJECTNAME
  1

  0
ENDSEC
  0
SECTION
  2
CLASSES
  0
CLASS
  1
ACDBDICTIONARYWDFLT
  2
AcDbDictionaryWithDefault
  3
ObjectDBX Classes
 90
        0
 91
        3
280
     0
281
     0
  0
CLASS
  1

  2
exOdDbCircle
  3

 90
        0
 91
        3
280
     0
281
     1
  0
CLASS
  1

  2
exOdDbSpline
  3

 90
        0
 91
        3
280
     0
281
     1
  0
ENDSEC
  0
SECTION
  2
TABLES
  0
TABLE
  2
VPORT
  5
8
330
0
100
AcDbSymbolTable
 70
     1
  0
VPORT
  5
29
330
8
100
AcDbSymbolTableRecord
100
AcDbViewportTableRecord
  2
*Active
 70
     0
 10
0.0
 20
0.0
 11
1.0
 21
1.0
 12
11038.81513301895
 22
15107.9736875985
 13
0.0
 23
0.0
 14
0.5
 24
0.5
 15
0.5
 25
0.5
 16
0.0
 26
0.0
 36
1.0
 17
0.0
 27
0.0
 37
0.0
 40
146.2103873729404
 41
1.60267857142857
 42
50.0
 43
0.0
 44
0.0
 50
0.0
 51
0.0
 71
     0
 72
   100
 73
     1
 74
     3
 75
     0
 76
     0
 77
     0
 78
     0
281
     0
 65
     1
110
0.0
120
0.0
130
0.0
111
1.0
121
0.0
131
0.0
112
0.0
122
1.0
132
0.0
 79
     0
146
0.0
  0
ENDTAB
  0
TABLE
  2
LTYPE
  5
5
330
0
100
AcDbSymbolTable
 70
     9
  0
LTYPE
  5
14
330
5
100
AcDbSymbolTableRecord
100
AcDbLinetypeTableRecord
  2
ByBlock
 70
     0
  3

 72
    65
 73
     0
 40
0.0
  0
LTYPE
  5
15
330
5
100
AcDbSymbolTableRecord
100
AcDbLinetypeTableRecord
  2
ByLayer
 70
     0
  3

 72
    65
 73
     0
 40
0.0
  0
LTYPE
  5
16
330
5
100
AcDbSymbolTableRecord
100
AcDbLinetypeTableRecord
  2
Continuous
 70
     0
  3
Solid line
 72
    65
 73
     0
 40
0.0
  0
LTYPE
  5
2A
330
5
100
AcDbSymbolTableRecord
100
AcDbLinetypeTableRecord
  2
DASHED
 70
     0
  3
Dashed
 72
    65
 73
     2
 40
15.0
 49
7.0
 74
     0
 49
-8.0
 74
     0
  0
LTYPE
  5
2B
330
5
100
AcDbSymbolTableRecord
100
AcDbLinetypeTableRecord
  2
DOTTED
 70
     0
  3
Dotted
 72
    65
 73
     2
 40
1.0
 49
0.0
 74
     0
 49
-1.0
 74
     0
  0
LTYPE
  5
2C
330
5
100
AcDbSymbolTableRecord
100
AcDbLinetypeTableRecord
  2
DOT_CENTER
 70
     0
  3
Dot_Center
 72
    65
 73
     4
 40
14.0
 49
12.0
 74
     0
 49
-1.0
 74
     0
 49
0.0
 74
     0
 49
-1.0
 74
     0
  0
LTYPE
  5
2D
330
5
100
AcDbSymbolTableRecord
100
AcDbLinetypeTableRecord
  2
LONG_DASHED
 70
     0
  3
Long_Dashed
 72
    65
 73
     2
 40
15.0
 49
10.0
 74
     0
 49
-5.0
 74
     0
  0
LTYPE
  5
2E
330
5
100
AcDbSymbolTableRecord
100
AcDbLinetypeTableRecord
  2
DASH_CENTER
 70
     0
  3
Dash_Center
 72
    65
 73
     4
 40
14.0
 49
11.0
 74
     0
 49
-1.0
 74
     0
 49
1.0
 74
     0
 49
-1.0
 74
     0
  0
LTYPE
  5
2F
330
5
100
AcDbSymbolTableRecord
100
AcDbLinetypeTableRecord
  2
PHANTOM
 70
     0
  3
Phantom
 72
    65
 73
     6
 40
13.0
 49
10.0
 74
     0
 49
-1.0
 74
     0
 49
0.0
 74
     0
 49
-1.0
 74
     0
 49
0.0
 74
     0
 49
-1.0
 74
     0
  0
LTYPE
  5
30
330
5
100
AcDbSymbolTableRecord
100
AcDbLinetypeTableRecord
  2
CENTER_DASH_DASH
 70
     0
  3
Center_Dash_Dash
 72
    65
 73
     6
 40
14.0
 49
9.0
 74
     0
 49
-1.0
 74
     0
 49
1.0
 74
     0
 49
-1.0
 74
     0
 49
1.0
 74
     0
 49
-1.0
 74
     0
  0
LTYPE
  5
31
330
5
100
AcDbSymbolTableRecord
100
AcDbLinetypeTableRecord
  2
HIDDEN_2
 70
     0
  3
HIDDEN_2
 72
    65
 73
     2
 40
2.0
 49
1.0
 74
     0
 49
-1.0
 74
     0
  0
ENDTAB
  0
TABLE
  2
LAYER
  5
2
330
0
100
AcDbSymbolTable
 70
     3
  0
LAYER
  5
10
330
2
100
AcDbSymbolTableRecord
100
AcDbLayerTableRecord
  2
0
 70
     0
 62
     7
  6
Continuous
370
    -3
390
F
  0
LAYER
  5
32
330
2
100
AcDbSymbolTableRecord
100
AcDbLayerTableRecord
  2
1
 70
     0
 62
     7
  6
Continuous
370
    -3
390
F
  0
LAYER
  5
33
330
2
100
AcDbSymbolTableRecord
100
AcDbLayerTableRecord
  2
DEFAULT_2
 70
     0
 62
     7
  6
Continuous
370
    -3
390
F
  0
ENDTAB
  0
TABLE
  2
STYLE
  5
3
330
0
100
AcDbSymbolTable
 70
     2
  0
STYLE
  5
11
330
3
100
AcDbSymbolTableRecord
100
AcDbTextStyleTableRecord
  2
Standard
 70
     0
 40
0.0
 41
1.0
 50
0.0
 71
     0
 42
0.2
  3
txt
  4

  0
STYLE
  5
9B
330
3
100
AcDbSymbolTableRecord
100
AcDbTextStyleTableRecord
  2
CONVERTER_11
 70
     0
 40
0.0
 41
0.9
 50
0.0
 71
     0
 42
0.2
  3
txt.shx
  4

  0
ENDTAB
  0
TABLE
  2
VIEW
  5
6
330
0
100
AcDbSymbolTable
 70
     0
  0
ENDTAB
  0
TABLE
  2
UCS
  5
7
330
0
100
AcDbSymbolTable
 70
     0
  0
ENDTAB
  0
TABLE
  2
APPID
  5
9
330
0
100
AcDbSymbolTable
 70
     1
  0
APPID
  5
12
330
9
100
AcDbSymbolTableRecord
100
AcDbRegAppTableRecord
  2
ACAD
 70
     0
  0
ENDTAB
  0
TABLE
  2
DIMSTYLE
  5
A
330
0
100
AcDbSymbolTable
 70
    12
100
AcDbDimStyleTable
  0
DIMSTYLE
105
27
330
A
100
AcDbSymbolTableRecord
100
AcDbDimStyleTableRecord
  2
Standard
 70
     0
340
11
  0
DIMSTYLE
105
9F
102
{ACAD_REACTORS
330
A0
102
}
330
A
100
AcDbSymbolTableRecord
100
AcDbDimStyleTableRecord
  2
ME10_DIM_10
 70
     0
 41
3.5
 42
0.0
 44
2.0
 73
     0
 74
     0
 77
     1
 78
     8
140
3.5
147
2.0
172
     1
173
     1
176
     2
177
     2
178
     2
271
     3
340
9B
  0
DIMSTYLE
105
AA
102
{ACAD_REACTORS
330
AB
102
}
330
A
100
AcDbSymbolTableRecord
100
AcDbDimStyleTableRecord
  2
ME10_DIM_11
 70
     0
 41
3.5
 42
0.0
 44
2.0
 73
     0
 74
     0
 77
     1
 78
     8
140
3.5
147
2.0
172
     1
173
     1
176
     2
177
     2
178
     2
271
     3
340
9B
  0
DIMSTYLE
105
B5
102
{ACAD_REACTORS
330
B6
102
}
330
A
100
AcDbSymbolTableRecord
100
AcDbDimStyleTableRecord
  2
ME10_DIM_12
 70
     0
 41
3.5
 42
0.0
 44
2.0
 73
     0
 74
     0
 77
     1
 78
     8
140
3.5
147
2.0
172
     1
173
     1
176
     2
177
     2
178
     2
271
     3
340
9B
  0
DIMSTYLE
105
C0
102
{ACAD_REACTORS
330
C1
102
}
330
A
100
AcDbSymbolTableRecord
100
AcDbDimStyleTableRecord
  2
ME10_DIM_13
 70
     0
  3
ø<>
 41
3.5
 42
0.0
 44
2.0
 73
     0
 74
     0
 77
     1
 78
     8
140
3.5
147
2.0
172
     1
173
     1
176
     2
177
     2
178
     2
271
     3
340
9B
  0
DIMSTYLE
105
CC
102
{ACAD_REACTORS
330
CD
102
}
330
A
100
AcDbSymbolTableRecord
100
AcDbDimStyleTableRecord
  2
ME10_DIM_14
 70
     0
 41
3.5
 42
0.0
 44
2.0
 73
     0
 74
     0
 77
     1
 78
     8
140
3.5
147
2.0
172
     1
173
     1
176
     2
177
     2
178
     2
271
     3
340
9B
  0
DIMSTYLE
105
D7
102
{ACAD_REACTORS
330
D8
102
}
330
A
100
AcDbSymbolTableRecord
100
AcDbDimStyleTableRecord
  2
ME10_DIM_15
 70
     0
 41
3.5
 42
0.0
 44
2.0
 73
     0
 74
     0
 77
     1
 78
     8
140
3.5
147
2.0
172
     1
173
     1
176
     2
177
     2
178
     2
271
     3
340
9B
  0
DIMSTYLE
105
E3
102
{ACAD_REACTORS
330
E4
102
}
330
A
100
AcDbSymbolTableRecord
100
AcDbDimStyleTableRecord
  2
ME10_DIM_16
 70
     0
 41
3.5
 42
0.0
 44
2.0
 73
     0
 74
     0
 77
     1
 78
     8
140
3.5
147
2.0
172
     1
173
     1
176
     2
177
     2
178
     2
271
     3
340
9B
  0
DIMSTYLE
105
EE
102
{ACAD_REACTORS
330
EF
102
}
330
A
100
AcDbSymbolTableRecord
100
AcDbDimStyleTableRecord
  2
ME10_DIM_17
 70
     0
 41
3.5
 42
0.0
 44
2.0
 73
     0
 74
     0
 77
     1
 78
     8
140
3.5
147
2.0
172
     1
173
     1
176
     2
177
     2
178
     2
271
     3
340
9B
  0
DIMSTYLE
105
FB
102
{ACAD_REACTORS
330
FC
102
}
330
A
100
AcDbSymbolTableRecord
100
AcDbDimStyleTableRecord
  2
ME10_DIM_18
 70
     0
 41
3.5
 42
0.0
 44
2.0
 73
     0
 74
     0
 77
     1
 78
     8
140
3.5
147
2.0
172
     1
173
     1
176
     2
177
     2
178
     2
271
     3
340
9B
  0
DIMSTYLE
105
106
102
{ACAD_REACTORS
330
107
102
}
330
A
100
AcDbSymbolTableRecord
100
AcDbDimStyleTableRecord
  2
ME10_DIM_19
 70
     0
 41
3.5
 42
0.0
 44
2.0
 73
     0
 74
     0
 77
     1
 78
     8
140
3.5
147
2.0
172
     1
173
     1
176
     2
177
     2
178
     2
271
     3
340
9B
  0
DIMSTYLE
105
112
102
{ACAD_REACTORS
330
113
102
}
330
A
100
AcDbSymbolTableRecord
100
AcDbDimStyleTableRecord
  2
ME10_DIM_20
 70
     0
 41
3.5
 42
0.0
 44
2.0
 73
     0
 74
     0
 77
     1
 78
     8
140
3.5
147
2.0
172
     1
173
     1
176
     2
177
     2
178
     2
271
     3
340
9B
  0
ENDTAB
  0
TABLE
  2
BLOCK_RECORD
  5
1
330
0
100
AcDbSymbolTable
 70
    12
  0
BLOCK_RECORD
  5
1F
330
1
100
AcDbSymbolTableRecord
100
AcDbBlockTableRecord
  2
*Model_Space
340
22
  0
BLOCK_RECORD
  5
1B
330
1
100
AcDbSymbolTableRecord
100
AcDbBlockTableRecord
  2
*Paper_Space
340
1E
  0
BLOCK_RECORD
  5
23
330
1
100
AcDbSymbolTableRecord
100
AcDbBlockTableRecord
  2
*Paper_Space0
340
26
  0
BLOCK_RECORD
  5
95
330
1
100
AcDbSymbolTableRecord
100
AcDbBlockTableRecord
  2
*D1
340
0
  0
BLOCK_RECORD
  5
A1
330
1
100
AcDbSymbolTableRecord
100
AcDbBlockTableRecord
  2
*D2
340
0
  0
BLOCK_RECORD
  5
AC
330
1
100
AcDbSymbolTableRecord
100
AcDbBlockTableRecord
  2
*D3
340
0
  0
BLOCK_RECORD
  5
B7
330
1
100
AcDbSymbolTableRecord
100
AcDbBlockTableRecord
  2
*D4
340
0
  0
BLOCK_RECORD
  5
C2
330
1
100
AcDbSymbolTableRecord
100
AcDbBlockTableRecord
  2
*D5
340
0
  0
BLOCK_RECORD
  5
CE
330
1
100
AcDbSymbolTableRecord
100
AcDbBlockTableRecord
  2
*D6
340
0
  0
BLOCK_RECORD
  5
D9
330
1
100
AcDbSymbolTableRecord
100
AcDbBlockTableRecord
  2
*D7
340
0
  0
BLOCK_RECORD
  5
E5
330
1
100
AcDbSymbolTableRecord
100
AcDbBlockTableRecord
  2
*D8
340
0
  0
BLOCK_RECORD
  5
F0
330
1
100
AcDbSymbolTableRecord
100
AcDbBlockTableRecord
  2
*D9
340
0
  0
BLOCK_RECORD
  5
FD
330
1
100
AcDbSymbolTableRecord
100
AcDbBlockTableRecord
  2
*D10
340
0
  0
BLOCK_RECORD
  5
108
330
1
100
AcDbSymbolTableRecord
100
AcDbBlockTableRecord
  2
*D11
340
0
  0
ENDTAB
  0
ENDSEC
  0
SECTION
  2
BLOCKS
  0
BLOCK
  5
20
330
1F
100
AcDbEntity
  8
0
100
AcDbBlockBegin
  2
*Model_Space
 70
     0
 71
     0
 10
0.0
 20
0.0
 30
0.0
  3
*Model_Space
  1

  0
ENDBLK
  5
21
330
1F
100
AcDbEntity
  8
0
100
AcDbBlockEnd
  0
BLOCK
  5
1C
330
1B
100
AcDbEntity
 67
     1
  8
0
100
AcDbBlockBegin
  2
*Paper_Space
 70
     0
 71
     0
 10
0.0
 20
0.0
 30
0.0
  3
*Paper_Space
  1

  0
ENDBLK
  5
1D
330
1B
100
AcDbEntity
 67
     1
  8
0
100
AcDbBlockEnd
  0
BLOCK
  5
24
330
23
100
AcDbEntity
  8
0
100
AcDbBlockBegin
  2
*Paper_Space0
 70
     0
 71
     0
 10
0.0
 20
0.0
 30
0.0
  3
*Paper_Space0
  1

  0
ENDBLK
  5
25
330
23
100
AcDbEntity
  8
0
100
AcDbBlockEnd
  0
BLOCK
  5
9D
330
95
100
AcDbEntity
  8
0
100
AcDbBlockBegin
  2
*D1
 70
     1
 71
     0
 10
0.0
 20
0.0
 30
0.0
  3
*D1
  1

  0
LINE
  5
96
330
95
100
AcDbEntity
  8
1
  6
Continuous
 62
     2
100
AcDbLine
 10
11080.4856054461
 20
15145.9420987066
 30
0.0
 11
11080.4856054461
 21
15116.9420987066
 31
0.0
  0
LINE
  5
97
330
95
100
AcDbEntity
  8
1
  6
Continuous
 62
     2
100
AcDbLine
 10
11073.93971698379
 20
15145.9420987066
 30
0.0
 11
11082.4856054461
 21
15145.9420987066
 31
0.0
  0
LINE
  5
98
330
95
100
AcDbEntity
  8
1
  6
Continuous
 62
     2
100
AcDbLine
 10
11073.93971698379
 20
15116.9420987066
 30
0.0
 11
11082.4856054461
 21
15116.9420987066
 31
0.0
  0
SOLID
  5
99
330
95
100
AcDbEntity
  8
1
 62
     2
100
AcDbTrace
 10
11080.94638918765
 20
15142.4420987066
 30
0.0
 11
11080.02482170454
 21
15142.4420987066
 31
0.0
 12
11080.4856054461
 22
15145.9420987066
 32
0.0
 13
11080.4856054461
 23
15145.9420987066
 33
0.0
  0
SOLID
  5
9A
330
95
100
AcDbEntity
  8
1
 62
     2
100
AcDbTrace
 10
11080.02482170454
 20
15120.4420987066
 30
0.0
 11
11080.94638918765
 21
15120.4420987066
 31
0.0
 12
11080.4856054461
 22
15116.9420987066
 32
0.0
 13
11080.4856054461
 23
15116.9420987066
 33
0.0
  0
MTEXT
  5
9C
330
95
100
AcDbEntity
  8
1
 62
     2
100
AcDbMText
 10
11078.4856054461
 20
15128.7771038098
 30
0.0
 40
3.5
 41
0.0
 71
     7
 72
     1
  1
29
  7
CONVERTER_11
 11
0.0
 21
1.0
 31
0.0
 73
     1
 44
0.60024009603842
  0
ENDBLK
  5
9E
330
95
100
AcDbEntity
  8
0
100
AcDbBlockEnd
  0
BLOCK
  5
A8
330
A1
100
AcDbEntity
  8
0
100
AcDbBlockBegin
  2
*D2
 70
     1
 71
     0
 10
0.0
 20
0.0
 30
0.0
  3
*D2
  1

  0
LINE
  5
A2
330
A1
100
AcDbEntity
  8
1
  6
Continuous
 62
     2
100
AcDbLine
 10
11068.2802989172
 20
15136.4420987066
 30
0.0
 11
11068.2802989172
 21
15126.4420987066
 31
0.0
  0
LINE
  5
A3
330
A1
100
AcDbEntity
  8
1
  6
Continuous
 62
     2
100
AcDbLine
 10
11063.19054095812
 20
15136.4420987066
 30
0.0
 11
11070.2802989172
 21
15136.4420987066
 31
0.0
  0
LINE
  5
A4
330
A1
100
AcDbEntity
  8
1
  6
Continuous
 62
     2
100
AcDbLine
 10
11063.19054095812
 20
15126.4420987066
 30
0.0
 11
11070.2802989172
 21
15126.4420987066
 31
0.0
  0
SOLID
  5
A5
330
A1
100
AcDbEntity
  8
1
 62
     2
100
AcDbTrace
 10
11068.74108265875
 20
15132.9420987066
 30
0.0
 11
11067.81951517564
 21
15132.9420987066
 31
0.0
 12
11068.2802989172
 22
15136.4420987066
 32
0.0
 13
11068.2802989172
 23
15136.4420987066
 33
0.0
  0
SOLID
  5
A6
330
A1
100
AcDbEntity
  8
1
 62
     2
100
AcDbTrace
 10
11067.81951517564
 20
15129.9420987066
 30
0.0
 11
11068.74108265875
 21
15129.9420987066
 31
0.0
 12
11068.2802989172
 22
15126.4420987066
 32
0.0
 13
11068.2802989172
 23
15126.4420987066
 33
0.0
  0
MTEXT
  5
A7
330
A1
100
AcDbEntity
  8
1
 62
     2
100
AcDbMText
 10
11066.2802989172
 20
15129.3021038098
 30
0.0
 40
3.5
 41
0.0
 71
     7
 72
     1
  1
10
  7
CONVERTER_11
 11
0.0
 21
1.0
 31
0.0
 73
     1
 44
0.60024009603842
  0
ENDBLK
  5
A9
330
A1
100
AcDbEntity
  8
0
100
AcDbBlockEnd
  0
BLOCK
  5
B3
330
AC
100
AcDbEntity
  8
0
100
AcDbBlockBegin
  2
*D3
 70
     1
 71
     0
 10
0.0
 20
0.0
 30
0.0
  3
*D3
  1

  0
LINE
  5
AD
330
AC
100
AcDbEntity
  8
1
  6
Continuous
 62
     2
100
AcDbLine
 10
11030.671046878
 20
15143.4420987066
 30
0.0
 11
11030.671046878
 21
15119.4420987066
 31
0.0
  0
LINE
  5
AE
330
AC
100
AcDbEntity
  8
1
  6
Continuous
 62
     2
100
AcDbLine
 10
11031.72343508177
 20
15143.4420987066
 30
0.0
 11
11028.671046878
 21
15143.4420987066
 31
0.0
  0
LINE
  5
AF
330
AC
100
AcDbEntity
  8
1
  6
Continuous
 62
     2
100
AcDbLine
 10
11031.72343508177
 20
15119.4420987066
 30
0.0
 11
11028.671046878
 21
15119.4420987066
 31
0.0
  0
SOLID
  5
B0
330
AC
100
AcDbEntity
  8
1
 62
     2
100
AcDbTrace
 10
11031.13183061956
 20
15139.9420987066
 30
0.0
 11
11030.21026313645
 21
15139.9420987066
 31
0.0
 12
11030.671046878
 22
15143.4420987066
 32
0.0
 13
11030.671046878
 23
15143.4420987066
 33
0.0
  0
SOLID
  5
B1
330
AC
100
AcDbEntity
  8
1
 62
     2
100
AcDbTrace
 10
11030.21026313645
 20
15122.9420987066
 30
0.0
 11
11031.13183061956
 21
15122.9420987066
 31
0.0
 12
11030.671046878
 22
15119.4420987066
 32
0.0
 13
11030.671046878
 23
15119.4420987066
 33
0.0
  0
MTEXT
  5
B2
330
AC
100
AcDbEntity
  8
1
 62
     2
100
AcDbMText
 10
11028.671046878
 20
15129.3872870686
 30
0.0
 40
3.5
 41
0.0
 71
     7
 72
     1
  1
24
  7
CONVERTER_11
 11
0.0
 21
1.0
 31
0.0
 73
     1
 44
0.60024009603842
  0
ENDBLK
  5
B4
330
AC
100
AcDbEntity
  8
0
100
AcDbBlockEnd
  0
BLOCK
  5
BE
330
B7
100
AcDbEntity
  8
0
100
AcDbBlockBegin
  2
*D4
 70
     1
 71
     0
 10
0.0
 20
0.0
 30
0.0
  3
*D4
  1

  0
LINE
  5
B8
330
B7
100
AcDbEntity
  8
1
  6
Continuous
 62
     2
100
AcDbLine
 10
10996.87343508177
 20
15043.5144206108
 30
0.0
 11
11017.87343508177
 21
15043.5144206108
 31
0.0
  0
LINE
  5
B9
330
B7
100
AcDbEntity
  8
1
  6
Continuous
 62
     2
100
AcDbLine
 10
10996.87343508177
 20
15056.9420987066
 30
0.0
 11
10996.87343508177
 21
15041.5144206108
 31
0.0
  0
LINE
  5
BA
330
B7
100
AcDbEntity
  8
1
  6
Continuous
 62
     2
100
AcDbLine
 10
11017.87343508177
 20
15056.9420987066
 30
0.0
 11
11017.87343508177
 21
15041.5144206108
 31
0.0
  0
SOLID
  5
BB
330
B7
100
AcDbEntity
  8
1
 62
     2
100
AcDbTrace
 10
11000.37343508177
 20
15043.97520435235
 30
0.0
 11
11000.37343508177
 21
15043.05363686924
 31
0.0
 12
10996.87343508177
 22
15043.5144206108
 32
0.0
 13
10996.87343508177
 23
15043.5144206108
 33
0.0
  0
SOLID
  5
BC
330
B7
100
AcDbEntity
  8
1
 62
     2
100
AcDbTrace
 10
11014.37343508177
 20
15043.05363686924
 30
0.0
 11
11014.37343508177
 21
15043.97520435235
 31
0.0
 12
11017.87343508177
 22
15043.5144206108
 32
0.0
 13
11017.87343508177
 23
15043.5144206108
 33
0.0
  0
MTEXT
  5
BD
330
B7
100
AcDbEntity
  8
1
 62
     2
100
AcDbMText
 10
11004.28136903516
 20
15045.51441365372
 30
0.0
 40
3.5
 41
0.0
 71
     7
 72
     1
  1
\C2;ø\C2;21
  7
CONVERTER_11
 11
0.9999999999970621
 21
2.424068405545307E-6
 31
0.0
 73
     1
 44
0.60024009603842
  0
ENDBLK
  5
BF
330
B7
100
AcDbEntity
  8
0
100
AcDbBlockEnd
  0
BLOCK
  5
CA
330
C2
100
AcDbEntity
  8
0
100
AcDbBlockBegin
  2
*D5
 70
     1
 71
     0
 10
0.0
 20
0.0
 30
0.0
  3
*D5
  1

  0
LINE
  5
C3
330
C2
100
AcDbEntity
  8
1
  6
Continuous
 62
     2
100
AcDbLine
 10
10976.4477077202
 20
15131.4420987066
 30
0.0
 11
10976.4477077202
 21
15068.4420987066
 31
0.0
  0
LINE
  5
C4
330
C2
100
AcDbEntity
  8
1
  6
Continuous
 62
     2
100
AcDbLine
 10
10979.3257846495
 20
15131.4420987066
 30
0.0
 11
10974.4477077202
 21
15131.4420987066
 31
0.0
  0
LINE
  5
C5
330
C2
100
AcDbEntity
  8
1
  6
Continuous
 62
     2
100
AcDbLine
 10
11003.12971698379
 20
15131.4420987066
 30
0.0
 11
10988.7413649669
 21
15131.4420987066
 31
0.0
  0
LINE
  5
C6
330
C2
100
AcDbEntity
  8
1
  6
Continuous
 62
     2
100
AcDbLine
 10
11003.12971698379
 20
15068.4420987066
 30
0.0
 11
10974.4477077202
 21
15068.4420987066
 31
0.0
  0
SOLID
  5
C7
330
C2
100
AcDbEntity
  8
1
 62
     2
100
AcDbTrace
 10
10976.90849146175
 20
15127.9420987066
 30
0.0
 11
10975.98692397864
 21
15127.9420987066
 31
0.0
 12
10976.4477077202
 22
15131.4420987066
 32
0.0
 13
10976.4477077202
 23
15131.4420987066
 33
0.0
  0
SOLID
  5
C8
330
C2
100
AcDbEntity
  8
1
 62
     2
100
AcDbTrace
 10
10975.98692397864
 20
15071.9420987066
 30
0.0
 11
10976.90849146175
 21
15071.9420987066
 31
0.0
 12
10976.4477077202
 22
15068.4420987066
 32
0.0
 13
10976.4477077202
 23
15068.4420987066
 33
0.0
  0
MTEXT
  5
C9
330
C2
100
AcDbEntity
  8
1
 62
     2
100
AcDbMText
 10
10974.4477077202
 20
15094.18289337414
 30
0.0
 40
3.5
 41
0.0
 71
     7
 72
     1
  1
63
  7
CONVERTER_11
 11
0.0
 21
1.0
 31
0.0
 73
     1
 44
0.60024009603842
  0
ENDBLK
  5
CB
330
C2
100
AcDbEntity
  8
0
100
AcDbBlockEnd
  0
BLOCK
  5
D5
330
CE
100
AcDbEntity
  8
0
100
AcDbBlockBegin
  2
*D6
 70
     1
 71
     0
 10
0.0
 20
0.0
 30
0.0
  3
*D6
  1

  0
LINE
  5
CF
330
CE
100
AcDbEntity
  8
1
  6
Continuous
 62
     2
100
AcDbLine
 10
10986.1421035328
 20
15149.4420987066
 30
0.0
 11
10986.1421035328
 21
15113.4420987066
 31
0.0
  0
LINE
  5
D0
330
CE
100
AcDbEntity
  8
1
  6
Continuous
 62
     2
100
AcDbLine
 10
10999.82971698379
 20
15149.4420987066
 30
0.0
 11
10984.1421035328
 21
15149.4420987066
 31
0.0
  0
LINE
  5
D1
330
CE
100
AcDbEntity
  8
1
  6
Continuous
 62
     2
100
AcDbLine
 10
10999.82971698379
 20
15113.4420987066
 30
0.0
 11
10984.1421035328
 21
15113.4420987066
 31
0.0
  0
SOLID
  5
D2
330
CE
100
AcDbEntity
  8
1
 62
     2
100
AcDbTrace
 10
10986.60288727436
 20
15145.9420987066
 30
0.0
 11
10985.68131979125
 21
15145.9420987066
 31
0.0
 12
10986.1421035328
 22
15149.4420987066
 32
0.0
 13
10986.1421035328
 23
15149.4420987066
 33
0.0
  0
SOLID
  5
D3
330
CE
100
AcDbEntity
  8
1
 62
     2
100
AcDbTrace
 10
10985.68131979125
 20
15116.9420987066
 30
0.0
 11
10986.60288727436
 21
15116.9420987066
 31
0.0
 12
10986.1421035328
 22
15113.4420987066
 32
0.0
 13
10986.1421035328
 23
15113.4420987066
 33
0.0
  0
MTEXT
  5
D4
330
CE
100
AcDbEntity
  8
1
 62
     2
100
AcDbMText
 10
10984.1421035328
 20
15130.93210789252
 30
0.0
 40
3.5
 41
0.0
 71
     7
 72
     1
  1
36
  7
CONVERTER_11
 11
0.0
 21
1.0
 31
0.0
 73
     1
 44
0.60024009603842
  0
ENDBLK
  5
D6
330
CE
100
AcDbEntity
  8
0
100
AcDbBlockEnd
  0
BLOCK
  5
E1
330
D9
100
AcDbEntity
  8
0
100
AcDbBlockBegin
  2
*D7
 70
     1
 71
     0
 10
0.0
 20
0.0
 30
0.0
  3
*D7
  1

  0
LINE
  5
DA
330
D9
100
AcDbEntity
  8
1
  6
Continuous
 62
     2
100
AcDbLine
 10
11104.6825583177
 20
15105.9420987066
 30
0.0
 11
11104.6825583177
 21
15056.9420987066
 31
0.0
  0
LINE
  5
DB
330
D9
100
AcDbEntity
  8
1
  6
Continuous
 62
     2
100
AcDbLine
 10
11018.62971698379
 20
15105.9420987066
 30
0.0
 11
11082.6993987441
 21
15105.9420987066
 31
0.0
  0
LINE
  5
DC
330
D9
100
AcDbEntity
  8
1
  6
Continuous
 62
     2
100
AcDbLine
 10
11086.9347762197
 20
15105.9420987066
 30
0.0
 11
11106.6825583177
 21
15105.9420987066
 31
0.0
  0
LINE
  5
DD
330
D9
100
AcDbEntity
  8
1
  6
Continuous
 62
     2
100
AcDbLine
 10
11017.6797169838
 20
15056.9420987066
 30
0.0
 11
11106.6825583177
 21
15056.9420987066
 31
0.0
  0
SOLID
  5
DE
330
D9
100
AcDbEntity
  8
1
 62
     2
100
AcDbTrace
 10
11105.14334205925
 20
15102.4420987066
 30
0.0
 11
11104.22177457614
 21
15102.4420987066
 31
0.0
 12
11104.6825583177
 22
15105.9420987066
 32
0.0
 13
11104.6825583177
 23
15105.9420987066
 33
0.0
  0
SOLID
  5
DF
330
D9
100
AcDbEntity
  8
1
 62
     2
100
AcDbTrace
 10
11104.22177457614
 20
15060.4420987066
 30
0.0
 11
11105.14334205925
 21
15060.4420987066
 31
0.0
 12
11104.6825583177
 22
15056.9420987066
 32
0.0
 13
11104.6825583177
 23
15056.9420987066
 33
0.0
  0
MTEXT
  5
E0
330
D9
100
AcDbEntity
  8
1
 62
     2
100
AcDbMText
 10
11102.6825583177
 20
15079.1545781208
 30
0.0
 40
3.5
 41
0.0
 71
     7
 72
     1
  1
49
  7
CONVERTER_11
 11
0.0
 21
1.0
 31
0.0
 73
     1
 44
0.60024009603842
  0
ENDBLK
  5
E2
330
D9
100
AcDbEntity
  8
0
100
AcDbBlockEnd
  0
BLOCK
  5
EC
330
E5
100
AcDbEntity
  8
0
100
AcDbBlockBegin
  2
*D8
 70
     1
 71
     0
 10
0.0
 20
0.0
 30
0.0
  3
*D8
  1

  0
LINE
  5
E6
330
E5
100
AcDbEntity
  8
1
  6
Continuous
 62
     2
100
AcDbLine
 10
11104.5649063939
 20
15155.9420987066
 30
0.0
 11
11104.5649063939
 21
15106.9420987066
 31
0.0
  0
LINE
  5
E7
330
E5
100
AcDbEntity
  8
1
  6
Continuous
 62
     2
100
AcDbLine
 10
11072.37343508177
 20
15155.9420987066
 30
0.0
 11
11106.5649063939
 21
15155.9420987066
 31
0.0
  0
LINE
  5
E8
330
E5
100
AcDbEntity
  8
1
  6
Continuous
 62
     2
100
AcDbLine
 10
11072.37343508177
 20
15106.9420987066
 30
0.0
 11
11106.5649063939
 21
15106.9420987066
 31
0.0
  0
SOLID
  5
E9
330
E5
100
AcDbEntity
  8
1
 62
     2
100
AcDbTrace
 10
11105.02569013546
 20
15152.4420987066
 30
0.0
 11
11104.10412265234
 21
15152.4420987066
 31
0.0
 12
11104.5649063939
 22
15155.9420987066
 32
0.0
 13
11104.5649063939
 23
15155.9420987066
 33
0.0
  0
SOLID
  5
EA
330
E5
100
AcDbEntity
  8
1
 62
     2
100
AcDbTrace
 10
11104.10412265234
 20
15110.4420987066
 30
0.0
 11
11105.02569013546
 21
15110.4420987066
 31
0.0
 12
11104.5649063939
 22
15106.9420987066
 32
0.0
 13
11104.5649063939
 23
15106.9420987066
 33
0.0
  0
MTEXT
  5
EB
330
E5
100
AcDbEntity
  8
1
 62
     2
100
AcDbMText
 10
11102.5649063939
 20
15128.6327739934
 30
0.0
 40
3.5
 41
0.0
 71
     7
 72
     1
  1
49
  7
CONVERTER_11
 11
0.0
 21
1.0
 31
0.0
 73
     1
 44
0.60024009603842
  0
ENDBLK
  5
ED
330
E5
100
AcDbEntity
  8
0
100
AcDbBlockEnd
  0
BLOCK
  5
F9
330
F0
100
AcDbEntity
  8
0
100
AcDbBlockBegin
  2
*D9
 70
     1
 71
     0
 10
0.0
 20
0.0
 30
0.0
  3
*D9
  1

  0
LINE
  5
F1
330
F0
100
AcDbEntity
  8
1
  6
Continuous
 62
     2
100
AcDbLine
 10
11094.5989374787
 20
15105.9420987066
 30
0.0
 11
11094.5989374787
 21
15098.9420987066
 31
0.0
  0
LINE
  5
F2
330
F0
100
AcDbEntity
  8
1
  6
Continuous
 62
     2
100
AcDbLine
 10
11094.5989374787
 20
15106.9420987066
 30
0.0
 11
11094.5989374787
 21
15105.9420987066
 31
0.0
  0
LINE
  5
F3
330
F0
100
AcDbEntity
  8
1
  6
Continuous
 62
     2
100
AcDbLine
 10
11094.5989374787
 20
15113.9420987066
 30
0.0
 11
11094.5989374787
 21
15106.9420987066
 31
0.0
  0
LINE
  5
F4
330
F0
100
AcDbEntity
  8
1
  6
Continuous
 62
     2
100
AcDbLine
 10
10997.03974228039
 20
15106.9420987066
 30
0.0
 11
11096.5989374787
 21
15106.9420987066
 31
0.0
  0
LINE
  5
F5
330
F0
100
AcDbEntity
  8
1
  6
Continuous
 62
     2
100
AcDbLine
 10
11018.62971698379
 20
15105.9420987066
 30
0.0
 11
11096.5989374787
 21
15105.9420987066
 31
0.0
  0
SOLID
  5
F6
330
F0
100
AcDbEntity
  8
1
 62
     2
100
AcDbTrace
 10
11094.13815373715
 20
15110.4420987066
 30
0.0
 11
11095.05972122026
 21
15110.4420987066
 31
0.0
 12
11094.5989374787
 22
15106.9420987066
 32
0.0
 13
11094.5989374787
 23
15106.9420987066
 33
0.0
  0
SOLID
  5
F7
330
F0
100
AcDbEntity
  8
1
 62
     2
100
AcDbTrace
 10
11095.05972122026
 20
15102.4420987066
 30
0.0
 11
11094.13815373715
 21
15102.4420987066
 31
0.0
 12
11094.5989374787
 22
15105.9420987066
 32
0.0
 13
11094.5989374787
 23
15105.9420987066
 33
0.0
  0
MTEXT
  5
F8
330
F0
100
AcDbEntity
  8
1
 62
     2
100
AcDbMText
 10
11092.5989374787
 20
15109.4166738136
 30
0.0
 40
3.5
 41
0.0
 71
     7
 72
     1
  1
1
  7
CONVERTER_11
 11
0.0
 21
1.0
 31
0.0
 73
     1
 44
0.60024009603842
  0
ENDBLK
  5
FA
330
F0
100
AcDbEntity
  8
0
100
AcDbBlockEnd
  0
BLOCK
  5
104
330
FD
100
AcDbEntity
  8
0
100
AcDbBlockBegin
  2
*D10
 70
     1
 71
     0
 10
0.0
 20
0.0
 30
0.0
  3
*D10
  1

  0
LINE
  5
FE
330
FD
100
AcDbEntity
  8
1
  6
Continuous
 62
     2
100
AcDbLine
 10
11007.37343508177
 20
15168.9329545862
 30
0.0
 11
11022.37343508176
 21
15168.9329545862
 31
0.0
  0
LINE
  5
FF
330
FD
100
AcDbEntity
  8
1
  6
Continuous
 62
     2
100
AcDbLine
 10
11022.37343508176
 20
15152.7370987066
 30
0.0
 11
11022.37343508176
 21
15170.9329545862
 31
0.0
  0
LINE
  5
100
330
FD
100
AcDbEntity
  8
1
  6
Continuous
 62
     2
100
AcDbLine
 10
11007.37343508177
 20
15160.88219091664
 30
0.0
 11
11007.37343508177
 21
15170.9329545862
 31
0.0
  0
SOLID
  5
101
330
FD
100
AcDbEntity
  8
1
 62
     2
100
AcDbTrace
 10
11010.87343508177
 20
15169.39373832776
 30
0.0
 11
11010.87343508177
 21
15168.47217084465
 31
0.0
 12
11007.37343508177
 22
15168.9329545862
 32
0.0
 13
11007.37343508177
 23
15168.9329545862
 33
0.0
  0
SOLID
  5
102
330
FD
100
AcDbEntity
  8
1
 62
     2
100
AcDbTrace
 10
11018.87343508176
 20
15168.47217084465
 30
0.0
 11
11018.87343508176
 21
15169.39373832776
 31
0.0
 12
11022.37343508176
 22
15168.9329545862
 32
0.0
 13
11022.37343508176
 23
15168.9329545862
 33
0.0
  0
MTEXT
  5
103
330
FD
100
AcDbEntity
  8
1
 62
     2
100
AcDbMText
 10
11012.81459778014
 20
15170.9329545862
 30
0.0
 40
3.5
 41
0.0
 71
     7
 72
     1
  1
15
  7
CONVERTER_11
 11
0.9999999999970621
 21
2.424068405545307E-6
 31
0.0
 73
     1
 44
0.60024009603842
  0
ENDBLK
  5
105
330
FD
100
AcDbEntity
  8
0
100
AcDbBlockEnd
  0
BLOCK
  5
110
330
108
100
AcDbEntity
  8
0
100
AcDbBlockBegin
  2
*D11
 70
     1
 71
     0
 10
0.0
 20
0.0
 30
0.0
  3
*D11
  1

  0
LINE
  5
109
330
108
100
AcDbEntity
  8
1
  6
Continuous
 62
     2
100
AcDbLine
 10
11084.37343508176
 20
15043.5144206108
 30
0.0
 11
11017.87343508177
 21
15043.5144206108
 31
0.0
  0
LINE
  5
10A
330
108
100
AcDbEntity
  8
1
  6
Continuous
 62
     2
100
AcDbLine
 10
11084.37343508176
 20
15118.9420987066
 30
0.0
 11
11084.37343508176
 21
15058.9129654735
 31
0.0
  0
LINE
  5
10B
330
108
100
AcDbEntity
  8
1
  6
Continuous
 62
     2
100
AcDbLine
 10
11084.37343508176
 20
15054.2361610284
 30
0.0
 11
11084.37343508176
 21
15041.5144206108
 31
0.0
  0
LINE
  5
10C
330
108
100
AcDbEntity
  8
1
  6
Continuous
 62
     2
100
AcDbLine
 10
11017.87343508177
 20
15056.9420987066
 30
0.0
 11
11017.87343508177
 21
15041.5144206108
 31
0.0
  0
SOLID
  5
10D
330
108
100
AcDbEntity
  8
1
 62
     2
100
AcDbTrace
 10
11080.87343508176
 20
15043.05363686924
 30
0.0
 11
11080.87343508176
 21
15043.97520435235
 31
0.0
 12
11084.37343508176
 22
15043.5144206108
 32
0.0
 13
11084.37343508176
 23
15043.5144206108
 33
0.0
  0
SOLID
  5
10E
330
108
100
AcDbEntity
  8
1
 62
     2
100
AcDbTrace
 10
11021.37343508177
 20
15043.97520435235
 30
0.0
 11
11021.37343508177
 21
15043.05363686924
 31
0.0
 12
11017.87343508177
 22
15043.5144206108
 32
0.0
 13
11017.87343508177
 23
15043.5144206108
 33
0.0
  0
MTEXT
  5
10F
330
108
100
AcDbEntity
  8
1
 62
     2
100
AcDbMText
 10
11041.59126691678
 20
15045.5144206108
 30
0.0
 40
3.5
 41
0.0
 71
     7
 72
     1
  1
66.5
  7
CONVERTER_11
 11
0.9999999999970621
 21
2.424068405545307E-6
 31
0.0
 73
     1
 44
0.60024009603842
  0
ENDBLK
  5
111
330
108
100
AcDbEntity
  8
0
100
AcDbBlockEnd
  0
ENDSEC
  0
SECTION
  2
ENTITIES
  0
POINT
  5
34
330
1F
100
AcDbEntity
  8
1
 62
     3
 60
     1
100
AcDbPoint
 10
11007.37343508177
 20
15106.97366185079
 30
0.0
  0
POINT
  5
35
330
1F
100
AcDbEntity
  8
1
 62
     3
 60
     1
100
AcDbPoint
 10
10998.23971698379
 20
15157.9420987066
 30
0.0
  0
POINT
  5
36
330
1F
100
AcDbEntity
  8
1
 62
     3
 60
     1
100
AcDbPoint
 10
11017.6797169838
 20
15056.9420987066
 30
0.0
  0
POINT
  5
37
330
1F
100
AcDbEntity
  8
1
 62
     3
 60
     1
100
AcDbPoint
 10
11007.37343508177
 20
15053.06513278493
 30
0.0
  0
POINT
  5
38
330
1F
100
AcDbEntity
  8
1
 62
     3
 60
     1
100
AcDbPoint
 10
11007.37343508177
 20
15160.88219091664
 30
0.0
  0
LINE
  5
39
330
1F
100
AcDbEntity
  8
0
  6
Continuous
 62
     7
100
AcDbLine
 10
11017.36715317975
 20
15106.9420987066
 30
0.0
 11
11017.36715317975
 21
15105.9420987066
 31
0.0
  0
LINE
  5
3A
330
1F
100
AcDbEntity
  8
0
  6
Continuous
 62
     7
100
AcDbLine
 10
11017.7159490755
 20
15155.9420987066
 30
0.0
 11
11072.37343508177
 21
15155.9420987066
 31
0.0
  0
LINE
  5
3B
330
1F
100
AcDbEntity
  8
1
  6
DOT_CENTER
 62
     2
100
AcDbLine
 10
11059.82343508177
 20
15119.4420987066
 30
0.0
 11
11044.72343508177
 21
15119.4420987066
 31
0.0
  0
LINE
  5
3C
330
1F
100
AcDbEntity
  8
1
  6
DOT_CENTER
 62
     2
100
AcDbLine
 10
11046.82343508177
 20
15119.4420987066
 30
0.0
 11
11031.72343508177
 21
15119.4420987066
 31
0.0
  0
LINE
  5
3D
330
1F
100
AcDbEntity
  8
1
  6
Continuous
 62
     7
100
AcDbLine
 10
10998.23971698379
 20
15157.9420987066
 30
0.0
 11
11016.8397169838
 21
15157.9420987066
 31
0.0
  0
LINE
  5
3E
330
1F
100
AcDbEntity
  8
0
  6
Continuous
 62
     7
100
AcDbLine
 10
10997.0397169838
 20
15155.9420987066
 30
0.0
 11
11017.7159490755
 21
15155.9420987066
 31
0.0
  0
LINE
  5
3F
330
1F
100
AcDbEntity
  8
1
  6
Continuous
 62
     7
100
AcDbLine
 10
11017.6797169838
 20
15056.9420987066
 30
0.0
 11
11017.87343508177
 21
15056.9420987066
 31
0.0
  0
LINE
  5
40
330
1F
100
AcDbEntity
  8
1
  6
Continuous
 62
     7
100
AcDbLine
 10
10997.07971698379
 20
15056.9420987066
 30
0.0
 11
11017.6797169838
 21
15056.9420987066
 31
0.0
  0
LINE
  5
41
330
1F
100
AcDbEntity
  8
1
  6
Continuous
 62
     7
100
AcDbLine
 10
10996.87343508177
 20
15056.9420987066
 30
0.0
 11
10997.07971698379
 21
15056.9420987066
 31
0.0
  0
LINE
  5
42
330
1F
100
AcDbEntity
  8
1
  6
DOT_CENTER
 62
     2
100
AcDbLine
 10
11007.37343508177
 20
15053.06513278493
 30
0.0
 11
11007.37343508177
 21
15160.88219091664
 31
0.0
  0
LINE
  5
43
330
1F
100
AcDbEntity
  8
0
  6
Continuous
 62
     2
100
AcDbLine
 10
10997.03974228039
 20
15106.9420987066
 30
0.0
 11
11017.7159490755
 21
15106.9420987066
 31
0.0
  0
LINE
  5
44
330
1F
100
AcDbEntity
  8
1
  6
DOT_CENTER
 62
     2
100
AcDbLine
 10
11011.62971698379
 20
15068.4420987066
 30
0.0
 11
11003.12971698379
 21
15068.4420987066
 31
0.0
  0
LINE
  5
45
330
1F
100
AcDbEntity
  8
1
  6
DOT_CENTER
 62
     2
100
AcDbLine
 10
11011.62971698379
 20
15131.4420987066
 30
0.0
 11
11003.12971698379
 21
15131.4420987066
 31
0.0
  0
LINE
  5
46
330
1F
100
AcDbEntity
  8
1
  6
DOT_CENTER
 62
     2
100
AcDbLine
 10
11014.9297169838
 20
15113.4420987066
 30
0.0
 11
10999.82971698379
 21
15113.4420987066
 31
0.0
  0
LINE
  5
47
330
1F
100
AcDbEntity
  8
1
  6
DOT_CENTER
 62
     2
100
AcDbLine
 10
10999.82971698379
 20
15149.4420987066
 30
0.0
 11
11014.9297169838
 21
15149.4420987066
 31
0.0
  0
LINE
  5
48
330
1F
100
AcDbEntity
  8
1
  6
DOT_CENTER
 62
     2
100
AcDbLine
 10
11059.27343508176
 20
15130.35920458295
 30
0.0
 11
11059.27343508176
 21
15122.52499283024
 31
0.0
  0
LINE
  5
49
330
1F
100
AcDbEntity
  8
1
  6
DOT_CENTER
 62
     2
100
AcDbLine
 10
11063.19054095812
 20
15126.4420987066
 30
0.0
 11
11055.35632920542
 21
15126.4420987066
 31
0.0
  0
LINE
  5
4A
330
1F
100
AcDbEntity
  8
1
  6
DOT_CENTER
 62
     2
100
AcDbLine
 10
11059.27343508176
 20
15140.35920458295
 30
0.0
 11
11059.27343508176
 21
15132.52499283024
 31
0.0
  0
LINE
  5
4B
330
1F
100
AcDbEntity
  8
1
  6
DOT_CENTER
 62
     2
100
AcDbLine
 10
11063.19054095812
 20
15136.4420987066
 30
0.0
 11
11055.35632920542
 21
15136.4420987066
 31
0.0
  0
LINE
  5
4C
330
1F
100
AcDbEntity
  8
1
  6
DASHED
 62
     2
100
AcDbLine
 10
11071.47468776477
 20
15152.7370987066
 30
0.0
 11
11071.47468776477
 21
15110.1470987066
 31
0.0
  0
LINE
  5
4D
330
1F
100
AcDbEntity
  8
1
  6
DOT_CENTER
 62
     2
100
AcDbLine
 10
11066.27343508176
 20
15153.4920987066
 30
0.0
 11
11066.27343508176
 21
15138.39209870659
 31
0.0
  0
LINE
  5
4E
330
1F
100
AcDbEntity
  8
1
  6
DOT_CENTER
 62
     2
100
AcDbLine
 10
11058.8397169838
 20
15145.9420987066
 30
0.0
 11
11073.93971698379
 21
15145.9420987066
 31
0.0
  0
LINE
  5
4F
330
1F
100
AcDbEntity
  8
1
  6
DOT_CENTER
 62
     2
100
AcDbLine
 10
11052.27343508176
 20
15150.9920987066
 30
0.0
 11
11052.27343508176
 21
15135.89209870659
 31
0.0
  0
LINE
  5
50
330
1F
100
AcDbEntity
  8
1
  6
DOT_CENTER
 62
     2
100
AcDbLine
 10
11044.72343508177
 20
15143.4420987066
 30
0.0
 11
11059.82343508177
 21
15143.4420987066
 31
0.0
  0
LINE
  5
51
330
1F
100
AcDbEntity
  8
1
  6
DOT_CENTER
 62
     2
100
AcDbLine
 10
11039.27343508176
 20
15150.9920987066
 30
0.0
 11
11039.27343508176
 21
15135.89209870659
 31
0.0
  0
LINE
  5
52
330
1F
100
AcDbEntity
  8
1
  6
DOT_CENTER
 62
     2
100
AcDbLine
 10
11031.72343508177
 20
15143.4420987066
 30
0.0
 11
11046.82343508177
 21
15143.4420987066
 31
0.0
  0
LINE
  5
53
330
1F
100
AcDbEntity
  8
DEFAULT_2
  6
DASHED
 62
     2
100
AcDbLine
 10
11071.47468776477
 20
15152.7370987066
 30
0.0
 11
11022.37343508176
 21
15152.7370987066
 31
0.0
  0
LINE
  5
54
330
1F
100
AcDbEntity
  8
1
  6
DOT_CENTER
 62
     2
100
AcDbLine
 10
11066.27343508176
 20
15124.4920987066
 30
0.0
 11
11066.27343508176
 21
15109.39209870659
 31
0.0
  0
LINE
  5
55
330
1F
100
AcDbEntity
  8
1
  6
DOT_CENTER
 62
     2
100
AcDbLine
 10
11073.93971698379
 20
15116.9420987066
 30
0.0
 11
11058.8397169838
 21
15116.9420987066
 31
0.0
  0
LINE
  5
56
330
1F
100
AcDbEntity
  8
1
  6
DOT_CENTER
 62
     2
100
AcDbLine
 10
11052.27343508176
 20
15126.9920987066
 30
0.0
 11
11052.27343508176
 21
15111.89209870659
 31
0.0
  0
LINE
  5
57
330
1F
100
AcDbEntity
  8
DEFAULT_2
  6
DASHED
 62
     2
100
AcDbLine
 10
11022.37343508176
 20
15110.1470987066
 30
0.0
 11
11022.37343508176
 21
15152.7370987066
 31
0.0
  0
LINE
  5
58
330
1F
100
AcDbEntity
  8
DEFAULT_2
  6
DASHED
 62
     2
100
AcDbLine
 10
11022.37343508176
 20
15110.1470987066
 30
0.0
 11
11071.47468776477
 21
15110.1470987066
 31
0.0
  0
LINE
  5
59
330
1F
100
AcDbEntity
  8
1
  6
DOT_CENTER
 62
     2
100
AcDbLine
 10
11039.27343508176
 20
15126.9920987066
 30
0.0
 11
11039.27343508176
 21
15111.89209870659
 31
0.0
  0
LINE
  5
5A
330
1F
100
AcDbEntity
  8
0
  6
Continuous
 62
     7
100
AcDbLine
 10
11084.37343508177
 20
15118.9420987066
 30
0.0
 11
11084.37343508177
 21
15143.9420987066
 31
0.0
  0
LINE
  5
5B
330
1F
100
AcDbEntity
  8
DEFAULT_2
  6
HIDDEN_2
 62
   252
420
  8685188
100
AcDbLine
 10
11071.74327507916
 20
15115.3320987066
 30
0.0
 11
11071.77343508176
 21
15115.3320987066
 31
0.0
  0
LINE
  5
5C
330
1F
100
AcDbEntity
  8
0
  6
Continuous
 62
     7
100
AcDbLine
 10
11072.37343508177
 20
15106.9420987066
 30
0.0
 11
10997.03974228039
 21
15106.9420987066
 31
0.0
  0
LINE
  5
5D
330
1F
100
AcDbEntity
  8
0
  6
Continuous
 62
     7
100
AcDbLine
 10
10996.12971698379
 20
15105.9420987066
 30
0.0
 11
11018.62971698379
 21
15105.9420987066
 31
0.0
  0
LINE
  5
5E
330
1F
100
AcDbEntity
  8
0
  6
Continuous
 62
     7
100
AcDbLine
 10
11018.62971698379
 20
15098.4420987066
 30
0.0
 11
10996.12971698379
 21
15098.4420987066
 31
0.0
  0
LINE
  5
5F
330
1F
100
AcDbEntity
  8
0
  6
Continuous
 62
     7
100
AcDbLine
 10
11018.62971698379
 20
15098.4420987066
 30
0.0
 11
11018.62971698379
 21
15105.9420987066
 31
0.0
  0
LINE
  5
60
330
1F
100
AcDbEntity
  8
0
  6
Continuous
 62
     9
420
 12434109
100
AcDbLine
 10
11017.87343508177
 20
15056.9420987066
 30
0.0
 11
11017.87343508177
 21
15098.4420987066
 31
0.0
  0
LINE
  5
61
330
1F
100
AcDbEntity
  8
0
  6
Continuous
 62
     7
100
AcDbLine
 10
11017.8397169838
 20
15155.9420987066
 30
0.0
 11
11017.8397169838
 21
15156.9420987066
 31
0.0
  0
LINE
  5
62
330
1F
100
AcDbEntity
  8
0
  6
DASHED
 62
     2
100
AcDbLine
 10
11017.7159490755
 20
15155.9420987066
 30
0.0
 11
11017.7159490755
 21
15106.9420987066
 31
0.0
  0
LINE
  5
63
330
1F
100
AcDbEntity
  8
0
  6
Continuous
 62
     7
100
AcDbLine
 10
11017.6797169838
 20
15056.9420987066
 30
0.0
 11
11017.6797169838
 21
15055.9420987066
 31
0.0
  0
LINE
  5
64
330
1F
100
AcDbEntity
  8
0
  6
Continuous
 62
     7
100
AcDbLine
 10
11016.80971698379
 20
15155.9420987066
 30
0.0
 11
11016.80971698379
 21
15106.9420987066
 31
0.0
  0
LINE
  5
65
330
1F
100
AcDbEntity
  8
0
  6
Continuous
 62
     7
100
AcDbLine
 10
10997.37971698379
 20
15105.9420987066
 30
0.0
 11
10997.37971698379
 21
15106.9420987066
 31
0.0
  0
LINE
  5
66
330
1F
100
AcDbEntity
  8
0
  6
Continuous
 62
     7
100
AcDbLine
 10
10997.23971698379
 20
15155.9420987066
 30
0.0
 11
10997.23971698379
 21
15156.9420987066
 31
0.0
  0
LINE
  5
67
330
1F
100
AcDbEntity
  8
0
  6
Continuous
 62
     7
100
AcDbLine
 10
10997.07971698379
 20
15056.9420987066
 30
0.0
 11
10997.07971698379
 21
15055.9420987066
 31
0.0
  0
LINE
  5
68
330
1F
100
AcDbEntity
  8
0
  6
Continuous
 62
     7
100
AcDbLine
 10
10997.0397169838
 20
15155.9420987066
 30
0.0
 11
10997.0397169838
 21
15106.9420987066
 31
0.0
  0
LINE
  5
69
330
1F
100
AcDbEntity
  8
0
  6
Continuous
 62
     9
420
 12434109
100
AcDbLine
 10
10996.87343508177
 20
15056.9420987066
 30
0.0
 11
10996.87343508177
 21
15098.4420987066
 31
0.0
  0
LINE
  5
6A
330
1F
100
AcDbEntity
  8
0
  6
Continuous
 62
     7
100
AcDbLine
 10
10996.12971698379
 20
15105.9420987066
 30
0.0
 11
10996.12971698379
 21
15098.4420987066
 31
0.0
  0
LINE
  5
6B
330
1F
100
AcDbEntity
  8
0
  6
Continuous
 62
     7
100
AcDbLine
 10
11016.67968694509
 20
15054.9420987066
 30
0.0
 11
10998.07974702239
 21
15054.9420987066
 31
0.0
  0
ARC
  5
6C
330
1F
100
AcDbEntity
  8
0
  6
Continuous
 62
     7
100
AcDbCircle
 10
11017.80971698379
 20
15107.9421091659
 30
0.0
 40
0.9999999999912473
100
AcDbArc
 50
-107.2999497923642
 51
-90.0
  0
ARC
  5
6D
330
1F
100
AcDbEntity
  8
0
  6
Continuous
 62
     7
100
AcDbCircle
 10
11072.37343508177
 20
15143.9420987066
 30
0.0
 40
12.0
100
AcDbArc
 50
0.0
 51
90.0
  0
ARC
  5
6E
330
1F
100
AcDbEntity
  8
0
  6
Continuous
 62
     7
100
AcDbCircle
 10
11072.37343508177
 20
15118.9420987066
 30
0.0
 40
12.0
100
AcDbArc
 50
-90.0
 51
0.0
  0
ARC
  5
6F
330
1F
100
AcDbEntity
  8
0
  6
Continuous
 62
     7
100
AcDbCircle
 10
11017.80971698379
 20
15154.9420882473
 30
0.0
 40
1.0
100
AcDbArc
 50
90.0
 51
107.2999497923642
  0
ARC
  5
70
330
1F
100
AcDbEntity
  8
0
  6
Continuous
 62
     7
100
AcDbCircle
 10
11016.8397169838
 20
15156.9420987066
 30
0.0
 40
1.0
100
AcDbArc
 50
0.0
 51
90.0
  0
ARC
  5
71
330
1F
100
AcDbEntity
  8
0
  6
Continuous
 62
     7
100
AcDbCircle
 10
10998.23971698379
 20
15156.9420987066
 30
0.0
 40
1.0
100
AcDbArc
 50
90.0
 51
180.0
  0
ARC
  5
72
330
1F
100
AcDbEntity
  8
0
  6
Continuous
 62
     7
100
AcDbCircle
 10
10998.07971698379
 20
15055.9420987066
 30
0.0
 40
1.0
100
AcDbArc
 50
180.0
 51
-90.0
  0
ARC
  5
73
330
1F
100
AcDbEntity
  8
0
  6
Continuous
 62
     7
100
AcDbCircle
 10
11016.6797169838
 20
15055.9420987066
 30
0.0
 40
1.0
100
AcDbArc
 50
-90.0
 51
0.0
  0
ARC
  5
74
330
1F
100
AcDbEntity
  8
0
  6
Continuous
 62
     7
100
AcDbCircle
 10
11076.23628454406
 20
15131.4420987066
 30
0.0
 40
9.067150537598758
100
AcDbArc
 50
-26.17746557943482
 51
26.17746557937293
  0
ARC
  5
75
330
1F
100
AcDbEntity
  8
DEFAULT_2
  6
LONG_DASHED
 62
     2
100
AcDbCircle
 10
11059.27343508176
 20
15126.4420987066
 30
0.0
 40
2.197368978504591
100
AcDbArc
 50
57.78016049757208
 51
-57.78016049772381
  0
ARC
  5
76
330
1F
100
AcDbEntity
  8
DEFAULT_2
  6
LONG_DASHED
 62
     2
100
AcDbCircle
 10
11059.27343508176
 20
15126.4420987066
 30
0.0
 40
2.804999999995751
100
AcDbArc
 50
131.7562133306223
 51
-131.7562133306223
  0
ARC
  5
77
330
1F
100
AcDbEntity
  8
DEFAULT_2
  6
LONG_DASHED
 62
     2
100
AcDbCircle
 10
11059.27343508176
 20
15136.4420987066
 30
0.0
 40
2.804999999995751
100
AcDbArc
 50
131.7562133306223
 51
-131.7562133306223
  0
ARC
  5
78
330
1F
100
AcDbEntity
  8
DEFAULT_2
  6
LONG_DASHED
 62
     2
100
AcDbCircle
 10
11059.27343508176
 20
15136.4420987066
 30
0.0
 40
2.197368978504591
100
AcDbArc
 50
57.78016049757208
 51
-57.78016049772381
  0
ARC
  5
79
330
1F
100
AcDbEntity
  8
DEFAULT_2
  6
LONG_DASHED
 62
     2
100
AcDbCircle
 10
11058.77343508176
 20
15136.4420987066
 30
0.0
 40
2.499999999997099
100
AcDbArc
 50
-123.1758170594416
 51
123.1758170594416
  0
ARC
  5
7A
330
1F
100
AcDbEntity
  8
DEFAULT_2
  6
LONG_DASHED
 62
     2
100
AcDbCircle
 10
11058.77343508176
 20
15126.4420987066
 30
0.0
 40
2.499999999997099
100
AcDbArc
 50
-123.1758170594416
 51
123.1758170594416
  0
CIRCLE
  5
7B
330
1F
100
AcDbEntity
  8
1
  6
DASHED
 62
     2
100
AcDbCircle
 10
11039.27343508176
 20
15143.4420987066
 30
0.0
 40
3.0
  0
CIRCLE
  5
7C
330
1F
100
AcDbEntity
  8
1
  6
DASHED
 62
     2
100
AcDbCircle
 10
11007.37971698379
 20
15068.4420987066
 30
0.0
 40
2.5
  0
CIRCLE
  5
7D
330
1F
100
AcDbEntity
  8
1
  6
DASHED
 62
     2
100
AcDbCircle
 10
11007.37971698379
 20
15113.4420987066
 30
0.0
 40
3.0
  0
CIRCLE
  5
7E
330
1F
100
AcDbEntity
  8
1
  6
DASHED
 62
     2
100
AcDbCircle
 10
11007.37971698379
 20
15113.4420987066
 30
0.0
 40
5.5
  0
CIRCLE
  5
7F
330
1F
100
AcDbEntity
  8
1
  6
DASHED
 62
     2
100
AcDbCircle
 10
11007.37971698379
 20
15131.4420987066
 30
0.0
 40
2.5
  0
CIRCLE
  5
80
330
1F
100
AcDbEntity
  8
1
  6
DASHED
 62
     2
100
AcDbCircle
 10
11007.37971698379
 20
15149.4420987066
 30
0.0
 40
3.0
  0
CIRCLE
  5
81
330
1F
100
AcDbEntity
  8
1
  6
DASHED
 62
     2
100
AcDbCircle
 10
11007.37971698379
 20
15149.4420987066
 30
0.0
 40
5.5
  0
CIRCLE
  5
82
330
1F
100
AcDbEntity
  8
1
  6
DASHED
 62
     2
100
AcDbCircle
 10
11066.27343508176
 20
15145.9420987066
 30
0.0
 40
3.0
  0
CIRCLE
  5
83
330
1F
100
AcDbEntity
  8
1
  6
DASHED
 62
     2
100
AcDbCircle
 10
11066.27343508176
 20
15145.9420987066
 30
0.0
 40
5.5
  0
CIRCLE
  5
84
330
1F
100
AcDbEntity
  8
1
  6
DASHED
 62
     2
100
AcDbCircle
 10
11052.27343508176
 20
15143.4420987066
 30
0.0
 40
3.0
  0
CIRCLE
  5
85
330
1F
100
AcDbEntity
  8
1
  6
DASHED
 62
     2
100
AcDbCircle
 10
11052.27343508176
 20
15143.4420987066
 30
0.0
 40
5.5
  0
CIRCLE
  5
86
330
1F
100
AcDbEntity
  8
1
  6
DASHED
 62
     2
100
AcDbCircle
 10
11039.27343508176
 20
15143.4420987066
 30
0.0
 40
5.5
  0
CIRCLE
  5
87
330
1F
100
AcDbEntity
  8
1
  6
DASHED
 62
     2
100
AcDbCircle
 10
11066.27343508176
 20
15116.9420987066
 30
0.0
 40
3.0
  0
CIRCLE
  5
88
330
1F
100
AcDbEntity
  8
1
  6
DASHED
 62
     2
100
AcDbCircle
 10
11066.27343508176
 20
15116.9420987066
 30
0.0
 40
5.5
  0
CIRCLE
  5
89
330
1F
100
AcDbEntity
  8
1
  6
DASHED
 62
     2
100
AcDbCircle
 10
11052.27343508176
 20
15119.4420987066
 30
0.0
 40
3.0
  0
CIRCLE
  5
8A
330
1F
100
AcDbEntity
  8
1
  6
DASHED
 62
     2
100
AcDbCircle
 10
11052.27343508176
 20
15119.4420987066
 30
0.0
 40
5.5
  0
CIRCLE
  5
8B
330
1F
100
AcDbEntity
  8
1
  6
DASHED
 62
     2
100
AcDbCircle
 10
11039.27343508176
 20
15119.4420987066
 30
0.0
 40
5.5
  0
CIRCLE
  5
8C
330
1F
100
AcDbEntity
  8
1
  6
DASHED
 62
     2
100
AcDbCircle
 10
11039.27343508176
 20
15119.4420987066
 30
0.0
 40
3.0
  0
SPLINE
  5
8D
330
1F
100
AcDbEntity
  8
0
  6
Continuous
 62
     7
100
AcDbSpline
210
0.0
220
0.0
230
1.0
 70
     8
 71
     3
 72
    87
 73
    83
 74
    81
 42
0.0000000001
 43
0.0000000001
 44
0.00000001
 40
0.0
 40
0.0
 40
0.0
 40
0.0
 40
0.0181016136132291
 40
0.0362030778346612
 40
0.0445068969147447
 40
0.0528107327331744
 40
0.0608986399118574
 40
0.0689865693277401
 40
0.077293523555697
 40
0.0856005066329307
 40
0.0936903335811095
 40
0.1017801271281505
 40
0.109440975900478
 40
0.1171018461574702
 40
0.1247497889052726
 40
0.1323975937700196
 40
0.1400575384276109
 40
0.1477176342524039
 40
0.1550602244414301
 40
0.1624027624033846
 40
0.1701678905808029
 40
0.1779330220848847
 40
0.1859372967884758
 40
0.1939416268667735
 40
0.2091816068162663
 40
0.2244218899123442
 40
0.2399176794686542
 40
0.2554133912050822
 40
0.2731752576171351
 40
0.2909373944027341
 40
0.3085539767739651
 40
0.3261704334743281
 40
0.3418715662255657
 40
0.3575726217874162
 40
0.3729145709935748
 40
0.3882565510688859
 40
0.4025754677902668
 40
0.4168943405580653
 40
0.4312081772060719
 40
0.4455220287488063
 40
0.4602055453005111
 40
0.4748890737254884
 40
0.4896797603503172
 40
0.5044704357234424
 40
0.520173042656311
 40
0.5358756840474028
 40
0.5516250062923728
 40
0.5673743392855265
 40
0.5838258373441861
 40
0.6002773177995008
 40
0.6168409515746212
 40
0.6334046035510935
 40
0.6508935952782331
 40
0.6683825959773527
 40
0.6858853860873173
 40
0.7033881595989108
 40
0.7198915069628008
 40
0.7363948502809237
 40
0.7527703367501074
 40
0.7691458110745388
 40
0.7844441030918767
 40
0.7997424077414352
 40
0.814485892107618
 40
0.829229354820177
 40
0.8423677036813194
 40
0.855506020304192
 40
0.8685813637585222
 40
0.8816567437397949
 40
0.8945993155071965
 40
0.9075418728467106
 40
0.9209837230027945
 40
0.9344255836128044
 40
0.9481215295002772
 40
0.9618174575352917
 40
0.9724910049988722
 40
0.9831645454855661
 40
0.9940250761437786
 40
1.004885611394151
 40
1.016114640874187
 40
1.027343668316664
 40
1.051632901180018
 40
1.075922139248086
 40
1.075922139248086
 40
1.075922139248086
 40
1.075922139248086
 10
11017.51238180009
 20
15106.9873301401
 30
0.0
 10
11017.50665820296
 20
15106.98924257455
 30
0.0
 10
11017.49521105593
 20
15106.99306742768
 30
0.0
 10
11017.48140341105
 20
15106.99851575997
 30
0.0
 10
11017.47078538868
 20
15107.00311196624
 30
0.0
 10
11017.46330663843
 20
15107.00655365652
 30
0.0
 10
11017.45597038183
 20
15107.01012754412
 30
0.0
 10
11017.44870873992
 20
15107.0138529169
 30
0.0
 10
11017.44145777131
 20
15107.01775547401
 30
0.0
 10
11017.43428050681
 20
15107.02179312366
 30
0.0
 10
11017.42723602933
 20
15107.0259165867
 30
0.0
 10
11017.4204443951
 20
15107.03004347907
 30
0.0
 10
11017.4138388462
 20
15107.03419935506
 30
0.0
 10
11017.40742268683
 20
15107.03837795652
 30
0.0
 10
11017.4010787484
 20
15107.0426576832
 30
0.0
 10
11017.39481003522
 20
15107.04704645094
 30
0.0
 10
11017.38862003778
 20
15107.05155239046
 30
0.0
 10
11017.38258350276
 20
15107.05609443841
 30
0.0
 10
11017.37668994932
 20
15107.06064937072
 30
0.0
 10
11017.37082104487
 20
15107.06529260373
 30
0.0
 10
11017.36489091549
 20
15107.07008479346
 30
0.0
 10
11017.35883965774
 20
15107.07507737242
 30
0.0
 10
11017.35277684911
 20
15107.08018065247
 30
0.0
 10
11017.34487524594
 20
15107.08696776112
 30
0.0
 10
11017.33526569131
 20
15107.09546719003
 30
0.0
 10
11017.32397626682
 20
15107.10583256342
 30
0.0
 10
11017.3128167031
 20
15107.11646162669
 30
0.0
 10
11017.30124979758
 20
15107.12787793418
 30
0.0
 10
11017.28936671937
 20
15107.14004556226
 30
0.0
 10
11017.27721812083
 20
15107.15293780768
 30
0.0
 10
11017.26531036636
 20
15107.16598712625
 30
0.0
 10
11017.25405935546
 20
15107.17870291003
 30
0.0
 10
11017.24340285746
 20
15107.19108978823
 30
0.0
 10
11017.23339837985
 20
15107.20303568826
 30
0.0
 10
11017.22362893414
 20
15107.21502043937
 30
0.0
 10
11017.21429995977
 20
15107.22676823492
 30
0.0
 10
11017.20532189317
 20
15107.23835776297
 30
0.0
 10
11017.19668612817
 20
15107.24977771927
 30
0.0
 10
11017.18818531042
 20
15107.26129637521
 30
0.0
 10
11017.1797467903
 20
15107.27301087093
 30
0.0
 10
11017.17137298838
 20
15107.28492268026
 30
0.0
 10
11017.1630452523
 20
15107.29705997838
 30
0.0
 10
11017.15483297956
 20
15107.30931870306
 30
0.0
 10
11017.14656842278
 20
15107.32195019075
 30
0.0
 10
11017.13827853556
 20
15107.3349273008
 30
0.0
 10
11017.12995490133
 20
15107.34826096971
 30
0.0
 10
11017.12175131087
 20
15107.36168704697
 30
0.0
 10
11017.11353902283
 20
15107.3753995576
 30
0.0
 10
11017.10532286883
 20
15107.38938191464
 30
0.0
 10
11017.09708875246
 20
15107.40366786872
 30
0.0
 10
11017.08895480189
 20
15107.41805404519
 30
0.0
 10
11017.08076844032
 20
15107.4328072393
 30
0.0
 10
11017.07255153426
 20
15107.44789565004
 30
0.0
 10
11017.06430820929
 20
15107.46332548552
 30
0.0
 10
11017.05618478369
 20
15107.47882396836
 30
0.0
 10
11017.04833666698
 20
15107.49409518626
 30
0.0
 10
11017.04076065374
 20
15107.50913104516
 30
0.0
 10
11017.03346976602
 20
15107.523889236
 30
0.0
 10
11017.02631540249
 20
15107.53866674544
 30
0.0
 10
11017.01945068408
 20
15107.55313763802
 30
0.0
 10
11017.01284849187
 20
15107.56733511098
 30
0.0
 10
11017.00657499514
 20
15107.58108504775
 30
0.0
 10
11017.00047263832
 20
15107.59470938062
 30
0.0
 10
11016.99475931371
 20
15107.60771866218
 30
0.0
 10
11016.98935337376
 20
15107.62027812431
 30
0.0
 10
11016.98425536923
 20
15107.63236440563
 30
0.0
 10
11016.97925802025
 20
15107.64446993757
 30
0.0
 10
11016.97436823734
 20
15107.65654892116
 30
0.0
 10
11016.96956786988
 20
15107.66861607933
 30
0.0
 10
11016.96479242912
 20
15107.68082438179
 30
0.0
 10
11016.96002554119
 20
15107.69321452024
 30
0.0
 10
11016.95524055308
 20
15107.705866535
 30
0.0
 10
11016.95049907056
 20
15107.7186253147
 30
0.0
 10
11016.94615086786
 20
15107.7305455756
 30
0.0
 10
11016.94220898313
 20
15107.74154141455
 30
0.0
 10
11016.93863594992
 20
15107.75166531497
 30
0.0
 10
11016.93509354251
 20
15107.7618659776
 30
0.0
 10
11016.93154191339
 20
15107.77225930054
 30
0.0
 10
11016.92800195937
 20
15107.78278628751
 30
0.0
 10
11016.92310627974
 20
15107.79757971036
 30
0.0
 10
11016.91696746744
 20
15107.81654726393
 30
0.0
 10
11016.91213381185
 20
15107.83200189143
 30
0.0
 10
11016.90971698379
 20
15107.83972920601
 30
0.0
 11
11017.51238180009
 21
15106.9873301401
 31
0.0
 11
11017.49526492073
 21
15106.99321918554
 31
0.0
 11
11017.47841745463
 21
15106.99983929832
 31
0.0
 11
11017.47079816782
 21
15107.00314079492
 31
0.0
 11
11017.46325449843
 21
15107.00661163653
 31
0.0
 11
11017.45598286735
 21
15107.01015248726
 31
0.0
 11
11017.44878592263
 21
15107.01384282451
 31
0.0
 11
11017.44147026537
 21
15107.0177781323
 31
0.0
 11
11017.43422939412
 21
15107.02184946517
 31
0.0
 11
11017.42724738037
 21
15107.02593563502
 31
0.0
 11
11017.42033353623
 21
15107.03013605391
 31
0.0
 11
11017.41384964522
 21
15107.03421622072
 31
0.0
 11
11017.40743052793
 21
15107.03839759208
 31
0.0
 11
11017.40109119886
 21
15107.04267590193
 31
0.0
 11
11017.39482699738
 21
15107.04706323586
 31
0.0
 11
11017.38863211199
 21
15107.05156858237
 31
0.0
 11
11017.38250915834
 21
15107.05617146263
 31
0.0
 11
11017.37669849659
 21
15107.06066032002
 31
0.0
 11
11017.37093919919
 21
15107.06521480761
 31
0.0
 11
11017.36489923713
 21
15107.07009497912
 31
0.0
 11
11017.35890918115
 21
15107.07503628427
 31
0.0
 11
11017.35278550191
 21
15107.08019079357
 31
0.0
 11
11017.34671359338
 21
15107.0854062731
 31
0.0
 11
11017.3352973793
 21
15107.09550216558
 31
0.0
 11
11017.32407049692
 21
15107.1058086364
 31
0.0
 11
11017.31284867906
 21
15107.11649462246
 31
0.0
 11
11017.30181879931
 21
15107.12737850205
 31
0.0
 11
11017.28940496176
 21
15107.14008206595
 31
0.0
 11
11017.27721977883
 21
15107.15300548732
 31
0.0
 11
11017.2653438264
 21
15107.16601724079
 31
0.0
 11
11017.25366884048
 21
15107.17920944495
 31
0.0
 11
11017.24342930083
 21
15107.19111227644
 31
0.0
 11
11017.23334860006
 21
15107.20314982676
 31
0.0
 11
11017.22365440153
 21
15107.21504091251
 31
0.0
 11
11017.21411293083
 21
15107.22705493305
 31
0.0
 11
11017.20534395612
 21
15107.23837467062
 31
0.0
 11
11017.19670744625
 21
15107.2497957395
 31
0.0
 11
11017.18820753455
 21
15107.26131257157
 31
0.0
 11
11017.17984093359
 21
15107.27292662918
 31
0.0
 11
11017.17139584786
 21
15107.28493854766
 31
0.0
 11
11017.16308788213
 21
15107.29704572372
 31
0.0
 11
11017.15485531527
 21
15107.30933349219
 31
0.0
 11
11017.14675676856
 21
15107.32170998681
 31
0.0
 11
11017.138301566
 21
15107.33494182017
 31
0.0
 11
11017.12998444934
 21
15107.34826092364
 31
0.0
 11
11017.1217712586
 21
15107.36169910242
 31
0.0
 11
11017.11367770841
 21
15107.37520968846
 31
0.0
 11
11017.10534274614
 21
15107.38939348881
 31
0.0
 11
11017.09712707048
 21
15107.40364669485
 31
0.0
 11
11017.08897407996
 21
15107.41806483307
 31
0.0
 11
11017.08093671914
 21
15107.43254776777
 31
0.0
 11
11017.07257208044
 21
15107.44790672774
 31
0.0
 11
11017.06433070056
 21
15107.46333218731
 31
0.0
 11
11017.05620564171
 21
15107.47883480258
 31
0.0
 11
11017.04820576122
 21
15107.49440236478
 31
0.0
 11
11017.04078004347
 21
15107.50914072256
 31
0.0
 11
11017.03347067487
 21
15107.52393712318
 31
0.0
 11
11017.02633493014
 21
15107.53867610905
 31
0.0
 11
11017.01931636832
 21
15107.55347124167
 31
0.0
 11
11017.01286524784
 21
15107.56734282352
 31
0.0
 11
11017.00651464307
 21
15107.58126072366
 31
0.0
 11
11017.00048901663
 21
15107.59471665757
 31
0.0
 11
11016.99456170033
 21
15107.60821616179
 31
0.0
 11
11016.98936807607
 21
15107.62028440432
 31
0.0
 11
11016.98426271402
 21
15107.63239021458
 31
0.0
 11
11016.97927184972
 21
15107.64447557267
 31
0.0
 11
11016.97436390524
 21
15107.65659488133
 31
0.0
 11
11016.96957939981
 21
15107.6686206317
 31
0.0
 11
11016.96486408616
 21
15107.68067366483
 31
0.0
 11
11016.96003747962
 21
15107.69321907056
 31
0.0
 11
11016.95528249244
 21
15107.70579180747
 31
0.0
 11
11016.95051199111
 21
15107.71863008036
 31
0.0
 11
11016.94581903618
 21
15107.73149688334
 31
0.0
 11
11016.94221725174
 21
15107.74154435886
 31
0.0
 11
11016.93866508344
 21
15107.7516094752
 31
0.0
 11
11016.93510203397
 21
15107.76186890036
 31
0.0
 11
11016.93158986927
 21
15107.77214586124
 31
0.0
 11
11016.92801048825
 21
15107.78278912834
 31
0.0
 11
11016.92448142621
 21
15107.79344918362
 31
0.0
 11
11016.91700561229
 21
15107.81655933375
 31
0.0
 11
11016.90971698379
 21
15107.83972920601
 31
0.0
  0
SPLINE
  5
8E
330
1F
100
AcDbEntity
  8
0
  6
Continuous
 62
     7
100
AcDbSpline
210
0.0
220
0.0
230
1.0
 70
     8
 71
     3
 72
    15
 73
    11
 74
     9
 42
0.0000000001
 43
0.0000000001
 44
0.00000001
 40
0.0
 40
0.0
 40
0.0
 40
0.0
 40
0.0839969109306789
 40
0.167993826379389
 40
0.2100002126520369
 40
0.2520063934629191
 40
0.2940188760421347
 40
0.3360315607888262
 40
0.4200520693202
 40
0.5040725773657361
 40
0.5040725773657361
 40
0.5040725773657361
 40
0.5040725773657361
 10
11016.90971698379
 20
15107.83972920601
 30
0.0
 10
11016.89915445566
 20
15107.86567040401
 30
0.0
 10
11016.87802939884
 20
15107.91755280141
 30
0.0
 10
11016.85727707496
 20
15107.98449917233
 30
0.0
 10
11016.84320923575
 20
15108.03871034371
 30
0.0
 10
11016.83410670195
 20
15108.07973066656
 30
0.0
 10
11016.8264253793
 20
15108.12104284497
 30
0.0
 10
11016.81814781706
 20
15108.17644673621
 30
0.0
 10
11016.8110354018
 20
15108.24619171124
 30
0.0
 10
11016.81015645646
 20
15108.302218784
 30
0.0
 10
11016.80971698379
 20
15108.3302323203
 30
0.0
 11
11016.90971698379
 21
15107.83972920601
 31
0.0
 11
11016.8791603555
 21
15107.91797096924
 31
0.0
 11
11016.85397239846
 21
15107.99810241516
 31
0.0
 11
11016.84345084911
 21
15108.03876976677
 31
0.0
 11
11016.83434405961
 21
15108.07977690775
 31
0.0
 11
11016.82667095195
 21
15108.12108274404
 31
0.0
 11
11016.82043267351
 21
15108.16262970014
 31
0.0
 11
11016.81223813204
 21
15108.24624964599
 31
0.0
 11
11016.80971698379
 21
15108.3302323203
 31
0.0
  0
SPLINE
  5
8F
330
1F
100
AcDbEntity
  8
0
  6
Continuous
 62
     7
100
AcDbSpline
210
0.0
220
0.0
230
1.0
 70
     8
 71
     3
 72
    15
 73
    11
 74
     9
 42
0.0000000001
 43
0.0000000001
 44
0.00000001
 40
0.0
 40
0.0
 40
0.0
 40
0.0
 40
0.0839969109391507
 40
0.1679938263826549
 40
0.2100002126588249
 40
0.2520063934679314
 40
0.2940188760489353
 40
0.336031560793828
 40
0.4200520693270121
 40
0.5040725773743664
 40
0.5040725773743664
 40
0.5040725773743664
 40
0.5040725773743664
 10
11016.90971698379
 20
15155.0444682072
 30
0.0
 10
11016.89915445566
 20
15155.0185270092
 30
0.0
 10
11016.87802939885
 20
15154.9666446118
 30
0.0
 10
11016.85727707495
 20
15154.89969824088
 30
0.0
 10
11016.84320923576
 20
15154.84548706949
 30
0.0
 10
11016.83410670195
 20
15154.80446674665
 30
0.0
 10
11016.8264253793
 20
15154.76315456824
 30
0.0
 10
11016.81814781705
 20
15154.70775067699
 30
0.0
 10
11016.8110354018
 20
15154.63800570196
 30
0.0
 10
11016.81015645646
 20
15154.5819786292
 30
0.0
 10
11016.80971698379
 20
15154.5539650929
 30
0.0
 11
11016.90971698379
 21
15155.0444682072
 31
0.0
 11
11016.8791603555
 21
15154.96622644396
 31
0.0
 11
11016.85397239846
 21
15154.88609499804
 31
0.0
 11
11016.84345084911
 21
15154.84542764643
 31
0.0
 11
11016.83434405961
 21
15154.80442050545
 31
0.0
 11
11016.82667095195
 21
15154.76311466917
 31
0.0
 11
11016.82043267351
 21
15154.72156771306
 31
0.0
 11
11016.81223813204
 21
15154.63794776721
 31
0.0
 11
11016.80971698379
 21
15154.5539650929
 31
0.0
  0
SPLINE
  5
90
330
1F
100
AcDbEntity
  8
0
  6
Continuous
 62
     7
100
AcDbSpline
210
0.0
220
0.0
230
1.0
 70
     8
 71
     3
 72
    87
 73
    83
 74
    81
 42
0.0000000001
 43
0.0000000001
 44
0.00000001
 40
0.0
 40
0.0
 40
0.0
 40
0.0
 40
0.0181016136132291
 40
0.0362030778333307
 40
0.0445068969119678
 40
0.0528107327319181
 40
0.0608986399090084
 40
0.0689865693240612
 40
0.0772935235537415
 40
0.0856005066309752
 40
0.0936903335800728
 40
0.1017801271252249
 40
0.1094409758985211
 40
0.1171018461594846
 40
0.1247497889062694
 40
0.1323975937710164
 40
0.1400575384264681
 40
0.1477176342523541
 40
0.1550602244391562
 40
0.162402762398854
 40
0.1701678905774156
 40
0.1779330220803398
 40
0.1859372967827596
 40
0.1939416268646129
 40
0.2091816068141057
 40
0.224421889913874
 40
0.2399176794726927
 40
0.2554133912052878
 40
0.2731752576173408
 40
0.2909373944029399
 40
0.3085539767701402
 40
0.3261704334732276
 40
0.3418715662189494
 40
0.3575726217849836
 40
0.3729145709869126
 40
0.3882565510650726
 40
0.4025754677893294
 40
0.416894340557128
 40
0.4312081772095252
 40
0.4455220287493077
 40
0.4602055453010126
 40
0.4748890737289896
 40
0.489679760350796
 40
0.504470435722399
 40
0.5201730426552676
 40
0.5358756840432737
 40
0.5516250062897957
 40
0.5673743392876307
 40
0.5838258373447222
 40
0.6002773178000368
 40
0.6168409515799073
 40
0.6334046035531986
 40
0.6508935952787407
 40
0.6683825959762559
 40
0.6858853860846095
 40
0.7033881595978208
 40
0.7198915069568373
 40
0.736394850276591
 40
0.752770336747412
 40
0.7691458110718434
 40
0.7844441030924801
 40
0.7997424077436935
 40
0.814485892104896
 40
0.829229354817455
 40
0.8423677036752557
 40
0.8555060202998044
 40
0.8685813637524534
 40
0.8816567437320401
 40
0.8945993155062023
 40
0.9075418728491044
 40
0.9209837230034905
 40
0.9344255836152018
 40
0.9481215295026746
 40
0.9618174575359802
 40
0.9724910049961362
 40
0.98316454548283
 40
0.9940250761427608
 40
1.004885611387969
 40
1.01611464086973
 40
1.02734366831566
 40
1.051632901182476
 40
1.075922139241868
 40
1.075922139241868
 40
1.075922139241868
 40
1.075922139241868
 10
11017.51238180009
 20
15155.8968672731
 30
0.0
 10
11017.50665820296
 20
15155.89495483865
 30
0.0
 10
11017.49521105593
 20
15155.89112998553
 30
0.0
 10
11017.48140341105
 20
15155.88568165323
 30
0.0
 10
11017.47078538868
 20
15155.88108544697
 30
0.0
 10
11017.46330663843
 20
15155.87764375667
 30
0.0
 10
11017.45597038183
 20
15155.87406986909
 30
0.0
 10
11017.44870873992
 20
15155.8703444963
 30
0.0
 10
11017.4414577713
 20
15155.8664419392
 30
0.0
 10
11017.43428050682
 20
15155.86240428955
 30
0.0
 10
11017.42723602933
 20
15155.8582808265
 30
0.0
 10
11017.4204443951
 20
15155.85415393414
 30
0.0
 10
11017.4138388462
 20
15155.84999805814
 30
0.0
 10
11017.40742268684
 20
15155.84581945667
 30
0.0
 10
11017.4010787484
 20
15155.84153973001
 30
0.0
 10
11017.39481003522
 20
15155.83715096226
 30
0.0
 10
11017.38862003777
 20
15155.83264502275
 30
0.0
 10
11017.38258350277
 20
15155.8281029748
 30
0.0
 10
11017.37668994932
 20
15155.82354804248
 30
0.0
 10
11017.37082104487
 20
15155.81890480949
 30
0.0
 10
11017.36489091549
 20
15155.81411261975
 30
0.0
 10
11017.35883965774
 20
15155.80912004079
 30
0.0
 10
11017.3527768491
 20
15155.80401676075
 30
0.0
 10
11017.34487524594
 20
15155.79722965207
 30
0.0
 10
11017.33526569131
 20
15155.78873022318
 30
0.0
 10
11017.32397626682
 20
15155.77836484978
 30
0.0
 10
11017.3128167031
 20
15155.76773578651
 30
0.0
 10
11017.30124979758
 20
15155.75631947902
 30
0.0
 10
11017.28936671937
 20
15155.74415185093
 30
0.0
 10
11017.27721812083
 20
15155.73125960552
 30
0.0
 10
11017.26531036635
 20
15155.71821028695
 30
0.0
 10
11017.25405935547
 20
15155.70549450317
 30
0.0
 10
11017.24340285745
 20
15155.69310762499
 30
0.0
 10
11017.23339837986
 20
15155.68116172495
 30
0.0
 10
11017.22362893413
 20
15155.66917697385
 30
0.0
 10
11017.21429995977
 20
15155.6574291783
 30
0.0
 10
11017.20532189317
 20
15155.64583965023
 30
0.0
 10
11017.19668612816
 20
15155.63441969394
 30
0.0
 10
11017.18818531043
 20
15155.622901038
 30
0.0
 10
11017.1797467903
 20
15155.61118654228
 30
0.0
 10
11017.17137298837
 20
15155.59927473294
 30
0.0
 10
11017.16304525229
 20
15155.58713743482
 30
0.0
 10
11017.15483297956
 20
15155.57487871015
 30
0.0
 10
11017.14656842278
 20
15155.56224722245
 30
0.0
 10
11017.13827853557
 20
15155.54927011241
 30
0.0
 10
11017.12995490133
 20
15155.5359364435
 30
0.0
 10
11017.12175131087
 20
15155.52251036624
 30
0.0
 10
11017.11353902283
 20
15155.5087978556
 30
0.0
 10
11017.10532286884
 20
15155.49481549857
 30
0.0
 10
11017.09708875245
 20
15155.48052954448
 30
0.0
 10
11017.08895480189
 20
15155.46614336801
 30
0.0
 10
11017.08076844032
 20
15155.45139017389
 30
0.0
 10
11017.07255153426
 20
15155.43630176317
 30
0.0
 10
11017.06430820929
 20
15155.42087192768
 30
0.0
 10
11017.05618478369
 20
15155.40537344484
 30
0.0
 10
11017.04833666698
 20
15155.39010222695
 30
0.0
 10
11017.04076065373
 20
15155.37506636805
 30
0.0
 10
11017.03346976603
 20
15155.36030817722
 30
0.0
 10
11017.02631540249
 20
15155.34553066777
 30
0.0
 10
11017.01945068408
 20
15155.33105977518
 30
0.0
 10
11017.01284849188
 20
15155.31686230222
 30
0.0
 10
11017.00657499513
 20
15155.30311236545
 30
0.0
 10
11017.00047263832
 20
15155.28948803259
 30
0.0
 10
11016.99475931371
 20
15155.27647875101
 30
0.0
 10
11016.98935337375
 20
15155.26391928891
 30
0.0
 10
11016.98425536923
 20
15155.25183300757
 30
0.0
 10
11016.97925802025
 20
15155.23972747564
 30
0.0
 10
11016.97436823734
 20
15155.22764849204
 30
0.0
 10
11016.96956786988
 20
15155.21558133388
 30
0.0
 10
11016.96479242912
 20
15155.20337303141
 30
0.0
 10
11016.96002554119
 20
15155.19098289297
 30
0.0
 10
11016.95524055308
 20
15155.1783308782
 30
0.0
 10
11016.95049907056
 20
15155.1655720985
 30
0.0
 10
11016.94615086786
 20
15155.1536518376
 30
0.0
 10
11016.94220898313
 20
15155.14265599866
 30
0.0
 10
11016.93863594992
 20
15155.13253209824
 30
0.0
 10
11016.93509354251
 20
15155.12233143561
 30
0.0
 10
11016.93154191339
 20
15155.11193811267
 30
0.0
 10
11016.92800195937
 20
15155.1014111257
 30
0.0
 10
11016.92310627974
 20
15155.08661770284
 30
0.0
 10
11016.91696746745
 20
15155.06765014929
 30
0.0
 10
11016.91213381185
 20
15155.05219552178
 30
0.0
 10
11016.90971698379
 20
15155.0444682072
 30
0.0
 11
11017.51238180009
 21
15155.8968672731
 31
0.0
 11
11017.49526492073
 21
15155.89097822766
 31
0.0
 11
11017.47841745463
 21
15155.88435811489
 31
0.0
 11
11017.47079816782
 21
15155.88105661829
 31
0.0
 11
11017.46325449843
 21
15155.87758577668
 31
0.0
 11
11017.45598286735
 21
15155.87404492595
 31
0.0
 11
11017.44878592263
 21
15155.8703545887
 31
0.0
 11
11017.44147026537
 21
15155.86641928091
 31
0.0
 11
11017.43422939412
 21
15155.86234794804
 31
0.0
 11
11017.42724738037
 21
15155.85826177819
 31
0.0
 11
11017.42033353623
 21
15155.8540613593
 31
0.0
 11
11017.41384964522
 21
15155.84998119248
 31
0.0
 11
11017.40743052793
 21
15155.84579982112
 31
0.0
 11
11017.40109119886
 21
15155.84152151127
 31
0.0
 11
11017.39482699738
 21
15155.83713417734
 31
0.0
 11
11017.38863211199
 21
15155.83262883083
 31
0.0
 11
11017.38250915834
 21
15155.82802595057
 31
0.0
 11
11017.37669849659
 21
15155.82353709318
 31
0.0
 11
11017.37093919919
 21
15155.8189826056
 31
0.0
 11
11017.36489923713
 21
15155.81410243409
 31
0.0
 11
11017.35890918115
 21
15155.80916112894
 31
0.0
 11
11017.35278550191
 21
15155.80400661964
 31
0.0
 11
11017.34671359338
 21
15155.79879114011
 31
0.0
 11
11017.3352973793
 21
15155.78869524762
 31
0.0
 11
11017.32407049692
 21
15155.7783887768
 31
0.0
 11
11017.31284867906
 21
15155.76770279073
 31
0.0
 11
11017.30181879931
 21
15155.75681891116
 31
0.0
 11
11017.28940496176
 21
15155.74411534725
 31
0.0
 11
11017.27721977883
 21
15155.73119192588
 31
0.0
 11
11017.2653438264
 21
15155.71818017242
 31
0.0
 11
11017.25366884048
 21
15155.70498796826
 31
0.0
 11
11017.24342930083
 21
15155.69308513677
 31
0.0
 11
11017.23334860006
 21
15155.68104758645
 31
0.0
 11
11017.22365440153
 21
15155.6691565007
 31
0.0
 11
11017.21411293083
 21
15155.65714248016
 31
0.0
 11
11017.20534395612
 21
15155.64582274259
 31
0.0
 11
11017.19670744625
 21
15155.6344016737
 31
0.0
 11
11017.18820753455
 21
15155.62288484163
 31
0.0
 11
11017.17984093359
 21
15155.61127078402
 31
0.0
 11
11017.17139584786
 21
15155.59925886555
 31
0.0
 11
11017.16308788213
 21
15155.58715168947
 31
0.0
 11
11017.15485531527
 21
15155.57486392102
 31
0.0
 11
11017.14675676856
 21
15155.56248742639
 31
0.0
 11
11017.138301566
 21
15155.54925559303
 31
0.0
 11
11017.12998444934
 21
15155.53593648957
 31
0.0
 11
11017.1217712586
 21
15155.52249831078
 31
0.0
 11
11017.11367770841
 21
15155.50898772474
 31
0.0
 11
11017.10534274614
 21
15155.4948039244
 31
0.0
 11
11017.09712707048
 21
15155.48055071835
 31
0.0
 11
11017.08897407996
 21
15155.46613258013
 31
0.0
 11
11017.08093671914
 21
15155.45164964543
 31
0.0
 11
11017.07257208044
 21
15155.43629068547
 31
0.0
 11
11017.06433070056
 21
15155.42086522589
 31
0.0
 11
11017.05620564171
 21
15155.40536261062
 31
0.0
 11
11017.04820576122
 21
15155.38979504843
 31
0.0
 11
11017.04078004347
 21
15155.37505669065
 31
0.0
 11
11017.03347067487
 21
15155.36026029002
 31
0.0
 11
11017.02633493014
 21
15155.34552130416
 31
0.0
 11
11017.01931636832
 21
15155.33072617154
 31
0.0
 11
11017.01286524784
 21
15155.31685458968
 31
0.0
 11
11017.00651464307
 21
15155.30293668954
 31
0.0
 11
11017.00048901663
 21
15155.28948075564
 31
0.0
 11
11016.99456170033
 21
15155.27598125142
 31
0.0
 11
11016.98936807607
 21
15155.26391300889
 31
0.0
 11
11016.98426271402
 21
15155.25180719863
 31
0.0
 11
11016.97927184972
 21
15155.23972184054
 31
0.0
 11
11016.97436390524
 21
15155.22760253188
 31
0.0
 11
11016.96957939981
 21
15155.21557678151
 31
0.0
 11
11016.96486408616
 21
15155.20352374838
 31
0.0
 11
11016.96003747962
 21
15155.19097834265
 31
0.0
 11
11016.95528249244
 21
15155.17840560573
 31
0.0
 11
11016.95051199111
 21
15155.16556733284
 31
0.0
 11
11016.94581903618
 21
15155.15270052987
 31
0.0
 11
11016.94221725174
 21
15155.14265305435
 31
0.0
 11
11016.93866508344
 21
15155.13258793801
 31
0.0
 11
11016.93510203397
 21
15155.12232851285
 31
0.0
 11
11016.93158986927
 21
15155.11205155197
 31
0.0
 11
11016.92801048825
 21
15155.10140828487
 31
0.0
 11
11016.92448142621
 21
15155.09074822959
 31
0.0
 11
11016.91700561229
 21
15155.06763807945
 31
0.0
 11
11016.90971698379
 21
15155.0444682072
 31
0.0
  0
SPLINE
  5
91
330
1F
100
AcDbEntity
  8
DEFAULT_2
  6
HIDDEN_2
 62
   252
420
  8685188
100
AcDbSpline
210
0.0
220
0.0
230
1.0
 70
     8
 71
     3
 72
     9
 73
     5
 74
     3
 42
0.0000000001
 43
0.0000000001
 44
0.00000001
 40
0.0
 40
0.0
 40
0.0
 40
0.0
 40
0.0115325039897724
 40
0.0230650079791593
 40
0.0230650079791593
 40
0.0230650079791593
 40
0.0230650079791593
 10
11069.77343508176
 20
15121.17176772438
 30
0.0
 10
11069.77182460367
 20
15121.17525828191
 30
0.0
 10
11069.76860364748
 20
15121.18223939697
 30
0.0
 10
11069.76537299074
 20
15121.18921602819
 30
0.0
 10
11069.76375766237
 20
15121.1927043438
 30
0.0
 11
11069.77343508176
 21
15121.17176772438
 31
0.0
 11
11069.76860122235
 21
15121.18223827601
 31
0.0
 11
11069.76375766237
 21
15121.1927043438
 31
0.0
  0
SPLINE
  5
92
330
1F
100
AcDbEntity
  8
DEFAULT_2
  6
HIDDEN_2
 62
   252
420
  8685188
100
AcDbSpline
210
0.0
220
0.0
230
1.0
 70
     8
 71
     3
 72
     9
 73
     5
 74
     3
 42
0.0000000001
 43
0.0000000001
 44
0.00000001
 40
0.0
 40
0.0
 40
0.0
 40
0.0
 40
0.0115325039793325
 40
0.0230650079692342
 40
0.0230650079692342
 40
0.0230650079692342
 40
0.0230650079692342
 10
11069.76375766237
 20
15112.6914930694
 30
0.0
 10
11069.76537299073
 20
15112.69498138501
 30
0.0
 10
11069.76860364746
 20
15112.70195801624
 30
0.0
 10
11069.77182460366
 20
15112.70893913129
 30
0.0
 10
11069.77343508176
 20
15112.71242968881
 30
0.0
 11
11069.76375766237
 21
15112.6914930694
 31
0.0
 11
11069.76860122233
 21
15112.70195913719
 31
0.0
 11
11069.77343508176
 21
15112.71242968881
 31
0.0
  0
XLINE
  5
93
330
1F
100
AcDbEntity
  8
1
  6
DOT_CENTER
 62
     3
 60
     1
100
AcDbXline
 10
11007.37343508177
 20
15106.97366185079
 30
0.0
 11
-1.0
 21
0.0
 31
0.0
  0
XLINE
  5
94
330
1F
100
AcDbEntity
  8
1
  6
DOT_CENTER
 62
     3
 60
     1
100
AcDbXline
 10
11007.37343508177
 20
15106.97366185079
 30
0.0
 11
0.0
 21
1.0
 31
0.0
  0
DIMENSION
  5
A0
330
1F
100
AcDbEntity
  8
1
100
AcDbDimension
  2
*D1
 10
11080.4856054461
 20
15145.9420987066
 30
0.0
 11
11076.7356054461
 21
15131.4021038098
 31
0.0
 70
    32
  1
<>
 71
     5
 42
-1.0
 53
90.0
  3
ME10_DIM_10
100
AcDbAlignedDimension
 13
11073.93971698379
 23
15116.9420987066
 33
0.0
 14
11073.93971698379
 24
15145.9420987066
 34
0.0
 50
90.0
100
AcDbRotatedDimension
  0
DIMENSION
  5
AB
330
1F
100
AcDbEntity
  8
1
100
AcDbDimension
  2
*D2
 10
11068.2802989172
 20
15136.4420987066
 30
0.0
 11
11064.5302989172
 21
15131.4021038098
 31
0.0
 70
    32
  1
<>
 71
     5
 42
-1.0
 53
90.0
  3
ME10_DIM_11
100
AcDbAlignedDimension
 13
11063.19054095812
 23
15126.4420987066
 33
0.0
 14
11063.19054095812
 24
15136.4420987066
 34
0.0
 50
90.0
100
AcDbRotatedDimension
  0
DIMENSION
  5
B6
330
1F
100
AcDbEntity
  8
1
100
AcDbDimension
  2
*D3
 10
11030.671046878
 20
15143.4420987066
 30
0.0
 11
11026.921046878
 21
15132.0122870686
 31
0.0
 70
    32
  1
<>
 71
     5
 42
-1.0
 53
90.0
  3
ME10_DIM_12
100
AcDbAlignedDimension
 13
11031.72343508177
 23
15119.4420987066
 33
0.0
 14
11031.72343508177
 24
15143.4420987066
 34
0.0
 50
90.0
100
AcDbRotatedDimension
  0
DIMENSION
  5
C1
330
1F
100
AcDbEntity
  8
1
100
AcDbDimension
  2
*D4
 10
10996.87343508177
 20
15043.5144206108
 30
0.0
 11
11007.32636903515
 21
15047.2644206108
 31
0.0
 70
    32
  1
<>
 71
     5
 42
-1.0
 53
0.00013888888889
  3
ME10_DIM_13
100
AcDbAlignedDimension
 13
11017.87343508177
 23
15056.9420987066
 33
0.0
 14
10996.87343508177
 24
15056.9420987066
 34
0.0
100
AcDbRotatedDimension
  0
DIMENSION
  5
CD
330
1F
100
AcDbEntity
  8
1
100
AcDbDimension
  2
*D5
 10
10976.4477077202
 20
15131.4420987066
 30
0.0
 11
10972.6977077202
 21
15096.80789337414
 31
0.0
 70
    32
  1
<>
 71
     5
 42
-1.0
 53
90.0
  3
ME10_DIM_14
100
AcDbAlignedDimension
 13
11003.12971698379
 23
15068.4420987066
 33
0.0
 14
11003.12971698379
 24
15131.4420987066
 34
0.0
 50
90.0
100
AcDbRotatedDimension
  0
DIMENSION
  5
D8
330
1F
100
AcDbEntity
  8
1
100
AcDbDimension
  2
*D6
 10
10986.1421035328
 20
15149.4420987066
 30
0.0
 11
10982.3921035328
 21
15133.55710789252
 31
0.0
 70
    32
  1
<>
 71
     5
 42
-1.0
 53
90.0
  3
ME10_DIM_15
100
AcDbAlignedDimension
 13
10999.82971698379
 23
15113.4420987066
 33
0.0
 14
10999.82971698379
 24
15149.4420987066
 34
0.0
 50
90.0
100
AcDbRotatedDimension
  0
DIMENSION
  5
E4
330
1F
100
AcDbEntity
  8
1
100
AcDbDimension
  2
*D7
 10
11104.6825583177
 20
15105.9420987066
 30
0.0
 11
11100.9325583177
 21
15081.7795781208
 31
0.0
 70
    32
  1
<>
 71
     5
 42
-1.0
 53
90.0
  3
ME10_DIM_16
100
AcDbAlignedDimension
 13
11017.6797169838
 23
15056.9420987066
 33
0.0
 14
11018.62971698379
 24
15105.9420987066
 34
0.0
 50
90.0
100
AcDbRotatedDimension
  0
DIMENSION
  5
EF
330
1F
100
AcDbEntity
  8
1
100
AcDbDimension
  2
*D8
 10
11104.5649063939
 20
15155.9420987066
 30
0.0
 11
11100.8149063939
 21
15131.2577739934
 31
0.0
 70
    32
  1
<>
 71
     5
 42
-1.0
 53
90.0
  3
ME10_DIM_17
100
AcDbAlignedDimension
 13
11072.37343508177
 23
15106.9420987066
 33
0.0
 14
11072.37343508177
 24
15155.9420987066
 34
0.0
 50
90.0
100
AcDbRotatedDimension
  0
DIMENSION
  5
FC
330
1F
100
AcDbEntity
  8
1
100
AcDbDimension
  2
*D9
 10
11094.5989374787
 20
15106.9420987066
 30
0.0
 11
11090.8489374787
 21
15109.9416738136
 31
0.0
 70
    32
  1
<>
 71
     5
 42
-1.0
 53
90.0
  3
ME10_DIM_18
100
AcDbAlignedDimension
 13
11018.62971698379
 23
15105.9420987066
 33
0.0
 14
10997.03974228039
 24
15106.9420987066
 34
0.0
 50
90.0
100
AcDbRotatedDimension
  0
DIMENSION
  5
107
330
1F
100
AcDbEntity
  8
1
100
AcDbDimension
  2
*D10
 10
11007.37343508177
 20
15168.9329545862
 30
0.0
 11
11014.91459778014
 21
15172.6829545862
 31
0.0
 70
    32
  1
<>
 71
     5
 42
-1.0
 53
0.00013888888889
  3
ME10_DIM_19
100
AcDbAlignedDimension
 13
11022.37343508176
 23
15152.7370987066
 33
0.0
 14
11007.37343508177
 24
15160.88219091664
 34
0.0
100
AcDbRotatedDimension
  0
DIMENSION
  5
113
330
1F
100
AcDbEntity
  8
1
100
AcDbDimension
  2
*D11
 10
11084.37343508176
 20
15043.5144206108
 30
0.0
 11
11046.36001691678
 21
15047.2644206108
 31
0.0
 70
    32
  1
<>
 71
     5
 42
-1.0
 53
0.00013888888889
  3
ME10_DIM_20
100
AcDbAlignedDimension
 13
11017.87343508177
 23
15056.9420987066
 33
0.0
 14
11084.37343508177
 24
15118.9420987066
 34
0.0
100
AcDbRotatedDimension
  0
ENDSEC
  0
SECTION
  2
OBJECTS
  0
DICTIONARY
  5
C
330
0
100
AcDbDictionary
281
     1
  3
ACAD_GROUP
350
D
  3
ACAD_LAYOUT
350
1A
  3
ACAD_MLINESTYLE
350
17
  3
ACAD_PLOTSETTINGS
350
19
  3
ACAD_PLOTSTYLENAME
350
E
  0
DICTIONARY
  5
D
102
{ACAD_REACTORS
330
C
102
}
330
C
100
AcDbDictionary
281
     1
  0
DICTIONARY
  5
1A
102
{ACAD_REACTORS
330
C
102
}
330
C
100
AcDbDictionary
281
     1
  3
Layout1
350
1E
  3
Layout2
350
26
  3
Model
350
22
  0
DICTIONARY
  5
17
102
{ACAD_REACTORS
330
C
102
}
330
C
100
AcDbDictionary
281
     1
  3
Standard
350
18
  0
DICTIONARY
  5
19
102
{ACAD_REACTORS
330
C
102
}
330
C
100
AcDbDictionary
281
     1
  0
ACDBDICTIONARYWDFLT
  5
E
102
{ACAD_REACTORS
330
C
102
}
330
C
100
AcDbDictionary
281
     1
  3
Normal
350
F
100
AcDbDictionaryWithDefault
340
F
  0
LAYOUT
  5
1E
102
{ACAD_REACTORS
330
1A
102
}
330
1A
100
AcDbPlotSettings
  1

  2

  4

  6

 40
0.0
 41
0.0
 42
0.0
 43
0.0
 44
0.0
 45
0.0
 46
0.0
 47
0.0
 48
0.0
 49
0.0
140
0.0
141
0.0
142
1.0
143
1.0
 70
   688
 72
     0
 73
     0
 74
     5
  7

 75
    16
 76
     0
 77
     2
 78
   300
147
1.0
148
0.0
149
0.0
100
AcDbLayout
  1
Layout1
 70
     1
 71
     1
 10
0.0
 20
0.0
 11
0.0
 21
0.0
 12
0.0
 22
0.0
 32
0.0
 14
0.0
 24
0.0
 34
0.0
 15
0.0
 25
0.0
 35
0.0
146
0.0
 13
0.0
 23
0.0
 33
0.0
 16
1.0
 26
0.0
 36
0.0
 17
0.0
 27
1.0
 37
0.0
 76
     0
330
1B
  0
LAYOUT
  5
26
102
{ACAD_REACTORS
330
1A
102
}
330
1A
100
AcDbPlotSettings
  1

  2

  4

  6

 40
0.0
 41
0.0
 42
0.0
 43
0.0
 44
0.0
 45
0.0
 46
0.0
 47
0.0
 48
0.0
 49
0.0
140
0.0
141
0.0
142
1.0
143
1.0
 70
   688
 72
     0
 73
     0
 74
     5
  7

 75
    16
 76
     0
 77
     2
 78
   300
147
1.0
148
0.0
149
0.0
100
AcDbLayout
  1
Layout2
 70
     1
 71
     2
 10
0.0
 20
0.0
 11
0.0
 21
0.0
 12
0.0
 22
0.0
 32
0.0
 14
0.0
 24
0.0
 34
0.0
 15
0.0
 25
0.0
 35
0.0
146
0.0
 13
0.0
 23
0.0
 33
0.0
 16
1.0
 26
0.0
 36
0.0
 17
0.0
 27
1.0
 37
0.0
 76
     0
330
23
  0
LAYOUT
  5
22
102
{ACAD_REACTORS
330
1A
102
}
330
1A
100
AcDbPlotSettings
  1

  2

  4

  6

 40
0.0
 41
0.0
 42
0.0
 43
0.0
 44
0.0
 45
0.0
 46
0.0
 47
0.0
 48
0.0
 49
0.0
140
0.0
141
0.0
142
1.0
143
1.0
 70
  1712
 72
     0
 73
     0
 74
     0
  7

 75
     0
 76
     0
 77
     2
 78
   300
147
1.0
148
0.0
149
0.0
100
AcDbLayout
  1
Model
 70
     1
 71
     0
 10
0.0
 20
0.0
 11
0.0
 21
0.0
 12
0.0
 22
0.0
 32
0.0
 14
10970.9477077202
 24
15041.5144206108
 34
0.0
 15
11106.6825583177
 25
15174.4329545862
 35
0.0
146
0.0
 13
0.0
 23
0.0
 33
0.0
 16
1.0
 26
0.0
 36
0.0
 17
0.0
 27
1.0
 37
0.0
 76
     0
330
1F
  0
MLINESTYLE
  5
18
102
{ACAD_REACTORS
330
17
102
}
330
17
100
AcDbMlineStyle
  2
Standard
 70
     0
  3

 62
   256
 51
90.0
 52
90.0
 71
     2
 49
0.5
 62
   256
  6
BYLAYER
 49
-0.5
 62
   256
  6
BYLAYER
  0
ACDBPLACEHOLDER
  5
F
102
{ACAD_REACTORS
330
E
102
}
330
E
  0
ENDSEC
  0
EOF
