999
DXF file: d:\tmp\workingDir\0000062931\vn_8939_100_m_v01_01.dxf
999
Pro/ENGINEER 2016380 by Parametric Technology Corporation
  0
SECTION
  2
HEADER
  9
$ACADVER
  1
AC1014
  9
$DWGCODEPAGE
  3
ANSI_1252
  9
$EXTMAX
 10
130.048
 20
130.0
 30
0.0
  9
$EXTMIN
 10
0.0
 20
0.0
 30
0.0
  9
$LIMMIN
 10
0.0
 20
0.0
  9
$LIMMAX
 10
130.048
 20
130.0
  9
$VIEWCTR
 10
65.024
 20
65.0
  9
$VIEWSIZE
 40
130.0
  9
$CLAYER
  8
0
  9
$LTSCALE
 40
8.4740740741
  9
$CELTYPE
  6
BYLAYER
  9
$DIMSCALE
 40
1.0
  9
$DIMASZ
 40
3.5
  9
$DIMEXO
 40
0.0
  9
$DIMDLI
 40
5.8548148148
  9
$DIMEXE
 40
2.0
  9
$DIMCEN
 40
1.3866666667
  9
$DIMLFAC
 40
1.0
  9
$DIMBLK
  1
_ARROW_FILLED
  9
$DIMALT
 70
0
  9
$DIMALTF
 40
25.4
  9
$DIMTXT
 40
3.5
  9
$DIMTOL
 70
1
  9
$DIMLIM
 70
0
  9
$DIMTFAC
 40
1.0
  9
$DIMTP
 40
0.01
  9
$DIMTM
 40
0.01
  9
$DIMGAP
 40
0.625
  9
$AUNITS
 70
0
  9
$PDMODE
 70
0
  9
$PDSIZE
 40
0.04
  9
$HANDSEED
  5
320
  9
$TILEMODE
 70
1
  9
$MEASUREMENT
 70
1
  0
ENDSEC
  0
SECTION
  2
CLASSES
  0
ENDSEC
  0
SECTION
  2
TABLES
  0
TABLE
  2
VPORT
  5
8
100
AcDbSymbolTable
 70
2
  0
VPORT
  5
1F4
100
AcDbSymbolTableRecord
100
AcDbViewportTableRecord
  2
*ACTIVE
 70
0
 10
0.0
 20
0.0
 11
1.0
 21
1.0
 12
65.024
 22
65.0
 13
0.0
 23
0.0
 14
1.0
 24
1.0
 15
0.0
 25
0.0
 16
0.0
 26
0.0
 36
1.0
 17
0.0
 27
0.0
 37
0.0
 40
130.0
 41
1.0003692308
 42
50.0
 43
0.0
 44
0.0
 50
0.0
 51
0.0
 71
0
 72
100
 73
1
 74
1
 75
0
 76
0
 77
0
 78
0
  0
ENDTAB
  0
TABLE
  2
LTYPE
  5
5
100
AcDbSymbolTable
 70
6
  0
LTYPE
  5
14
100
AcDbSymbolTableRecord
100
AcDbLinetypeTableRecord
  2
BYBLOCK
 70
0
  3

 72
65
 73
0
 40
0.0
  0
LTYPE
  5
15
100
AcDbSymbolTableRecord
100
AcDbLinetypeTableRecord
  2
BYLAYER
 70
0
  3

 72
65
 73
0
 40
0.0
  0
LTYPE
  5
16
100
AcDbSymbolTableRecord
100
AcDbLinetypeTableRecord
  2
CONTINUOUS
 70
64
  3
Solid line
 72
65
 73
0
 40
0.0
  0
LTYPE
  5
1F5
100
AcDbSymbolTableRecord
100
AcDbLinetypeTableRecord
  2
CENTER
 70
64
  3
____ _ ____ _ ____ _ ____ _ ____ _ ____ _ ____
 72
65
 73
4
 40
0.6
 49
0.375
 74
0
 49
-0.075
 74
0
 49
0.075
 74
0
 49
-0.075
 74
0
  0
LTYPE
  5
1F6
100
AcDbSymbolTableRecord
100
AcDbLinetypeTableRecord
  2
HIDDEN
 70
64
  3
- - - - - - - - - - - - - - - - - - - -
 72
65
 73
2
 40
0.2
 49
0.1
 74
0
 49
-0.1
 74
0
  0
LTYPE
  5
1F7
100
AcDbSymbolTableRecord
100
AcDbLinetypeTableRecord
  2
PHANTOM
 70
64
  3
_____ _ _ _____ _ _ _____ _ _ _____
 72
65
 73
6
 40
0.8
 49
0.45
 74
0
 49
-0.05
 74
0
 49
0.1
 74
0
 49
-0.05
 74
0
 49
0.1
 74
0
 49
-0.05
 74
0
  0
LTYPE
  5
1F8
100
AcDbSymbolTableRecord
100
AcDbLinetypeTableRecord
  2
DOT
 70
64
  3
. . . . . . . . . . . . . . . . . . . .
 72
65
 73
2
 40
0.2
 49
0.1
 74
0
 49
-0.1
 74
0
  0
LTYPE
  5
1F9
100
AcDbSymbolTableRecord
100
AcDbLinetypeTableRecord
  2
DASHED
 70
64
  3
- - - - - - - - - - - - - - - - - - - -
 72
65
 73
2
 40
0.2
 49
0.1
 74
0
 49
-0.1
 74
0
  0
ENDTAB
  0
TABLE
  2
LAYER
  5
2
100
AcDbSymbolTable
 70
36
  0
LAYER
  5
10
100
AcDbSymbolTableRecord
100
AcDbLayerTableRecord
  2
0
 70
0
 62
7
  6
CONTINUOUS
  0
LAYER
  5
1FA
100
AcDbSymbolTableRecord
100
AcDbLayerTableRecord
  2
DEFAULT_1
 70
0
 62
7
  6
CENTER
  0
LAYER
  5
1FB
100
AcDbSymbolTableRecord
100
AcDbLayerTableRecord
  2
DEFAULT_2
 70
0
 62
8
  6
HIDDEN
  0
LAYER
  5
1FC
100
AcDbSymbolTableRecord
100
AcDbLayerTableRecord
  2
DEFAULT_3
 70
0
 62
7
  6
PHANTOM
  0
LAYER
  5
1FD
100
AcDbSymbolTableRecord
100
AcDbLayerTableRecord
  2
A_ACHSEN
 70
0
 62
7
  6
CONTINUOUS
  0
LAYER
  5
1FE
100
AcDbSymbolTableRecord
100
AcDbLayerTableRecord
  2
A_BASISEBENEN
 70
0
 62
7
  6
CONTINUOUS
  0
LAYER
  5
1FF
100
AcDbSymbolTableRecord
100
AcDbLayerTableRecord
  2
A_BEMASSUNGEN
 70
0
 62
7
  6
CONTINUOUS
  0
LAYER
  5
200
100
AcDbSymbolTableRecord
100
AcDbLayerTableRecord
  2
A_BOHRUNGEN
 70
0
 62
7
  6
CONTINUOUS
  0
LAYER
  5
201
100
AcDbSymbolTableRecord
100
AcDbLayerTableRecord
  2
A_EBENEN
 70
0
 62
7
  6
CONTINUOUS
  0
LAYER
  5
202
100
AcDbSymbolTableRecord
100
AcDbLayerTableRecord
  2
A_FASEN
 70
0
 62
7
  6
CONTINUOUS
  0
LAYER
  5
203
100
AcDbSymbolTableRecord
100
AcDbLayerTableRecord
  2
A_FLAECHEN
 70
0
 62
7
  6
CONTINUOUS
  0
LAYER
  5
204
100
AcDbSymbolTableRecord
100
AcDbLayerTableRecord
  2
A_FL_VERBAENDE
 70
0
 62
7
  6
CONTINUOUS
  0
LAYER
  5
205
100
AcDbSymbolTableRecord
100
AcDbLayerTableRecord
  2
A_KURVEN
 70
0
 62
7
  6
CONTINUOUS
  0
LAYER
  5
206
100
AcDbSymbolTableRecord
100
AcDbLayerTableRecord
  2
A_NOTIZEN_SYMB
 70
0
 62
7
  6
CONTINUOUS
  0
LAYER
  5
207
100
AcDbSymbolTableRecord
100
AcDbLayerTableRecord
  2
A_RUNDUNGEN
 70
0
 62
7
  6
CONTINUOUS
  0
LAYER
  5
208
100
AcDbSymbolTableRecord
100
AcDbLayerTableRecord
  2
A_TABELLEN
 70
0
 62
7
  6
CONTINUOUS
  0
LAYER
  5
209
100
AcDbSymbolTableRecord
100
AcDbLayerTableRecord
  2
B-ACHSEN
 70
0
 62
7
  6
CONTINUOUS
  0
LAYER
  5
20A
100
AcDbSymbolTableRecord
100
AcDbLayerTableRecord
  2
B-EBENEN
 70
0
 62
7
  6
CONTINUOUS
  0
LAYER
  5
20B
100
AcDbSymbolTableRecord
100
AcDbLayerTableRecord
  2
B-KOORSYS
 70
0
 62
7
  6
CONTINUOUS
  0
LAYER
  5
20C
100
AcDbSymbolTableRecord
100
AcDbLayerTableRecord
  2
BASISEBENEN
 70
0
 62
7
  6
CONTINUOUS
  0
LAYER
  5
20D
100
AcDbSymbolTableRecord
100
AcDbLayerTableRecord
  2
BEMASSUNG
 70
0
 62
7
  6
CONTINUOUS
  0
LAYER
  5
20E
100
AcDbSymbolTableRecord
100
AcDbLayerTableRecord
  2
BOHRUNGEN
 70
0
 62
7
  6
CONTINUOUS
  0
LAYER
  5
20F
100
AcDbSymbolTableRecord
100
AcDbLayerTableRecord
  2
KOERPER
 70
0
 62
7
  6
CONTINUOUS
  0
LAYER
  5
210
100
AcDbSymbolTableRecord
100
AcDbLayerTableRecord
  2
RUNDUNGEN
 70
0
 62
7
  6
CONTINUOUS
  0
LAYER
  5
211
100
AcDbSymbolTableRecord
100
AcDbLayerTableRecord
  2
VERBUNDFLAECHEN
 70
0
 62
7
  6
CONTINUOUS
  0
LAYER
  5
212
100
AcDbSymbolTableRecord
100
AcDbLayerTableRecord
  2
XSEC_DATUMS
 70
0
 62
7
  6
CONTINUOUS
  0
ENDTAB
  0
TABLE
  2
STYLE
  5
3
100
AcDbSymbolTable
 70
1
  0
STYLE
  5
11
100
AcDbSymbolTableRecord
100
AcDbTextStyleTableRecord
  2
STANDARD
 70
0
 40
0.0
 41
1.0
 50
0.0
 71
0
 42
0.2
  3
txt
  4

  0
STYLE
  5
213
100
AcDbSymbolTableRecord
100
AcDbTextStyleTableRecord
  2
TEXTSTYLE_1
 70
0
 40
0.0
 41
0.8
 50
0.0
 71
0
 42
0.2
  3
gdt
  4

  0
STYLE
  5
214
100
AcDbSymbolTableRecord
100
AcDbTextStyleTableRecord
  2
TEXTSTYLE_2
 70
0
 40
0.0
 41
1.0
 50
0.0
 71
0
 42
0.2
  3
txt
  4

  0
ENDTAB
  0
TABLE
  2
VIEW
  5
6
100
AcDbSymbolTable
 70
0
  0
ENDTAB
  0
TABLE
  2
UCS
  5
7
100
AcDbSymbolTable
 70
0
  0
ENDTAB
  0
TABLE
  2
APPID
  5
9
100
AcDbSymbolTable
 70
1
  0
APPID
  5
215
100
AcDbSymbolTableRecord
100
AcDbRegAppTableRecord
  2
ACAD
 70
0
  0
ENDTAB
  0
TABLE
  2
BLOCK_RECORD
  5
1
100
AcDbSymbolTable
 70
0
  0
BLOCK_RECORD
  5
1F
100
AcDbSymbolTableRecord
100
AcDbBlockTableRecord
  2
*MODEL_SPACE
  0
BLOCK_RECORD
  5
1B
100
AcDbSymbolTableRecord
100
AcDbBlockTableRecord
  2
*PAPER_SPACE
  0
BLOCK_RECORD
  5
216
100
AcDbSymbolTableRecord
100
AcDbBlockTableRecord
  2
_ARROW_FILLED
  0
BLOCK_RECORD
  5
217
100
AcDbSymbolTableRecord
100
AcDbBlockTableRecord
  2
*D0
  0
BLOCK_RECORD
  5
218
100
AcDbSymbolTableRecord
100
AcDbBlockTableRecord
  2
*D1
  0
BLOCK_RECORD
  5
219
100
AcDbSymbolTableRecord
100
AcDbBlockTableRecord
  2
*D2
  0
BLOCK_RECORD
  5
21A
100
AcDbSymbolTableRecord
100
AcDbBlockTableRecord
  2
*D3
  0
BLOCK_RECORD
  5
21B
100
AcDbSymbolTableRecord
100
AcDbBlockTableRecord
  2
*D4
  0
BLOCK_RECORD
  5
21C
100
AcDbSymbolTableRecord
100
AcDbBlockTableRecord
  2
*D5
  0
ENDTAB
  0
TABLE
  2
DIMSTYLE
  5
A
100
AcDbSymbolTable
 70
1
  0
DIMSTYLE
105
21D
100
AcDbSymbolTableRecord
100
AcDbDimStyleTableRecord
  2
STANDARD
 70
0
  3

  4

  5
_ARROW_FILLED
  6
_ARROW_FILLED
  7
_ARROW_FILLED
 40
1.0
 41
3.5
 42
0.0
 43
0.38
 44
2.0
 45
0.0
 46
0.0
 47
0.01
 48
0.01
140
3.5
141
0.09
142
0.0
143
25.4
144
1.0
145
0.0
146
1.0
147
0.625
 71
1.0
 72
0.0
 73
0
 74
0
 75
0
 76
0
 77
1
 78
8
170
0
171
1
172
0
173
0
174
0
175
0
176
0
177
0
178
5
270
2
271
2
272
2
273
2
274
2
275
0
280
0
281
0
282
0
283
1
284
8
285
0
286
0
287
3
288
0
340
11
  0
DIMSTYLE
105
21E
100
AcDbSymbolTableRecord
100
AcDbDimStyleTableRecord
  2
DIMSTYLE_1
 70
0
  3

  4

  5
_ARROW_FILLED
  6
_ARROW_FILLED
  7
_ARROW_FILLED
 40
1.0
 41
3.5
 42
0.0
 43
0.38
 44
2.0
 45
0.0
 46
0.0
 47
0.3
 48
0.3
140
3.5
141
0.09
142
0.0
143
25.4
144
1.0
145
0.0
146
1.0
147
0.875
 71
0.0
 72
0.0
 73
0
 74
0
 75
0
 76
0
 77
1
 78
8
170
0
171
1
172
0
173
0
174
0
175
0
176
0
177
0
178
5
270
2
271
4
272
-1
273
2
274
2
275
0
280
0
281
0
282
0
283
1
284
8
285
0
286
0
287
3
288
0
340
214
  0
DIMSTYLE
105
21F
100
AcDbSymbolTableRecord
100
AcDbDimStyleTableRecord
  2
DIMSTYLE_2
 70
0
  3

  4

  5
_ARROW_FILLED
  6
_ARROW_FILLED
  7
_ARROW_FILLED
 40
1.0
 41
3.5
 42
0.0
 43
0.38
 44
2.0
 45
0.0
 46
0.0
 47
0.2
 48
0.2
140
3.5
141
0.09
142
0.0
143
25.4
144
1.0
145
0.0
146
1.0
147
0.875
 71
0.0
 72
0.0
 73
0
 74
0
 75
0
 76
0
 77
1
 78
8
170
0
171
1
172
0
173
0
174
0
175
0
176
0
177
0
178
5
270
2
271
0
272
-1
273
2
274
2
275
0
280
0
281
0
282
0
283
1
284
8
285
0
286
0
287
3
288
0
340
214
  0
DIMSTYLE
105
220
100
AcDbSymbolTableRecord
100
AcDbDimStyleTableRecord
  2
DIMSTYLE_3
 70
0
  3

  4

  5
_ARROW_FILLED
  6
_ARROW_FILLED
  7
_ARROW_FILLED
 40
1.0
 41
3.5
 42
0.0
 43
0.38
 44
2.0
 45
0.0
 46
0.0
 47
0.2
 48
0.2
140
3.5
141
0.09
142
0.0
143
25.4
144
1.0
145
0.0
146
1.0
147
0.875
 71
0.0
 72
0.0
 73
0
 74
0
 75
0
 76
0
 77
1
 78
8
170
0
171
1
172
0
173
0
174
0
175
0
176
0
177
0
178
5
270
2
271
4
272
-1
273
2
274
2
275
0
280
0
281
0
282
0
283
1
284
8
285
0
286
0
287
3
288
0
340
214
  0
ENDTAB
  0
ENDSEC
  0
SECTION
  2
BLOCKS
  0
BLOCK
  5
20
100
AcDbEntity
  8
0
100
AcDbBlockBegin
  2
*MODEL_SPACE
 70
0
 10
0.0
 20
0.0
 30
0.0
  3
*MODEL_SPACE
  1

  0
ENDBLK
  5
21
100
AcDbEntity
  8
0
100
AcDbBlockEnd
  0
BLOCK
  5
1C
100
AcDbEntity
  8
0
100
AcDbBlockBegin
  2
*PAPER_SPACE
 70
0
 10
0.0
 20
0.0
 30
0.0
  3
*PAPER_SPACE
  1

  0
ENDBLK
  5
1D
100
AcDbEntity
  8
0
100
AcDbBlockEnd
  0
BLOCK
  5
221
100
AcDbEntity
  8
0
100
AcDbBlockBegin
  2
_ARROW_FILLED
 70
64
 10
0.0
 20
0.0
  3
_ARROW_FILLED
  1

  0
SOLID
  5
222
100
AcDbEntity
  8
0
  6
BYBLOCK
 62
0
100
AcDbTrace
 10
0.0
 20
0.0
 11
-1.0
 21
0.0940374286
 12
-1.0
 22
-0.0940374286
 13
-1.0
 23
-0.0940374286
  0
ENDBLK
  5
223
100
AcDbEntity
  8
0
  6
BYBLOCK
 62
0
100
AcDbBlockEnd
  0
BLOCK
  5
224
100
AcDbEntity
  8
A_BEMASSUNGEN
100
AcDbBlockBegin
 62
2
  6
CONTINUOUS
  2
*D0
 70
65
 10
0.0
 20
0.0
  3
*D0
  1

  0
MTEXT
  5
225
100
AcDbEntity
  8
A_BEMASSUNGEN
100
AcDbMText
 62
5
  6
CONTINUOUS
  7
TEXTSTYLE_2
 71
2
 72
1
 10
105.3292142358
 20
65.3656846013
 30
0.0
 11
0.0
 21
1.0
 31
0.0
  1
34.5
 40
3.5
 41
14.625
  0
LINE
  5
226
100
AcDbEntity
  8
A_BEMASSUNGEN
100
AcDbLine
 62
2
  6
CONTINUOUS
 10
96.5916294897
 20
48.1156846013
 11
111.7042142358
 21
48.1156846013
  0
LINE
  5
227
100
AcDbEntity
  8
A_BEMASSUNGEN
100
AcDbLine
 62
2
  6
CONTINUOUS
 10
96.5916294897
 20
82.6156846013
 11
111.7042142358
 21
82.6156846013
  0
LINE
  5
228
100
AcDbEntity
  8
A_BEMASSUNGEN
100
AcDbLine
 62
2
  6
CONTINUOUS
 10
109.7042142358
 20
48.1156846013
 11
109.7042142358
 21
65.3656846013
  0
LINE
  5
229
100
AcDbEntity
  8
A_BEMASSUNGEN
100
AcDbLine
 62
2
  6
CONTINUOUS
 10
109.7042142358
 20
82.6156846013
 11
109.7042142358
 21
65.3656846013
  0
INSERT
  5
22A
100
AcDbEntity
  8
A_BEMASSUNGEN
100
AcDbBlockReference
 62
2
  6
CONTINUOUS
  2
_ARROW_FILLED
 10
109.7042142358
 20
48.1156846013
 41
3.5
 42
3.5
 43
3.5
 50
270.0
  0
INSERT
  5
22B
100
AcDbEntity
  8
A_BEMASSUNGEN
100
AcDbBlockReference
 62
2
  6
CONTINUOUS
  2
_ARROW_FILLED
 10
109.7042142358
 20
82.6156846013
 41
3.5
 42
3.5
 43
3.5
 50
90.0
  0
ENDBLK
  5
22C
100
AcDbEntity
  8
0
  6
BYBLOCK
 62
0
100
AcDbBlockEnd
  0
BLOCK
  5
22D
100
AcDbEntity
  8
A_BEMASSUNGEN
100
AcDbBlockBegin
 62
2
  6
CONTINUOUS
  2
*D1
 70
65
 10
0.0
 20
0.0
  3
*D1
  1

  0
MTEXT
  5
22E
100
AcDbEntity
  8
A_BEMASSUNGEN
100
AcDbMText
 62
5
  6
CONTINUOUS
  7
TEXTSTYLE_2
 71
2
 72
1
 10
116.1676358881
 20
65.3656846013
 30
0.0
 11
0.0
 21
1.0
 31
0.0
  1
95
 40
3.5
 41
7.875
  0
LINE
  5
22F
100
AcDbEntity
  8
A_BEMASSUNGEN
100
AcDbLine
 62
2
  6
CONTINUOUS
 10
73.0166294897
 20
17.8656846013
 11
122.5426358881
 21
17.8656846013
  0
LINE
  5
230
100
AcDbEntity
  8
A_BEMASSUNGEN
100
AcDbLine
 62
2
  6
CONTINUOUS
 10
73.0166294897
 20
112.8656846013
 11
122.5426358881
 21
112.8656846013
  0
LINE
  5
231
100
AcDbEntity
  8
A_BEMASSUNGEN
100
AcDbLine
 62
2
  6
CONTINUOUS
 10
120.5426358881
 20
17.8656846013
 11
120.5426358881
 21
65.3656846013
  0
LINE
  5
232
100
AcDbEntity
  8
A_BEMASSUNGEN
100
AcDbLine
 62
2
  6
CONTINUOUS
 10
120.5426358881
 20
112.8656846013
 11
120.5426358881
 21
65.3656846013
  0
INSERT
  5
233
100
AcDbEntity
  8
A_BEMASSUNGEN
100
AcDbBlockReference
 62
2
  6
CONTINUOUS
  2
_ARROW_FILLED
 10
120.5426358881
 20
17.8656846013
 41
3.5
 42
3.5
 43
3.5
 50
270.0
  0
INSERT
  5
234
100
AcDbEntity
  8
A_BEMASSUNGEN
100
AcDbBlockReference
 62
2
  6
CONTINUOUS
  2
_ARROW_FILLED
 10
120.5426358881
 20
112.8656846013
 41
3.5
 42
3.5
 43
3.5
 50
90.0
  0
ENDBLK
  5
235
100
AcDbEntity
  8
0
  6
BYBLOCK
 62
0
100
AcDbBlockEnd
  0
BLOCK
  5
236
100
AcDbEntity
  8
A_BEMASSUNGEN
100
AcDbBlockBegin
 62
2
  6
CONTINUOUS
  2
*D2
 70
65
 10
0.0
 20
0.0
  3
*D2
  1

  0
MTEXT
  5
237
100
AcDbEntity
  8
A_BEMASSUNGEN
100
AcDbMText
 62
5
  6
CONTINUOUS
  7
TEXTSTYLE_2
 71
2
 72
1
 10
63.0916294897
 20
126.208909148
 30
0.0
 11
1.0
 21
0.0
 31
0.0
  1
ø20
 40
3.5
 41
13.5
  0
LINE
  5
238
100
AcDbEntity
  8
A_BEMASSUNGEN
100
AcDbLine
 62
2
  6
CONTINUOUS
 10
53.1666294897
 20
112.8656846013
 11
53.1666294897
 21
123.833909148
  0
LINE
  5
239
100
AcDbEntity
  8
A_BEMASSUNGEN
100
AcDbLine
 62
2
  6
CONTINUOUS
 10
73.0166294897
 20
112.8656846013
 11
73.0166294897
 21
123.833909148
  0
LINE
  5
23A
100
AcDbEntity
  8
A_BEMASSUNGEN
100
AcDbLine
 62
2
  6
CONTINUOUS
 10
53.1666294897
 20
121.833909148
 11
63.0916294897
 21
121.833909148
  0
LINE
  5
23B
100
AcDbEntity
  8
A_BEMASSUNGEN
100
AcDbLine
 62
2
  6
CONTINUOUS
 10
73.0166294897
 20
121.833909148
 11
63.0916294897
 21
121.833909148
  0
INSERT
  5
23C
100
AcDbEntity
  8
A_BEMASSUNGEN
100
AcDbBlockReference
 62
2
  6
CONTINUOUS
  2
_ARROW_FILLED
 10
53.1666294897
 20
121.833909148
 41
3.5
 42
3.5
 43
3.5
 50
180.0
  0
INSERT
  5
23D
100
AcDbEntity
  8
A_BEMASSUNGEN
100
AcDbBlockReference
 62
2
  6
CONTINUOUS
  2
_ARROW_FILLED
 10
73.0166294897
 20
121.833909148
 41
3.5
 42
3.5
 43
3.5
  0
ENDBLK
  5
23E
100
AcDbEntity
  8
0
  6
BYBLOCK
 62
0
100
AcDbBlockEnd
  0
BLOCK
  5
23F
100
AcDbEntity
  8
A_BEMASSUNGEN
100
AcDbBlockBegin
 62
2
  6
CONTINUOUS
  2
*D3
 70
65
 10
0.0
 20
0.0
  3
*D3
  1

  0
MTEXT
  5
240
100
AcDbEntity
  8
A_BEMASSUNGEN
100
AcDbMText
 62
5
  6
CONTINUOUS
  7
TEXTSTYLE_2
 71
2
 72
1
 10
20.9944912556
 20
96.9451754062
 30
0.0
 11
0.0
 21
1.0
 31
0.0
  1
34
 40
3.5
 41
7.875
  0
LINE
  5
241
100
AcDbEntity
  8
A_BEMASSUNGEN
100
AcDbLine
 62
2
  6
CONTINUOUS
 10
26.9666294897
 20
82.8656846013
 11
23.3694912556
 21
82.8656846013
  0
LINE
  5
242
100
AcDbEntity
  8
A_BEMASSUNGEN
100
AcDbLine
 62
2
  6
CONTINUOUS
 10
44.9666294897
 20
116.8656846013
 11
23.3694912556
 21
116.8656846013
  0
LINE
  5
243
100
AcDbEntity
  8
A_BEMASSUNGEN
100
AcDbLine
 62
2
  6
CONTINUOUS
 10
25.3694912556
 20
82.8656846013
 11
25.3694912556
 21
99.8656846013
  0
LINE
  5
244
100
AcDbEntity
  8
A_BEMASSUNGEN
100
AcDbLine
 62
2
  6
CONTINUOUS
 10
25.3694912556
 20
116.8656846013
 11
25.3694912556
 21
99.8656846013
  0
INSERT
  5
245
100
AcDbEntity
  8
A_BEMASSUNGEN
100
AcDbBlockReference
 62
2
  6
CONTINUOUS
  2
_ARROW_FILLED
 10
25.3694912556
 20
82.8656846013
 41
3.5
 42
3.5
 43
3.5
 50
270.0
  0
INSERT
  5
246
100
AcDbEntity
  8
A_BEMASSUNGEN
100
AcDbBlockReference
 62
2
  6
CONTINUOUS
  2
_ARROW_FILLED
 10
25.3694912556
 20
116.8656846013
 41
3.5
 42
3.5
 43
3.5
 50
90.0
  0
ENDBLK
  5
247
100
AcDbEntity
  8
0
  6
BYBLOCK
 62
0
100
AcDbBlockEnd
  0
BLOCK
  5
248
100
AcDbEntity
  8
A_BEMASSUNGEN
100
AcDbBlockBegin
 62
2
  6
CONTINUOUS
  2
*D4
 70
65
 10
0.0
 20
0.0
  3
*D4
  1

  0
MTEXT
  5
249
100
AcDbEntity
  8
A_BEMASSUNGEN
100
AcDbMText
 62
5
  6
CONTINUOUS
  7
TEXTSTYLE_2
 71
2
 72
1
 10
20.9944912556
 20
74.1156846013
 30
0.0
 11
0.0
 21
1.0
 31
0.0
  1
17.5
 40
3.5
 41
13.875
  0
LINE
  5
24A
100
AcDbEntity
  8
A_BEMASSUNGEN
100
AcDbLine
 62
2
  6
CONTINUOUS
 10
26.9666294897
 20
82.8656846013
 11
23.3694912556
 21
82.8656846013
  0
LINE
  5
24B
100
AcDbEntity
  8
A_BEMASSUNGEN
100
AcDbLine
 62
2
  6
CONTINUOUS
 10
30.6797647838
 20
65.3656846013
 11
23.3694912556
 21
65.3656846013
  0
LINE
  5
24C
100
AcDbEntity
  8
A_BEMASSUNGEN
100
AcDbLine
 62
2
  6
CONTINUOUS
 10
25.3694912556
 20
82.8656846013
 11
25.3694912556
 21
74.1156846013
  0
LINE
  5
24D
100
AcDbEntity
  8
A_BEMASSUNGEN
100
AcDbLine
 62
2
  6
CONTINUOUS
 10
25.3694912556
 20
65.3656846013
 11
25.3694912556
 21
74.1156846013
  0
INSERT
  5
24E
100
AcDbEntity
  8
A_BEMASSUNGEN
100
AcDbBlockReference
 62
2
  6
CONTINUOUS
  2
_ARROW_FILLED
 10
25.3694912556
 20
82.8656846013
 41
3.5
 42
3.5
 43
3.5
 50
90.0
  0
INSERT
  5
24F
100
AcDbEntity
  8
A_BEMASSUNGEN
100
AcDbBlockReference
 62
2
  6
CONTINUOUS
  2
_ARROW_FILLED
 10
25.3694912556
 20
65.3656846013
 41
3.5
 42
3.5
 43
3.5
 50
270.0
  0
ENDBLK
  5
250
100
AcDbEntity
  8
0
  6
BYBLOCK
 62
0
100
AcDbBlockEnd
  0
BLOCK
  5
251
100
AcDbEntity
  8
A_BEMASSUNGEN
100
AcDbBlockBegin
 62
2
  6
CONTINUOUS
  2
*D5
 70
65
 10
0.0
 20
0.0
  3
*D5
  1

  0
MTEXT
  5
252
100
AcDbEntity
  8
A_BEMASSUNGEN
100
AcDbMText
 62
5
  6
CONTINUOUS
  7
TEXTSTYLE_2
 71
2
 72
1
 10
8.854040561
 20
65.3656846013
 30
0.0
 11
0.0
 21
1.0
 31
0.0
  1
103
 40
3.5
 41
10.875
  0
LINE
  5
253
100
AcDbEntity
  8
A_BEMASSUNGEN
100
AcDbLine
 62
2
  6
CONTINUOUS
 10
44.9666294897
 20
116.8656846013
 11
11.229040561
 21
116.8656846013
  0
LINE
  5
254
100
AcDbEntity
  8
A_BEMASSUNGEN
100
AcDbLine
 62
2
  6
CONTINUOUS
 10
44.9666294897
 20
13.8656846013
 11
11.229040561
 21
13.8656846013
  0
LINE
  5
255
100
AcDbEntity
  8
A_BEMASSUNGEN
100
AcDbLine
 62
2
  6
CONTINUOUS
 10
13.229040561
 20
116.8656846013
 11
13.229040561
 21
65.3656846013
  0
LINE
  5
256
100
AcDbEntity
  8
A_BEMASSUNGEN
100
AcDbLine
 62
2
  6
CONTINUOUS
 10
13.229040561
 20
13.8656846013
 11
13.229040561
 21
65.3656846013
  0
INSERT
  5
257
100
AcDbEntity
  8
A_BEMASSUNGEN
100
AcDbBlockReference
 62
2
  6
CONTINUOUS
  2
_ARROW_FILLED
 10
13.229040561
 20
116.8656846013
 41
3.5
 42
3.5
 43
3.5
 50
90.0
  0
INSERT
  5
258
100
AcDbEntity
  8
A_BEMASSUNGEN
100
AcDbBlockReference
 62
2
  6
CONTINUOUS
  2
_ARROW_FILLED
 10
13.229040561
 20
13.8656846013
 41
3.5
 42
3.5
 43
3.5
 50
270.0
  0
ENDBLK
  5
259
100
AcDbEntity
  8
0
  6
BYBLOCK
 62
0
100
AcDbBlockEnd
  0
ENDSEC
  0
SECTION
  2
ENTITIES
  0
DIMENSION
  5
25A
100
AcDbEntity
  8
A_BEMASSUNGEN
100
AcDbDimension
 62
2
  6
CONTINUOUS
  2
*D0
 10
109.7042142358
 20
82.6156846013
 11
109.7042142358
 21
64.8656859326
 70
160
  3
DIMSTYLE_1
100
AcDbAlignedDimension
 13
96.5916294897
 23
48.1156846013
 14
96.5916294897
 24
82.6156846013
 50
90.0
100
AcDbRotatedDimension
  0
DIMENSION
  5
25B
100
AcDbEntity
  8
A_BEMASSUNGEN
100
AcDbDimension
 62
2
  6
CONTINUOUS
  2
*D1
 10
120.5426358881
 20
112.8656846013
 11
120.5426358881
 21
64.8656855042
 70
160
  3
DIMSTYLE_1
100
AcDbAlignedDimension
 13
73.0166294897
 23
17.8656846013
 14
73.0166294897
 24
112.8656846013
 50
90.0
100
AcDbRotatedDimension
  0
DIMENSION
  5
25C
100
AcDbEntity
  8
A_BEMASSUNGEN
100
AcDbDimension
 62
2
  6
CONTINUOUS
  2
*D2
 10
73.0166294897
 20
121.833909148
 11
63.0916294897
 21
121.833909148
 70
160
  1
ø<>
  3
DIMSTYLE_2
100
AcDbAlignedDimension
 13
53.1666294897
 23
112.8656846013
 14
73.0166294897
 24
112.8656846013
100
AcDbRotatedDimension
  0
DIMENSION
  5
25D
100
AcDbEntity
  8
A_BEMASSUNGEN
100
AcDbDimension
 62
2
  6
CONTINUOUS
  2
*D3
 10
25.3694912556
 20
116.8656846013
 11
25.3694912556
 21
96.4451765913
 70
160
  3
DIMSTYLE_1
100
AcDbAlignedDimension
 13
23.3694912556
 23
82.8656846013
 14
44.9666294897
 24
116.8656846013
 50
90.0
100
AcDbRotatedDimension
  0
DIMENSION
  5
25E
100
AcDbEntity
  8
A_BEMASSUNGEN
100
AcDbDimension
 62
2
  6
CONTINUOUS
  2
*D4
 10
25.3694912556
 20
65.3656846013
 11
25.3694912556
 21
73.6156841588
 70
160
  3
DIMSTYLE_3
100
AcDbAlignedDimension
 13
23.3694912556
 23
82.8656846013
 14
30.6797647838
 24
65.3656846013
 50
270.0
100
AcDbRotatedDimension
  0
DIMENSION
  5
25F
100
AcDbEntity
  8
A_BEMASSUNGEN
100
AcDbDimension
 62
2
  6
CONTINUOUS
  2
*D5
 10
13.229040561
 20
13.8656846013
 11
13.229040561
 21
64.8656847304
 70
160
  3
DIMSTYLE_1
100
AcDbAlignedDimension
 13
44.9666294897
 23
116.8656846013
 14
44.9666294897
 24
13.8656846013
 50
270.0
100
AcDbRotatedDimension
  0
MTEXT
  5
260
100
AcDbEntity
  8
A_NOTIZEN_SYMB
100
AcDbMText
 62
5
  6
CONTINUOUS
  7
TEXTSTYLE_2
 71
1
 72
1
 10
104.1424379596
 20
88.6479948973
 30
0.0
 11
1.0
 21
0.0
 31
0.0
  1
BBL
 40
3.5
 41
12.625
  0
LINE
  5
261
100
AcDbEntity
  8
A_NOTIZEN_SYMB
100
AcDbLine
 62
7
  6
CONTINUOUS
 10
73.2473671946
 20
42.8656846013
 11
73.2473671946
 21
87.8656846013
  0
LINE
  5
262
100
AcDbEntity
  8
0
100
AcDbLine
 62
7
  6
CONTINUOUS
 10
36.2958108654
 20
104.3570349627
 11
36.7411942409
 21
105.0748086976
  0
LINE
  5
263
100
AcDbEntity
  8
0
100
AcDbLine
 62
7
  6
CONTINUOUS
 10
36.7411942409
 20
25.6565605049
 11
36.2958108654
 21
26.3743342398
  0
LINE
  5
264
100
AcDbEntity
  8
0
100
AcDbLine
 62
7
  6
CONTINUOUS
 10
39.0388304891
 20
109.0544314168
 11
39.4377490899
 21
109.7990316019
  0
LINE
  5
265
100
AcDbEntity
  8
0
100
AcDbLine
 62
7
  6
CONTINUOUS
 10
43.637448114
 20
107.3743342398
 11
43.1920647385
 21
106.6565605049
  0
LINE
  5
266
100
AcDbEntity
  8
0
100
AcDbLine
 62
7
  6
CONTINUOUS
 10
53.9610308589
 20
17.3951474282
 11
52.8284296608
 21
17.3951474282
  0
LINE
  5
267
100
AcDbEntity
  8
0
100
AcDbLine
 62
3
  6
CONTINUOUS
 10
53.1666294897
 20
17.8656846013
 11
73.0158713219
 21
17.8656846013
  0
LINE
  5
268
100
AcDbEntity
  8
0
100
AcDbLine
 62
3
  6
CONTINUOUS
 10
53.1666294897
 20
18.7906846013
 11
52.8284296608
 21
18.7906846013
  0
LINE
  5
269
100
AcDbEntity
  8
0
100
AcDbLine
 62
7
  6
CONTINUOUS
 10
43.1920647385
 20
24.0748086976
 11
43.637448114
 21
23.3570349627
  0
LINE
  5
26A
100
AcDbEntity
  8
0
100
AcDbLine
 62
7
  6
CONTINUOUS
 10
39.4377490899
 20
20.9323376007
 11
39.0388304891
 21
21.6769377857
  0
LINE
  5
26B
100
AcDbEntity
  8
0
100
AcDbLine
 62
7
  6
CONTINUOUS
 10
40.8944284903
 20
102.6769377857
 11
40.4955098894
 21
101.9323376007
  0
LINE
  5
26C
100
AcDbEntity
  8
0
100
AcDbLine
 62
7
  6
CONTINUOUS
 10
37.6689932415
 20
22.4678136894
 11
36.8246912651
 21
22.4409872392
  0
LINE
  5
26D
100
AcDbEntity
  8
A_ACHSEN
100
AcDbLine
 62
7
  6
CENTER
 10
39.9666294897
 20
24.8656846013
 11
31.7166294897
 21
24.8656846013
  0
LINE
  5
26E
100
AcDbEntity
  8
A_ACHSEN
100
AcDbLine
 62
7
  6
CENTER
 10
39.9666294897
 20
24.8656846013
 11
48.2166294897
 21
24.8656846013
  0
LINE
  5
26F
100
AcDbEntity
  8
0
100
AcDbLine
 62
7
  6
CONTINUOUS
 10
43.1085677142
 20
22.4409872392
 11
42.2642656597
 21
22.4678136919
  0
LINE
  5
270
100
AcDbEntity
  8
0
100
AcDbLine
 62
7
  6
CONTINUOUS
 10
40.4955098894
 20
28.7990316019
 11
40.8944284903
 21
28.0544314168
  0
LINE
  5
271
100
AcDbEntity
  8
0
100
AcDbLine
 62
3
  6
CONTINUOUS
 10
32.9666294897
 20
25.8656846013
 11
32.9666294897
 21
104.8656846013
  0
LINE
  5
272
100
AcDbEntity
  8
0
100
AcDbLine
 62
7
  6
CONTINUOUS
 10
42.2642657379
 20
27.2635555132
 11
43.1085677142
 21
27.2903819633
  0
LINE
  5
273
100
AcDbEntity
  8
0
100
AcDbLine
 62
7
  6
CONTINUOUS
 10
36.8246912651
 20
27.2903819633
 11
37.6689932415
 21
27.2635555132
  0
LINE
  5
274
100
AcDbEntity
  8
A_ACHSEN
100
AcDbLine
 62
7
  6
CENTER
 10
39.9666294897
 20
105.8656846013
 11
39.9666294897
 21
97.6156846013
  0
LINE
  5
275
100
AcDbEntity
  8
A_ACHSEN
100
AcDbLine
 62
7
  6
CENTER
 10
39.9666294897
 20
24.8656846013
 11
39.9666294897
 21
16.6156846013
  0
LINE
  5
276
100
AcDbEntity
  8
A_ACHSEN
100
AcDbLine
 62
7
  6
CENTER
 10
39.9666294897
 20
24.8656846013
 11
39.9666294897
 21
33.1156846013
  0
LINE
  5
277
100
AcDbEntity
  8
A_ACHSEN
100
AcDbLine
 62
7
  6
CENTER
 10
39.9666294897
 20
105.8656846013
 11
39.9666294897
 21
114.1156846013
  0
LINE
  5
278
100
AcDbEntity
  8
0
100
AcDbLine
 62
7
  6
CONTINUOUS
 10
44.0388304891
 20
82.0544314168
 11
44.4377490899
 21
82.7990316019
  0
LINE
  5
279
100
AcDbEntity
  8
0
100
AcDbLine
 62
7
  6
CONTINUOUS
 10
41.2958108654
 20
77.3570349627
 11
41.7411942409
 21
78.0748086976
  0
LINE
  5
27A
100
AcDbEntity
  8
0
100
AcDbLine
 62
7
  6
CONTINUOUS
 10
41.7411942409
 20
52.6565605049
 11
41.2958108654
 21
53.3743342398
  0
LINE
  5
27B
100
AcDbEntity
  8
0
100
AcDbLine
 62
7
  6
CONTINUOUS
 10
44.4377490899
 20
47.9323376007
 11
44.0388304891
 21
48.6769377857
  0
LINE
  5
27C
100
AcDbEntity
  8
0
100
AcDbLine
 62
7
  6
CONTINUOUS
 10
45.8944284903
 20
75.6769377857
 11
45.4955098894
 21
74.9323376007
  0
LINE
  5
27D
100
AcDbEntity
  8
0
100
AcDbLine
 62
7
  6
CONTINUOUS
 10
48.637448114
 20
80.3743342398
 11
48.1920647385
 21
79.6565605049
  0
LINE
  5
27E
100
AcDbEntity
  8
0
100
AcDbLine
 62
7
  6
CONTINUOUS
 10
48.1920647385
 20
51.0748086976
 11
48.637448114
 21
50.3570349627
  0
LINE
  5
27F
100
AcDbEntity
  8
0
100
AcDbLine
 62
7
  6
CONTINUOUS
 10
45.4955098894
 20
55.7990316019
 11
45.8944284903
 21
55.0544314168
  0
LINE
  5
280
100
AcDbEntity
  8
A_ACHSEN
100
AcDbLine
 62
7
  6
CENTER
 10
44.9666294897
 20
78.8656846013
 11
44.9666294897
 21
70.6156846013
  0
LINE
  5
281
100
AcDbEntity
  8
A_ACHSEN
100
AcDbLine
 62
7
  6
CENTER
 10
44.9666294897
 20
51.8656846013
 11
44.9666294897
 21
43.6156846013
  0
LINE
  5
282
100
AcDbEntity
  8
A_ACHSEN
100
AcDbLine
 62
7
  6
CENTER
 10
44.9666294897
 20
51.8656846013
 11
44.9666294897
 21
60.1156846013
  0
LINE
  5
283
100
AcDbEntity
  8
A_ACHSEN
100
AcDbLine
 62
7
  6
CENTER
 10
44.9666294897
 20
78.8656846013
 11
44.9666294897
 21
87.1156846013
  0
LINE
  5
284
100
AcDbEntity
  8
0
100
AcDbLine
 62
3
  6
CONTINUOUS
 10
53.1666294897
 20
42.0656846013
 11
73.0158713219
 21
42.0656846013
  0
LINE
  5
285
100
AcDbEntity
  8
A_ACHSEN
100
AcDbLine
 62
7
  6
CONTINUOUS
 10
54.6166345265
 20
42.3656846013
 11
71.5666244528
 21
42.3656846013
  0
LINE
  5
286
100
AcDbEntity
  8
0
100
AcDbLine
 62
7
  6
CONTINUOUS
 10
74.5916294897
 20
42.8656846013
 11
73.2473671946
 21
42.8656846013
  0
LINE
  5
287
100
AcDbEntity
  8
A_ACHSEN
100
AcDbLine
 62
7
  6
CONTINUOUS
 10
73.2473671946
 20
42.8656846013
 11
53.0922625922
 21
42.8656846013
  0
LINE
  5
288
100
AcDbEntity
  8
0
100
AcDbLine
 62
3
  6
CONTINUOUS
 10
52.8284296608
 20
17.3951474282
 11
52.8284296608
 21
18.7906846013
  0
LINE
  5
289
100
AcDbEntity
  8
0
100
AcDbLine
 62
3
  6
CONTINUOUS
 10
52.8284296608
 20
111.9406846013
 11
52.8284296608
 21
113.3362217743
  0
LINE
  5
28A
100
AcDbEntity
  8
A_ACHSEN
100
AcDbLine
 62
7
  6
CONTINUOUS
 10
53.0916294897
 20
42.8656846013
 11
53.0916294897
 21
87.8656846013
  0
LINE
  5
28B
100
AcDbEntity
  8
0
100
AcDbLine
 62
3
  6
CONTINUOUS
 10
53.1666294897
 20
17.8656846013
 11
53.1666294897
 21
42.8656846013
  0
LINE
  5
28C
100
AcDbEntity
  8
0
100
AcDbLine
 62
3
  6
CONTINUOUS
 10
53.1666294897
 20
87.8656846013
 11
53.1666294897
 21
112.8656846013
  0
LINE
  5
28D
100
AcDbEntity
  8
0
100
AcDbLine
 62
7
  6
CONTINUOUS
 10
44.0388304891
 20
55.0544314168
 11
44.4377490899
 21
55.7990316019
  0
LINE
  5
28E
100
AcDbEntity
  8
0
100
AcDbLine
 62
7
  6
CONTINUOUS
 10
41.2958108654
 20
50.3570349627
 11
41.7411942409
 21
51.0748086976
  0
LINE
  5
28F
100
AcDbEntity
  8
0
100
AcDbLine
 62
7
  6
CONTINUOUS
 10
41.7411942409
 20
79.6565605049
 11
41.2958108654
 21
80.3743342398
  0
LINE
  5
290
100
AcDbEntity
  8
0
100
AcDbLine
 62
7
  6
CONTINUOUS
 10
44.4377490899
 20
74.9323376007
 11
44.0388304891
 21
75.6769377857
  0
LINE
  5
291
100
AcDbEntity
  8
0
100
AcDbLine
 62
7
  6
CONTINUOUS
 10
53.9610308589
 20
17.3951474282
 11
53.9610308589
 21
17.8656846013
  0
LINE
  5
292
100
AcDbEntity
  8
0
100
AcDbLine
 62
7
  6
CONTINUOUS
 10
53.9610308589
 20
112.8656846013
 11
53.9610308589
 21
113.3362217743
  0
LINE
  5
293
100
AcDbEntity
  8
A_ACHSEN
100
AcDbLine
 62
7
  6
CONTINUOUS
 10
54.6166294897
 20
88.3656846013
 11
54.6166294897
 21
87.8656846013
  0
LINE
  5
294
100
AcDbEntity
  8
A_ACHSEN
100
AcDbLine
 62
7
  6
CONTINUOUS
 10
54.6166294897
 20
42.3656846013
 11
54.6166294897
 21
42.8656846013
  0
LINE
  5
295
100
AcDbEntity
  8
0
100
AcDbLine
 62
7
  6
CONTINUOUS
 10
56.6666294897
 20
42.0656846013
 11
56.6666294897
 21
42.3656846013
  0
LINE
  5
296
100
AcDbEntity
  8
0
100
AcDbLine
 62
7
  6
CONTINUOUS
 10
56.6666294897
 20
88.3656846013
 11
56.6666294897
 21
88.6656846013
  0
LINE
  5
297
100
AcDbEntity
  8
A_ACHSEN
100
AcDbLine
 62
7
  6
CONTINUOUS
 10
58.0916294897
 20
42.0656846013
 11
58.0916294897
 21
42.3656846013
  0
LINE
  5
298
100
AcDbEntity
  8
A_ACHSEN
100
AcDbLine
 62
7
  6
CONTINUOUS
 10
58.0916294897
 20
88.3656846013
 11
58.0916294897
 21
88.6656846013
  0
LINE
  5
299
100
AcDbEntity
  8
0
100
AcDbLine
 62
7
  6
CONTINUOUS
 10
45.8944284903
 20
48.6769377857
 11
45.4955098894
 21
47.9323376007
  0
LINE
  5
29A
100
AcDbEntity
  8
0
100
AcDbLine
 62
7
  6
CONTINUOUS
 10
42.6689932415
 20
49.4678136894
 11
41.8246912651
 21
49.4409872392
  0
LINE
  5
29B
100
AcDbEntity
  8
A_RUNDUNGEN
100
AcDbLine
 62
7
  6
CONTINUOUS
 10
96.5916294897
 20
48.1156846013
 11
75.5916294897
 21
48.1156846013
  0
LINE
  5
29C
100
AcDbEntity
  8
A_ACHSEN
100
AcDbLine
 62
7
  6
CENTER
 10
44.9666294897
 20
51.8656846013
 11
36.7166294897
 21
51.8656846013
  0
LINE
  5
29D
100
AcDbEntity
  8
A_ACHSEN
100
AcDbLine
 62
7
  6
CENTER
 10
44.9666294897
 20
51.8656846013
 11
53.2166294897
 21
51.8656846013
  0
LINE
  5
29E
100
AcDbEntity
  8
0
100
AcDbLine
 62
7
  6
CONTINUOUS
 10
48.1085677142
 20
49.4409872392
 11
47.2642657379
 21
49.4678136894
  0
LINE
  5
29F
100
AcDbEntity
  8
0
100
AcDbLine
 62
7
  6
CONTINUOUS
 10
45.4955098894
 20
82.7990316019
 11
45.8944284903
 21
82.0544314168
  0
LINE
  5
2A0
100
AcDbEntity
  8
0
100
AcDbLine
 62
7
  6
CONTINUOUS
 10
39.0388304891
 20
28.0544314168
 11
39.4377490899
 21
28.7990316019
  0
LINE
  5
2A1
100
AcDbEntity
  8
0
100
AcDbLine
 62
7
  6
CONTINUOUS
 10
48.637448114
 20
53.3743342398
 11
48.1920647385
 21
52.6565605049
  0
LINE
  5
2A2
100
AcDbEntity
  8
0
100
AcDbLine
 62
7
  6
CONTINUOUS
 10
47.2642657379
 20
54.2635555132
 11
48.1085677142
 21
54.2903819633
  0
LINE
  5
2A3
100
AcDbEntity
  8
A_ACHSEN
100
AcDbLine
 62
7
  6
CONTINUOUS
 10
85.1916294897
 20
52.7656846013
 11
95.9916294897
 21
52.7656846013
  0
LINE
  5
2A4
100
AcDbEntity
  8
A_ACHSEN
100
AcDbLine
 62
7
  6
CONTINUOUS
 10
95.9916294897
 20
55.9656846013
 11
85.1916294897
 21
55.9656846013
  0
LINE
  5
2A5
100
AcDbEntity
  8
0
100
AcDbLine
 62
7
  6
CONTINUOUS
 10
41.8246912651
 20
54.2903819633
 11
42.6689932415
 21
54.2635555132
  0
LINE
  5
2A6
100
AcDbEntity
  8
0
100
AcDbLine
 62
7
  6
CONTINUOUS
 10
48.1920647385
 20
78.0748086976
 11
48.637448114
 21
77.3570349627
  0
LINE
  5
2A7
100
AcDbEntity
  8
0
100
AcDbLine
 62
7
  6
CONTINUOUS
 10
39.4377490899
 20
101.9323376007
 11
39.0388304891
 21
102.6769377857
  0
LINE
  5
2A8
100
AcDbEntity
  8
A_ACHSEN
100
AcDbLine
 62
7
  6
CENTER
 10
63.0916294897
 20
116.1414513232
 11
63.0916294897
 21
15.3653093113
  0
LINE
  5
2A9
100
AcDbEntity
  8
0
100
AcDbLine
 62
7
  6
CONTINUOUS
 10
40.8944284903
 20
21.6769377857
 11
40.4955098894
 21
20.9323376007
  0
LINE
  5
2AA
100
AcDbEntity
  8
0
100
AcDbLine
 62
7
  6
CONTINUOUS
 10
36.2958108654
 20
23.3570349627
 11
36.7411942409
 21
24.0748086976
  0
LINE
  5
2AB
100
AcDbEntity
  8
0
100
AcDbLine
 62
7
  6
CONTINUOUS
 10
36.7411942409
 20
106.6565605049
 11
36.2958108654
 21
107.3743342398
  0
LINE
  5
2AC
100
AcDbEntity
  8
0
100
AcDbLine
 62
7
  6
CONTINUOUS
 10
40.4955098894
 20
109.7990316019
 11
40.8944284903
 21
109.0544314168
  0
LINE
  5
2AD
100
AcDbEntity
  8
A_ACHSEN
100
AcDbLine
 62
7
  6
CONTINUOUS
 10
68.0916294897
 20
42.0656846013
 11
68.0916294897
 21
42.3656846013
  0
LINE
  5
2AE
100
AcDbEntity
  8
A_ACHSEN
100
AcDbLine
 62
7
  6
CONTINUOUS
 10
68.0916294897
 20
88.3656846013
 11
68.0916294897
 21
88.6656846013
  0
LINE
  5
2AF
100
AcDbEntity
  8
A_ACHSEN
100
AcDbLine
 62
7
  6
CONTINUOUS
 10
71.5666294897
 20
88.3656846013
 11
71.5666294897
 21
87.8656846013
  0
LINE
  5
2B0
100
AcDbEntity
  8
A_ACHSEN
100
AcDbLine
 62
7
  6
CONTINUOUS
 10
71.5666294897
 20
42.3656846013
 11
71.5666294897
 21
42.8656846013
  0
LINE
  5
2B1
100
AcDbEntity
  8
0
100
AcDbLine
 62
7
  6
CONTINUOUS
 10
43.637448114
 20
26.3743342398
 11
43.1920647006
 21
25.656560444
  0
LINE
  5
2B2
100
AcDbEntity
  8
A_ACHSEN
100
AcDbLine
 62
7
  6
CONTINUOUS
 10
99.5916294897
 20
61.8656846013
 11
83.5916294897
 21
61.8656846013
  0
LINE
  5
2B3
100
AcDbEntity
  8
A_ACHSEN
100
AcDbLine
 62
7
  6
CENTER
 10
83.5916294897
 20
65.3656846013
 11
65.2443375744
 21
65.3656846013
  0
LINE
  5
2B4
100
AcDbEntity
  8
A_ACHSEN
100
AcDbLine
 62
7
  6
CENTER
 10
63.0916294897
 20
65.3656846013
 11
28.6764705882
 21
65.3656846013
  0
LINE
  5
2B5
100
AcDbEntity
  8
A_ACHSEN
100
AcDbLine
 62
7
  6
CENTER
 10
63.0916294897
 20
65.3656846013
 11
65.2443375744
 21
65.3656846013
  0
LINE
  5
2B6
100
AcDbEntity
  8
A_ACHSEN
100
AcDbLine
 62
7
  6
CENTER
 10
83.5916294897
 20
65.3656846013
 11
100.4020985961
 21
65.3656846013
  0
LINE
  5
2B7
100
AcDbEntity
  8
0
100
AcDbLine
 62
7
  6
CONTINUOUS
 10
43.1920647385
 20
105.0748086976
 11
43.637448114
 21
104.3570349627
  0
LINE
  5
2B8
100
AcDbEntity
  8
0
100
AcDbLine
 62
3
  6
CONTINUOUS
 10
73.0166294897
 20
17.8656846013
 11
73.0166294897
 21
42.0656846013
  0
LINE
  5
2B9
100
AcDbEntity
  8
0
100
AcDbLine
 62
3
  6
CONTINUOUS
 10
73.0166294897
 20
88.6656846013
 11
73.0166294897
 21
112.8656846013
  0
LINE
  5
2BA
100
AcDbEntity
  8
A_ACHSEN
100
AcDbLine
 62
9
  6
CONTINUOUS
 10
73.2473671946
 20
42.8656846013
 11
73.2473671946
 21
87.8656846013
  0
LINE
  5
2BB
100
AcDbEntity
  8
A_RUNDUNGEN
100
AcDbLine
 62
7
  6
CONTINUOUS
 10
74.5916294897
 20
87.8656846013
 11
74.5916294897
 21
83.6156846013
  0
LINE
  5
2BC
100
AcDbEntity
  8
A_RUNDUNGEN
100
AcDbLine
 62
7
  6
CONTINUOUS
 10
74.5916294897
 20
42.8656846013
 11
74.5916294897
 21
47.1156846013
  0
LINE
  5
2BD
100
AcDbEntity
  8
A_ACHSEN
100
AcDbLine
 62
7
  6
CONTINUOUS
 10
99.5916294897
 20
68.8656846013
 11
83.5916294897
 21
68.8656846013
  0
LINE
  5
2BE
100
AcDbEntity
  8
A_ACHSEN
100
AcDbLine
 62
7
  6
CONTINUOUS
 10
85.1916294897
 20
74.7656846013
 11
95.9916294897
 21
74.7656846013
  0
LINE
  5
2BF
100
AcDbEntity
  8
A_ACHSEN
100
AcDbLine
 62
7
  6
CENTER
 10
83.5916294897
 20
65.3656846013
 11
83.5916294897
 21
60.7526329563
  0
LINE
  5
2C0
100
AcDbEntity
  8
A_ACHSEN
100
AcDbLine
 62
7
  6
CENTER
 10
83.5916294897
 20
65.3656846013
 11
83.5916294897
 21
69.9787362462
  0
LINE
  5
2C1
100
AcDbEntity
  8
0
100
AcDbLine
 62
7
  6
CONTINUOUS
 10
42.6689932415
 20
76.4678136894
 11
41.8246912651
 21
76.4409872392
  0
LINE
  5
2C2
100
AcDbEntity
  8
A_ACHSEN
100
AcDbLine
 62
7
  6
CONTINUOUS
 10
95.9916294897
 20
77.9656846013
 11
85.1916294897
 21
77.9656846013
  0
LINE
  5
2C3
100
AcDbEntity
  8
A_ACHSEN
100
AcDbLine
 62
7
  6
CENTER
 10
44.9666294897
 20
78.8656846013
 11
36.7166294897
 21
78.8656846013
  0
LINE
  5
2C4
100
AcDbEntity
  8
A_ACHSEN
100
AcDbLine
 62
7
  6
CENTER
 10
44.9666294897
 20
78.8656846013
 11
53.2166294897
 21
78.8656846013
  0
LINE
  5
2C5
100
AcDbEntity
  8
0
100
AcDbLine
 62
7
  6
CONTINUOUS
 10
48.1085677142
 20
76.4409872392
 11
47.2642657379
 21
76.4678136894
  0
LINE
  5
2C6
100
AcDbEntity
  8
0
100
AcDbLine
 62
7
  6
CONTINUOUS
 10
47.2642657379
 20
81.2635555132
 11
48.1085677142
 21
81.2903819633
  0
LINE
  5
2C7
100
AcDbEntity
  8
A_RUNDUNGEN
100
AcDbLine
 62
7
  6
CONTINUOUS
 10
75.5916294897
 20
82.6156846013
 11
96.5916294897
 21
82.6156846013
  0
LINE
  5
2C8
100
AcDbEntity
  8
A_KURVEN
100
AcDbLine
 62
7
  6
PHANTOM
 10
26.9666294897
 20
82.8656846013
 11
115.5916294897
 21
82.8656846013
  0
LINE
  5
2C9
100
AcDbEntity
  8
0
100
AcDbLine
 62
7
  6
CONTINUOUS
 10
41.8246912651
 20
81.2903819633
 11
42.6689932415
 21
81.2635555132
  0
LINE
  5
2CA
100
AcDbEntity
  8
0
100
AcDbLine
 62
7
  6
CONTINUOUS
 10
74.5916294897
 20
87.8656846013
 11
73.2473671946
 21
87.8656846013
  0
LINE
  5
2CB
100
AcDbEntity
  8
A_ACHSEN
100
AcDbLine
 62
7
  6
CONTINUOUS
 10
73.2473671946
 20
87.8656846013
 11
53.0922625922
 21
87.8656846013
  0
LINE
  5
2CC
100
AcDbEntity
  8
A_ACHSEN
100
AcDbLine
 62
7
  6
CONTINUOUS
 10
54.6166345265
 20
88.3656846013
 11
71.5666244528
 21
88.3656846013
  0
LINE
  5
2CD
100
AcDbEntity
  8
0
100
AcDbLine
 62
7
  6
CONTINUOUS
 10
99.5916294897
 20
49.8477354088
 11
96.5916294897
 21
48.1156846013
  0
LINE
  5
2CE
100
AcDbEntity
  8
0
100
AcDbLine
 62
3
  6
CONTINUOUS
 10
53.1666294897
 20
88.6656846013
 11
73.0158713219
 21
88.6656846013
  0
LINE
  5
2CF
100
AcDbEntity
  8
0
100
AcDbLine
 62
7
  6
CONTINUOUS
 10
96.5916294897
 20
82.6156846013
 11
99.5916294897
 21
80.8836337937
  0
LINE
  5
2D0
100
AcDbEntity
  8
A_ACHSEN
100
AcDbLine
 62
7
  6
CONTINUOUS
 10
99.5916294897
 20
49.8477354088
 11
99.5916294897
 21
61.8656846013
  0
LINE
  5
2D1
100
AcDbEntity
  8
A_ACHSEN
100
AcDbLine
 62
7
  6
CONTINUOUS
 10
99.5916294897
 20
68.8656846013
 11
99.5916294897
 21
80.8836337937
  0
LINE
  5
2D2
100
AcDbEntity
  8
0
100
AcDbLine
 62
7
  6
CONTINUOUS
 10
37.6689932415
 20
103.4678136894
 11
36.8246912651
 21
103.4409872392
  0
LINE
  5
2D3
100
AcDbEntity
  8
A_ACHSEN
100
AcDbLine
 62
7
  6
CENTER
 10
39.9666294897
 20
105.8656846013
 11
31.7166294897
 21
105.8656846013
  0
LINE
  5
2D4
100
AcDbEntity
  8
A_ACHSEN
100
AcDbLine
 62
7
  6
CENTER
 10
39.9666294897
 20
105.8656846013
 11
48.2166294897
 21
105.8656846013
  0
LINE
  5
2D5
100
AcDbEntity
  8
0
100
AcDbLine
 62
7
  6
CONTINUOUS
 10
43.1085677142
 20
103.4409872392
 11
42.2642657379
 21
103.4678136894
  0
LINE
  5
2D6
100
AcDbEntity
  8
0
100
AcDbLine
 62
7
  6
CONTINUOUS
 10
42.2642657379
 20
108.2635555132
 11
43.1085677142
 21
108.2903819633
  0
LINE
  5
2D7
100
AcDbEntity
  8
0
100
AcDbLine
 62
7
  6
CONTINUOUS
 10
36.8246912651
 20
108.2903819633
 11
37.6689932415
 21
108.2635555132
  0
LINE
  5
2D8
100
AcDbEntity
  8
0
100
AcDbLine
 62
3
  6
CONTINUOUS
 10
53.1666294897
 20
111.9406846013
 11
52.8284296608
 21
111.9406846013
  0
LINE
  5
2D9
100
AcDbEntity
  8
0
100
AcDbLine
 62
3
  6
CONTINUOUS
 10
53.1666294897
 20
112.8656846013
 11
73.0158713219
 21
112.8656846013
  0
LINE
  5
2DA
100
AcDbEntity
  8
0
100
AcDbLine
 62
7
  6
CONTINUOUS
 10
53.9610308589
 20
113.3362217743
 11
52.8284296608
 21
113.3362217743
  0
ARC
  5
2DB
100
AcDbEntity
  8
0
100
AcDbCircle
 62
3
  6
CONTINUOUS
 10
38.1349814569
 20
20.2528714709
 40
14.9687677123
100
AcDbArc
 50
346.119428444
 51
348.9939617728
  0
ARC
  5
2DC
100
AcDbEntity
  8
0
100
AcDbCircle
 62
3
  6
CONTINUOUS
 10
44.9666294897
 20
25.8656846013
 40
12.0
100
AcDbArc
 50
180.0
 51
309.9162111982
  0
CIRCLE
  5
2DD
100
AcDbEntity
  8
A_ACHSEN
100
AcDbCircle
 62
3
  6
CONTINUOUS
 10
44.9666294897
 20
51.8656846013
 40
5.25
  0
CIRCLE
  5
2DE
100
AcDbEntity
  8
A_ACHSEN
100
AcDbCircle
 62
3
  6
CONTINUOUS
 10
39.9666294897
 20
24.8656846013
 40
5.25
  0
ARC
  5
2DF
100
AcDbEntity
  8
0
100
AcDbCircle
 62
7
  6
CONTINUOUS
 10
37.7166294897
 20
20.9685702842
 40
1.5
100
AcDbArc
 50
28.1801233609
 51
91.8198766391
  0
ARC
  5
2E0
100
AcDbEntity
  8
0
100
AcDbCircle
 62
7
  6
CONTINUOUS
 10
42.2166294897
 20
20.9685702842
 40
1.5
100
AcDbArc
 50
88.1801263481
 51
151.8198766391
  0
ARC
  5
2E1
100
AcDbEntity
  8
0
100
AcDbCircle
 62
7
  6
CONTINUOUS
 10
35.4666294897
 20
24.8656846013
 40
1.5
100
AcDbArc
 50
328.1801233609
 51
31.8198766391
  0
ARC
  5
2E2
100
AcDbEntity
  8
0
100
AcDbCircle
 62
7
  6
CONTINUOUS
 10
37.7166294897
 20
28.7627989183
 40
1.5
100
AcDbArc
 50
268.1801233609
 51
331.8198766391
  0
ARC
  5
2E3
100
AcDbEntity
  8
0
100
AcDbCircle
 62
7
  6
CONTINUOUS
 10
42.2166294897
 20
28.7627989183
 40
1.5
100
AcDbArc
 50
208.1801233609
 51
271.8198766391
  0
ARC
  5
2E4
100
AcDbEntity
  8
0
100
AcDbCircle
 62
7
  6
CONTINUOUS
 10
44.4666294897
 20
24.8656846013
 40
1.5
100
AcDbArc
 50
148.1801261008
 51
211.8198766391
  0
ARC
  5
2E5
100
AcDbEntity
  8
0
100
AcDbCircle
 62
7
  6
CONTINUOUS
 10
42.7166294897
 20
47.9685702842
 40
1.5
100
AcDbArc
 50
28.1801233609
 51
91.8198766391
  0
ARC
  5
2E6
100
AcDbEntity
  8
0
100
AcDbCircle
 62
7
  6
CONTINUOUS
 10
47.2166294897
 20
47.9685702842
 40
1.5
100
AcDbArc
 50
88.1801233609
 51
151.8198766391
  0
ARC
  5
2E7
100
AcDbEntity
  8
0
100
AcDbCircle
 62
7
  6
CONTINUOUS
 10
40.4666294897
 20
51.8656846013
 40
1.5
100
AcDbArc
 50
328.1801233609
 51
31.8198766391
  0
ARC
  5
2E8
100
AcDbEntity
  8
0
100
AcDbCircle
 62
7
  6
CONTINUOUS
 10
42.7166294897
 20
55.7627989183
 40
1.5
100
AcDbArc
 50
268.1801233609
 51
331.8198766391
  0
ARC
  5
2E9
100
AcDbEntity
  8
0
100
AcDbCircle
 62
7
  6
CONTINUOUS
 10
47.2166294897
 20
55.7627989183
 40
1.5
100
AcDbArc
 50
208.1801233609
 51
271.8198766391
  0
ARC
  5
2EA
100
AcDbEntity
  8
0
100
AcDbCircle
 62
7
  6
CONTINUOUS
 10
49.4666294897
 20
51.8656846013
 40
1.5
100
AcDbArc
 50
148.1801233609
 51
211.8198766391
  0
ARC
  5
2EB
100
AcDbEntity
  8
0
100
AcDbCircle
 62
7
  6
CONTINUOUS
 10
39.9666294897
 20
21.2156846013
 40
0.6
100
AcDbArc
 50
208.1801233609
 51
331.8198766391
  0
ARC
  5
2EC
100
AcDbEntity
  8
0
100
AcDbCircle
 62
7
  6
CONTINUOUS
 10
36.8056367659
 20
23.0406846013
 40
0.6
100
AcDbArc
 50
148.1801233609
 51
271.8198766391
  0
ARC
  5
2ED
100
AcDbEntity
  8
0
100
AcDbCircle
 62
7
  6
CONTINUOUS
 10
43.1276222135
 20
23.0406846013
 40
0.6
100
AcDbArc
 50
268.1801233609
 51
31.8198766391
  0
ARC
  5
2EE
100
AcDbEntity
  8
0
100
AcDbCircle
 62
7
  6
CONTINUOUS
 10
36.8056367659
 20
26.6906846013
 40
0.6
100
AcDbArc
 50
88.1801233609
 51
211.8198766391
  0
ARC
  5
2EF
100
AcDbEntity
  8
0
100
AcDbCircle
 62
7
  6
CONTINUOUS
 10
39.9666294897
 20
28.5156846013
 40
0.6
100
AcDbArc
 50
28.1801233609
 51
151.8198766391
  0
ARC
  5
2F0
100
AcDbEntity
  8
0
100
AcDbCircle
 62
7
  6
CONTINUOUS
 10
43.1276222135
 20
26.6906846013
 40
0.6
100
AcDbArc
 50
328.1801233609
 51
91.8198766391
  0
ARC
  5
2F1
100
AcDbEntity
  8
0
100
AcDbCircle
 62
7
  6
CONTINUOUS
 10
44.9666294897
 20
48.2156846013
 40
0.6
100
AcDbArc
 50
208.1801233609
 51
331.8198766391
  0
ARC
  5
2F2
100
AcDbEntity
  8
0
100
AcDbCircle
 62
7
  6
CONTINUOUS
 10
41.8056367659
 20
50.0406846013
 40
0.6
100
AcDbArc
 50
148.1801233609
 51
271.8198766391
  0
ARC
  5
2F3
100
AcDbEntity
  8
0
100
AcDbCircle
 62
7
  6
CONTINUOUS
 10
48.1276222135
 20
50.0406846013
 40
0.6
100
AcDbArc
 50
268.1801233609
 51
31.8198766391
  0
ARC
  5
2F4
100
AcDbEntity
  8
0
100
AcDbCircle
 62
7
  6
CONTINUOUS
 10
41.8056367659
 20
53.6906846013
 40
0.6
100
AcDbArc
 50
88.1801233609
 51
211.8198766391
  0
ARC
  5
2F5
100
AcDbEntity
  8
0
100
AcDbCircle
 62
7
  6
CONTINUOUS
 10
44.9666294897
 20
55.5156846013
 40
0.6
100
AcDbArc
 50
28.1801233609
 51
151.8198766391
  0
ARC
  5
2F6
100
AcDbEntity
  8
0
100
AcDbCircle
 62
7
  6
CONTINUOUS
 10
48.1276222135
 20
53.6906846013
 40
0.6
100
AcDbArc
 50
328.1801233609
 51
91.8198766391
  0
ARC
  5
2F7
100
AcDbEntity
  8
0
100
AcDbCircle
 62
3
  6
CONTINUOUS
 10
37.7895686143
 20
110.4022800597
 40
15.3223808711
100
AcDbArc
 50
11.0392144925
 51
13.8473952907
  0
ARC
  5
2F8
100
AcDbEntity
  8
0
100
AcDbCircle
 62
3
  6
CONTINUOUS
 10
44.9666294897
 20
104.8656846013
 40
12.0
100
AcDbArc
 50
50.0837888018
 51
180.0
  0
CIRCLE
  5
2F9
100
AcDbEntity
  8
A_ACHSEN
100
AcDbCircle
 62
3
  6
CONTINUOUS
 10
39.9666294897
 20
105.8656846013
 40
5.25
  0
CIRCLE
  5
2FA
100
AcDbEntity
  8
A_ACHSEN
100
AcDbCircle
 62
3
  6
CONTINUOUS
 10
44.9666294897
 20
78.8656846013
 40
5.25
  0
ARC
  5
2FB
100
AcDbEntity
  8
0
100
AcDbCircle
 62
7
  6
CONTINUOUS
 10
42.7166294897
 20
74.9685702842
 40
1.5
100
AcDbArc
 50
28.1801233609
 51
91.8198766391
  0
ARC
  5
2FC
100
AcDbEntity
  8
0
100
AcDbCircle
 62
7
  6
CONTINUOUS
 10
47.2166294897
 20
74.9685702842
 40
1.5
100
AcDbArc
 50
88.1801233609
 51
151.8198766391
  0
ARC
  5
2FD
100
AcDbEntity
  8
0
100
AcDbCircle
 62
7
  6
CONTINUOUS
 10
40.4666294897
 20
78.8656846013
 40
1.5
100
AcDbArc
 50
328.1801233609
 51
31.8198766391
  0
ARC
  5
2FE
100
AcDbEntity
  8
0
100
AcDbCircle
 62
7
  6
CONTINUOUS
 10
42.7166294897
 20
82.7627989183
 40
1.5
100
AcDbArc
 50
268.1801233609
 51
331.8198766391
  0
ARC
  5
2FF
100
AcDbEntity
  8
0
100
AcDbCircle
 62
7
  6
CONTINUOUS
 10
47.2166294897
 20
82.7627989183
 40
1.5
100
AcDbArc
 50
208.1801233609
 51
271.8198766391
  0
ARC
  5
300
100
AcDbEntity
  8
0
100
AcDbCircle
 62
7
  6
CONTINUOUS
 10
49.4666294897
 20
78.8656846013
 40
1.5
100
AcDbArc
 50
148.1801233609
 51
211.8198766391
  0
ARC
  5
301
100
AcDbEntity
  8
0
100
AcDbCircle
 62
7
  6
CONTINUOUS
 10
42.2166294897
 20
101.9685702842
 40
1.5
100
AcDbArc
 50
88.1801233609
 51
151.8198766391
  0
ARC
  5
302
100
AcDbEntity
  8
0
100
AcDbCircle
 62
7
  6
CONTINUOUS
 10
37.7166294897
 20
101.9685702842
 40
1.5
100
AcDbArc
 50
28.1801233609
 51
91.8198766391
  0
ARC
  5
303
100
AcDbEntity
  8
0
100
AcDbCircle
 62
7
  6
CONTINUOUS
 10
35.4666294897
 20
105.8656846013
 40
1.5
100
AcDbArc
 50
328.1801233609
 51
31.8198766391
  0
ARC
  5
304
100
AcDbEntity
  8
0
100
AcDbCircle
 62
7
  6
CONTINUOUS
 10
37.7166294897
 20
109.7627989183
 40
1.5
100
AcDbArc
 50
268.1801233609
 51
331.8198766391
  0
ARC
  5
305
100
AcDbEntity
  8
0
100
AcDbCircle
 62
7
  6
CONTINUOUS
 10
42.2166294897
 20
109.7627989183
 40
1.5
100
AcDbArc
 50
208.1801233609
 51
271.8198766391
  0
ARC
  5
306
100
AcDbEntity
  8
0
100
AcDbCircle
 62
7
  6
CONTINUOUS
 10
44.4666294897
 20
105.8656846013
 40
1.5
100
AcDbArc
 50
148.1801233609
 51
211.8198766391
  0
ARC
  5
307
100
AcDbEntity
  8
0
100
AcDbCircle
 62
7
  6
CONTINUOUS
 10
44.9666294897
 20
75.2156846013
 40
0.6
100
AcDbArc
 50
208.1801233609
 51
331.8198766391
  0
ARC
  5
308
100
AcDbEntity
  8
0
100
AcDbCircle
 62
7
  6
CONTINUOUS
 10
41.8056367659
 20
77.0406846013
 40
0.6
100
AcDbArc
 50
148.1801233609
 51
271.8198766391
  0
ARC
  5
309
100
AcDbEntity
  8
0
100
AcDbCircle
 62
7
  6
CONTINUOUS
 10
48.1276222135
 20
77.0406846013
 40
0.6
100
AcDbArc
 50
268.1801233609
 51
31.8198766391
  0
ARC
  5
30A
100
AcDbEntity
  8
0
100
AcDbCircle
 62
7
  6
CONTINUOUS
 10
41.8056367659
 20
80.6906846013
 40
0.6
100
AcDbArc
 50
88.1801233609
 51
211.8198766391
  0
ARC
  5
30B
100
AcDbEntity
  8
0
100
AcDbCircle
 62
7
  6
CONTINUOUS
 10
44.9666294897
 20
82.5156846013
 40
0.6
100
AcDbArc
 50
28.1801233609
 51
151.8198766391
  0
ARC
  5
30C
100
AcDbEntity
  8
0
100
AcDbCircle
 62
7
  6
CONTINUOUS
 10
48.1276222135
 20
80.6906846013
 40
0.6
100
AcDbArc
 50
328.1801233609
 51
91.8198766391
  0
ARC
  5
30D
100
AcDbEntity
  8
0
100
AcDbCircle
 62
7
  6
CONTINUOUS
 10
43.1276222135
 20
104.0406846013
 40
0.6
100
AcDbArc
 50
268.1801233609
 51
31.8198766391
  0
ARC
  5
30E
100
AcDbEntity
  8
0
100
AcDbCircle
 62
7
  6
CONTINUOUS
 10
39.9666294897
 20
102.2156846013
 40
0.6
100
AcDbArc
 50
208.1801233609
 51
331.8198766391
  0
ARC
  5
30F
100
AcDbEntity
  8
0
100
AcDbCircle
 62
7
  6
CONTINUOUS
 10
36.8056367659
 20
104.0406846013
 40
0.6
100
AcDbArc
 50
148.1801233609
 51
271.8198766391
  0
ARC
  5
310
100
AcDbEntity
  8
0
100
AcDbCircle
 62
7
  6
CONTINUOUS
 10
36.8056367659
 20
107.6906846013
 40
0.6
100
AcDbArc
 50
88.1801233609
 51
211.8198766391
  0
ARC
  5
311
100
AcDbEntity
  8
0
100
AcDbCircle
 62
7
  6
CONTINUOUS
 10
39.9666294897
 20
109.5156846013
 40
0.6
100
AcDbArc
 50
28.1801233609
 51
151.8198766391
  0
ARC
  5
312
100
AcDbEntity
  8
0
100
AcDbCircle
 62
7
  6
CONTINUOUS
 10
43.1276222135
 20
107.6906846013
 40
0.6
100
AcDbArc
 50
328.1801233609
 51
91.8198766391
  0
ARC
  5
313
100
AcDbEntity
  8
A_ACHSEN
100
AcDbCircle
 62
7
  6
CONTINUOUS
 10
85.1916294897
 20
54.3656846013
 40
1.6
100
AcDbArc
 50
90.0
 51
270.0
  0
ARC
  5
314
100
AcDbEntity
  8
A_ACHSEN
100
AcDbCircle
 62
7
  6
CONTINUOUS
 10
95.9916294897
 20
54.3656846013
 40
1.6
100
AcDbArc
 50
270.0
 51
90.0
  0
ARC
  5
315
100
AcDbEntity
  8
A_RUNDUNGEN
100
AcDbCircle
 62
7
  6
CONTINUOUS
 10
75.5916294897
 20
47.1156846013
 40
1.0
100
AcDbArc
 50
90.0
 51
180.0
  0
ARC
  5
316
100
AcDbEntity
  8
A_ACHSEN
100
AcDbCircle
 62
7
  6
CONTINUOUS
 10
83.5916294897
 20
65.3656846013
 40
3.5
100
AcDbArc
 50
90.0
 51
270.0
  0
ARC
  5
317
100
AcDbEntity
  8
A_ACHSEN
100
AcDbCircle
 62
7
  6
CONTINUOUS
 10
95.9916294897
 20
76.3656846013
 40
1.6
100
AcDbArc
 50
270.0
 51
90.0
  0
ARC
  5
318
100
AcDbEntity
  8
A_ACHSEN
100
AcDbCircle
 62
7
  6
CONTINUOUS
 10
85.1916294897
 20
76.3656846013
 40
1.6
100
AcDbArc
 50
90.0
 51
270.0
  0
ARC
  5
319
100
AcDbEntity
  8
A_RUNDUNGEN
100
AcDbCircle
 62
7
  6
CONTINUOUS
 10
75.5916294897
 20
83.6156846013
 40
1.0
100
AcDbArc
 50
180.0
 51
270.0
  0
SPLINE
  5
31A
100
AcDbEntity
  8
0
100
AcDbSpline
 62
7
  6
CONTINUOUS
 70
0
 71
3
 72
9
 73
5
 74
0
 42
0.0000001
 43
0.0000001
 44
0.0000000001
 40
0.0
 40
0.0
 40
0.0
 40
0.0
 40
0.5099534919
 40
1.0
 40
1.0
 40
1.0
 40
1.0
 10
52.6666294897
 20
16.6618810397
 30
0.0
 10
52.8921806507
 20
16.7764061496
 30
0.0
 10
53.3303583351
 20
17.009240084
 30
0.0
 10
53.7566270641
 20
17.2635797931
 30
0.0
 10
53.9610308589
 20
17.3951474282
 30
0.0
  0
SPLINE
  5
31B
100
AcDbEntity
  8
0
100
AcDbSpline
 62
7
  6
CONTINUOUS
 70
0
 71
3
 72
9
 73
5
 74
0
 42
0.0000001
 43
0.0000001
 44
0.0000000001
 40
0.0
 40
0.0
 40
0.0
 40
0.0
 40
0.4900465081
 40
1.0
 40
1.0
 40
1.0
 40
1.0
 10
53.9610308589
 20
113.3362217743
 30
0.0
 10
53.7566270641
 20
113.4677894094
 30
0.0
 10
53.3303583351
 20
113.7221291186
 30
0.0
 10
52.8921806507
 20
113.9549630529
 30
0.0
 10
52.6666294897
 20
114.0694881628
 30
0.0
  0
ENDSEC
  0
SECTION
  2
OBJECTS
  0
DICTIONARY
  5
31C
100
AcDbDictionary
  3
ACAD_GROUP
350
31D
  3
ACAD_MLINESTYLE
350
31E
  0
DICTIONARY
  5
31D
102
{ACAD_REACTORS
330
31C
102
}
100
AcDbDictionary
  0
DICTIONARY
  5
31E
102
{ACAD_REACTORS
330
31C
102
}
100
AcDbDictionary
  3
STANDARD
350
31F
  0
MLINESTYLE
  5
31F
102
{ACAD_REACTORS
330
31E
102
}
100
AcDbMlineStyle
  2
STANDARD
 70
0
  3

 62
256
 51
90.0
 52
90.0
 71
2
 49
0.5
 62
256
  6
BYLAYER
 49
-0.5
 62
256
  6
BYLAYER
  0
ENDSEC
  0
EOF
