999
DXF file: d:\tmp\workingDir\0000062926\vn_8849_100_m_v01_01.dxf
999
Pro/ENGINEER 2016380 by Parametric Technology Corporation
  0
SECTION
  2
HEADER
  9
$ACADVER
  1
AC1014
  9
$DWGCODEPAGE
  3
ANSI_1252
  9
$EXTMAX
 10
130.048
 20
130.048
 30
0.0
  9
$EXTMIN
 10
0.0
 20
0.0
 30
0.0
  9
$LIMMIN
 10
0.0
 20
0.0
  9
$LIMMAX
 10
130.048
 20
130.048
  9
$VIEWCTR
 10
65.024
 20
65.024
  9
$VIEWSIZE
 40
130.048
  9
$CLAYER
  8
0
  9
$LTSCALE
 40
8.477202963
  9
$CELTYPE
  6
BYLAYER
  9
$DIMSCALE
 40
1.0
  9
$DIMASZ
 40
3.5
  9
$DIMEXO
 40
0.0
  9
$DIMDLI
 40
5.8569765926
  9
$DIMEXE
 40
2.0
  9
$DIMCEN
 40
1.3871786667
  9
$DIMLFAC
 40
1.0
  9
$DIMBLK
  1
_ARROW_FILLED
  9
$DIMALT
 70
0
  9
$DIMALTF
 40
25.4
  9
$DIMTXT
 40
3.5
  9
$DIMTOL
 70
1
  9
$DIMLIM
 70
0
  9
$DIMTFAC
 40
1.0
  9
$DIMTP
 40
0.01
  9
$DIMTM
 40
0.01
  9
$DIMGAP
 40
0.625
  9
$AUNITS
 70
0
  9
$PDMODE
 70
0
  9
$PDSIZE
 40
0.04
  9
$HANDSEED
  5
305
  9
$TILEMODE
 70
1
  9
$MEASUREMENT
 70
1
  0
ENDSEC
  0
SECTION
  2
CLASSES
  0
ENDSEC
  0
SECTION
  2
TABLES
  0
TABLE
  2
VPORT
  5
8
100
AcDbSymbolTable
 70
2
  0
VPORT
  5
1F4
100
AcDbSymbolTableRecord
100
AcDbViewportTableRecord
  2
*ACTIVE
 70
0
 10
0.0
 20
0.0
 11
1.0
 21
1.0
 12
65.024
 22
65.024
 13
0.0
 23
0.0
 14
1.0
 24
1.0
 15
0.0
 25
0.0
 16
0.0
 26
0.0
 36
1.0
 17
0.0
 27
0.0
 37
0.0
 40
130.048
 41
1.0
 42
50.0
 43
0.0
 44
0.0
 50
0.0
 51
0.0
 71
0
 72
100
 73
1
 74
1
 75
0
 76
0
 77
0
 78
0
  0
ENDTAB
  0
TABLE
  2
LTYPE
  5
5
100
AcDbSymbolTable
 70
6
  0
LTYPE
  5
14
100
AcDbSymbolTableRecord
100
AcDbLinetypeTableRecord
  2
BYBLOCK
 70
0
  3

 72
65
 73
0
 40
0.0
  0
LTYPE
  5
15
100
AcDbSymbolTableRecord
100
AcDbLinetypeTableRecord
  2
BYLAYER
 70
0
  3

 72
65
 73
0
 40
0.0
  0
LTYPE
  5
16
100
AcDbSymbolTableRecord
100
AcDbLinetypeTableRecord
  2
CONTINUOUS
 70
64
  3
Solid line
 72
65
 73
0
 40
0.0
  0
LTYPE
  5
1F5
100
AcDbSymbolTableRecord
100
AcDbLinetypeTableRecord
  2
CENTER
 70
64
  3
____ _ ____ _ ____ _ ____ _ ____ _ ____ _ ____
 72
65
 73
4
 40
0.6
 49
0.375
 74
0
 49
-0.075
 74
0
 49
0.075
 74
0
 49
-0.075
 74
0
  0
LTYPE
  5
1F6
100
AcDbSymbolTableRecord
100
AcDbLinetypeTableRecord
  2
HIDDEN
 70
64
  3
- - - - - - - - - - - - - - - - - - - -
 72
65
 73
2
 40
0.2
 49
0.1
 74
0
 49
-0.1
 74
0
  0
LTYPE
  5
1F7
100
AcDbSymbolTableRecord
100
AcDbLinetypeTableRecord
  2
PHANTOM
 70
64
  3
_____ _ _ _____ _ _ _____ _ _ _____
 72
65
 73
6
 40
0.8
 49
0.45
 74
0
 49
-0.05
 74
0
 49
0.1
 74
0
 49
-0.05
 74
0
 49
0.1
 74
0
 49
-0.05
 74
0
  0
LTYPE
  5
1F8
100
AcDbSymbolTableRecord
100
AcDbLinetypeTableRecord
  2
DOT
 70
64
  3
. . . . . . . . . . . . . . . . . . . .
 72
65
 73
2
 40
0.2
 49
0.1
 74
0
 49
-0.1
 74
0
  0
LTYPE
  5
1F9
100
AcDbSymbolTableRecord
100
AcDbLinetypeTableRecord
  2
DASHED
 70
64
  3
- - - - - - - - - - - - - - - - - - - -
 72
65
 73
2
 40
0.2
 49
0.1
 74
0
 49
-0.1
 74
0
  0
ENDTAB
  0
TABLE
  2
LAYER
  5
2
100
AcDbSymbolTable
 70
36
  0
LAYER
  5
10
100
AcDbSymbolTableRecord
100
AcDbLayerTableRecord
  2
0
 70
0
 62
7
  6
CONTINUOUS
  0
LAYER
  5
1FA
100
AcDbSymbolTableRecord
100
AcDbLayerTableRecord
  2
DEFAULT_1
 70
0
 62
7
  6
CENTER
  0
LAYER
  5
1FB
100
AcDbSymbolTableRecord
100
AcDbLayerTableRecord
  2
DEFAULT_2
 70
0
 62
8
  6
HIDDEN
  0
LAYER
  5
1FC
100
AcDbSymbolTableRecord
100
AcDbLayerTableRecord
  2
DEFAULT_3
 70
0
 62
7
  6
PHANTOM
  0
LAYER
  5
1FD
100
AcDbSymbolTableRecord
100
AcDbLayerTableRecord
  2
A_ACHSEN
 70
0
 62
7
  6
CONTINUOUS
  0
LAYER
  5
1FE
100
AcDbSymbolTableRecord
100
AcDbLayerTableRecord
  2
A_BASISEBENEN
 70
0
 62
7
  6
CONTINUOUS
  0
LAYER
  5
1FF
100
AcDbSymbolTableRecord
100
AcDbLayerTableRecord
  2
A_BEMASSUNGEN
 70
0
 62
7
  6
CONTINUOUS
  0
LAYER
  5
200
100
AcDbSymbolTableRecord
100
AcDbLayerTableRecord
  2
A_BOHRUNGEN
 70
0
 62
7
  6
CONTINUOUS
  0
LAYER
  5
201
100
AcDbSymbolTableRecord
100
AcDbLayerTableRecord
  2
A_EBENEN
 70
0
 62
7
  6
CONTINUOUS
  0
LAYER
  5
202
100
AcDbSymbolTableRecord
100
AcDbLayerTableRecord
  2
A_FASEN
 70
0
 62
7
  6
CONTINUOUS
  0
LAYER
  5
203
100
AcDbSymbolTableRecord
100
AcDbLayerTableRecord
  2
A_FLAECHEN
 70
0
 62
7
  6
CONTINUOUS
  0
LAYER
  5
204
100
AcDbSymbolTableRecord
100
AcDbLayerTableRecord
  2
A_FL_VERBAENDE
 70
0
 62
7
  6
CONTINUOUS
  0
LAYER
  5
205
100
AcDbSymbolTableRecord
100
AcDbLayerTableRecord
  2
A_KURVEN
 70
0
 62
7
  6
CONTINUOUS
  0
LAYER
  5
206
100
AcDbSymbolTableRecord
100
AcDbLayerTableRecord
  2
A_NOTIZEN_SYMB
 70
0
 62
7
  6
CONTINUOUS
  0
LAYER
  5
207
100
AcDbSymbolTableRecord
100
AcDbLayerTableRecord
  2
A_RUNDUNGEN
 70
0
 62
7
  6
CONTINUOUS
  0
LAYER
  5
208
100
AcDbSymbolTableRecord
100
AcDbLayerTableRecord
  2
A_TABELLEN
 70
0
 62
7
  6
CONTINUOUS
  0
LAYER
  5
209
100
AcDbSymbolTableRecord
100
AcDbLayerTableRecord
  2
B-ACHSEN
 70
0
 62
7
  6
CONTINUOUS
  0
LAYER
  5
20A
100
AcDbSymbolTableRecord
100
AcDbLayerTableRecord
  2
B-EBENEN
 70
0
 62
7
  6
CONTINUOUS
  0
LAYER
  5
20B
100
AcDbSymbolTableRecord
100
AcDbLayerTableRecord
  2
B-KOORSYS
 70
0
 62
7
  6
CONTINUOUS
  0
LAYER
  5
20C
100
AcDbSymbolTableRecord
100
AcDbLayerTableRecord
  2
BASISEBENEN
 70
0
 62
7
  6
CONTINUOUS
  0
LAYER
  5
20D
100
AcDbSymbolTableRecord
100
AcDbLayerTableRecord
  2
BEMASSUNG
 70
0
 62
7
  6
CONTINUOUS
  0
LAYER
  5
20E
100
AcDbSymbolTableRecord
100
AcDbLayerTableRecord
  2
BOHRUNGEN
 70
0
 62
7
  6
CONTINUOUS
  0
LAYER
  5
20F
100
AcDbSymbolTableRecord
100
AcDbLayerTableRecord
  2
KOERPER
 70
0
 62
7
  6
CONTINUOUS
  0
LAYER
  5
210
100
AcDbSymbolTableRecord
100
AcDbLayerTableRecord
  2
RUNDUNGEN
 70
0
 62
7
  6
CONTINUOUS
  0
LAYER
  5
211
100
AcDbSymbolTableRecord
100
AcDbLayerTableRecord
  2
VERBUNDFLAECHEN
 70
0
 62
7
  6
CONTINUOUS
  0
LAYER
  5
212
100
AcDbSymbolTableRecord
100
AcDbLayerTableRecord
  2
XSEC_DATUMS
 70
0
 62
7
  6
CONTINUOUS
  0
ENDTAB
  0
TABLE
  2
STYLE
  5
3
100
AcDbSymbolTable
 70
1
  0
STYLE
  5
11
100
AcDbSymbolTableRecord
100
AcDbTextStyleTableRecord
  2
STANDARD
 70
0
 40
0.0
 41
1.0
 50
0.0
 71
0
 42
0.2
  3
txt
  4

  0
STYLE
  5
213
100
AcDbSymbolTableRecord
100
AcDbTextStyleTableRecord
  2
TEXTSTYLE_1
 70
0
 40
0.0
 41
0.8
 50
0.0
 71
0
 42
0.2
  3
gdt
  4

  0
STYLE
  5
214
100
AcDbSymbolTableRecord
100
AcDbTextStyleTableRecord
  2
TEXTSTYLE_2
 70
0
 40
0.0
 41
1.0
 50
0.0
 71
0
 42
0.2
  3
txt
  4

  0
ENDTAB
  0
TABLE
  2
VIEW
  5
6
100
AcDbSymbolTable
 70
0
  0
ENDTAB
  0
TABLE
  2
UCS
  5
7
100
AcDbSymbolTable
 70
0
  0
ENDTAB
  0
TABLE
  2
APPID
  5
9
100
AcDbSymbolTable
 70
1
  0
APPID
  5
215
100
AcDbSymbolTableRecord
100
AcDbRegAppTableRecord
  2
ACAD
 70
0
  0
ENDTAB
  0
TABLE
  2
BLOCK_RECORD
  5
1
100
AcDbSymbolTable
 70
0
  0
BLOCK_RECORD
  5
1F
100
AcDbSymbolTableRecord
100
AcDbBlockTableRecord
  2
*MODEL_SPACE
  0
BLOCK_RECORD
  5
1B
100
AcDbSymbolTableRecord
100
AcDbBlockTableRecord
  2
*PAPER_SPACE
  0
BLOCK_RECORD
  5
216
100
AcDbSymbolTableRecord
100
AcDbBlockTableRecord
  2
_ARROW_FILLED
  0
BLOCK_RECORD
  5
217
100
AcDbSymbolTableRecord
100
AcDbBlockTableRecord
  2
*D0
  0
BLOCK_RECORD
  5
218
100
AcDbSymbolTableRecord
100
AcDbBlockTableRecord
  2
*D1
  0
BLOCK_RECORD
  5
219
100
AcDbSymbolTableRecord
100
AcDbBlockTableRecord
  2
*D2
  0
BLOCK_RECORD
  5
21A
100
AcDbSymbolTableRecord
100
AcDbBlockTableRecord
  2
*D3
  0
BLOCK_RECORD
  5
21B
100
AcDbSymbolTableRecord
100
AcDbBlockTableRecord
  2
*D4
  0
ENDTAB
  0
TABLE
  2
DIMSTYLE
  5
A
100
AcDbSymbolTable
 70
1
  0
DIMSTYLE
105
21C
100
AcDbSymbolTableRecord
100
AcDbDimStyleTableRecord
  2
STANDARD
 70
0
  3

  4

  5
_ARROW_FILLED
  6
_ARROW_FILLED
  7
_ARROW_FILLED
 40
1.0
 41
3.5
 42
0.0
 43
0.38
 44
2.0
 45
0.0
 46
0.0
 47
0.01
 48
0.01
140
3.5
141
0.09
142
0.0
143
25.4
144
1.0
145
0.0
146
1.0
147
0.625
 71
1.0
 72
0.0
 73
0
 74
0
 75
0
 76
0
 77
1
 78
8
170
0
171
1
172
0
173
0
174
0
175
0
176
0
177
0
178
5
270
2
271
2
272
2
273
2
274
2
275
0
280
0
281
0
282
0
283
1
284
8
285
0
286
0
287
3
288
0
340
11
  0
DIMSTYLE
105
21D
100
AcDbSymbolTableRecord
100
AcDbDimStyleTableRecord
  2
DIMSTYLE_1
 70
0
  3

  4

  5
_ARROW_FILLED
  6
_ARROW_FILLED
  7
_ARROW_FILLED
 40
1.0
 41
3.5
 42
0.0
 43
0.38
 44
2.0
 45
0.0
 46
0.0
 47
0.3
 48
0.3
140
3.5
141
0.09
142
0.0
143
25.4
144
1.0
145
0.0
146
1.0
147
0.875
 71
0.0
 72
0.0
 73
0
 74
0
 75
0
 76
0
 77
1
 78
8
170
0
171
1
172
0
173
0
174
0
175
0
176
0
177
0
178
5
270
2
271
4
272
-1
273
2
274
2
275
0
280
0
281
0
282
0
283
1
284
8
285
0
286
0
287
3
288
0
340
214
  0
DIMSTYLE
105
21E
100
AcDbSymbolTableRecord
100
AcDbDimStyleTableRecord
  2
DIMSTYLE_2
 70
0
  3

  4

  5
_ARROW_FILLED
  6
_ARROW_FILLED
  7
_ARROW_FILLED
 40
1.0
 41
3.5
 42
0.0
 43
0.38
 44
2.0
 45
0.0
 46
0.0
 47
0.2
 48
0.2
140
3.5
141
0.09
142
0.0
143
25.4
144
1.0
145
0.0
146
1.0
147
0.875
 71
0.0
 72
0.0
 73
0
 74
0
 75
0
 76
0
 77
1
 78
8
170
0
171
1
172
0
173
0
174
0
175
0
176
0
177
0
178
5
270
2
271
4
272
-1
273
2
274
2
275
0
280
0
281
0
282
0
283
1
284
8
285
0
286
0
287
3
288
0
340
214
  0
DIMSTYLE
105
21F
100
AcDbSymbolTableRecord
100
AcDbDimStyleTableRecord
  2
DIMSTYLE_3
 70
0
  3

  4

  5
_ARROW_FILLED
  6
_ARROW_FILLED
  7
_ARROW_FILLED
 40
1.0
 41
3.5
 42
0.0
 43
0.38
 44
2.0
 45
0.0
 46
0.0
 47
0.2
 48
0.2
140
3.5
141
0.09
142
0.0
143
25.4
144
1.0
145
0.0
146
1.0
147
0.875
 71
0.0
 72
0.0
 73
0
 74
0
 75
0
 76
0
 77
1
 78
8
170
0
171
1
172
0
173
0
174
0
175
0
176
0
177
0
178
5
270
2
271
0
272
-1
273
2
274
2
275
0
280
0
281
0
282
0
283
1
284
8
285
0
286
0
287
3
288
0
340
214
  0
ENDTAB
  0
ENDSEC
  0
SECTION
  2
BLOCKS
  0
BLOCK
  5
20
100
AcDbEntity
  8
0
100
AcDbBlockBegin
  2
*MODEL_SPACE
 70
0
 10
0.0
 20
0.0
 30
0.0
  3
*MODEL_SPACE
  1

  0
ENDBLK
  5
21
100
AcDbEntity
  8
0
100
AcDbBlockEnd
  0
BLOCK
  5
1C
100
AcDbEntity
  8
0
100
AcDbBlockBegin
  2
*PAPER_SPACE
 70
0
 10
0.0
 20
0.0
 30
0.0
  3
*PAPER_SPACE
  1

  0
ENDBLK
  5
1D
100
AcDbEntity
  8
0
100
AcDbBlockEnd
  0
BLOCK
  5
220
100
AcDbEntity
  8
0
100
AcDbBlockBegin
  2
_ARROW_FILLED
 70
64
 10
0.0
 20
0.0
  3
_ARROW_FILLED
  1

  0
SOLID
  5
221
100
AcDbEntity
  8
0
  6
BYBLOCK
 62
0
100
AcDbTrace
 10
0.0
 20
0.0
 11
-1.0
 21
0.0940374286
 12
-1.0
 22
-0.0940374286
 13
-1.0
 23
-0.0940374286
  0
ENDBLK
  5
222
100
AcDbEntity
  8
0
  6
BYBLOCK
 62
0
100
AcDbBlockEnd
  0
BLOCK
  5
223
100
AcDbEntity
  8
A_BEMASSUNGEN
100
AcDbBlockBegin
 62
2
  6
CONTINUOUS
  2
*D0
 70
65
 10
0.0
 20
0.0
  3
*D0
  1

  0
MTEXT
  5
224
100
AcDbEntity
  8
A_BEMASSUNGEN
100
AcDbMText
 62
5
  6
CONTINUOUS
  7
TEXTSTYLE_2
 71
2
 72
1
 10
7.4723555587
 20
62.9054379306
 30
0.0
 11
0.0
 21
1.0
 31
0.0
  1
95
 40
3.5
 41
7.875
  0
LINE
  5
225
100
AcDbEntity
  8
A_BEMASSUNGEN
100
AcDbLine
 62
2
  6
CONTINUOUS
 10
41.0015560808
 20
15.4054379306
 11
9.8473555587
 21
15.4054379306
  0
LINE
  5
226
100
AcDbEntity
  8
A_BEMASSUNGEN
100
AcDbLine
 62
2
  6
CONTINUOUS
 10
41.0015560808
 20
110.4054379306
 11
9.8473555587
 21
110.4054379306
  0
LINE
  5
227
100
AcDbEntity
  8
A_BEMASSUNGEN
100
AcDbLine
 62
2
  6
CONTINUOUS
 10
11.8473555587
 20
15.4054379306
 11
11.8473555587
 21
62.9054379306
  0
LINE
  5
228
100
AcDbEntity
  8
A_BEMASSUNGEN
100
AcDbLine
 62
2
  6
CONTINUOUS
 10
11.8473555587
 20
110.4054379306
 11
11.8473555587
 21
62.9054379306
  0
INSERT
  5
229
100
AcDbEntity
  8
A_BEMASSUNGEN
100
AcDbBlockReference
 62
2
  6
CONTINUOUS
  2
_ARROW_FILLED
 10
11.8473555587
 20
15.4054379306
 41
3.5
 42
3.5
 43
3.5
 50
270.0
  0
INSERT
  5
22A
100
AcDbEntity
  8
A_BEMASSUNGEN
100
AcDbBlockReference
 62
2
  6
CONTINUOUS
  2
_ARROW_FILLED
 10
11.8473555587
 20
110.4054379306
 41
3.5
 42
3.5
 43
3.5
 50
90.0
  0
ENDBLK
  5
22B
100
AcDbEntity
  8
0
  6
BYBLOCK
 62
0
100
AcDbBlockEnd
  0
BLOCK
  5
22C
100
AcDbEntity
  8
A_BEMASSUNGEN
100
AcDbBlockBegin
 62
2
  6
CONTINUOUS
  2
*D1
 70
65
 10
0.0
 20
0.0
  3
*D1
  1

  0
MTEXT
  5
22D
100
AcDbEntity
  8
A_BEMASSUNGEN
100
AcDbMText
 62
5
  6
CONTINUOUS
  7
TEXTSTYLE_2
 71
2
 72
1
 10
17.4539005055
 20
95.4054379306
 30
0.0
 11
0.0
 21
1.0
 31
0.0
  1
30
 40
3.5
 41
7.875
  0
LINE
  5
22E
100
AcDbEntity
  8
A_BEMASSUNGEN
100
AcDbLine
 62
2
  6
CONTINUOUS
 10
41.0015560808
 20
110.4054379306
 11
19.8289005055
 21
110.4054379306
  0
LINE
  5
22F
100
AcDbEntity
  8
A_BEMASSUNGEN
100
AcDbLine
 62
2
  6
CONTINUOUS
 10
21.8289005055
 20
110.4054379306
 11
21.8289005055
 21
95.4054379306
  0
LINE
  5
230
100
AcDbEntity
  8
A_BEMASSUNGEN
100
AcDbLine
 62
2
  6
CONTINUOUS
 10
21.8289005055
 20
80.4054379306
 11
21.8289005055
 21
95.4054379306
  0
INSERT
  5
231
100
AcDbEntity
  8
A_BEMASSUNGEN
100
AcDbBlockReference
 62
2
  6
CONTINUOUS
  2
_ARROW_FILLED
 10
21.8289005055
 20
110.4054379306
 41
3.5
 42
3.5
 43
3.5
 50
90.0
  0
INSERT
  5
232
100
AcDbEntity
  8
A_BEMASSUNGEN
100
AcDbBlockReference
 62
2
  6
CONTINUOUS
  2
_ARROW_FILLED
 10
21.8289005055
 20
80.4054379306
 41
3.5
 42
3.5
 43
3.5
 50
270.0
  0
ENDBLK
  5
233
100
AcDbEntity
  8
0
  6
BYBLOCK
 62
0
100
AcDbBlockEnd
  0
BLOCK
  5
234
100
AcDbEntity
  8
A_BEMASSUNGEN
100
AcDbBlockBegin
 62
2
  6
CONTINUOUS
  2
*D2
 70
65
 10
0.0
 20
0.0
  3
*D2
  1

  0
MTEXT
  5
235
100
AcDbEntity
  8
A_BEMASSUNGEN
100
AcDbMText
 62
5
  6
CONTINUOUS
  7
TEXTSTYLE_2
 71
2
 72
1
 10
17.4539005055
 20
71.6554379306
 30
0.0
 11
0.0
 21
1.0
 31
0.0
  1
17.5
 40
3.5
 41
13.875
  0
LINE
  5
236
100
AcDbEntity
  8
A_BEMASSUNGEN
100
AcDbLine
 62
2
  6
CONTINUOUS
 10
27.0015560808
 20
62.9054379306
 11
19.8289005055
 21
62.9054379306
  0
LINE
  5
237
100
AcDbEntity
  8
A_BEMASSUNGEN
100
AcDbLine
 62
2
  6
CONTINUOUS
 10
21.8289005055
 20
80.4054379306
 11
21.8289005055
 21
71.6554379306
  0
LINE
  5
238
100
AcDbEntity
  8
A_BEMASSUNGEN
100
AcDbLine
 62
2
  6
CONTINUOUS
 10
21.8289005055
 20
62.9054379306
 11
21.8289005055
 21
71.6554379306
  0
INSERT
  5
239
100
AcDbEntity
  8
A_BEMASSUNGEN
100
AcDbBlockReference
 62
2
  6
CONTINUOUS
  2
_ARROW_FILLED
 10
21.8289005055
 20
80.4054379306
 41
3.5
 42
3.5
 43
3.5
 50
90.0
  0
INSERT
  5
23A
100
AcDbEntity
  8
A_BEMASSUNGEN
100
AcDbBlockReference
 62
2
  6
CONTINUOUS
  2
_ARROW_FILLED
 10
21.8289005055
 20
62.9054379306
 41
3.5
 42
3.5
 43
3.5
 50
270.0
  0
ENDBLK
  5
23B
100
AcDbEntity
  8
0
  6
BYBLOCK
 62
0
100
AcDbBlockEnd
  0
BLOCK
  5
23C
100
AcDbEntity
  8
A_BEMASSUNGEN
100
AcDbBlockBegin
 62
2
  6
CONTINUOUS
  2
*D3
 70
65
 10
0.0
 20
0.0
  3
*D3
  1

  0
MTEXT
  5
23D
100
AcDbEntity
  8
A_BEMASSUNGEN
100
AcDbMText
 62
5
  6
CONTINUOUS
  7
TEXTSTYLE_2
 71
2
 72
1
 10
76.5015560808
 20
121.9000971967
 30
0.0
 11
1.0
 21
0.0
 31
0.0
  1
ø20
 40
3.5
 41
13.5
  0
LINE
  5
23E
100
AcDbEntity
  8
A_BEMASSUNGEN
100
AcDbLine
 62
2
  6
CONTINUOUS
 10
66.5765560808
 20
110.4054379306
 11
66.5765560808
 21
119.5250971967
  0
LINE
  5
23F
100
AcDbEntity
  8
A_BEMASSUNGEN
100
AcDbLine
 62
2
  6
CONTINUOUS
 10
86.4265560808
 20
110.4054379306
 11
86.4265560808
 21
119.5250971967
  0
LINE
  5
240
100
AcDbEntity
  8
A_BEMASSUNGEN
100
AcDbLine
 62
2
  6
CONTINUOUS
 10
66.5765560808
 20
117.5250971967
 11
76.5015560808
 21
117.5250971967
  0
LINE
  5
241
100
AcDbEntity
  8
A_BEMASSUNGEN
100
AcDbLine
 62
2
  6
CONTINUOUS
 10
86.4265560808
 20
117.5250971967
 11
76.5015560808
 21
117.5250971967
  0
INSERT
  5
242
100
AcDbEntity
  8
A_BEMASSUNGEN
100
AcDbBlockReference
 62
2
  6
CONTINUOUS
  2
_ARROW_FILLED
 10
66.5765560808
 20
117.5250971967
 41
3.5
 42
3.5
 43
3.5
 50
180.0
  0
INSERT
  5
243
100
AcDbEntity
  8
A_BEMASSUNGEN
100
AcDbBlockReference
 62
2
  6
CONTINUOUS
  2
_ARROW_FILLED
 10
86.4265560808
 20
117.5250971967
 41
3.5
 42
3.5
 43
3.5
  0
ENDBLK
  5
244
100
AcDbEntity
  8
0
  6
BYBLOCK
 62
0
100
AcDbBlockEnd
  0
BLOCK
  5
245
100
AcDbEntity
  8
A_BEMASSUNGEN
100
AcDbBlockBegin
 62
2
  6
CONTINUOUS
  2
*D4
 70
65
 10
0.0
 20
0.0
  3
*D4
  1

  0
MTEXT
  5
246
100
AcDbEntity
  8
A_BEMASSUNGEN
100
AcDbMText
 62
5
  6
CONTINUOUS
  7
TEXTSTYLE_2
 71
2
 72
1
 10
117.5942252252
 20
63.9988468468
 30
0.0
 11
0.0
 21
1.0
 31
0.0
  1
34.5
 40
3.5
 41
14.625
  0
LINE
  5
247
100
AcDbEntity
  8
A_BEMASSUNGEN
100
AcDbLine
 62
2
  6
CONTINUOUS
 10
110.0015560808
 20
80.1554379306
 11
123.9692252252
 21
80.1554379306
  0
LINE
  5
248
100
AcDbEntity
  8
A_BEMASSUNGEN
100
AcDbLine
 62
2
  6
CONTINUOUS
 10
110.0015560808
 20
45.6554379306
 11
123.9692252252
 21
45.6554379306
  0
LINE
  5
249
100
AcDbEntity
  8
A_BEMASSUNGEN
100
AcDbLine
 62
2
  6
CONTINUOUS
 10
121.9692252252
 20
80.1554379306
 11
121.9692252252
 21
62.9054379306
  0
LINE
  5
24A
100
AcDbEntity
  8
A_BEMASSUNGEN
100
AcDbLine
 62
2
  6
CONTINUOUS
 10
121.9692252252
 20
45.6554379306
 11
121.9692252252
 21
62.9054379306
  0
INSERT
  5
24B
100
AcDbEntity
  8
A_BEMASSUNGEN
100
AcDbBlockReference
 62
2
  6
CONTINUOUS
  2
_ARROW_FILLED
 10
121.9692252252
 20
80.1554379306
 41
3.5
 42
3.5
 43
3.5
 50
90.0
  0
INSERT
  5
24C
100
AcDbEntity
  8
A_BEMASSUNGEN
100
AcDbBlockReference
 62
2
  6
CONTINUOUS
  2
_ARROW_FILLED
 10
121.9692252252
 20
45.6554379306
 41
3.5
 42
3.5
 43
3.5
 50
270.0
  0
ENDBLK
  5
24D
100
AcDbEntity
  8
0
  6
BYBLOCK
 62
0
100
AcDbBlockEnd
  0
ENDSEC
  0
SECTION
  2
ENTITIES
  0
DIMENSION
  5
24E
100
AcDbEntity
  8
A_BEMASSUNGEN
100
AcDbDimension
 62
2
  6
CONTINUOUS
  2
*D0
 10
11.8473555587
 20
110.4054379306
 11
11.8473555587
 21
62.4054383256
 70
160
  3
DIMSTYLE_1
100
AcDbAlignedDimension
 13
41.0015560808
 23
15.4054379306
 14
41.0015560808
 24
110.4054379306
 50
90.0
100
AcDbRotatedDimension
  0
DIMENSION
  5
24F
100
AcDbEntity
  8
A_BEMASSUNGEN
100
AcDbDimension
 62
2
  6
CONTINUOUS
  2
*D1
 10
21.8289005055
 20
80.4054379306
 11
21.8289005055
 21
94.9054372121
 70
160
  3
DIMSTYLE_2
100
AcDbAlignedDimension
 13
41.0015560808
 23
110.4054379306
 14
126.0015560808
 24
80.4054379306
 50
270.0
100
AcDbRotatedDimension
  0
DIMENSION
  5
250
100
AcDbEntity
  8
A_BEMASSUNGEN
100
AcDbDimension
 62
2
  6
CONTINUOUS
  2
*D2
 10
21.8289005055
 20
62.9054379306
 11
21.8289005055
 21
71.1554367399
 70
160
  3
DIMSTYLE_2
100
AcDbAlignedDimension
 13
126.0015560808
 23
80.4054379306
 14
27.0015560808
 24
62.9054379306
 50
270.0
100
AcDbRotatedDimension
  0
DIMENSION
  5
251
100
AcDbEntity
  8
A_BEMASSUNGEN
100
AcDbDimension
 62
2
  6
CONTINUOUS
  2
*D3
 10
86.4265560808
 20
117.5250971967
 11
76.5015560808
 21
117.5250971967
 70
160
  1
ø<>
  3
DIMSTYLE_3
100
AcDbAlignedDimension
 13
66.5765560808
 23
110.4054379306
 14
86.4265560808
 24
110.4054379306
100
AcDbRotatedDimension
  0
DIMENSION
  5
252
100
AcDbEntity
  8
A_BEMASSUNGEN
100
AcDbDimension
 62
2
  6
CONTINUOUS
  2
*D4
 10
121.9692252252
 20
45.6554379306
 11
121.9692252252
 21
63.4988482883
 70
160
  3
DIMSTYLE_1
100
AcDbAlignedDimension
 13
110.0015560808
 23
80.1554379306
 14
110.0015560808
 24
45.6554379306
 50
270.0
100
AcDbRotatedDimension
  0
MTEXT
  5
253
100
AcDbEntity
  8
A_NOTIZEN_SYMB
100
AcDbMText
 62
5
  6
CONTINUOUS
  7
TEXTSTYLE_2
 71
1
 72
1
 10
115.0196063879
 20
85.7633913143
 30
0.0
 11
1.0
 21
0.0
 31
0.0
  1
BBL
 40
3.5
 41
12.625
  0
LINE
  5
254
100
AcDbEntity
  8
0
100
AcDbLine
 62
7
  6
CONTINUOUS
 10
40.2263841435
 20
103.8913704954
 11
40.4986678755
 21
104.147777896
  0
LINE
  5
255
100
AcDbEntity
  8
0
100
AcDbLine
 62
7
  6
CONTINUOUS
 10
40.4986678755
 20
21.6630979653
 11
40.2263841435
 21
21.9195053658
  0
LINE
  5
256
100
AcDbEntity
  8
0
100
AcDbLine
 62
7
  6
CONTINUOUS
 10
37.7767280182
 20
96.9195053658
 11
37.5044442861
 21
96.6630979653
  0
LINE
  5
257
100
AcDbEntity
  8
0
100
AcDbLine
 62
7
  6
CONTINUOUS
 10
35.0120387039
 20
100.9800710668
 11
35.3702358925
 21
101.0876719955
  0
LINE
  5
258
100
AcDbEntity
  8
0
100
AcDbLine
 62
7
  6
CONTINUOUS
 10
86.426315536
 20
15.4054379306
 11
66.5767948861
 21
15.4054379306
  0
LINE
  5
259
100
AcDbEntity
  8
A_ACHSEN
100
AcDbLine
 62
3
  6
CONTINUOUS
 10
41.0015560808
 20
15.4054379306
 11
65.3586958855
 21
15.4054379306
  0
LINE
  5
25A
100
AcDbEntity
  8
0
100
AcDbLine
 62
3
  6
CONTINUOUS
 10
65.3586958855
 20
15.4054379306
 11
66.5767948861
 21
15.4054379306
  0
LINE
  5
25B
100
AcDbEntity
  8
0
100
AcDbLine
 62
7
  6
CONTINUOUS
 10
35.3702358925
 20
24.7232038657
 11
35.0120387039
 21
24.8308047944
  0
LINE
  5
25C
100
AcDbEntity
  8
0
100
AcDbLine
 62
7
  6
CONTINUOUS
 10
37.5044442861
 20
29.147777896
 11
37.7767280182
 21
28.8913704954
  0
LINE
  5
25D
100
AcDbEntity
  8
A_ACHSEN
100
AcDbLine
 62
3
  6
CONTINUOUS
 10
29.0015560808
 20
27.4054379306
 11
29.0015560808
 21
98.4054379306
  0
LINE
  5
25E
100
AcDbEntity
  8
0
100
AcDbLine
 62
7
  6
CONTINUOUS
 10
36.5091504986
 20
97.2377311014
 11
36.5950639551
 21
97.6017394307
  0
LINE
  5
25F
100
AcDbEntity
  8
0
100
AcDbLine
 62
7
  6
CONTINUOUS
 10
42.9910734578
 20
99.8308047944
 11
42.6328762692
 21
99.7232038657
  0
LINE
  5
260
100
AcDbEntity
  8
0
100
AcDbLine
 62
7
  6
CONTINUOUS
 10
42.6328762692
 20
26.0876719955
 11
42.9910734578
 21
25.9800710668
  0
LINE
  5
261
100
AcDbEntity
  8
0
100
AcDbLine
 62
7
  6
CONTINUOUS
 10
36.5950639551
 20
28.2091364305
 11
36.5091504986
 21
28.5731447598
  0
LINE
  5
262
100
AcDbEntity
  8
0
100
AcDbLine
 62
7
  6
CONTINUOUS
 10
41.4939616631
 20
103.5731447598
 11
41.4080482065
 21
103.2091364305
  0
LINE
  5
263
100
AcDbEntity
  8
A_ACHSEN
100
AcDbLine
 62
7
  6
CENTER
 10
39.0015560808
 20
25.4054379306
 11
30.7515560808
 21
25.4054379306
  0
LINE
  5
264
100
AcDbEntity
  8
A_ACHSEN
100
AcDbLine
 62
7
  6
CENTER
 10
39.0015560808
 20
25.4054379306
 11
47.2515560808
 21
25.4054379306
  0
LINE
  5
265
100
AcDbEntity
  8
0
100
AcDbLine
 62
7
  6
CONTINUOUS
 10
41.4080482065
 20
22.6017394307
 11
41.4939616631
 21
22.2377311014
  0
LINE
  5
266
100
AcDbEntity
  8
A_ACHSEN
100
AcDbLine
 62
7
  6
CENTER
 10
39.0015560808
 20
100.4054379306
 11
39.0015560808
 21
92.1554379306
  0
LINE
  5
267
100
AcDbEntity
  8
A_ACHSEN
100
AcDbLine
 62
7
  6
CENTER
 10
39.0015560808
 20
25.4054379306
 11
39.0015560808
 21
17.1554379306
  0
LINE
  5
268
100
AcDbEntity
  8
A_ACHSEN
100
AcDbLine
 62
7
  6
CENTER
 10
39.0015560808
 20
25.4054379306
 11
39.0015560808
 21
33.6554379306
  0
LINE
  5
269
100
AcDbEntity
  8
A_ACHSEN
100
AcDbLine
 62
7
  6
CENTER
 10
39.0015560808
 20
100.4054379306
 11
39.0015560808
 21
108.6554379306
  0
LINE
  5
26A
100
AcDbEntity
  8
0
100
AcDbLine
 62
7
  6
CONTINUOUS
 10
48.5091504986
 20
79.7377311014
 11
48.5950639551
 21
80.1017394307
  0
LINE
  5
26B
100
AcDbEntity
  8
0
100
AcDbLine
 62
7
  6
CONTINUOUS
 10
52.2263841435
 20
86.3913704954
 11
52.4986678755
 21
86.647777896
  0
LINE
  5
26C
100
AcDbEntity
  8
0
100
AcDbLine
 62
7
  6
CONTINUOUS
 10
49.7767280182
 20
79.4195053658
 11
49.5044442861
 21
79.1630979653
  0
LINE
  5
26D
100
AcDbEntity
  8
0
100
AcDbLine
 62
7
  6
CONTINUOUS
 10
52.4986678755
 20
39.1630979653
 11
52.2263841435
 21
39.4195053658
  0
LINE
  5
26E
100
AcDbEntity
  8
0
100
AcDbLine
 62
7
  6
CONTINUOUS
 10
49.5044442861
 20
46.647777896
 11
49.7767280182
 21
46.3913704954
  0
LINE
  5
26F
100
AcDbEntity
  8
0
100
AcDbLine
 62
7
  6
CONTINUOUS
 10
48.5950639551
 20
45.7091364305
 11
48.5091504986
 21
46.0731447598
  0
LINE
  5
270
100
AcDbEntity
  8
0
100
AcDbLine
 62
7
  6
CONTINUOUS
 10
36.5091504986
 20
22.2377311014
 11
36.5950639551
 21
22.6017394307
  0
LINE
  5
271
100
AcDbEntity
  8
0
100
AcDbLine
 62
7
  6
CONTINUOUS
 10
53.4939616631
 20
86.0731447598
 11
53.4080482065
 21
85.7091364305
  0
LINE
  5
272
100
AcDbEntity
  8
0
100
AcDbLine
 62
7
  6
CONTINUOUS
 10
41.4939616631
 20
28.5731447598
 11
41.4080482065
 21
28.2091364305
  0
LINE
  5
273
100
AcDbEntity
  8
0
100
AcDbLine
 62
7
  6
CONTINUOUS
 10
47.0120387039
 20
83.4800710668
 11
47.3702358925
 21
83.5876719955
  0
LINE
  5
274
100
AcDbEntity
  8
0
100
AcDbLine
 62
7
  6
CONTINUOUS
 10
54.9910734578
 20
82.3308047944
 11
54.6328762692
 21
82.2232038657
  0
LINE
  5
275
100
AcDbEntity
  8
0
100
AcDbLine
 62
7
  6
CONTINUOUS
 10
86.426315536
 20
39.6054379306
 11
66.5767948861
 21
39.6054379306
  0
LINE
  5
276
100
AcDbEntity
  8
A_ACHSEN
100
AcDbLine
 62
7
  6
CONTINUOUS
 10
68.0265611177
 20
39.9054379306
 11
84.976551044
 21
39.9054379306
  0
LINE
  5
277
100
AcDbEntity
  8
0
100
AcDbLine
 62
7
  6
CONTINUOUS
 10
47.3702358925
 20
42.2232038657
 11
47.0120387039
 21
42.3308047944
  0
LINE
  5
278
100
AcDbEntity
  8
0
100
AcDbLine
 62
7
  6
CONTINUOUS
 10
54.6328762692
 20
43.5876719955
 11
54.9910734578
 21
43.4800710668
  0
LINE
  5
279
100
AcDbEntity
  8
0
100
AcDbLine
 62
7
  6
CONTINUOUS
 10
36.5950639551
 20
103.2091364305
 11
36.5091504986
 21
103.5731447598
  0
LINE
  5
27A
100
AcDbEntity
  8
0
100
AcDbLine
 62
7
  6
CONTINUOUS
 10
53.4080482065
 20
40.1017394307
 11
53.4939616631
 21
39.7377311014
  0
LINE
  5
27B
100
AcDbEntity
  8
0
100
AcDbLine
 62
7
  6
CONTINUOUS
 10
41.4080482065
 20
97.6017394307
 11
41.4939616631
 21
97.2377311014
  0
LINE
  5
27C
100
AcDbEntity
  8
A_ACHSEN
100
AcDbLine
 62
7
  6
CENTER
 10
51.0015560808
 20
82.9054379306
 11
51.0015560808
 21
74.6554379306
  0
LINE
  5
27D
100
AcDbEntity
  8
A_ACHSEN
100
AcDbLine
 62
7
  6
CENTER
 10
51.0015560808
 20
42.9054379306
 11
51.0015560808
 21
34.6554379306
  0
LINE
  5
27E
100
AcDbEntity
  8
A_ACHSEN
100
AcDbLine
 62
7
  6
CENTER
 10
51.0015560808
 20
42.9054379306
 11
51.0015560808
 21
51.1554379306
  0
LINE
  5
27F
100
AcDbEntity
  8
A_ACHSEN
100
AcDbLine
 62
7
  6
CENTER
 10
51.0015560808
 20
82.9054379306
 11
51.0015560808
 21
91.1554379306
  0
LINE
  5
280
100
AcDbEntity
  8
0
100
AcDbLine
 62
7
  6
CONTINUOUS
 10
48.5091504986
 20
39.7377311014
 11
48.5950639551
 21
40.1017394307
  0
LINE
  5
281
100
AcDbEntity
  8
0
100
AcDbLine
 62
3
  6
CONTINUOUS
 10
88.0015560808
 20
40.4054379306
 11
86.5013178391
 21
40.4054379306
  0
LINE
  5
282
100
AcDbEntity
  8
A_ACHSEN
100
AcDbLine
 62
7
  6
CONTINUOUS
 10
66.5021891834
 20
40.4054379306
 11
86.5013178391
 21
40.4054379306
  0
LINE
  5
283
100
AcDbEntity
  8
A_ACHSEN
100
AcDbLine
 62
7
  6
CENTER
 10
51.0015560808
 20
42.9054379306
 11
42.7515560808
 21
42.9054379306
  0
LINE
  5
284
100
AcDbEntity
  8
A_ACHSEN
100
AcDbLine
 62
7
  6
CENTER
 10
51.0015560808
 20
42.9054379306
 11
59.2515560808
 21
42.9054379306
  0
LINE
  5
285
100
AcDbEntity
  8
0
100
AcDbLine
 62
7
  6
CONTINUOUS
 10
48.5950639551
 20
85.7091364305
 11
48.5091504986
 21
86.0731447598
  0
LINE
  5
286
100
AcDbEntity
  8
0
100
AcDbLine
 62
7
  6
CONTINUOUS
 10
53.4939616631
 20
46.0731447598
 11
53.4080482065
 21
45.7091364305
  0
LINE
  5
287
100
AcDbEntity
  8
A_RUNDUNGEN
100
AcDbLine
 62
3
  6
CONTINUOUS
 10
89.0015560808
 20
45.6554379306
 11
110.0015560808
 21
45.6554379306
  0
LINE
  5
288
100
AcDbEntity
  8
0
100
AcDbLine
 62
7
  6
CONTINUOUS
 10
53.4080482065
 20
80.1017394307
 11
53.4939616631
 21
79.7377311014
  0
LINE
  5
289
100
AcDbEntity
  8
A_ACHSEN
100
AcDbLine
 62
3
  6
CONTINUOUS
 10
109.4015560808
 20
50.3054379306
 11
98.6015560808
 21
50.3054379306
  0
LINE
  5
28A
100
AcDbEntity
  8
A_ACHSEN
100
AcDbLine
 62
3
  6
CONTINUOUS
 10
98.6015560808
 20
53.5054379306
 11
109.4015560808
 21
53.5054379306
  0
LINE
  5
28B
100
AcDbEntity
  8
A_ACHSEN
100
AcDbLine
 62
7
  6
CONTINUOUS
 10
66.5015560808
 20
85.4054379306
 11
66.5015560808
 21
40.4054379306
  0
LINE
  5
28C
100
AcDbEntity
  8
0
100
AcDbLine
 62
7
  6
CONTINUOUS
 10
66.5765560808
 20
15.4054379306
 11
66.5765560808
 21
39.6054379306
  0
LINE
  5
28D
100
AcDbEntity
  8
0
100
AcDbLine
 62
7
  6
CONTINUOUS
 10
66.5765560808
 20
86.2054379306
 11
66.5765560808
 21
110.4054379306
  0
LINE
  5
28E
100
AcDbEntity
  8
A_ACHSEN
100
AcDbLine
 62
7
  6
CONTINUOUS
 10
68.0265560808
 20
85.9054379306
 11
68.0265560808
 21
85.4054379306
  0
LINE
  5
28F
100
AcDbEntity
  8
A_ACHSEN
100
AcDbLine
 62
7
  6
CONTINUOUS
 10
68.0265560808
 20
39.9054379306
 11
68.0265560808
 21
40.4054379306
  0
LINE
  5
290
100
AcDbEntity
  8
A_ACHSEN
100
AcDbLine
 62
7
  6
CONTINUOUS
 10
71.5015560808
 20
39.6054379306
 11
71.5015560808
 21
39.9054379306
  0
LINE
  5
291
100
AcDbEntity
  8
A_ACHSEN
100
AcDbLine
 62
7
  6
CONTINUOUS
 10
71.5015560808
 20
85.9054379306
 11
71.5015560808
 21
86.2054379306
  0
LINE
  5
292
100
AcDbEntity
  8
0
100
AcDbLine
 62
7
  6
CONTINUOUS
 10
52.2263841435
 20
46.3913704954
 11
52.4986678755
 21
46.647777896
  0
LINE
  5
293
100
AcDbEntity
  8
A_ACHSEN
100
AcDbLine
 62
3
  6
CONTINUOUS
 10
113.0015560808
 20
59.4054379306
 11
97.0015560808
 21
59.4054379306
  0
LINE
  5
294
100
AcDbEntity
  8
A_ACHSEN
100
AcDbLine
 62
7
  6
CENTER
 10
27.0015560808
 20
62.9054379306
 11
113.2151909596
 21
62.9054379306
  0
LINE
  5
295
100
AcDbEntity
  8
0
100
AcDbLine
 62
7
  6
CONTINUOUS
 10
52.4986678755
 20
79.1630979653
 11
52.2263841435
 21
79.4195053658
  0
LINE
  5
296
100
AcDbEntity
  8
A_ACHSEN
100
AcDbLine
 62
7
  6
CENTER
 10
76.5015560808
 20
13.2663769424
 11
76.5015560808
 21
112.5444989188
  0
LINE
  5
297
100
AcDbEntity
  8
0
100
AcDbLine
 62
7
  6
CONTINUOUS
 10
49.7767280182
 20
39.4195053658
 11
49.5044442861
 21
39.1630979653
  0
LINE
  5
298
100
AcDbEntity
  8
0
100
AcDbLine
 62
7
  6
CONTINUOUS
 10
40.2263841435
 20
28.8913704954
 11
40.4986678755
 21
29.147777896
  0
LINE
  5
299
100
AcDbEntity
  8
0
100
AcDbLine
 62
7
  6
CONTINUOUS
 10
37.7767280182
 20
21.9195053658
 11
37.5044442861
 21
21.6630979653
  0
LINE
  5
29A
100
AcDbEntity
  8
A_ACHSEN
100
AcDbLine
 62
3
  6
CONTINUOUS
 10
113.0015560808
 20
66.4054379306
 11
97.0015560808
 21
66.4054379306
  0
LINE
  5
29B
100
AcDbEntity
  8
0
100
AcDbLine
 62
7
  6
CONTINUOUS
 10
49.5044442861
 20
86.647777896
 11
49.7767280182
 21
86.3913704954
  0
LINE
  5
29C
100
AcDbEntity
  8
0
100
AcDbLine
 62
7
  6
CONTINUOUS
 10
40.4986678755
 20
96.6630979653
 11
40.2263841435
 21
96.9195053658
  0
LINE
  5
29D
100
AcDbEntity
  8
0
100
AcDbLine
 62
7
  6
CONTINUOUS
 10
37.5044442861
 20
104.147777896
 11
37.7767280182
 21
103.8913704954
  0
LINE
  5
29E
100
AcDbEntity
  8
A_ACHSEN
100
AcDbLine
 62
7
  6
CONTINUOUS
 10
81.5015560808
 20
39.6054379306
 11
81.5015560808
 21
39.9054379306
  0
LINE
  5
29F
100
AcDbEntity
  8
A_ACHSEN
100
AcDbLine
 62
7
  6
CONTINUOUS
 10
81.5015560808
 20
85.9054379306
 11
81.5015560808
 21
86.2054379306
  0
LINE
  5
2A0
100
AcDbEntity
  8
A_ACHSEN
100
AcDbLine
 62
3
  6
CONTINUOUS
 10
109.4015560808
 20
72.3054379306
 11
98.6015560808
 21
72.3054379306
  0
LINE
  5
2A1
100
AcDbEntity
  8
A_ACHSEN
100
AcDbLine
 62
7
  6
CONTINUOUS
 10
84.9765560808
 20
85.9054379306
 11
84.9765560808
 21
85.4054379306
  0
LINE
  5
2A2
100
AcDbEntity
  8
A_ACHSEN
100
AcDbLine
 62
7
  6
CONTINUOUS
 10
84.9765560808
 20
39.9054379306
 11
84.9765560808
 21
40.4054379306
  0
LINE
  5
2A3
100
AcDbEntity
  8
0
100
AcDbLine
 62
7
  6
CONTINUOUS
 10
86.4265560808
 20
15.4054379306
 11
86.4265560808
 21
39.6054379306
  0
LINE
  5
2A4
100
AcDbEntity
  8
0
100
AcDbLine
 62
7
  6
CONTINUOUS
 10
86.4265560808
 20
86.2054379306
 11
86.4265560808
 21
110.4054379306
  0
LINE
  5
2A5
100
AcDbEntity
  8
A_ACHSEN
100
AcDbLine
 62
7
  6
CONTINUOUS
 10
86.5015560808
 20
85.4054379306
 11
86.5015560808
 21
40.4054379306
  0
LINE
  5
2A6
100
AcDbEntity
  8
A_RUNDUNGEN
100
AcDbLine
 62
3
  6
CONTINUOUS
 10
88.0015560808
 20
85.4054379306
 11
88.0015560808
 21
81.1554379306
  0
LINE
  5
2A7
100
AcDbEntity
  8
A_RUNDUNGEN
100
AcDbLine
 62
3
  6
CONTINUOUS
 10
88.0015560808
 20
40.4054379306
 11
88.0015560808
 21
44.6554379306
  0
LINE
  5
2A8
100
AcDbEntity
  8
0
100
AcDbLine
 62
7
  6
CONTINUOUS
 10
47.0120387039
 20
43.4800710668
 11
47.3702358925
 21
43.5876719955
  0
LINE
  5
2A9
100
AcDbEntity
  8
0
100
AcDbLine
 62
7
  6
CONTINUOUS
 10
54.9910734578
 20
42.3308047944
 11
54.6328762692
 21
42.2232038657
  0
LINE
  5
2AA
100
AcDbEntity
  8
A_ACHSEN
100
AcDbLine
 62
3
  6
CONTINUOUS
 10
98.6015560808
 20
75.5054379306
 11
109.4015560808
 21
75.5054379306
  0
LINE
  5
2AB
100
AcDbEntity
  8
0
100
AcDbLine
 62
7
  6
CONTINUOUS
 10
47.3702358925
 20
82.2232038657
 11
47.0120387039
 21
82.3308047944
  0
LINE
  5
2AC
100
AcDbEntity
  8
0
100
AcDbLine
 62
7
  6
CONTINUOUS
 10
54.6328762692
 20
83.5876719955
 11
54.9910734578
 21
83.4800710668
  0
LINE
  5
2AD
100
AcDbEntity
  8
A_RUNDUNGEN
100
AcDbLine
 62
3
  6
CONTINUOUS
 10
110.0015560808
 20
80.1554379306
 11
89.0015560808
 21
80.1554379306
  0
LINE
  5
2AE
100
AcDbEntity
  8
A_KURVEN
100
AcDbLine
 62
7
  6
PHANTOM
 10
21.0015560808
 20
80.4054379306
 11
126.0015560808
 21
80.4054379306
  0
LINE
  5
2AF
100
AcDbEntity
  8
A_ACHSEN
100
AcDbLine
 62
7
  6
CENTER
 10
97.0015560808
 20
62.9054379306
 11
97.0015560808
 21
58.229734243
  0
LINE
  5
2B0
100
AcDbEntity
  8
A_ACHSEN
100
AcDbLine
 62
7
  6
CENTER
 10
97.0015560808
 20
62.9054379306
 11
97.0015560808
 21
67.5811416182
  0
LINE
  5
2B1
100
AcDbEntity
  8
A_ACHSEN
100
AcDbLine
 62
7
  6
CENTER
 10
51.0015560808
 20
82.9054379306
 11
42.7515560808
 21
82.9054379306
  0
LINE
  5
2B2
100
AcDbEntity
  8
A_ACHSEN
100
AcDbLine
 62
7
  6
CENTER
 10
51.0015560808
 20
82.9054379306
 11
59.2515560808
 21
82.9054379306
  0
LINE
  5
2B3
100
AcDbEntity
  8
0
100
AcDbLine
 62
3
  6
CONTINUOUS
 10
88.0015560808
 20
85.4054379306
 11
86.5013178391
 21
85.4054379306
  0
LINE
  5
2B4
100
AcDbEntity
  8
A_ACHSEN
100
AcDbLine
 62
7
  6
CONTINUOUS
 10
66.5021891834
 20
85.4054379306
 11
86.5013178391
 21
85.4054379306
  0
LINE
  5
2B5
100
AcDbEntity
  8
A_ACHSEN
100
AcDbLine
 62
7
  6
CONTINUOUS
 10
68.0265611177
 20
85.9054379306
 11
84.976551044
 21
85.9054379306
  0
LINE
  5
2B6
100
AcDbEntity
  8
0
100
AcDbLine
 62
7
  6
CONTINUOUS
 10
86.426315536
 20
86.2054379306
 11
66.5767948861
 21
86.2054379306
  0
LINE
  5
2B7
100
AcDbEntity
  8
0
100
AcDbLine
 62
7
  6
CONTINUOUS
 10
35.0120387039
 20
25.9800710668
 11
35.3702358925
 21
26.0876719955
  0
LINE
  5
2B8
100
AcDbEntity
  8
0
100
AcDbLine
 62
7
  6
CONTINUOUS
 10
42.9910734578
 20
24.8308047944
 11
42.6328762692
 21
24.7232038657
  0
LINE
  5
2B9
100
AcDbEntity
  8
0
100
AcDbLine
 62
7
  6
CONTINUOUS
 10
35.3702358925
 20
99.7232038657
 11
35.0120387039
 21
99.8308047944
  0
LINE
  5
2BA
100
AcDbEntity
  8
0
100
AcDbLine
 62
7
  6
CONTINUOUS
 10
42.6328762692
 20
101.0876719955
 11
42.9910734578
 21
100.9800710668
  0
LINE
  5
2BB
100
AcDbEntity
  8
0
100
AcDbLine
 62
3
  6
CONTINUOUS
 10
110.0015560808
 20
45.6554379306
 11
113.0015560808
 21
47.3874887382
  0
LINE
  5
2BC
100
AcDbEntity
  8
0
100
AcDbLine
 62
3
  6
CONTINUOUS
 10
113.0015560808
 20
78.423387123
 11
110.0015560808
 21
80.1554379306
  0
LINE
  5
2BD
100
AcDbEntity
  8
A_ACHSEN
100
AcDbLine
 62
7
  6
CENTER
 10
39.0015560808
 20
100.4054379306
 11
30.7515560808
 21
100.4054379306
  0
LINE
  5
2BE
100
AcDbEntity
  8
A_ACHSEN
100
AcDbLine
 62
7
  6
CENTER
 10
39.0015560808
 20
100.4054379306
 11
47.2515560808
 21
100.4054379306
  0
LINE
  5
2BF
100
AcDbEntity
  8
A_ACHSEN
100
AcDbLine
 62
3
  6
CONTINUOUS
 10
113.0015560808
 20
78.423387123
 11
113.0015560808
 21
66.4054379306
  0
LINE
  5
2C0
100
AcDbEntity
  8
A_ACHSEN
100
AcDbLine
 62
3
  6
CONTINUOUS
 10
113.0015560808
 20
59.4054379306
 11
113.0015560808
 21
47.3874887382
  0
LINE
  5
2C1
100
AcDbEntity
  8
0
100
AcDbLine
 62
7
  6
CONTINUOUS
 10
86.426315536
 20
110.4054379306
 11
66.5767948861
 21
110.4054379306
  0
LINE
  5
2C2
100
AcDbEntity
  8
A_ACHSEN
100
AcDbLine
 62
3
  6
CONTINUOUS
 10
41.0015560808
 20
110.4054379306
 11
65.3586958855
 21
110.4054379306
  0
LINE
  5
2C3
100
AcDbEntity
  8
0
100
AcDbLine
 62
3
  6
CONTINUOUS
 10
65.3586958855
 20
110.4054379306
 11
66.5767948861
 21
110.4054379306
  0
ARC
  5
2C4
100
AcDbEntity
  8
A_ACHSEN
100
AcDbCircle
 62
3
  6
CONTINUOUS
 10
41.0015560808
 20
27.4054379306
 40
12.0
100
AcDbArc
 50
180.0
 51
270.0
  0
CIRCLE
  5
2C5
100
AcDbEntity
  8
A_ACHSEN
100
AcDbCircle
 62
3
  6
CONTINUOUS
 10
51.0015560808
 20
42.9054379306
 40
5.25
  0
CIRCLE
  5
2C6
100
AcDbEntity
  8
A_ACHSEN
100
AcDbCircle
 62
3
  6
CONTINUOUS
 10
39.0015560808
 20
25.4054379306
 40
5.25
  0
ARC
  5
2C7
100
AcDbEntity
  8
0
100
AcDbCircle
 62
7
  6
CONTINUOUS
 10
43.1468732786
 20
23.0121379306
 40
1.7866
100
AcDbArc
 50
106.7200468298
 51
193.2799531702
  0
ARC
  5
2C8
100
AcDbEntity
  8
0
100
AcDbCircle
 62
7
  6
CONTINUOUS
 10
43.1468732786
 20
27.7987379306
 40
1.7866
100
AcDbArc
 50
166.7200468298
 51
253.2799531702
  0
ARC
  5
2C9
100
AcDbEntity
  8
0
100
AcDbCircle
 62
7
  6
CONTINUOUS
 10
39.0015560808
 20
20.6188379306
 40
1.7866
100
AcDbArc
 50
46.7200468298
 51
133.2799531702
  0
ARC
  5
2CA
100
AcDbEntity
  8
0
100
AcDbCircle
 62
7
  6
CONTINUOUS
 10
34.8562388831
 20
23.0121379306
 40
1.7866
100
AcDbArc
 50
346.7200468298
 51
73.2799531702
  0
ARC
  5
2CB
100
AcDbEntity
  8
0
100
AcDbCircle
 62
7
  6
CONTINUOUS
 10
34.8562388831
 20
27.7987379306
 40
1.7866
100
AcDbArc
 50
286.7200468298
 51
13.2799531702
  0
ARC
  5
2CC
100
AcDbEntity
  8
0
100
AcDbCircle
 62
7
  6
CONTINUOUS
 10
39.0015560808
 20
30.1920379306
 40
1.7866
100
AcDbArc
 50
226.7200468298
 51
313.2799531702
  0
ARC
  5
2CD
100
AcDbEntity
  8
0
100
AcDbCircle
 62
7
  6
CONTINUOUS
 10
55.1468732786
 20
40.5121379306
 40
1.7866
100
AcDbArc
 50
106.7200468298
 51
193.2799531702
  0
ARC
  5
2CE
100
AcDbEntity
  8
0
100
AcDbCircle
 62
7
  6
CONTINUOUS
 10
55.1468732786
 20
45.2987379306
 40
1.7866
100
AcDbArc
 50
166.7200468298
 51
253.2799531702
  0
ARC
  5
2CF
100
AcDbEntity
  8
0
100
AcDbCircle
 62
7
  6
CONTINUOUS
 10
51.0015560808
 20
38.1188379306
 40
1.7866
100
AcDbArc
 50
46.7200468298
 51
133.2799531702
  0
ARC
  5
2D0
100
AcDbEntity
  8
0
100
AcDbCircle
 62
7
  6
CONTINUOUS
 10
46.8562388831
 20
40.5121379306
 40
1.7866
100
AcDbArc
 50
346.7200468298
 51
73.2799531702
  0
ARC
  5
2D1
100
AcDbEntity
  8
0
100
AcDbCircle
 62
7
  6
CONTINUOUS
 10
46.8562388831
 20
45.2987379306
 40
1.7866
100
AcDbArc
 50
286.7200468298
 51
13.2799531702
  0
ARC
  5
2D2
100
AcDbEntity
  8
0
100
AcDbCircle
 62
7
  6
CONTINUOUS
 10
51.0015560808
 20
47.6920379306
 40
1.7866
100
AcDbArc
 50
226.7200468298
 51
313.2799531702
  0
ARC
  5
2D3
100
AcDbEntity
  8
0
100
AcDbCircle
 62
7
  6
CONTINUOUS
 10
42.8184560808
 20
25.4054379306
 40
0.6
100
AcDbArc
 50
286.7200468298
 51
73.2799531702
  0
ARC
  5
2D4
100
AcDbEntity
  8
0
100
AcDbCircle
 62
7
  6
CONTINUOUS
 10
40.9100060808
 20
22.0999055669
 40
0.6
100
AcDbArc
 50
226.7200468298
 51
13.2799531702
  0
ARC
  5
2D5
100
AcDbEntity
  8
0
100
AcDbCircle
 62
7
  6
CONTINUOUS
 10
40.9100060808
 20
28.7109702943
 40
0.6
100
AcDbArc
 50
346.7200468298
 51
133.2799531702
  0
ARC
  5
2D6
100
AcDbEntity
  8
0
100
AcDbCircle
 62
7
  6
CONTINUOUS
 10
37.0931060808
 20
22.0999055669
 40
0.6
100
AcDbArc
 50
166.7200468298
 51
313.2799531702
  0
ARC
  5
2D7
100
AcDbEntity
  8
0
100
AcDbCircle
 62
7
  6
CONTINUOUS
 10
35.1846560808
 20
25.4054379306
 40
0.6
100
AcDbArc
 50
106.7200468298
 51
253.2799531702
  0
ARC
  5
2D8
100
AcDbEntity
  8
0
100
AcDbCircle
 62
7
  6
CONTINUOUS
 10
37.0931060808
 20
28.7109702943
 40
0.6
100
AcDbArc
 50
46.7200468298
 51
193.2799531702
  0
ARC
  5
2D9
100
AcDbEntity
  8
0
100
AcDbCircle
 62
7
  6
CONTINUOUS
 10
54.8184560808
 20
42.9054379306
 40
0.6
100
AcDbArc
 50
286.7200468298
 51
73.2799531702
  0
ARC
  5
2DA
100
AcDbEntity
  8
0
100
AcDbCircle
 62
7
  6
CONTINUOUS
 10
52.9100060808
 20
39.5999055669
 40
0.6
100
AcDbArc
 50
226.7200468298
 51
13.2799531702
  0
ARC
  5
2DB
100
AcDbEntity
  8
0
100
AcDbCircle
 62
7
  6
CONTINUOUS
 10
52.9100060808
 20
46.2109702943
 40
0.6
100
AcDbArc
 50
346.7200468298
 51
133.2799531702
  0
ARC
  5
2DC
100
AcDbEntity
  8
0
100
AcDbCircle
 62
7
  6
CONTINUOUS
 10
49.0931060808
 20
39.5999055669
 40
0.6
100
AcDbArc
 50
166.7200468298
 51
313.2799531702
  0
ARC
  5
2DD
100
AcDbEntity
  8
0
100
AcDbCircle
 62
7
  6
CONTINUOUS
 10
47.1846560808
 20
42.9054379306
 40
0.6
100
AcDbArc
 50
106.7200468298
 51
253.2799531702
  0
ARC
  5
2DE
100
AcDbEntity
  8
0
100
AcDbCircle
 62
7
  6
CONTINUOUS
 10
49.0931060808
 20
46.2109702943
 40
0.6
100
AcDbArc
 50
46.7200468298
 51
193.2799531702
  0
ARC
  5
2DF
100
AcDbEntity
  8
A_ACHSEN
100
AcDbCircle
 62
3
  6
CONTINUOUS
 10
41.0015560808
 20
98.4054379306
 40
12.0
100
AcDbArc
 50
90.0
 51
180.0
  0
CIRCLE
  5
2E0
100
AcDbEntity
  8
A_ACHSEN
100
AcDbCircle
 62
3
  6
CONTINUOUS
 10
51.0015560808
 20
82.9054379306
 40
5.25
  0
CIRCLE
  5
2E1
100
AcDbEntity
  8
A_ACHSEN
100
AcDbCircle
 62
3
  6
CONTINUOUS
 10
39.0015560808
 20
100.4054379306
 40
5.25
  0
ARC
  5
2E2
100
AcDbEntity
  8
0
100
AcDbCircle
 62
7
  6
CONTINUOUS
 10
43.1468732786
 20
98.0121379306
 40
1.7866
100
AcDbArc
 50
106.7200468298
 51
193.2799531702
  0
ARC
  5
2E3
100
AcDbEntity
  8
0
100
AcDbCircle
 62
7
  6
CONTINUOUS
 10
43.1468732786
 20
102.7987379306
 40
1.7866
100
AcDbArc
 50
166.7200468298
 51
253.2799531702
  0
ARC
  5
2E4
100
AcDbEntity
  8
0
100
AcDbCircle
 62
7
  6
CONTINUOUS
 10
34.8562388831
 20
98.0121379306
 40
1.7866
100
AcDbArc
 50
346.7200468298
 51
73.2799531702
  0
ARC
  5
2E5
100
AcDbEntity
  8
0
100
AcDbCircle
 62
7
  6
CONTINUOUS
 10
34.8562388831
 20
102.7987379306
 40
1.7866
100
AcDbArc
 50
286.7200468298
 51
13.2799531702
  0
ARC
  5
2E6
100
AcDbEntity
  8
0
100
AcDbCircle
 62
7
  6
CONTINUOUS
 10
39.0015560808
 20
105.1920379306
 40
1.7866
100
AcDbArc
 50
226.7200468298
 51
313.2799531702
  0
ARC
  5
2E7
100
AcDbEntity
  8
0
100
AcDbCircle
 62
7
  6
CONTINUOUS
 10
39.0015560808
 20
95.6188379306
 40
1.7866
100
AcDbArc
 50
46.7200468298
 51
133.2799531702
  0
ARC
  5
2E8
100
AcDbEntity
  8
0
100
AcDbCircle
 62
7
  6
CONTINUOUS
 10
55.1468732786
 20
80.5121379306
 40
1.7866
100
AcDbArc
 50
106.7200468298
 51
193.2799531702
  0
ARC
  5
2E9
100
AcDbEntity
  8
0
100
AcDbCircle
 62
7
  6
CONTINUOUS
 10
55.1468732786
 20
85.2987379306
 40
1.7866
100
AcDbArc
 50
166.7200468298
 51
253.2799531702
  0
ARC
  5
2EA
100
AcDbEntity
  8
0
100
AcDbCircle
 62
7
  6
CONTINUOUS
 10
46.8562388831
 20
80.5121379306
 40
1.7866
100
AcDbArc
 50
346.7200468298
 51
73.2799531702
  0
ARC
  5
2EB
100
AcDbEntity
  8
0
100
AcDbCircle
 62
7
  6
CONTINUOUS
 10
46.8562388831
 20
85.2987379306
 40
1.7866
100
AcDbArc
 50
286.7200468298
 51
13.2799531702
  0
ARC
  5
2EC
100
AcDbEntity
  8
0
100
AcDbCircle
 62
7
  6
CONTINUOUS
 10
51.0015560808
 20
87.6920379306
 40
1.7866
100
AcDbArc
 50
226.7200468298
 51
313.2799531702
  0
ARC
  5
2ED
100
AcDbEntity
  8
0
100
AcDbCircle
 62
7
  6
CONTINUOUS
 10
51.0015560808
 20
78.1188379306
 40
1.7866
100
AcDbArc
 50
46.7200468298
 51
133.2799531702
  0
ARC
  5
2EE
100
AcDbEntity
  8
0
100
AcDbCircle
 62
7
  6
CONTINUOUS
 10
40.9100060808
 20
97.0999055669
 40
0.6
100
AcDbArc
 50
226.7200468298
 51
13.2799531702
  0
ARC
  5
2EF
100
AcDbEntity
  8
0
100
AcDbCircle
 62
7
  6
CONTINUOUS
 10
40.9100060808
 20
103.7109702943
 40
0.6
100
AcDbArc
 50
346.7200468298
 51
133.2799531702
  0
ARC
  5
2F0
100
AcDbEntity
  8
0
100
AcDbCircle
 62
7
  6
CONTINUOUS
 10
42.8184560808
 20
100.4054379306
 40
0.6
100
AcDbArc
 50
286.7200468298
 51
73.2799531702
  0
ARC
  5
2F1
100
AcDbEntity
  8
0
100
AcDbCircle
 62
7
  6
CONTINUOUS
 10
37.0931060808
 20
97.0999055669
 40
0.6
100
AcDbArc
 50
166.7200468298
 51
313.2799531702
  0
ARC
  5
2F2
100
AcDbEntity
  8
0
100
AcDbCircle
 62
7
  6
CONTINUOUS
 10
35.1846560808
 20
100.4054379306
 40
0.6
100
AcDbArc
 50
106.7200468298
 51
253.2799531702
  0
ARC
  5
2F3
100
AcDbEntity
  8
0
100
AcDbCircle
 62
7
  6
CONTINUOUS
 10
37.0931060808
 20
103.7109702943
 40
0.6
100
AcDbArc
 50
46.7200468298
 51
193.2799531702
  0
ARC
  5
2F4
100
AcDbEntity
  8
0
100
AcDbCircle
 62
7
  6
CONTINUOUS
 10
52.9100060808
 20
79.5999055669
 40
0.6
100
AcDbArc
 50
226.7200468298
 51
13.2799531702
  0
ARC
  5
2F5
100
AcDbEntity
  8
0
100
AcDbCircle
 62
7
  6
CONTINUOUS
 10
52.9100060808
 20
86.2109702943
 40
0.6
100
AcDbArc
 50
346.7200468298
 51
133.2799531702
  0
ARC
  5
2F6
100
AcDbEntity
  8
0
100
AcDbCircle
 62
7
  6
CONTINUOUS
 10
54.8184560808
 20
82.9054379306
 40
0.6
100
AcDbArc
 50
286.7200468298
 51
73.2799531702
  0
ARC
  5
2F7
100
AcDbEntity
  8
0
100
AcDbCircle
 62
7
  6
CONTINUOUS
 10
49.0931060808
 20
79.5999055669
 40
0.6
100
AcDbArc
 50
166.7200468298
 51
313.2799531702
  0
ARC
  5
2F8
100
AcDbEntity
  8
0
100
AcDbCircle
 62
7
  6
CONTINUOUS
 10
47.1846560808
 20
82.9054379306
 40
0.6
100
AcDbArc
 50
106.7200468298
 51
253.2799531702
  0
ARC
  5
2F9
100
AcDbEntity
  8
0
100
AcDbCircle
 62
7
  6
CONTINUOUS
 10
49.0931060808
 20
86.2109702943
 40
0.6
100
AcDbArc
 50
46.7200468298
 51
193.2799531702
  0
ARC
  5
2FA
100
AcDbEntity
  8
A_ACHSEN
100
AcDbCircle
 62
3
  6
CONTINUOUS
 10
109.4015560808
 20
51.9054379306
 40
1.6
100
AcDbArc
 50
270.0
 51
90.0
  0
ARC
  5
2FB
100
AcDbEntity
  8
A_ACHSEN
100
AcDbCircle
 62
3
  6
CONTINUOUS
 10
98.6015560808
 20
51.9054379306
 40
1.6
100
AcDbArc
 50
90.0
 51
270.0
  0
ARC
  5
2FC
100
AcDbEntity
  8
A_RUNDUNGEN
100
AcDbCircle
 62
3
  6
CONTINUOUS
 10
89.0015560808
 20
44.6554379306
 40
1.0
100
AcDbArc
 50
90.0
 51
180.0
  0
ARC
  5
2FD
100
AcDbEntity
  8
A_ACHSEN
100
AcDbCircle
 62
3
  6
CONTINUOUS
 10
97.0015560808
 20
62.9054379306
 40
3.5
100
AcDbArc
 50
90.0
 51
270.0
  0
ARC
  5
2FE
100
AcDbEntity
  8
A_ACHSEN
100
AcDbCircle
 62
3
  6
CONTINUOUS
 10
109.4015560808
 20
73.9054379306
 40
1.6
100
AcDbArc
 50
270.0
 51
90.0
  0
ARC
  5
2FF
100
AcDbEntity
  8
A_ACHSEN
100
AcDbCircle
 62
3
  6
CONTINUOUS
 10
98.6015560808
 20
73.9054379306
 40
1.6
100
AcDbArc
 50
90.0
 51
270.0
  0
ARC
  5
300
100
AcDbEntity
  8
A_RUNDUNGEN
100
AcDbCircle
 62
3
  6
CONTINUOUS
 10
89.0015560808
 20
81.1554379306
 40
1.0
100
AcDbArc
 50
180.0
 51
270.0
  0
ENDSEC
  0
SECTION
  2
OBJECTS
  0
DICTIONARY
  5
301
100
AcDbDictionary
  3
ACAD_GROUP
350
302
  3
ACAD_MLINESTYLE
350
303
  0
DICTIONARY
  5
302
102
{ACAD_REACTORS
330
301
102
}
100
AcDbDictionary
  0
DICTIONARY
  5
303
102
{ACAD_REACTORS
330
301
102
}
100
AcDbDictionary
  3
STANDARD
350
304
  0
MLINESTYLE
  5
304
102
{ACAD_REACTORS
330
303
102
}
100
AcDbMlineStyle
  2
STANDARD
 70
0
  3

 62
256
 51
90.0
 52
90.0
 71
2
 49
0.5
 62
256
  6
BYLAYER
 49
-0.5
 62
256
  6
BYLAYER
  0
ENDSEC
  0
EOF
