999
DXF file: DXF_5_400720_0_00000_mkt_v_01_drw_1.dxf
999
Pro/ENGINEER 2023014 by Parametric Technology Corporation
  0
SECTION
  2
HEADER
  9
$ACADVER
  1
AC1014
  9
$DWGCODEPAGE
  3
ANSI_1252
  9
$EXTMAX
 10
89.916
 20
180.0
 30
0.0
  9
$EXTMIN
 10
0.0
 20
0.0
 30
0.0
  9
$LIMMIN
 10
0.0
 20
0.0
  9
$LIMMAX
 10
89.916
 20
180.0
  9
$VIEWCTR
 10
44.958
 20
90.0
  9
$VIEWSIZE
 40
180.0
  9
$CLAYER
  8
0
  9
$LTSCALE
 40
11.7333333333
  9
$CELTYPE
  6
BYLAYER
  9
$DIMSCALE
 40
1.0
  9
$DIMASZ
 40
3.5
  9
$DIMEXO
 40
0.0
  9
$DIMDLI
 40
8.1066666667
  9
$DIMEXE
 40
2.0
  9
$DIMCEN
 40
1.92
  9
$DIMLFAC
 40
1.0
  9
$DIMBLK
  1
_ARROW_FILLED
  9
$DIMALT
 70
0
  9
$DIMALTF
 40
0.0393700787
  9
$DIMTXT
 40
3.5
  9
$DIMTOL
 70
1
  9
$DIMLIM
 70
0
  9
$DIMTFAC
 40
1.0
  9
$DIMTP
 40
0.01
  9
$DIMTM
 40
0.01
  9
$DIMGAP
 40
0.625
  9
$AUNITS
 70
0
  9
$PDMODE
 70
0
  9
$PDSIZE
 40
0.04
  9
$HANDSEED
  5
466
  9
$TILEMODE
 70
1
  9
$MEASUREMENT
 70
1
  0
ENDSEC
  0
SECTION
  2
CLASSES
  0
ENDSEC
  0
SECTION
  2
TABLES
  0
TABLE
  2
VPORT
  5
8
100
AcDbSymbolTable
 70
2
  0
VPORT
  5
1F4
100
AcDbSymbolTableRecord
100
AcDbViewportTableRecord
  2
*ACTIVE
 70
0
 10
0.0
 20
0.0
 11
1.0
 21
1.0
 12
44.958
 22
90.0
 13
0.0
 23
0.0
 14
1.0
 24
1.0
 15
0.0
 25
0.0
 16
0.0
 26
0.0
 36
1.0
 17
0.0
 27
0.0
 37
0.0
 40
180.0
 41
0.4995333333
 42
50.0
 43
0.0
 44
0.0
 50
0.0
 51
0.0
 71
0
 72
100
 73
1
 74
1
 75
0
 76
0
 77
0
 78
0
  0
ENDTAB
  0
TABLE
  2
LTYPE
  5
5
100
AcDbSymbolTable
 70
6
  0
LTYPE
  5
14
100
AcDbSymbolTableRecord
100
AcDbLinetypeTableRecord
  2
BYBLOCK
 70
0
  3

 72
65
 73
0
 40
0.0
  0
LTYPE
  5
15
100
AcDbSymbolTableRecord
100
AcDbLinetypeTableRecord
  2
BYLAYER
 70
0
  3

 72
65
 73
0
 40
0.0
  0
LTYPE
  5
16
100
AcDbSymbolTableRecord
100
AcDbLinetypeTableRecord
  2
CONTINUOUS
 70
64
  3
Solid line
 72
65
 73
0
 40
0.0
  0
LTYPE
  5
1F5
100
AcDbSymbolTableRecord
100
AcDbLinetypeTableRecord
  2
CENTER
 70
64
  3
____ _ ____ _ ____ _ ____ _ ____ _ ____ _ ____
 72
65
 73
4
 40
0.6
 49
0.375
 74
0
 49
-0.075
 74
0
 49
0.075
 74
0
 49
-0.075
 74
0
  0
LTYPE
  5
1F6
100
AcDbSymbolTableRecord
100
AcDbLinetypeTableRecord
  2
HIDDEN
 70
64
  3
- - - - - - - - - - - - - - - - - - - -
 72
65
 73
2
 40
0.2
 49
0.1
 74
0
 49
-0.1
 74
0
  0
LTYPE
  5
1F7
100
AcDbSymbolTableRecord
100
AcDbLinetypeTableRecord
  2
PHANTOM
 70
64
  3
_____ _ _ _____ _ _ _____ _ _ _____
 72
65
 73
6
 40
0.8
 49
0.45
 74
0
 49
-0.05
 74
0
 49
0.1
 74
0
 49
-0.05
 74
0
 49
0.1
 74
0
 49
-0.05
 74
0
  0
LTYPE
  5
1F8
100
AcDbSymbolTableRecord
100
AcDbLinetypeTableRecord
  2
DOT
 70
64
  3
. . . . . . . . . . . . . . . . . . . .
 72
65
 73
2
 40
0.2
 49
0.1
 74
0
 49
-0.1
 74
0
  0
LTYPE
  5
1F9
100
AcDbSymbolTableRecord
100
AcDbLinetypeTableRecord
  2
DASHED
 70
64
  3
- - - - - - - - - - - - - - - - - - - -
 72
65
 73
2
 40
0.2
 49
0.1
 74
0
 49
-0.1
 74
0
  0
ENDTAB
  0
TABLE
  2
LAYER
  5
2
100
AcDbSymbolTable
 70
36
  0
LAYER
  5
10
100
AcDbSymbolTableRecord
100
AcDbLayerTableRecord
  2
0
 70
0
 62
7
  6
CONTINUOUS
  0
LAYER
  5
1FA
100
AcDbSymbolTableRecord
100
AcDbLayerTableRecord
  2
DEFAULT_1
 70
0
 62
7
  6
CENTER
  0
LAYER
  5
1FB
100
AcDbSymbolTableRecord
100
AcDbLayerTableRecord
  2
DEFAULT_2
 70
0
 62
2
  6
HIDDEN
  0
LAYER
  5
1FC
100
AcDbSymbolTableRecord
100
AcDbLayerTableRecord
  2
DEFAULT_3
 70
0
 62
7
  6
PHANTOM
  0
LAYER
  5
1FD
100
AcDbSymbolTableRecord
100
AcDbLayerTableRecord
  2
ALLE_ACHSEN
 70
0
 62
7
  6
CONTINUOUS
  0
LAYER
  5
1FE
100
AcDbSymbolTableRecord
100
AcDbLayerTableRecord
  2
ALLE_BEMASSUNGEN
 70
0
 62
7
  6
CONTINUOUS
  0
LAYER
  5
1FF
100
AcDbSymbolTableRecord
100
AcDbLayerTableRecord
  2
ALLE_BOHRUNGEN
 70
0
 62
7
  6
CONTINUOUS
  0
LAYER
  5
200
100
AcDbSymbolTableRecord
100
AcDbLayerTableRecord
  2
ALLE_EBENEN
 70
0
 62
7
  6
CONTINUOUS
  0
LAYER
  5
201
100
AcDbSymbolTableRecord
100
AcDbLayerTableRecord
  2
ALLE_FL_VERBAENDE
 70
0
 62
7
  6
CONTINUOUS
  0
LAYER
  5
202
100
AcDbSymbolTableRecord
100
AcDbLayerTableRecord
  2
ALLE_RUNDUNGEN
 70
0
 62
7
  6
CONTINUOUS
  0
LAYER
  5
203
100
AcDbSymbolTableRecord
100
AcDbLayerTableRecord
  2
A_ACHSEN
 70
0
 62
7
  6
CONTINUOUS
  0
LAYER
  5
204
100
AcDbSymbolTableRecord
100
AcDbLayerTableRecord
  2
A_BASISEBENEN
 70
0
 62
7
  6
CONTINUOUS
  0
LAYER
  5
205
100
AcDbSymbolTableRecord
100
AcDbLayerTableRecord
  2
A_BEMASSUNGEN
 70
0
 62
7
  6
CONTINUOUS
  0
LAYER
  5
206
100
AcDbSymbolTableRecord
100
AcDbLayerTableRecord
  2
A_BOHRUNGEN
 70
0
 62
7
  6
CONTINUOUS
  0
LAYER
  5
207
100
AcDbSymbolTableRecord
100
AcDbLayerTableRecord
  2
A_EBENEN
 70
0
 62
7
  6
CONTINUOUS
  0
LAYER
  5
208
100
AcDbSymbolTableRecord
100
AcDbLayerTableRecord
  2
A_FASEN
 70
0
 62
7
  6
CONTINUOUS
  0
LAYER
  5
209
100
AcDbSymbolTableRecord
100
AcDbLayerTableRecord
  2
A_FLAECHEN
 70
0
 62
7
  6
CONTINUOUS
  0
LAYER
  5
20A
100
AcDbSymbolTableRecord
100
AcDbLayerTableRecord
  2
A_FL_VERBAENDE
 70
0
 62
7
  6
CONTINUOUS
  0
LAYER
  5
20B
100
AcDbSymbolTableRecord
100
AcDbLayerTableRecord
  2
A_KURVEN
 70
0
 62
7
  6
CONTINUOUS
  0
LAYER
  5
20C
100
AcDbSymbolTableRecord
100
AcDbLayerTableRecord
  2
A_NOTIZEN_SYMB
 70
0
 62
7
  6
CONTINUOUS
  0
LAYER
  5
20D
100
AcDbSymbolTableRecord
100
AcDbLayerTableRecord
  2
A_PUNKTE
 70
0
 62
7
  6
CONTINUOUS
  0
LAYER
  5
20E
100
AcDbSymbolTableRecord
100
AcDbLayerTableRecord
  2
A_RUNDUNGEN
 70
0
 62
7
  6
CONTINUOUS
  0
LAYER
  5
20F
100
AcDbSymbolTableRecord
100
AcDbLayerTableRecord
  2
BASISEBENEN
 70
0
 62
7
  6
CONTINUOUS
  0
LAYER
  5
210
100
AcDbSymbolTableRecord
100
AcDbLayerTableRecord
  2
GRAVUR
 70
0
 62
7
  6
CONTINUOUS
  0
LAYER
  5
211
100
AcDbSymbolTableRecord
100
AcDbLayerTableRecord
  2
SCHRIFTZUG_DREHMOMENT
 70
0
 62
7
  6
CONTINUOUS
  0
LAYER
  5
212
100
AcDbSymbolTableRecord
100
AcDbLayerTableRecord
  2
STD_BASISEBENEN
 70
0
 62
7
  6
CONTINUOUS
  0
LAYER
  5
213
100
AcDbSymbolTableRecord
100
AcDbLayerTableRecord
  2
STD_CS0
 70
0
 62
7
  6
CONTINUOUS
  0
LAYER
  5
214
100
AcDbSymbolTableRecord
100
AcDbLayerTableRecord
  2
XSEC_DATUMS
 70
0
 62
7
  6
CONTINUOUS
  0
ENDTAB
  0
TABLE
  2
STYLE
  5
3
100
AcDbSymbolTable
 70
1
  0
STYLE
  5
11
100
AcDbSymbolTableRecord
100
AcDbTextStyleTableRecord
  2
STANDARD
 70
0
 40
0.0
 41
1.0
 50
0.0
 71
0
 42
0.2
  3
ARIAL.TTF
  4

  0
STYLE
  5
215
100
AcDbSymbolTableRecord
100
AcDbTextStyleTableRecord
  2
TEXTSTYLE_1
 70
0
 40
0.0
 41
0.8
 50
0.0
 71
0
 42
0.2
  3
gdt
  4

  0
ENDTAB
  0
TABLE
  2
VIEW
  5
6
100
AcDbSymbolTable
 70
0
  0
ENDTAB
  0
TABLE
  2
UCS
  5
7
100
AcDbSymbolTable
 70
0
  0
ENDTAB
  0
TABLE
  2
APPID
  5
9
100
AcDbSymbolTable
 70
1
  0
APPID
  5
216
100
AcDbSymbolTableRecord
100
AcDbRegAppTableRecord
  2
ACAD
 70
0
  0
ENDTAB
  0
TABLE
  2
BLOCK_RECORD
  5
1
100
AcDbSymbolTable
 70
0
  0
BLOCK_RECORD
  5
1F
100
AcDbSymbolTableRecord
100
AcDbBlockTableRecord
  2
*MODEL_SPACE
  0
BLOCK_RECORD
  5
1B
100
AcDbSymbolTableRecord
100
AcDbBlockTableRecord
  2
*PAPER_SPACE
  0
BLOCK_RECORD
  5
217
100
AcDbSymbolTableRecord
100
AcDbBlockTableRecord
  2
_ARROW_FILLED
  0
BLOCK_RECORD
  5
218
100
AcDbSymbolTableRecord
100
AcDbBlockTableRecord
  2
*D0
  0
BLOCK_RECORD
  5
219
100
AcDbSymbolTableRecord
100
AcDbBlockTableRecord
  2
*D1
  0
BLOCK_RECORD
  5
21A
100
AcDbSymbolTableRecord
100
AcDbBlockTableRecord
  2
*D2
  0
BLOCK_RECORD
  5
21B
100
AcDbSymbolTableRecord
100
AcDbBlockTableRecord
  2
*D3
  0
ENDTAB
  0
TABLE
  2
DIMSTYLE
  5
A
100
AcDbSymbolTable
 70
1
  0
DIMSTYLE
105
21C
100
AcDbSymbolTableRecord
100
AcDbDimStyleTableRecord
  2
STANDARD
 70
0
  3

  4

  5
_ARROW_FILLED
  6
_ARROW_FILLED
  7
_ARROW_FILLED
 40
1.0
 41
3.5
 42
0.0
 43
0.38
 44
2.0
 45
0.0
 46
0.0
 47
0.01
 48
0.01
140
3.5
141
0.09
142
0.0
143
25.4
144
1.0
145
0.0
146
1.0
147
0.625
 71
1
 72
0
 73
0
 74
0
 75
0
 76
0
 77
1
 78
8
 79
2
170
0
171
1
172
0
173
0
174
0
175
0
176
0
177
0
178
2
270
2
271
2
272
2
273
2
274
2
275
0
280
0
281
0
282
0
283
1
284
8
285
0
286
0
287
3
288
0
340
11
  0
DIMSTYLE
105
21D
100
AcDbSymbolTableRecord
100
AcDbDimStyleTableRecord
  2
DIMSTYLE_1
 70
0
  3

  4

  5
_ARROW_FILLED
  6
_ARROW_FILLED
  7
_ARROW_FILLED
 40
1.0
 41
3.5
 42
0.0
 43
0.38
 44
2.0
 45
0.0
 46
0.0
 47
0.5
 48
0.5
140
3.5
141
0.09
142
0.0
143
25.4
144
1.0
145
0.0
146
1.0
147
0.875
 71
0
 72
0
 73
0
 74
0
 75
0
 76
0
 77
1
 78
8
 79
2
170
0
171
1
172
0
173
0
174
0
175
0
176
0
177
0
178
2
270
2
271
4
272
4
273
2
274
2
275
0
280
0
281
0
282
0
283
1
284
8
285
0
286
0
287
3
288
0
340
11
  0
DIMSTYLE
105
21E
100
AcDbSymbolTableRecord
100
AcDbDimStyleTableRecord
  2
DIMSTYLE_2
 70
0
  3

  4

  5
_ARROW_FILLED
  6
_ARROW_FILLED
  7
_ARROW_FILLED
 40
1.0
 41
3.5
 42
0.0
 43
0.38
 44
2.0
 45
0.0
 46
0.0
 47
0.2
 48
0.2
140
3.5
141
0.09
142
0.0
143
25.4
144
1.0
145
0.0
146
1.0
147
0.875
 71
0
 72
0
 73
0
 74
0
 75
0
 76
0
 77
1
 78
8
 79
2
170
0
171
1
172
0
173
0
174
0
175
0
176
0
177
0
178
2
270
2
271
0
272
0
273
2
274
2
275
0
280
0
281
0
282
0
283
1
284
8
285
0
286
0
287
3
288
0
340
11
  0
DIMSTYLE
105
21F
100
AcDbSymbolTableRecord
100
AcDbDimStyleTableRecord
  2
DIMSTYLE_3
 70
0
  3

  4

  5
_ARROW_FILLED
  6
_ARROW_FILLED
  7
_ARROW_FILLED
 40
1.0
 41
3.5
 42
0.0
 43
0.38
 44
2.0
 45
0.0
 46
0.0
 47
0.2
 48
0.2
140
3.5
141
0.09
142
0.0
143
25.4
144
1.0
145
0.0
146
1.0
147
0.875
 71
0
 72
0
 73
0
 74
0
 75
0
 76
0
 77
1
 78
8
 79
2
170
0
171
1
172
0
173
0
174
0
175
0
176
0
177
0
178
2
270
2
271
4
272
4
273
2
274
2
275
0
280
0
281
0
282
0
283
1
284
8
285
0
286
0
287
3
288
0
340
11
  0
DIMSTYLE
105
220
100
AcDbSymbolTableRecord
100
AcDbDimStyleTableRecord
  2
DIMSTYLE_4
 70
0
  3

  4

  5
_ARROW_FILLED
  6
_ARROW_FILLED
  7
_ARROW_FILLED
 40
1.0
 41
3.5
 42
0.0
 43
0.38
 44
2.0
 45
0.0
 46
0.0
 47
0.3
 48
0.3
140
3.5
141
0.09
142
0.0
143
25.4
144
1.0
145
0.0
146
1.0
147
0.875
 71
0
 72
0
 73
0
 74
0
 75
0
 76
0
 77
1
 78
8
 79
2
170
0
171
1
172
0
173
0
174
0
175
0
176
0
177
0
178
2
270
2
271
4
272
4
273
2
274
2
275
0
280
0
281
0
282
0
283
1
284
8
285
0
286
0
287
3
288
0
340
11
  0
ENDTAB
  0
ENDSEC
  0
SECTION
  2
BLOCKS
  0
BLOCK
  5
20
100
AcDbEntity
  8
0
100
AcDbBlockBegin
  2
*MODEL_SPACE
 70
0
 10
0.0
 20
0.0
 30
0.0
  3
*MODEL_SPACE
  1

  0
ENDBLK
  5
21
100
AcDbEntity
  8
0
100
AcDbBlockEnd
  0
BLOCK
  5
1C
100
AcDbEntity
  8
0
100
AcDbBlockBegin
  2
*PAPER_SPACE
 70
0
 10
0.0
 20
0.0
 30
0.0
  3
*PAPER_SPACE
  1

  0
ENDBLK
  5
1D
100
AcDbEntity
  8
0
100
AcDbBlockEnd
  0
BLOCK
  5
221
100
AcDbEntity
  8
0
100
AcDbBlockBegin
  2
_ARROW_FILLED
 70
64
 10
0.0
 20
0.0
  3
_ARROW_FILLED
  1

  0
SOLID
  5
222
100
AcDbEntity
  8
0
  6
BYBLOCK
 62
0
100
AcDbTrace
 10
0.0
 20
0.0
 11
-1.0
 21
0.1428571429
 12
-1.0
 22
-0.1428571429
 13
-1.0
 23
-0.1428571429
  0
ENDBLK
  5
223
100
AcDbEntity
  8
0
  6
BYBLOCK
 62
0
100
AcDbBlockEnd
  0
BLOCK
  5
224
100
AcDbEntity
  8
A_BEMASSUNGEN
100
AcDbBlockBegin
 62
2
  6
CONTINUOUS
  2
*D0
 70
65
 10
0.0
 20
0.0
  3
*D0
  1

  0
MTEXT
  5
225
100
AcDbEntity
  8
A_BEMASSUNGEN
100
AcDbMText
 62
2
  6
CONTINUOUS
  7
STANDARD
 71
2
 72
1
 10
81.4488035216
 20
98.2717123084
 30
0.0
 11
0.0
 21
1.0
 31
0.0
  1
160
 40
3.5
 41
11.25
  0
LINE
  5
226
100
AcDbEntity
  8
A_BEMASSUNGEN
100
AcDbLine
 62
2
  6
CONTINUOUS
 10
60.6025055391
 20
18.2717123084
 11
71.9137553714
 21
18.2717123084
  0
LINE
  5
227
100
AcDbEntity
  8
A_BEMASSUNGEN
100
AcDbLine
 62
2
  6
CONTINUOUS
 10
78.7797105567
 20
18.2717123084
 11
87.8238035216
 21
18.2717123084
  0
LINE
  5
228
100
AcDbEntity
  8
A_BEMASSUNGEN
100
AcDbLine
 62
2
  6
CONTINUOUS
 10
60.6025055391
 20
178.2717123084
 11
87.8238035216
 21
178.2717123084
  0
LINE
  5
229
100
AcDbEntity
  8
A_BEMASSUNGEN
100
AcDbLine
 62
2
  6
CONTINUOUS
 10
85.8238035216
 20
18.2717123084
 11
85.8238035216
 21
98.2717123084
  0
LINE
  5
22A
100
AcDbEntity
  8
A_BEMASSUNGEN
100
AcDbLine
 62
2
  6
CONTINUOUS
 10
85.8238035216
 20
178.2717123084
 11
85.8238035216
 21
98.2717123084
  0
INSERT
  5
22B
100
AcDbEntity
  8
A_BEMASSUNGEN
100
AcDbBlockReference
 62
2
  6
CONTINUOUS
  2
_ARROW_FILLED
 10
85.8238035216
 20
18.2717123084
 41
3.5
 42
3.5
 43
3.5
 50
270.0
  0
INSERT
  5
22C
100
AcDbEntity
  8
A_BEMASSUNGEN
100
AcDbBlockReference
 62
2
  6
CONTINUOUS
  2
_ARROW_FILLED
 10
85.8238035216
 20
178.2717123084
 41
3.5
 42
3.5
 43
3.5
 50
90.0
  0
ENDBLK
  5
22D
100
AcDbEntity
  8
0
  6
BYBLOCK
 62
0
100
AcDbBlockEnd
  0
BLOCK
  5
22E
100
AcDbEntity
  8
A_BEMASSUNGEN
100
AcDbBlockBegin
 62
2
  6
CONTINUOUS
  2
*D1
 70
65
 10
0.0
 20
0.0
  3
*D1
  1

  0
MTEXT
  5
22F
100
AcDbEntity
  8
A_BEMASSUNGEN
100
AcDbMText
 62
2
  6
CONTINUOUS
  7
STANDARD
 71
2
 72
1
 10
60.5525055391
 20
12.684376609
 30
0.0
 11
1.0
 21
0.0
 31
0.0
  1
28
 40
3.5
 41
8.25
  0
LINE
  5
230
100
AcDbEntity
  8
A_BEMASSUNGEN
100
AcDbLine
 62
2
  6
CONTINUOUS
 10
74.5025055391
 20
32.1717123084
 11
74.5025055391
 21
6.309376609
  0
LINE
  5
231
100
AcDbEntity
  8
A_BEMASSUNGEN
100
AcDbLine
 62
2
  6
CONTINUOUS
 10
46.6025055391
 20
33.2717123084
 11
46.6025055391
 21
6.309376609
  0
LINE
  5
232
100
AcDbEntity
  8
A_BEMASSUNGEN
100
AcDbLine
 62
2
  6
CONTINUOUS
 10
74.5025055391
 20
8.309376609
 11
60.5525055391
 21
8.309376609
  0
LINE
  5
233
100
AcDbEntity
  8
A_BEMASSUNGEN
100
AcDbLine
 62
2
  6
CONTINUOUS
 10
46.6025055391
 20
8.309376609
 11
60.5525055391
 21
8.309376609
  0
INSERT
  5
234
100
AcDbEntity
  8
A_BEMASSUNGEN
100
AcDbBlockReference
 62
2
  6
CONTINUOUS
  2
_ARROW_FILLED
 10
74.5025055391
 20
8.309376609
 41
3.5
 42
3.5
 43
3.5
  0
INSERT
  5
235
100
AcDbEntity
  8
A_BEMASSUNGEN
100
AcDbBlockReference
 62
2
  6
CONTINUOUS
  2
_ARROW_FILLED
 10
46.6025055391
 20
8.309376609
 41
3.5
 42
3.5
 43
3.5
 50
180.0
  0
ENDBLK
  5
236
100
AcDbEntity
  8
0
  6
BYBLOCK
 62
0
100
AcDbBlockEnd
  0
BLOCK
  5
237
100
AcDbEntity
  8
A_BEMASSUNGEN
100
AcDbBlockBegin
 62
2
  6
CONTINUOUS
  2
*D2
 70
65
 10
0.0
 20
0.0
  3
*D2
  1

  0
MTEXT
  5
238
100
AcDbEntity
  8
A_BEMASSUNGEN
100
AcDbMText
 62
2
  6
CONTINUOUS
  7
STANDARD
 71
2
 72
1
 10
28.4544839741
 20
41.7871218276
 30
0.0
 11
1.0
 21
0.0
 31
0.0
  1
21
 40
3.5
 41
7.125
  0
LINE
  5
239
100
AcDbEntity
  8
A_BEMASSUNGEN
100
AcDbLine
 62
2
  6
CONTINUOUS
 10
38.9544839741
 20
50.2717123084
 11
38.9544839741
 21
35.4121218276
  0
LINE
  5
23A
100
AcDbEntity
  8
A_BEMASSUNGEN
100
AcDbLine
 62
2
  6
CONTINUOUS
 10
17.9544839741
 20
52.7717123084
 11
17.9544839741
 21
35.4121218276
  0
LINE
  5
23B
100
AcDbEntity
  8
A_BEMASSUNGEN
100
AcDbLine
 62
2
  6
CONTINUOUS
 10
38.9544839741
 20
37.4121218276
 11
28.4544839741
 21
37.4121218276
  0
LINE
  5
23C
100
AcDbEntity
  8
A_BEMASSUNGEN
100
AcDbLine
 62
2
  6
CONTINUOUS
 10
17.9544839741
 20
37.4121218276
 11
28.4544839741
 21
37.4121218276
  0
INSERT
  5
23D
100
AcDbEntity
  8
A_BEMASSUNGEN
100
AcDbBlockReference
 62
2
  6
CONTINUOUS
  2
_ARROW_FILLED
 10
38.9544839741
 20
37.4121218276
 41
3.5
 42
3.5
 43
3.5
  0
INSERT
  5
23E
100
AcDbEntity
  8
A_BEMASSUNGEN
100
AcDbBlockReference
 62
2
  6
CONTINUOUS
  2
_ARROW_FILLED
 10
17.9544839741
 20
37.4121218276
 41
3.5
 42
3.5
 43
3.5
 50
180.0
  0
ENDBLK
  5
23F
100
AcDbEntity
  8
0
  6
BYBLOCK
 62
0
100
AcDbBlockEnd
  0
BLOCK
  5
240
100
AcDbEntity
  8
A_BEMASSUNGEN
100
AcDbBlockBegin
 62
2
  6
CONTINUOUS
  2
*D3
 70
65
 10
0.0
 20
0.0
  3
*D3
  1

  0
MTEXT
  5
241
100
AcDbEntity
  8
A_BEMASSUNGEN
100
AcDbMText
 62
2
  6
CONTINUOUS
  7
STANDARD
 71
2
 72
1
 10
1.7949160889
 20
98.2717123084
 30
0.0
 11
0.0
 21
1.0
 31
0.0
  1
100
 40
3.5
 41
11.25
  0
LINE
  5
242
100
AcDbEntity
  8
A_BEMASSUNGEN
100
AcDbLine
 62
2
  6
CONTINUOUS
 10
19.9544839741
 20
148.2717123084
 11
4.1699160889
 21
148.2717123084
  0
LINE
  5
243
100
AcDbEntity
  8
A_BEMASSUNGEN
100
AcDbLine
 62
2
  6
CONTINUOUS
 10
19.9544839741
 20
48.2717123084
 11
4.1699160889
 21
48.2717123084
  0
LINE
  5
244
100
AcDbEntity
  8
A_BEMASSUNGEN
100
AcDbLine
 62
2
  6
CONTINUOUS
 10
6.1699160889
 20
148.2717123084
 11
6.1699160889
 21
98.2717123084
  0
LINE
  5
245
100
AcDbEntity
  8
A_BEMASSUNGEN
100
AcDbLine
 62
2
  6
CONTINUOUS
 10
6.1699160889
 20
48.2717123084
 11
6.1699160889
 21
98.2717123084
  0
INSERT
  5
246
100
AcDbEntity
  8
A_BEMASSUNGEN
100
AcDbBlockReference
 62
2
  6
CONTINUOUS
  2
_ARROW_FILLED
 10
6.1699160889
 20
148.2717123084
 41
3.5
 42
3.5
 43
3.5
 50
90.0
  0
INSERT
  5
247
100
AcDbEntity
  8
A_BEMASSUNGEN
100
AcDbBlockReference
 62
2
  6
CONTINUOUS
  2
_ARROW_FILLED
 10
6.1699160889
 20
48.2717123084
 41
3.5
 42
3.5
 43
3.5
 50
270.0
  0
ENDBLK
  5
248
100
AcDbEntity
  8
0
  6
BYBLOCK
 62
0
100
AcDbBlockEnd
  0
ENDSEC
  0
SECTION
  2
ENTITIES
  0
DIMENSION
  5
249
100
AcDbEntity
  8
A_BEMASSUNGEN
100
AcDbDimension
 62
2
  6
CONTINUOUS
  2
*D0
 10
85.8238035216
 20
178.2717123084
 11
85.8238035216
 21
97.7717160785
 70
160
  3
DIMSTYLE_1
100
AcDbAlignedDimension
 13
60.6025055391
 23
18.2717123084
 14
60.6025055391
 24
178.2717123084
 50
90.0
100
AcDbRotatedDimension
  0
DIMENSION
  5
24A
100
AcDbEntity
  8
A_BEMASSUNGEN
100
AcDbDimension
 62
2
  6
CONTINUOUS
  2
*D1
 10
46.6025055391
 20
8.309376609
 11
60.0525052083
 21
8.309376609
 70
160
  3
DIMSTYLE_2
100
AcDbAlignedDimension
 13
74.5025055391
 23
32.1717123084
 14
46.6025055391
 24
33.2717123084
 50
180.0
100
AcDbRotatedDimension
  0
DIMENSION
  5
24B
100
AcDbEntity
  8
A_BEMASSUNGEN
100
AcDbDimension
 62
2
  6
CONTINUOUS
  2
*D2
 10
17.9544839741
 20
37.4121218276
 11
27.954484375
 21
37.4121218276
 70
160
  3
DIMSTYLE_3
100
AcDbAlignedDimension
 13
38.9544839741
 23
50.2717123084
 14
17.9544839741
 24
52.7717123084
 50
180.0
100
AcDbRotatedDimension
  0
DIMENSION
  5
24C
100
AcDbEntity
  8
A_BEMASSUNGEN
100
AcDbDimension
 62
2
  6
CONTINUOUS
  2
*D3
 10
6.1699160889
 20
48.2717123084
 11
6.1699160889
 21
97.771710282
 70
160
  3
DIMSTYLE_4
100
AcDbAlignedDimension
 13
19.9544839741
 23
148.2717123084
 14
19.9544839741
 24
48.2717123084
 50
270.0
100
AcDbRotatedDimension
  0
MTEXT
  5
24D
100
AcDbEntity
  8
A_NOTIZEN_SYMB
100
AcDbMText
 62
2
  6
CONTINUOUS
  7
STANDARD
 71
1
 72
1
 10
7.8895243014
 20
103.1436787216
 30
0.0
 11
1.0
 21
0.0
 31
0.0
  1
BBL
 40
3.5
 41
12.625
  0
LINE
  5
24E
100
AcDbEntity
  8
A_ACHSEN
100
AcDbLine
 62
2
  6
CENTER
 10
47.8776918594
 20
28.1717123084
 11
58.170225899
 21
28.1717123084
  0
LINE
  5
24F
100
AcDbEntity
  8
A_ACHSEN
100
AcDbLine
 62
2
  6
CENTER
 10
62.437648102
 20
28.1717123084
 11
73.6673629762
 21
28.1717123084
  0
LINE
  5
250
100
AcDbEntity
  8
A_ACHSEN
100
AcDbLine
 62
2
  6
CENTER
 10
58.5826893113
 20
30.3717123084
 11
53.0525055393
 21
30.3717123084
  0
LINE
  5
251
100
AcDbEntity
  8
A_ACHSEN
100
AcDbLine
 62
2
  6
CONTINUOUS
 10
53.0525055393
 20
30.3717123084
 11
52.6735307178
 21
30.3717123084
  0
LINE
  5
252
100
AcDbEntity
  8
A_ACHSEN
100
AcDbLine
 62
2
  6
CENTER
 10
52.6735307178
 20
30.3717123084
 11
47.8491451995
 21
30.3717123084
  0
LINE
  5
253
100
AcDbEntity
  8
A_ACHSEN
100
AcDbLine
 62
2
  6
CENTER
 10
62.7345333647
 20
30.3717123084
 11
73.3704777135
 21
30.3717123084
  0
LINE
  5
254
100
AcDbEntity
  8
0
100
AcDbLine
 62
7
  6
CONTINUOUS
 10
60.1025055391
 20
32.6717123084
 11
61.0047062949
 21
32.6717123084
  0
LINE
  5
255
100
AcDbEntity
  8
DEFAULT_2
100
AcDbLine
 62
2
  6
HIDDEN
 10
61.0047062949
 20
32.6717123084
 11
61.1025055391
 21
32.6717123084
  0
LINE
  5
256
100
AcDbEntity
  8
0
100
AcDbLine
 62
7
  6
CONTINUOUS
 10
58.7025055391
 20
34.0717123084
 11
59.8025055391
 21
34.0717123084
  0
LINE
  5
257
100
AcDbEntity
  8
DEFAULT_2
100
AcDbLine
 62
2
  6
HIDDEN
 10
61.4025055391
 20
34.0717123084
 11
62.5025055391
 21
34.0717123084
  0
LINE
  5
258
100
AcDbEntity
  8
A_ACHSEN
100
AcDbLine
 62
2
  6
CENTER
 10
54.9880453773
 20
34.5717123084
 11
66.2169657009
 21
34.5717123084
  0
LINE
  5
259
100
AcDbEntity
  8
DEFAULT_2
100
AcDbLine
 62
2
  6
HIDDEN
 10
62.5025055391
 20
35.0717123084
 11
61.4025055391
 21
35.0717123084
  0
LINE
  5
25A
100
AcDbEntity
  8
0
100
AcDbLine
 62
7
  6
CONTINUOUS
 10
59.8025055391
 20
35.0717123084
 11
58.7025055391
 21
35.0717123084
  0
LINE
  5
25B
100
AcDbEntity
  8
DEFAULT_2
100
AcDbLine
 62
2
  6
HIDDEN
 10
61.1025055391
 20
36.4717123084
 11
61.0047062949
 21
36.4717123084
  0
LINE
  5
25C
100
AcDbEntity
  8
0
100
AcDbLine
 62
7
  6
CONTINUOUS
 10
61.0047062949
 20
36.4717123084
 11
60.1025055391
 21
36.4717123084
  0
LINE
  5
25D
100
AcDbEntity
  8
0
100
AcDbLine
 62
7
  6
CONTINUOUS
 10
69.8425055391
 20
41.2821486139
 11
71.5625055391
 21
41.2821486139
  0
LINE
  5
25E
100
AcDbEntity
  8
0
100
AcDbLine
 62
7
  6
CONTINUOUS
 10
46.6025055391
 20
45.8432780746
 11
46.5025055391
 21
45.8415325681
  0
LINE
  5
25F
100
AcDbEntity
  8
A_RUNDUNGEN
100
AcDbLine
 62
7
  6
CONTINUOUS
 10
46.5025055391
 20
45.8415325681
 11
42.7481424375
 21
45.7759999164
  0
LINE
  5
260
100
AcDbEntity
  8
A_RUNDUNGEN
100
AcDbLine
 62
7
  6
CONTINUOUS
 10
41.7481424375
 20
46.7236347216
 11
44.2568686407
 21
46.7674247004
  0
LINE
  5
261
100
AcDbEntity
  8
A_ACHSEN
100
AcDbLine
 62
2
  6
CENTER
 10
66.3783925455
 20
42.7717123084
 11
75.0266185327
 21
42.7717123084
  0
LINE
  5
262
100
AcDbEntity
  8
A_RUNDUNGEN
100
AcDbLine
 62
7
  6
CONTINUOUS
 10
42.084993634
 20
43.7717123084
 11
42.2525055391
 21
43.7717123084
  0
LINE
  5
263
100
AcDbEntity
  8
0
100
AcDbLine
 62
7
  6
CONTINUOUS
 10
71.5625055391
 20
44.2612760029
 11
69.8425055391
 21
44.2612760029
  0
LINE
  5
264
100
AcDbEntity
  8
A_RUNDUNGEN
100
AcDbLine
 62
7
  6
CONTINUOUS
 10
36.9544839741
 20
48.2717123084
 11
19.9544839741
 21
48.2717123084
  0
LINE
  5
265
100
AcDbEntity
  8
A_RUNDUNGEN
100
AcDbLine
 62
7
  6
CONTINUOUS
 10
46.7025055391
 20
49.998385822
 11
46.6068461262
 21
49.998385822
  0
LINE
  5
266
100
AcDbEntity
  8
A_RUNDUNGEN
100
AcDbLine
 62
7
  6
CONTINUOUS
 10
46.6321401223
 20
50.0135619731
 11
46.7025055391
 21
50.0135684042
  0
LINE
  5
267
100
AcDbEntity
  8
0
100
AcDbLine
 62
7
  6
CONTINUOUS
 10
61.3114853931
 20
50.1717123084
 11
46.7025055391
 21
50.1717123084
  0
LINE
  5
268
100
AcDbEntity
  8
A_RUNDUNGEN
100
AcDbLine
 62
7
  6
CONTINUOUS
 10
70.0025055391
 20
50.2155070983
 11
61.5046872564
 21
50.2155070983
  0
LINE
  5
269
100
AcDbEntity
  8
A_RUNDUNGEN
100
AcDbLine
 62
7
  6
CONTINUOUS
 10
35.9544839741
 20
52.7717123084
 11
17.9544839741
 21
52.7717123084
  0
LINE
  5
26A
100
AcDbEntity
  8
0
100
AcDbLine
 62
7
  6
CONTINUOUS
 10
46.7018354488
 20
50.133322862
 11
46.5025055391
 21
50.1368021786
  0
LINE
  5
26B
100
AcDbEntity
  8
A_RUNDUNGEN
100
AcDbLine
 62
7
  6
CONTINUOUS
 10
46.5025055391
 20
50.1368021786
 11
44.7568686407
 21
50.167272384
  0
LINE
  5
26C
100
AcDbEntity
  8
0
100
AcDbLine
 62
7
  6
CONTINUOUS
 10
21.9544839741
 20
135.503763116
 11
20.4544839741
 21
134.6377377122
  0
LINE
  5
26D
100
AcDbEntity
  8
0
100
AcDbLine
 62
7
  6
CONTINUOUS
 10
21.9544839741
 20
132.0396615008
 11
23.4544839741
 21
132.9056869046
  0
LINE
  5
26E
100
AcDbEntity
  8
A_RUNDUNGEN
100
AcDbLine
 62
7
  6
CONTINUOUS
 10
70.5025055391
 20
57.8243166184
 11
47.655109849
 21
57.8243166184
  0
LINE
  5
26F
100
AcDbEntity
  8
A_RUNDUNGEN
100
AcDbLine
 62
7
  6
CONTINUOUS
 10
67.0608063763
 20
57.9369187996
 11
53.1525055391
 21
57.9369187996
  0
LINE
  5
270
100
AcDbEntity
  8
A_RUNDUNGEN
100
AcDbLine
 62
7
  6
CONTINUOUS
 10
49.1525055391
 20
57.9369187996
 11
47.7677120303
 21
57.9369187996
  0
LINE
  5
271
100
AcDbEntity
  8
0
100
AcDbLine
 62
7
  6
CONTINUOUS
 10
48.6525332475
 20
58.0717123084
 11
54.6524778307
 21
58.0717123084
  0
LINE
  5
272
100
AcDbEntity
  8
ALLE_ACHSEN
100
AcDbLine
 62
7
  6
CONTINUOUS
 10
48.6542671613
 20
58.0717123084
 11
54.6507439169
 21
58.0717123084
  0
LINE
  5
273
100
AcDbEntity
  8
0
100
AcDbLine
 62
7
  6
CONTINUOUS
 10
35.9544839741
 20
58.4217123084
 11
29.4544839741
 21
58.4217123084
  0
LINE
  5
274
100
AcDbEntity
  8
ALLE_ACHSEN
100
AcDbLine
 62
7
  6
CONTINUOUS
 10
30.4544716595
 20
59.3717123084
 11
29.9572171383
 21
59.3717123084
  0
LINE
  5
275
100
AcDbEntity
  8
A_ACHSEN
100
AcDbLine
 62
7
  6
CONTINUOUS
 10
29.9572171383
 20
59.3717123084
 11
30.4327211839
 21
59.3717123084
  0
LINE
  5
276
100
AcDbEntity
  8
0
100
AcDbLine
 62
7
  6
CONTINUOUS
 10
29.954498979
 20
59.3717123084
 11
30.5324115443
 21
59.3717123084
  0
LINE
  5
277
100
AcDbEntity
  8
A_RUNDUNGEN
100
AcDbLine
 62
7
  6
CONTINUOUS
 10
30.4327211839
 20
59.3717123084
 11
58.1858321565
 21
59.3717123084
  0
LINE
  5
278
100
AcDbEntity
  8
0
100
AcDbLine
 62
7
  6
CONTINUOUS
 10
20.4544839741
 20
61.9056869046
 11
21.9544839741
 21
61.0396615008
  0
LINE
  5
279
100
AcDbEntity
  8
0
100
AcDbLine
 62
7
  6
CONTINUOUS
 10
23.4544839741
 20
63.6377377122
 11
21.9544839741
 21
64.503763116
  0
LINE
  5
27A
100
AcDbEntity
  8
A_FASEN
100
AcDbLine
 62
2
  6
HIDDEN
 10
61.1127277912
 20
162.6940665949
 11
61.1087820782
 21
162.6901208819
  0
LINE
  5
27B
100
AcDbEntity
  8
A_FASEN
100
AcDbLine
 62
7
  6
CONTINUOUS
 10
59.8840969656
 20
161.4654357693
 11
59.8801512526
 21
161.4614900563
  0
LINE
  5
27C
100
AcDbEntity
  8
A_FASEN
100
AcDbLine
 62
7
  6
CONTINUOUS
 10
60.0581622266
 20
161.427368996
 11
59.1882919767
 21
160.557498746
  0
LINE
  5
27D
100
AcDbEntity
  8
A_FASEN
100
AcDbLine
 62
2
  6
HIDDEN
 10
61.1468488515
 20
162.5160556209
 11
62.0167191015
 21
163.3859258708
  0
LINE
  5
27E
100
AcDbEntity
  8
A_FASEN
100
AcDbLine
 62
2
  6
HIDDEN
 10
60.0942578294
 20
161.2513325644
 11
60.096229
 21
161.2533037349
  0
LINE
  5
27F
100
AcDbEntity
  8
A_FASEN
100
AcDbLine
 62
7
  6
CONTINUOUS
 10
60.092283287
 20
161.2493580219
 11
60.0942578294
 21
161.2513325644
  0
LINE
  5
280
100
AcDbEntity
  8
A_FASEN
100
AcDbLine
 62
2
  6
HIDDEN
 10
61.3209141126
 20
162.4779888475
 11
61.3248598256
 21
162.4819345605
  0
LINE
  5
281
100
AcDbEntity
  8
A_ACHSEN
100
AcDbLine
 62
7
  6
CONTINUOUS
 10
29.4544839741
 20
60.9217123084
 11
29.9544712707
 21
60.9217123084
  0
LINE
  5
282
100
AcDbEntity
  8
A_ACHSEN
100
AcDbLine
 62
2
  6
CONTINUOUS
 10
22.4878173074
 20
62.7717123084
 11
21.4211506407
 21
62.7717123084
  0
LINE
  5
283
100
AcDbEntity
  8
A_ACHSEN
100
AcDbLine
 62
2
  6
CENTER
 10
19.2878173074
 20
62.7717123084
 11
15.9544839741
 21
62.7717123084
  0
LINE
  5
284
100
AcDbEntity
  8
A_ACHSEN
100
AcDbLine
 62
2
  6
CENTER
 10
24.6211506407
 20
62.7717123084
 11
27.9544839741
 21
62.7717123084
  0
LINE
  5
285
100
AcDbEntity
  8
A_ACHSEN
100
AcDbLine
 62
7
  6
CONTINUOUS
 10
29.4544839741
 20
62.8217123084
 11
29.9544712707
 21
62.8217123084
  0
LINE
  5
286
100
AcDbEntity
  8
A_FASEN
100
AcDbLine
 62
2
  6
HIDDEN
 10
59.882125795
 20
35.0799600181
 11
59.8840969656
 21
35.0779888475
  0
LINE
  5
287
100
AcDbEntity
  8
A_FASEN
100
AcDbLine
 62
7
  6
CONTINUOUS
 10
59.8801512526
 20
35.0819345605
 11
59.882125795
 21
35.0799600181
  0
LINE
  5
288
100
AcDbEntity
  8
A_FASEN
100
AcDbLine
 62
2
  6
HIDDEN
 10
61.1087820782
 20
33.8533037349
 11
61.1127277912
 21
33.8493580219
  0
LINE
  5
289
100
AcDbEntity
  8
A_FASEN
100
AcDbLine
 62
2
  6
HIDDEN
 10
62.0167191015
 20
33.157498746
 11
61.1468488515
 21
34.027368996
  0
LINE
  5
28A
100
AcDbEntity
  8
A_FASEN
100
AcDbLine
 62
7
  6
CONTINUOUS
 10
59.1882919767
 20
35.9859258708
 11
60.0581622266
 21
35.1160556209
  0
LINE
  5
28B
100
AcDbEntity
  8
A_FASEN
100
AcDbLine
 62
2
  6
HIDDEN
 10
61.3248598256
 20
34.0614900563
 11
61.3209141126
 21
34.0654357693
  0
LINE
  5
28C
100
AcDbEntity
  8
A_FASEN
100
AcDbLine
 62
7
  6
CONTINUOUS
 10
60.096229
 20
35.2901208819
 11
60.092283287
 21
35.2940665949
  0
LINE
  5
28D
100
AcDbEntity
  8
A_RUNDUNGEN
100
AcDbLine
 62
7
  6
CONTINUOUS
 10
17.9544839741
 20
50.2717123084
 11
17.9544839741
 21
146.2717123084
  0
LINE
  5
28E
100
AcDbEntity
  8
A_ACHSEN
100
AcDbLine
 62
7
  6
CONTINUOUS
 10
29.4544839741
 20
69.7217123084
 11
29.9544712707
 21
69.7217123084
  0
LINE
  5
28F
100
AcDbEntity
  8
0
100
AcDbLine
 62
7
  6
CONTINUOUS
 10
20.4544839741
 20
134.6377377122
 11
20.4544839741
 21
132.9056869046
  0
LINE
  5
290
100
AcDbEntity
  8
0
100
AcDbLine
 62
7
  6
CONTINUOUS
 10
20.4544839741
 20
99.1377377122
 11
20.4544839741
 21
97.4056869046
  0
LINE
  5
291
100
AcDbEntity
  8
0
100
AcDbLine
 62
7
  6
CONTINUOUS
 10
20.4544839741
 20
63.6377377122
 11
20.4544839741
 21
61.9056869046
  0
LINE
  5
292
100
AcDbEntity
  8
A_ACHSEN
100
AcDbLine
 62
2
  6
CONTINUOUS
 10
21.9544839741
 20
134.3050456417
 11
21.9544839741
 21
133.2383789751
  0
LINE
  5
293
100
AcDbEntity
  8
A_ACHSEN
100
AcDbLine
 62
2
  6
CENTER
 10
21.9544839741
 20
131.1050456417
 11
21.9544839741
 21
127.7717123084
  0
LINE
  5
294
100
AcDbEntity
  8
A_ACHSEN
100
AcDbLine
 62
2
  6
CONTINUOUS
 10
21.9544839741
 20
98.8050456417
 11
21.9544839741
 21
97.7383789751
  0
LINE
  5
295
100
AcDbEntity
  8
A_ACHSEN
100
AcDbLine
 62
2
  6
CENTER
 10
21.9544839741
 20
95.6050456417
 11
21.9544839741
 21
92.2717123084
  0
LINE
  5
296
100
AcDbEntity
  8
A_ACHSEN
100
AcDbLine
 62
2
  6
CONTINUOUS
 10
21.9544839741
 20
63.3050456417
 11
21.9544839741
 21
62.2383789751
  0
LINE
  5
297
100
AcDbEntity
  8
A_ACHSEN
100
AcDbLine
 62
2
  6
CENTER
 10
21.9544839741
 20
60.1050456417
 11
21.9544839741
 21
56.7717123084
  0
LINE
  5
298
100
AcDbEntity
  8
A_ACHSEN
100
AcDbLine
 62
2
  6
CENTER
 10
21.9544839741
 20
65.4383789751
 11
21.9544839741
 21
68.7717123084
  0
LINE
  5
299
100
AcDbEntity
  8
A_ACHSEN
100
AcDbLine
 62
2
  6
CENTER
 10
21.9544839741
 20
100.9383789751
 11
21.9544839741
 21
104.2717123084
  0
LINE
  5
29A
100
AcDbEntity
  8
A_ACHSEN
100
AcDbLine
 62
2
  6
CENTER
 10
21.9544839741
 20
136.4383789751
 11
21.9544839741
 21
139.7717123084
  0
LINE
  5
29B
100
AcDbEntity
  8
0
100
AcDbLine
 62
7
  6
CONTINUOUS
 10
23.4544839741
 20
61.9056869046
 11
23.4544839741
 21
63.6377377122
  0
LINE
  5
29C
100
AcDbEntity
  8
0
100
AcDbLine
 62
7
  6
CONTINUOUS
 10
23.4544839741
 20
97.4056869046
 11
23.4544839741
 21
99.1377377122
  0
LINE
  5
29D
100
AcDbEntity
  8
0
100
AcDbLine
 62
7
  6
CONTINUOUS
 10
23.4544839741
 20
132.9056869046
 11
23.4544839741
 21
134.6377377122
  0
LINE
  5
29E
100
AcDbEntity
  8
A_ACHSEN
100
AcDbLine
 62
7
  6
CONTINUOUS
 10
29.4544839741
 20
71.6217123084
 11
29.9544712707
 21
71.6217123084
  0
LINE
  5
29F
100
AcDbEntity
  8
0
100
AcDbLine
 62
7
  6
CONTINUOUS
 10
30.5324115443
 20
73.1717123084
 11
29.954498979
 21
73.1717123084
  0
LINE
  5
2A0
100
AcDbEntity
  8
ALLE_ACHSEN
100
AcDbLine
 62
7
  6
CONTINUOUS
 10
29.9572171383
 20
73.1717123084
 11
30.4544716595
 21
73.1717123084
  0
LINE
  5
2A1
100
AcDbEntity
  8
A_ACHSEN
100
AcDbLine
 62
7
  6
CONTINUOUS
 10
29.9572171383
 20
73.1717123084
 11
30.4327211839
 21
73.1717123084
  0
LINE
  5
2A2
100
AcDbEntity
  8
A_RUNDUNGEN
100
AcDbLine
 62
7
  6
CONTINUOUS
 10
30.4327211839
 20
73.1717123084
 11
58.1858321565
 21
73.1717123084
  0
LINE
  5
2A3
100
AcDbEntity
  8
0
100
AcDbLine
 62
7
  6
CONTINUOUS
 10
29.4544839741
 20
74.1217123084
 11
35.9544839741
 21
74.1217123084
  0
LINE
  5
2A4
100
AcDbEntity
  8
ALLE_ACHSEN
100
AcDbLine
 62
7
  6
CONTINUOUS
 10
48.6542671613
 20
74.4717123084
 11
54.6507439169
 21
74.4717123084
  0
LINE
  5
2A5
100
AcDbEntity
  8
0
100
AcDbLine
 62
7
  6
CONTINUOUS
 10
48.6525332475
 20
74.4717123084
 11
54.6524778307
 21
74.4717123084
  0
LINE
  5
2A6
100
AcDbEntity
  8
A_RUNDUNGEN
100
AcDbLine
 62
7
  6
CONTINUOUS
 10
47.7677120303
 20
74.6065058172
 11
49.9275055391
 21
74.6065058172
  0
LINE
  5
2A7
100
AcDbEntity
  8
A_RUNDUNGEN
100
AcDbLine
 62
7
  6
CONTINUOUS
 10
51.6525055391
 20
74.6065058172
 11
67.0608063763
 21
74.6065058172
  0
LINE
  5
2A8
100
AcDbEntity
  8
A_RUNDUNGEN
100
AcDbLine
 62
7
  6
CONTINUOUS
 10
47.655109849
 20
74.7191079985
 11
70.5025055391
 21
74.7191079985
  0
LINE
  5
2A9
100
AcDbEntity
  8
0
100
AcDbLine
 62
7
  6
CONTINUOUS
 10
29.4544839741
 20
58.4217123084
 11
29.4544839741
 21
74.1217123084
  0
LINE
  5
2AA
100
AcDbEntity
  8
0
100
AcDbLine
 62
7
  6
CONTINUOUS
 10
29.4544839741
 20
79.9217123084
 11
29.4544839741
 21
116.6217123084
  0
LINE
  5
2AB
100
AcDbEntity
  8
A_ACHSEN
100
AcDbLine
 62
7
  6
CONTINUOUS
 10
29.4544839741
 20
122.4217123084
 11
29.4544839741
 21
138.1217123084
  0
LINE
  5
2AC
100
AcDbEntity
  8
0
100
AcDbLine
 62
7
  6
CONTINUOUS
 10
29.9544538229
 20
116.6217123084
 11
29.9544538229
 21
115.6967123084
  0
LINE
  5
2AD
100
AcDbEntity
  8
ALLE_ACHSEN
100
AcDbLine
 62
7
  6
CONTINUOUS
 10
29.9544538229
 20
116.6217123084
 11
29.9544538229
 21
115.6967123084
  0
LINE
  5
2AE
100
AcDbEntity
  8
0
100
AcDbLine
 62
7
  6
CONTINUOUS
 10
29.9544538229
 20
79.9217123084
 11
29.9544538229
 21
80.8467123084
  0
LINE
  5
2AF
100
AcDbEntity
  8
ALLE_ACHSEN
100
AcDbLine
 62
7
  6
CONTINUOUS
 10
29.9544538229
 20
79.9217123084
 11
29.9544538229
 21
80.8467123084
  0
LINE
  5
2B0
100
AcDbEntity
  8
A_ACHSEN
100
AcDbLine
 62
7
  6
CONTINUOUS
 10
29.9544538229
 20
80.8467123084
 11
29.9544538229
 21
115.6967123084
  0
LINE
  5
2B1
100
AcDbEntity
  8
0
100
AcDbLine
 62
7
  6
CONTINUOUS
 10
29.9544712707
 20
138.1217123084
 11
29.9544712707
 21
137.1717123084
  0
LINE
  5
2B2
100
AcDbEntity
  8
ALLE_ACHSEN
100
AcDbLine
 62
7
  6
CONTINUOUS
 10
29.9544712707
 20
138.1217123084
 11
29.9544712707
 21
137.1717123084
  0
LINE
  5
2B3
100
AcDbEntity
  8
0
100
AcDbLine
 62
7
  6
CONTINUOUS
 10
29.9544712707
 20
74.1217123084
 11
29.9544712707
 21
73.1717123084
  0
LINE
  5
2B4
100
AcDbEntity
  8
ALLE_ACHSEN
100
AcDbLine
 62
7
  6
CONTINUOUS
 10
29.9544712707
 20
74.1217123084
 11
29.9544712707
 21
73.1717123084
  0
LINE
  5
2B5
100
AcDbEntity
  8
0
100
AcDbLine
 62
7
  6
CONTINUOUS
 10
29.9544712707
 20
58.4217123084
 11
29.9544712707
 21
59.3717123084
  0
LINE
  5
2B6
100
AcDbEntity
  8
ALLE_ACHSEN
100
AcDbLine
 62
7
  6
CONTINUOUS
 10
29.9544712707
 20
58.4217123084
 11
29.9544712707
 21
59.3717123084
  0
LINE
  5
2B7
100
AcDbEntity
  8
A_ACHSEN
100
AcDbLine
 62
7
  6
CONTINUOUS
 10
29.9544712707
 20
59.3717123084
 11
29.9544712707
 21
73.1717123084
  0
LINE
  5
2B8
100
AcDbEntity
  8
0
100
AcDbLine
 62
7
  6
CONTINUOUS
 10
29.9544712707
 20
122.4217123084
 11
29.9544712707
 21
123.3717123084
  0
LINE
  5
2B9
100
AcDbEntity
  8
ALLE_ACHSEN
100
AcDbLine
 62
7
  6
CONTINUOUS
 10
29.9544712707
 20
122.4217123084
 11
29.9544712707
 21
123.3717123084
  0
LINE
  5
2BA
100
AcDbEntity
  8
A_ACHSEN
100
AcDbLine
 62
7
  6
CONTINUOUS
 10
29.9544712707
 20
123.3717123084
 11
29.9544712707
 21
137.1717123084
  0
LINE
  5
2BB
100
AcDbEntity
  8
A_RUNDUNGEN
100
AcDbLine
 62
7
  6
CONTINUOUS
 10
41.8468875972
 20
152.5979062402
 11
41.5738693183
 21
151.7447241184
  0
LINE
  5
2BC
100
AcDbEntity
  8
A_RUNDUNGEN
100
AcDbLine
 62
7
  6
CONTINUOUS
 10
70.5025055391
 20
79.3243166184
 11
47.655109849
 21
79.3243166184
  0
LINE
  5
2BD
100
AcDbEntity
  8
A_RUNDUNGEN
100
AcDbLine
 62
7
  6
CONTINUOUS
 10
67.0608063763
 20
79.4369187996
 11
52.8775055391
 21
79.4369187996
  0
LINE
  5
2BE
100
AcDbEntity
  8
A_RUNDUNGEN
100
AcDbLine
 62
7
  6
CONTINUOUS
 10
49.9275055391
 20
79.4369187996
 11
47.7677120303
 21
79.4369187996
  0
LINE
  5
2BF
100
AcDbEntity
  8
0
100
AcDbLine
 62
7
  6
CONTINUOUS
 10
48.1525347153
 20
79.5467123084
 11
54.1524763629
 21
79.5467123084
  0
LINE
  5
2C0
100
AcDbEntity
  8
ALLE_ACHSEN
100
AcDbLine
 62
7
  6
CONTINUOUS
 10
48.1552163226
 20
79.5467123084
 11
54.1497947556
 21
79.5467123084
  0
LINE
  5
2C1
100
AcDbEntity
  8
0
100
AcDbLine
 62
7
  6
CONTINUOUS
 10
29.4544839741
 20
79.9217123084
 11
35.9544839741
 21
79.9217123084
  0
LINE
  5
2C2
100
AcDbEntity
  8
0
100
AcDbLine
 62
7
  6
CONTINUOUS
 10
29.954482999
 20
80.8467123084
 11
31.6905491624
 21
80.8467123084
  0
LINE
  5
2C3
100
AcDbEntity
  8
ALLE_ACHSEN
100
AcDbLine
 62
7
  6
CONTINUOUS
 10
29.9571646063
 20
80.8467123084
 11
31.6905491624
 21
80.8467123084
  0
LINE
  5
2C4
100
AcDbEntity
  8
A_ACHSEN
100
AcDbLine
 62
7
  6
CONTINUOUS
 10
29.9552520496
 20
80.8467123084
 11
31.6905491624
 21
80.8467123084
  0
LINE
  5
2C5
100
AcDbEntity
  8
A_RUNDUNGEN
100
AcDbLine
 62
7
  6
CONTINUOUS
 10
31.6905491624
 20
80.8467123084
 11
61.1109539416
 21
80.8467123084
  0
LINE
  5
2C6
100
AcDbEntity
  8
A_RUNDUNGEN
100
AcDbLine
 62
7
  6
CONTINUOUS
 10
41.5738693183
 20
44.7987004984
 11
41.8468875972
 21
43.9455183766
  0
LINE
  5
2C7
100
AcDbEntity
  8
A_ACHSEN
100
AcDbLine
 62
2
  6
CENTER
 10
32.9544712707
 20
55.4386335506
 11
32.9544712707
 21
141.4717123084
  0
LINE
  5
2C8
100
AcDbEntity
  8
A_RUNDUNGEN
100
AcDbLine
 62
7
  6
CONTINUOUS
 10
47.7677120303
 20
121.9369187996
 11
47.655109849
 21
121.8243166184
  0
LINE
  5
2C9
100
AcDbEntity
  8
0
100
AcDbLine
 62
7
  6
CONTINUOUS
 10
21.9544839741
 20
100.003763116
 11
20.4544839741
 21
99.1377377122
  0
LINE
  5
2CA
100
AcDbEntity
  8
0
100
AcDbLine
 62
7
  6
CONTINUOUS
 10
21.9544839741
 20
96.5396615008
 11
23.4544839741
 21
97.4056869046
  0
LINE
  5
2CB
100
AcDbEntity
  8
0
100
AcDbLine
 62
7
  6
CONTINUOUS
 10
20.4544839741
 20
97.4056869046
 11
21.9544839741
 21
96.5396615008
  0
LINE
  5
2CC
100
AcDbEntity
  8
0
100
AcDbLine
 62
7
  6
CONTINUOUS
 10
23.4544839741
 20
99.1377377122
 11
21.9544839741
 21
100.003763116
  0
LINE
  5
2CD
100
AcDbEntity
  8
A_RUNDUNGEN
100
AcDbLine
 62
7
  6
CONTINUOUS
 10
47.7677120303
 20
74.6065058172
 11
47.655109849
 21
74.7191079985
  0
LINE
  5
2CE
100
AcDbEntity
  8
0
100
AcDbLine
 62
7
  6
CONTINUOUS
 10
35.9544538229
 20
116.6217123084
 11
35.9544538229
 21
115.6967123084
  0
LINE
  5
2CF
100
AcDbEntity
  8
ALLE_ACHSEN
100
AcDbLine
 62
7
  6
CONTINUOUS
 10
35.9544538229
 20
116.6217123084
 11
35.9544538229
 21
115.6967123084
  0
LINE
  5
2D0
100
AcDbEntity
  8
ALLE_ACHSEN
100
AcDbLine
 62
7
  6
CONTINUOUS
 10
35.9544538229
 20
79.9217123084
 11
35.9544538229
 21
80.8467123084
  0
LINE
  5
2D1
100
AcDbEntity
  8
0
100
AcDbLine
 62
7
  6
CONTINUOUS
 10
35.9544712707
 20
138.1217123084
 11
35.9544712707
 21
137.1717123084
  0
LINE
  5
2D2
100
AcDbEntity
  8
ALLE_ACHSEN
100
AcDbLine
 62
7
  6
CONTINUOUS
 10
35.9544712707
 20
138.1217123084
 11
35.9544712707
 21
137.1717123084
  0
LINE
  5
2D3
100
AcDbEntity
  8
ALLE_ACHSEN
100
AcDbLine
 62
7
  6
CONTINUOUS
 10
35.9544712707
 20
74.1217123084
 11
35.9544712707
 21
73.1717123084
  0
LINE
  5
2D4
100
AcDbEntity
  8
0
100
AcDbLine
 62
7
  6
CONTINUOUS
 10
35.9544712707
 20
58.4217123084
 11
35.9544712707
 21
59.3717123084
  0
LINE
  5
2D5
100
AcDbEntity
  8
ALLE_ACHSEN
100
AcDbLine
 62
7
  6
CONTINUOUS
 10
35.9544712707
 20
58.4217123084
 11
35.9544712707
 21
59.3717123084
  0
LINE
  5
2D6
100
AcDbEntity
  8
0
100
AcDbLine
 62
7
  6
CONTINUOUS
 10
35.9544712707
 20
122.4217123084
 11
35.9544712707
 21
123.3717123084
  0
LINE
  5
2D7
100
AcDbEntity
  8
ALLE_ACHSEN
100
AcDbLine
 62
7
  6
CONTINUOUS
 10
35.9544712707
 20
122.4217123084
 11
35.9544712707
 21
123.3717123084
  0
LINE
  5
2D8
100
AcDbEntity
  8
A_ACHSEN
100
AcDbLine
 62
7
  6
CONTINUOUS
 10
35.9544839741
 20
122.4217123084
 11
35.9544839741
 21
116.6217123084
  0
LINE
  5
2D9
100
AcDbEntity
  8
A_RUNDUNGEN
100
AcDbLine
 62
7
  6
CONTINUOUS
 10
35.9544839741
 20
52.7717123084
 11
35.9544839741
 21
58.4217123084
  0
LINE
  5
2DA
100
AcDbEntity
  8
0
100
AcDbLine
 62
7
  6
CONTINUOUS
 10
35.9544712707
 20
73.1717123084
 11
35.9544538229
 21
80.8467123084
  0
LINE
  5
2DB
100
AcDbEntity
  8
A_RUNDUNGEN
100
AcDbLine
 62
7
  6
CONTINUOUS
 10
35.9544839741
 20
138.1217123084
 11
35.9544839741
 21
143.7717123084
  0
LINE
  5
2DC
100
AcDbEntity
  8
A_RUNDUNGEN
100
AcDbLine
 62
7
  6
CONTINUOUS
 10
38.9544839741
 20
50.2717123084
 11
38.9544839741
 21
59.3717123084
  0
LINE
  5
2DD
100
AcDbEntity
  8
A_RUNDUNGEN
100
AcDbLine
 62
7
  6
CONTINUOUS
 10
38.9544839741
 20
73.1717123084
 11
38.9544839741
 21
80.8467123084
  0
LINE
  5
2DE
100
AcDbEntity
  8
A_RUNDUNGEN
100
AcDbLine
 62
7
  6
CONTINUOUS
 10
38.9544839741
 20
115.6967123084
 11
38.9544839741
 21
123.3717123084
  0
LINE
  5
2DF
100
AcDbEntity
  8
A_RUNDUNGEN
100
AcDbLine
 62
7
  6
CONTINUOUS
 10
38.9544839741
 20
137.1717123084
 11
38.9544839741
 21
146.2717123084
  0
LINE
  5
2E0
100
AcDbEntity
  8
0
100
AcDbLine
 62
7
  6
CONTINUOUS
 10
69.8425055391
 20
155.2612760029
 11
68.9825055391
 21
153.7717123084
  0
LINE
  5
2E1
100
AcDbEntity
  8
0
100
AcDbLine
 62
7
  6
CONTINUOUS
 10
71.5625055391
 20
152.2821486139
 11
72.4225055391
 21
153.7717123084
  0
LINE
  5
2E2
100
AcDbEntity
  8
0
100
AcDbLine
 62
7
  6
CONTINUOUS
 10
68.9825055391
 20
42.7717123084
 11
69.8425055391
 21
41.2821486139
  0
LINE
  5
2E3
100
AcDbEntity
  8
0
100
AcDbLine
 62
7
  6
CONTINUOUS
 10
72.4225055391
 20
42.7717123084
 11
71.5625055391
 21
44.2612760029
  0
LINE
  5
2E4
100
AcDbEntity
  8
A_RUNDUNGEN
100
AcDbLine
 62
7
  6
CONTINUOUS
 10
41.5025055391
 20
151.2875605278
 11
41.5025055391
 21
137.1717123084
  0
LINE
  5
2E5
100
AcDbEntity
  8
A_RUNDUNGEN
100
AcDbLine
 62
7
  6
CONTINUOUS
 10
41.5025055391
 20
123.3717123084
 11
41.5025055391
 21
115.6967123084
  0
LINE
  5
2E6
100
AcDbEntity
  8
A_RUNDUNGEN
100
AcDbLine
 62
7
  6
CONTINUOUS
 10
41.5025055391
 20
80.8467123084
 11
41.5025055391
 21
73.1717123084
  0
LINE
  5
2E7
100
AcDbEntity
  8
A_RUNDUNGEN
100
AcDbLine
 62
7
  6
CONTINUOUS
 10
41.5025055391
 20
59.3717123084
 11
41.5025055391
 21
45.2558640891
  0
LINE
  5
2E8
100
AcDbEntity
  8
A_RUNDUNGEN
100
AcDbLine
 62
7
  6
CONTINUOUS
 10
42.5025055391
 20
152.5217123084
 11
42.5025055391
 21
151.0173866242
  0
LINE
  5
2E9
100
AcDbEntity
  8
A_RUNDUNGEN
100
AcDbLine
 62
7
  6
CONTINUOUS
 10
42.5025055391
 20
45.5260379926
 11
42.5025055391
 21
44.0217123084
  0
LINE
  5
2EA
100
AcDbEntity
  8
A_RUNDUNGEN
100
AcDbLine
 62
7
  6
CONTINUOUS
 10
44.5025055391
 20
47.0173866242
 11
44.5025055391
 21
59.3717123084
  0
LINE
  5
2EB
100
AcDbEntity
  8
A_RUNDUNGEN
100
AcDbLine
 62
7
  6
CONTINUOUS
 10
44.5025055391
 20
73.1717123084
 11
44.5025055391
 21
80.8467123084
  0
LINE
  5
2EC
100
AcDbEntity
  8
A_RUNDUNGEN
100
AcDbLine
 62
7
  6
CONTINUOUS
 10
44.5025055391
 20
115.6967123084
 11
44.5025055391
 21
123.3717123084
  0
LINE
  5
2ED
100
AcDbEntity
  8
A_RUNDUNGEN
100
AcDbLine
 62
7
  6
CONTINUOUS
 10
44.5025055391
 20
137.1717123084
 11
44.5025055391
 21
149.5260379926
  0
LINE
  5
2EE
100
AcDbEntity
  8
A_RUNDUNGEN
100
AcDbLine
 62
7
  6
CONTINUOUS
 10
46.5025055391
 20
150.7018920487
 11
46.5025055391
 21
137.1717123084
  0
LINE
  5
2EF
100
AcDbEntity
  8
A_RUNDUNGEN
100
AcDbLine
 62
7
  6
CONTINUOUS
 10
46.5025055391
 20
123.3717123084
 11
46.5025055391
 21
115.6967123084
  0
LINE
  5
2F0
100
AcDbEntity
  8
A_RUNDUNGEN
100
AcDbLine
 62
7
  6
CONTINUOUS
 10
46.5025055391
 20
80.8467123084
 11
46.5025055391
 21
73.1717123084
  0
LINE
  5
2F1
100
AcDbEntity
  8
A_RUNDUNGEN
100
AcDbLine
 62
7
  6
CONTINUOUS
 10
46.5025055391
 20
59.3717123084
 11
46.5025055391
 21
45.8415325681
  0
LINE
  5
2F2
100
AcDbEntity
  8
A_RUNDUNGEN
100
AcDbLine
 62
7
  6
CONTINUOUS
 10
46.6025055391
 20
33.2717123084
 11
46.6025055391
 21
49.4983926759
  0
LINE
  5
2F3
100
AcDbEntity
  8
A_RUNDUNGEN
100
AcDbLine
 62
7
  6
CONTINUOUS
 10
46.6025055391
 20
147.0450319409
 11
46.6025055391
 21
163.2717123084
  0
LINE
  5
2F4
100
AcDbEntity
  8
0
100
AcDbLine
 62
7
  6
CONTINUOUS
 10
46.7025055391
 20
50.1717123084
 11
46.7025055391
 21
32.1717123084
  0
LINE
  5
2F5
100
AcDbEntity
  8
0
100
AcDbLine
 62
7
  6
CONTINUOUS
 10
46.7025055391
 20
146.3717123084
 11
46.7025055391
 21
164.3717123084
  0
LINE
  5
2F6
100
AcDbEntity
  8
A_RUNDUNGEN
100
AcDbLine
 62
7
  6
CONTINUOUS
 10
46.7735521478
 20
145.9476279707
 11
46.7735521478
 21
137.1717123084
  0
LINE
  5
2F7
100
AcDbEntity
  8
A_RUNDUNGEN
100
AcDbLine
 62
7
  6
CONTINUOUS
 10
46.7735521478
 20
123.3717123084
 11
46.7735521478
 21
115.6967123084
  0
LINE
  5
2F8
100
AcDbEntity
  8
A_RUNDUNGEN
100
AcDbLine
 62
7
  6
CONTINUOUS
 10
46.7735521478
 20
80.8467123084
 11
46.7735521478
 21
73.1717123084
  0
LINE
  5
2F9
100
AcDbEntity
  8
A_RUNDUNGEN
100
AcDbLine
 62
7
  6
CONTINUOUS
 10
46.7735521478
 20
59.3717123084
 11
46.7735521478
 21
50.5957966461
  0
LINE
  5
2FA
100
AcDbEntity
  8
A_ACHSEN
100
AcDbLine
 62
7
  6
CENTER
 10
9.7069100195
 20
98.2717123084
 11
78.9719289087
 21
98.2717123084
  0
LINE
  5
2FB
100
AcDbEntity
  8
A_RUNDUNGEN
100
AcDbLine
 62
7
  6
CONTINUOUS
 10
47.6525055391
 20
145.9717191623
 11
47.6525055391
 21
139.2191011446
  0
LINE
  5
2FC
100
AcDbEntity
  8
A_RUNDUNGEN
100
AcDbLine
 62
7
  6
CONTINUOUS
 10
47.6525055391
 20
121.3243234722
 11
47.6525055391
 21
117.7191011446
  0
LINE
  5
2FD
100
AcDbEntity
  8
A_RUNDUNGEN
100
AcDbLine
 62
7
  6
CONTINUOUS
 10
47.6525055391
 20
78.8243234722
 11
47.6525055391
 21
75.2191011446
  0
LINE
  5
2FE
100
AcDbEntity
  8
A_RUNDUNGEN
100
AcDbLine
 62
7
  6
CONTINUOUS
 10
47.6525055391
 20
57.3243234722
 11
47.6525055391
 21
50.5717054545
  0
LINE
  5
2FF
100
AcDbEntity
  8
A_RUNDUNGEN
100
AcDbLine
 62
7
  6
CONTINUOUS
 10
47.6792010406
 20
138.6950168069
 11
47.6792010406
 21
137.1717123084
  0
LINE
  5
300
100
AcDbEntity
  8
A_RUNDUNGEN
100
AcDbLine
 62
7
  6
CONTINUOUS
 10
47.6792010406
 20
123.3717123084
 11
47.6792010406
 21
121.8484078099
  0
LINE
  5
301
100
AcDbEntity
  8
A_RUNDUNGEN
100
AcDbLine
 62
7
  6
CONTINUOUS
 10
47.6792010406
 20
117.1950168069
 11
47.6792010406
 21
115.6967123084
  0
LINE
  5
302
100
AcDbEntity
  8
A_RUNDUNGEN
100
AcDbLine
 62
7
  6
CONTINUOUS
 10
47.6792010406
 20
80.8467123084
 11
47.6792010406
 21
79.3484078099
  0
LINE
  5
303
100
AcDbEntity
  8
A_RUNDUNGEN
100
AcDbLine
 62
7
  6
CONTINUOUS
 10
47.6792010406
 20
74.6950168069
 11
47.6792010406
 21
73.1717123084
  0
LINE
  5
304
100
AcDbEntity
  8
A_RUNDUNGEN
100
AcDbLine
 62
7
  6
CONTINUOUS
 10
47.6792010406
 20
59.3717123084
 11
47.6792010406
 21
57.8484078099
  0
LINE
  5
305
100
AcDbEntity
  8
A_RUNDUNGEN
100
AcDbLine
 62
7
  6
CONTINUOUS
 10
47.7499012291
 20
57.9191079985
 11
47.7499012291
 21
59.3717123084
  0
LINE
  5
306
100
AcDbEntity
  8
A_RUNDUNGEN
100
AcDbLine
 62
7
  6
CONTINUOUS
 10
47.7499012291
 20
73.1717123084
 11
47.7499012291
 21
74.6243166184
  0
LINE
  5
307
100
AcDbEntity
  8
A_RUNDUNGEN
100
AcDbLine
 62
7
  6
CONTINUOUS
 10
47.7499012291
 20
79.4191079985
 11
47.7499012291
 21
80.8467123084
  0
LINE
  5
308
100
AcDbEntity
  8
A_RUNDUNGEN
100
AcDbLine
 62
7
  6
CONTINUOUS
 10
47.7499012291
 20
115.6967123084
 11
47.7499012291
 21
117.1243166184
  0
LINE
  5
309
100
AcDbEntity
  8
A_RUNDUNGEN
100
AcDbLine
 62
7
  6
CONTINUOUS
 10
47.7499012291
 20
121.9191079985
 11
47.7499012291
 21
123.3717123084
  0
LINE
  5
30A
100
AcDbEntity
  8
A_RUNDUNGEN
100
AcDbLine
 62
7
  6
CONTINUOUS
 10
47.7499012291
 20
137.1717123084
 11
47.7499012291
 21
138.6243166184
  0
LINE
  5
30B
100
AcDbEntity
  8
A_RUNDUNGEN
100
AcDbLine
 62
7
  6
CONTINUOUS
 10
47.7703163402
 20
58.4369119457
 11
47.7703163402
 21
59.3717123084
  0
LINE
  5
30C
100
AcDbEntity
  8
A_RUNDUNGEN
100
AcDbLine
 62
7
  6
CONTINUOUS
 10
47.7703163402
 20
73.1717123084
 11
47.7703163402
 21
74.1065126711
  0
LINE
  5
30D
100
AcDbEntity
  8
A_RUNDUNGEN
100
AcDbLine
 62
7
  6
CONTINUOUS
 10
47.7703163402
 20
79.9369119457
 11
47.7703163402
 21
80.8467123084
  0
LINE
  5
30E
100
AcDbEntity
  8
A_RUNDUNGEN
100
AcDbLine
 62
7
  6
CONTINUOUS
 10
47.7703163402
 20
115.6967123084
 11
47.7703163402
 21
116.6065126711
  0
LINE
  5
30F
100
AcDbEntity
  8
A_RUNDUNGEN
100
AcDbLine
 62
7
  6
CONTINUOUS
 10
47.7703163402
 20
122.4369119457
 11
47.7703163402
 21
123.3717123084
  0
LINE
  5
310
100
AcDbEntity
  8
A_RUNDUNGEN
100
AcDbLine
 62
7
  6
CONTINUOUS
 10
47.7703163402
 20
137.1717123084
 11
47.7703163402
 21
138.1065126711
  0
LINE
  5
311
100
AcDbEntity
  8
0
100
AcDbLine
 62
7
  6
CONTINUOUS
 10
48.1525055391
 20
116.9967123084
 11
48.1525055391
 21
115.6967123084
  0
LINE
  5
312
100
AcDbEntity
  8
ALLE_ACHSEN
100
AcDbLine
 62
7
  6
CONTINUOUS
 10
48.1525055391
 20
116.9967123084
 11
48.1525055391
 21
115.6967123084
  0
LINE
  5
313
100
AcDbEntity
  8
0
100
AcDbLine
 62
7
  6
CONTINUOUS
 10
48.1525055391
 20
79.5467123084
 11
48.1525055391
 21
80.8467123084
  0
LINE
  5
314
100
AcDbEntity
  8
ALLE_ACHSEN
100
AcDbLine
 62
7
  6
CONTINUOUS
 10
48.1525055391
 20
79.5467123084
 11
48.1525055391
 21
80.8467123084
  0
LINE
  5
315
100
AcDbEntity
  8
DEFAULT_2
100
AcDbLine
 62
2
  6
HIDDEN
 10
48.4525055391
 20
168.3717123084
 11
48.4525055391
 21
166.1717123084
  0
LINE
  5
316
100
AcDbEntity
  8
DEFAULT_2
100
AcDbLine
 62
2
  6
HIDDEN
 10
48.4525055391
 20
28.1717123084
 11
48.4525055391
 21
30.3717123084
  0
LINE
  5
317
100
AcDbEntity
  8
0
100
AcDbLine
 62
7
  6
CONTINUOUS
 10
48.6525055391
 20
138.4717123084
 11
48.6525055391
 21
137.1717123084
  0
LINE
  5
318
100
AcDbEntity
  8
ALLE_ACHSEN
100
AcDbLine
 62
7
  6
CONTINUOUS
 10
48.6525055391
 20
138.4717123084
 11
48.6525055391
 21
137.1717123084
  0
LINE
  5
319
100
AcDbEntity
  8
0
100
AcDbLine
 62
7
  6
CONTINUOUS
 10
48.6525055391
 20
74.4717123084
 11
48.6525055391
 21
73.1717123084
  0
LINE
  5
31A
100
AcDbEntity
  8
ALLE_ACHSEN
100
AcDbLine
 62
7
  6
CONTINUOUS
 10
48.6525055391
 20
74.4717123084
 11
48.6525055391
 21
73.1717123084
  0
LINE
  5
31B
100
AcDbEntity
  8
0
100
AcDbLine
 62
7
  6
CONTINUOUS
 10
48.6525055391
 20
58.0717123084
 11
48.6525055391
 21
59.3717123084
  0
LINE
  5
31C
100
AcDbEntity
  8
ALLE_ACHSEN
100
AcDbLine
 62
7
  6
CONTINUOUS
 10
48.6525055391
 20
58.0717123084
 11
48.6525055391
 21
59.3717123084
  0
LINE
  5
31D
100
AcDbEntity
  8
0
100
AcDbLine
 62
7
  6
CONTINUOUS
 10
48.6525055391
 20
122.0717123084
 11
48.6525055391
 21
123.3717123084
  0
LINE
  5
31E
100
AcDbEntity
  8
ALLE_ACHSEN
100
AcDbLine
 62
7
  6
CONTINUOUS
 10
48.6525055391
 20
122.0717123084
 11
48.6525055391
 21
123.3717123084
  0
LINE
  5
31F
100
AcDbEntity
  8
A_RUNDUNGEN
100
AcDbLine
 62
2
  6
HIDDEN
 10
50.4436256902
 20
168.3717123084
 11
50.4436256902
 21
166.1717123084
  0
LINE
  5
320
100
AcDbEntity
  8
A_RUNDUNGEN
100
AcDbLine
 62
2
  6
HIDDEN
 10
50.4436256902
 20
30.3717123084
 11
50.4436256902
 21
28.1717123084
  0
LINE
  5
321
100
AcDbEntity
  8
A_ACHSEN
100
AcDbLine
 62
2
  6
CENTER
 10
51.6525055391
 20
56.3925423553
 11
51.6525055391
 21
141.0405667942
  0
LINE
  5
322
100
AcDbEntity
  8
A_ACHSEN
100
AcDbLine
 62
2
  6
CENTER
 10
53.0525055391
 20
23.0539919485
 11
53.0525055391
 21
35.94867497
  0
LINE
  5
323
100
AcDbEntity
  8
A_ACHSEN
100
AcDbLine
 62
2
  6
CENTER
 10
53.0525055391
 20
160.7437125456
 11
53.0525055391
 21
174.1565453196
  0
LINE
  5
324
100
AcDbEntity
  8
0
100
AcDbLine
 62
7
  6
CONTINUOUS
 10
54.1525055391
 20
116.9967123084
 11
54.1525055391
 21
115.6967123084
  0
LINE
  5
325
100
AcDbEntity
  8
ALLE_ACHSEN
100
AcDbLine
 62
7
  6
CONTINUOUS
 10
54.1525055391
 20
116.9967123084
 11
54.1525055391
 21
115.6967123084
  0
LINE
  5
326
100
AcDbEntity
  8
0
100
AcDbLine
 62
7
  6
CONTINUOUS
 10
54.1525055391
 20
79.5467123084
 11
54.1525055391
 21
80.8467123084
  0
LINE
  5
327
100
AcDbEntity
  8
ALLE_ACHSEN
100
AcDbLine
 62
7
  6
CONTINUOUS
 10
54.1525055391
 20
79.5467123084
 11
54.1525055391
 21
80.8467123084
  0
LINE
  5
328
100
AcDbEntity
  8
0
100
AcDbLine
 62
7
  6
CONTINUOUS
 10
54.6525055391
 20
138.4717123084
 11
54.6525055391
 21
137.1717123084
  0
LINE
  5
329
100
AcDbEntity
  8
ALLE_ACHSEN
100
AcDbLine
 62
7
  6
CONTINUOUS
 10
54.6525055391
 20
138.4717123084
 11
54.6525055391
 21
137.1717123084
  0
LINE
  5
32A
100
AcDbEntity
  8
0
100
AcDbLine
 62
7
  6
CONTINUOUS
 10
54.6525055391
 20
74.4717123084
 11
54.6525055391
 21
73.1717123084
  0
LINE
  5
32B
100
AcDbEntity
  8
ALLE_ACHSEN
100
AcDbLine
 62
7
  6
CONTINUOUS
 10
54.6525055391
 20
74.4717123084
 11
54.6525055391
 21
73.1717123084
  0
LINE
  5
32C
100
AcDbEntity
  8
0
100
AcDbLine
 62
7
  6
CONTINUOUS
 10
54.6525055391
 20
58.0717123084
 11
54.6525055391
 21
59.3717123084
  0
LINE
  5
32D
100
AcDbEntity
  8
ALLE_ACHSEN
100
AcDbLine
 62
7
  6
CONTINUOUS
 10
54.6525055391
 20
58.0717123084
 11
54.6525055391
 21
59.3717123084
  0
LINE
  5
32E
100
AcDbEntity
  8
0
100
AcDbLine
 62
7
  6
CONTINUOUS
 10
54.6525055391
 20
122.0717123084
 11
54.6525055391
 21
123.3717123084
  0
LINE
  5
32F
100
AcDbEntity
  8
ALLE_ACHSEN
100
AcDbLine
 62
7
  6
CONTINUOUS
 10
54.6525055391
 20
122.0717123084
 11
54.6525055391
 21
123.3717123084
  0
LINE
  5
330
100
AcDbEntity
  8
A_RUNDUNGEN
100
AcDbLine
 62
2
  6
HIDDEN
 10
55.661385388
 20
28.1717123084
 11
55.661385388
 21
30.3717123084
  0
LINE
  5
331
100
AcDbEntity
  8
A_RUNDUNGEN
100
AcDbLine
 62
2
  6
HIDDEN
 10
55.661385388
 20
166.1717123084
 11
55.661385388
 21
168.3717123084
  0
LINE
  5
332
100
AcDbEntity
  8
A_FASEN
100
AcDbLine
 62
7
  6
CONTINUOUS
 10
56.6025055391
 20
33.5717123084
 11
56.6025055391
 21
35.5717123084
  0
LINE
  5
333
100
AcDbEntity
  8
A_FASEN
100
AcDbLine
 62
7
  6
CONTINUOUS
 10
56.6025055391
 20
160.9717123084
 11
56.6025055391
 21
162.9717123084
  0
LINE
  5
334
100
AcDbEntity
  8
DEFAULT_2
100
AcDbLine
 62
2
  6
HIDDEN
 10
57.6525055391
 20
30.3717123084
 11
57.6525055391
 21
28.1717123084
  0
LINE
  5
335
100
AcDbEntity
  8
DEFAULT_2
100
AcDbLine
 62
2
  6
HIDDEN
 10
57.6525055391
 20
166.1717123084
 11
57.6525055391
 21
168.3717123084
  0
LINE
  5
336
100
AcDbEntity
  8
A_RUNDUNGEN
100
AcDbLine
 62
7
  6
CONTINUOUS
 10
58.1862196692
 20
137.1717123084
 11
58.1862196692
 21
123.3717123084
  0
LINE
  5
337
100
AcDbEntity
  8
A_RUNDUNGEN
100
AcDbLine
 62
7
  6
CONTINUOUS
 10
58.1862196692
 20
73.1717123084
 11
58.1862196692
 21
59.3717123084
  0
LINE
  5
338
100
AcDbEntity
  8
0
100
AcDbLine
 62
7
  6
CONTINUOUS
 10
58.7025055391
 20
162.4717123084
 11
58.7025055391
 21
161.4717123084
  0
LINE
  5
339
100
AcDbEntity
  8
0
100
AcDbLine
 62
7
  6
CONTINUOUS
 10
58.7025055391
 20
35.0717123084
 11
58.7025055391
 21
34.0717123084
  0
LINE
  5
33A
100
AcDbEntity
  8
0
100
AcDbLine
 62
7
  6
CONTINUOUS
 10
60.1025055391
 20
163.8717123084
 11
60.1025055391
 21
162.7717123084
  0
LINE
  5
33B
100
AcDbEntity
  8
0
100
AcDbLine
 62
7
  6
CONTINUOUS
 10
60.1025055391
 20
161.1717123084
 11
60.1025055391
 21
160.0717123084
  0
LINE
  5
33C
100
AcDbEntity
  8
0
100
AcDbLine
 62
7
  6
CONTINUOUS
 10
60.1025055391
 20
36.4717123084
 11
60.1025055391
 21
35.3717123084
  0
LINE
  5
33D
100
AcDbEntity
  8
0
100
AcDbLine
 62
7
  6
CONTINUOUS
 10
60.1025055391
 20
33.7717123084
 11
60.1025055391
 21
32.6717123084
  0
LINE
  5
33E
100
AcDbEntity
  8
A_ACHSEN
100
AcDbLine
 62
2
  6
CENTER
 10
60.6025055391
 20
28.9572521466
 11
60.6025055391
 21
40.1861724702
  0
LINE
  5
33F
100
AcDbEntity
  8
A_RUNDUNGEN
100
AcDbLine
 62
7
  6
CONTINUOUS
 10
61.0047062949
 20
177.6857783043
 11
61.0047062949
 21
146.82789848
  0
LINE
  5
340
100
AcDbEntity
  8
A_RUNDUNGEN
100
AcDbLine
 62
7
  6
CONTINUOUS
 10
61.0047062949
 20
49.7155261368
 11
61.0047062949
 21
18.8576463125
  0
LINE
  5
341
100
AcDbEntity
  8
DEFAULT_2
100
AcDbLine
 62
2
  6
HIDDEN
 10
61.1025055391
 20
32.6717123084
 11
61.1025055391
 21
33.7717123084
  0
LINE
  5
342
100
AcDbEntity
  8
DEFAULT_2
100
AcDbLine
 62
2
  6
HIDDEN
 10
61.1025055391
 20
35.3717123084
 11
61.1025055391
 21
36.4717123084
  0
LINE
  5
343
100
AcDbEntity
  8
DEFAULT_2
100
AcDbLine
 62
2
  6
HIDDEN
 10
61.1025055391
 20
160.0717123084
 11
61.1025055391
 21
161.1717123084
  0
LINE
  5
344
100
AcDbEntity
  8
DEFAULT_2
100
AcDbLine
 62
2
  6
HIDDEN
 10
61.1025055391
 20
162.7717123084
 11
61.1025055391
 21
163.8717123084
  0
LINE
  5
345
100
AcDbEntity
  8
A_RUNDUNGEN
100
AcDbLine
 62
7
  6
CONTINUOUS
 10
61.1112287648
 20
115.6967123084
 11
61.1112287648
 21
80.8467123084
  0
LINE
  5
346
100
AcDbEntity
  8
DEFAULT_2
100
AcDbLine
 62
2
  6
HIDDEN
 10
62.5025055391
 20
34.0717123084
 11
62.5025055391
 21
35.0717123084
  0
LINE
  5
347
100
AcDbEntity
  8
DEFAULT_2
100
AcDbLine
 62
2
  6
HIDDEN
 10
62.5025055391
 20
161.4717123084
 11
62.5025055391
 21
162.4717123084
  0
LINE
  5
348
100
AcDbEntity
  8
DEFAULT_2
100
AcDbLine
 62
2
  6
HIDDEN
 10
63.4525055391
 20
30.3717123084
 11
63.4525055391
 21
28.1717123084
  0
LINE
  5
349
100
AcDbEntity
  8
DEFAULT_2
100
AcDbLine
 62
2
  6
HIDDEN
 10
63.4525055391
 20
166.1717123084
 11
63.4525055391
 21
168.3717123084
  0
LINE
  5
34A
100
AcDbEntity
  8
A_RUNDUNGEN
100
AcDbLine
 62
7
  6
CONTINUOUS
 10
17.9544839741
 20
52.7717123084
 11
21.9544839741
 21
56.7717123084
  0
LINE
  5
34B
100
AcDbEntity
  8
A_RUNDUNGEN
100
AcDbLine
 62
7
  6
CONTINUOUS
 10
47.7677120303
 20
79.4369187996
 11
47.655109849
 21
79.3243166184
  0
LINE
  5
34C
100
AcDbEntity
  8
0
100
AcDbLine
 62
7
  6
CONTINUOUS
 10
21.9544839741
 20
64.503763116
 11
20.4544839741
 21
63.6377377122
  0
LINE
  5
34D
100
AcDbEntity
  8
ALLE_ACHSEN
100
AcDbLine
 62
7
  6
CONTINUOUS
 10
29.9571646063
 20
115.6967123084
 11
31.6905491624
 21
115.6967123084
  0
LINE
  5
34E
100
AcDbEntity
  8
0
100
AcDbLine
 62
7
  6
CONTINUOUS
 10
29.954482999
 20
115.6967123084
 11
31.6905491624
 21
115.6967123084
  0
LINE
  5
34F
100
AcDbEntity
  8
A_ACHSEN
100
AcDbLine
 62
7
  6
CONTINUOUS
 10
29.9552520496
 20
115.6967123084
 11
31.6905491624
 21
115.6967123084
  0
LINE
  5
350
100
AcDbEntity
  8
A_RUNDUNGEN
100
AcDbLine
 62
7
  6
CONTINUOUS
 10
31.6905491624
 20
115.6967123084
 11
61.1109539416
 21
115.6967123084
  0
LINE
  5
351
100
AcDbEntity
  8
0
100
AcDbLine
 62
7
  6
CONTINUOUS
 10
20.4544839741
 20
132.9056869046
 11
21.9544839741
 21
132.0396615008
  0
LINE
  5
352
100
AcDbEntity
  8
A_RUNDUNGEN
100
AcDbLine
 62
7
  6
CONTINUOUS
 10
21.9544839741
 20
139.7717123084
 11
17.9544839741
 21
143.7717123084
  0
LINE
  5
353
100
AcDbEntity
  8
A_RUNDUNGEN
100
AcDbLine
 62
7
  6
CONTINUOUS
 10
47.7677120303
 20
117.1065058172
 11
47.655109849
 21
117.2191079985
  0
LINE
  5
354
100
AcDbEntity
  8
A_FASEN
100
AcDbLine
 62
2
  6
HIDDEN
 10
64.6025055391
 20
162.9717123084
 11
64.6025055391
 21
160.9717123084
  0
LINE
  5
355
100
AcDbEntity
  8
A_FASEN
100
AcDbLine
 62
2
  6
HIDDEN
 10
64.6025055391
 20
35.5717123084
 11
64.6025055391
 21
33.5717123084
  0
LINE
  5
356
100
AcDbEntity
  8
A_RUNDUNGEN
100
AcDbLine
 62
2
  6
HIDDEN
 10
65.4436256902
 20
168.3717123084
 11
65.4436256902
 21
166.1717123084
  0
LINE
  5
357
100
AcDbEntity
  8
A_RUNDUNGEN
100
AcDbLine
 62
2
  6
HIDDEN
 10
65.4436256902
 20
30.3717123084
 11
65.4436256902
 21
28.1717123084
  0
LINE
  5
358
100
AcDbEntity
  8
A_ACHSEN
100
AcDbLine
 62
2
  6
CENTER
 10
68.0525055391
 20
22.5568548713
 11
68.0525055391
 21
35.6896844828
  0
LINE
  5
359
100
AcDbEntity
  8
A_ACHSEN
100
AcDbLine
 62
2
  6
CENTER
 10
68.0525055391
 20
160.8306222878
 11
68.0525055391
 21
173.4420551018
  0
LINE
  5
35A
100
AcDbEntity
  8
0
100
AcDbLine
 62
7
  6
CONTINUOUS
 10
21.9544839741
 20
61.0396615008
 11
23.4544839741
 21
61.9056869046
  0
LINE
  5
35B
100
AcDbEntity
  8
A_ACHSEN
100
AcDbLine
 62
7
  6
CONTINUOUS
 10
29.4544839741
 20
116.6217123084
 11
35.9544839741
 21
116.6217123084
  0
LINE
  5
35C
100
AcDbEntity
  8
ALLE_ACHSEN
100
AcDbLine
 62
7
  6
CONTINUOUS
 10
48.1552163226
 20
116.9967123084
 11
54.1497947556
 21
116.9967123084
  0
LINE
  5
35D
100
AcDbEntity
  8
0
100
AcDbLine
 62
7
  6
CONTINUOUS
 10
48.1525347153
 20
116.9967123084
 11
54.1524763629
 21
116.9967123084
  0
LINE
  5
35E
100
AcDbEntity
  8
A_RUNDUNGEN
100
AcDbLine
 62
7
  6
CONTINUOUS
 10
47.7677120303
 20
117.1065058172
 11
49.9275055391
 21
117.1065058172
  0
LINE
  5
35F
100
AcDbEntity
  8
A_RUNDUNGEN
100
AcDbLine
 62
7
  6
CONTINUOUS
 10
52.8775055391
 20
117.1065058172
 11
67.0608063763
 21
117.1065058172
  0
LINE
  5
360
100
AcDbEntity
  8
A_RUNDUNGEN
100
AcDbLine
 62
7
  6
CONTINUOUS
 10
47.655109849
 20
117.2191079985
 11
70.5025055391
 21
117.2191079985
  0
LINE
  5
361
100
AcDbEntity
  8
0
100
AcDbLine
 62
7
  6
CONTINUOUS
 10
23.4544839741
 20
134.6377377122
 11
21.9544839741
 21
135.503763116
  0
LINE
  5
362
100
AcDbEntity
  8
A_RUNDUNGEN
100
AcDbLine
 62
7
  6
CONTINUOUS
 10
70.5025055391
 20
145.8278794405
 11
70.5025055391
 21
50.7155451764
  0
LINE
  5
363
100
AcDbEntity
  8
A_RUNDUNGEN
100
AcDbLine
 62
2
  6
HIDDEN
 10
70.661385388
 20
28.1717123084
 11
70.661385388
 21
30.3717123084
  0
LINE
  5
364
100
AcDbEntity
  8
A_RUNDUNGEN
100
AcDbLine
 62
2
  6
HIDDEN
 10
70.661385388
 20
166.1717123084
 11
70.661385388
 21
168.3717123084
  0
LINE
  5
365
100
AcDbEntity
  8
A_ACHSEN
100
AcDbLine
 62
2
  6
CONTINUOUS
 10
70.7025055391
 20
154.3050456417
 11
70.7025055391
 21
153.2383789751
  0
LINE
  5
366
100
AcDbEntity
  8
A_ACHSEN
100
AcDbLine
 62
2
  6
CENTER
 10
70.7025055391
 20
151.1050456417
 11
70.7025055391
 21
148.8717123084
  0
LINE
  5
367
100
AcDbEntity
  8
A_ACHSEN
100
AcDbLine
 62
2
  6
CENTER
 10
70.7025055391
 20
38.4475993148
 11
70.7025055391
 21
47.095825302
  0
LINE
  5
368
100
AcDbEntity
  8
A_ACHSEN
100
AcDbLine
 62
2
  6
CENTER
 10
70.7025055391
 20
156.4383789751
 11
70.7025055391
 21
158.6717123084
  0
LINE
  5
369
100
AcDbEntity
  8
DEFAULT_2
100
AcDbLine
 62
2
  6
HIDDEN
 10
72.6525055391
 20
168.3717123084
 11
72.6525055391
 21
166.1717123084
  0
LINE
  5
36A
100
AcDbEntity
  8
DEFAULT_2
100
AcDbLine
 62
2
  6
HIDDEN
 10
72.6525055391
 20
28.1717123084
 11
72.6525055391
 21
30.3717123084
  0
LINE
  5
36B
100
AcDbEntity
  8
A_RUNDUNGEN
100
AcDbLine
 62
7
  6
CONTINUOUS
 10
74.5003047833
 20
32.2717123084
 11
74.5003047833
 21
164.2717123084
  0
LINE
  5
36C
100
AcDbEntity
  8
0
100
AcDbLine
 62
7
  6
CONTINUOUS
 10
74.5025055391
 20
164.3717123084
 11
74.5025055391
 21
164.2717123084
  0
LINE
  5
36D
100
AcDbEntity
  8
0
100
AcDbLine
 62
7
  6
CONTINUOUS
 10
74.5025055391
 20
32.1717123084
 11
74.5025055391
 21
32.2717123084
  0
LINE
  5
36E
100
AcDbEntity
  8
A_RUNDUNGEN
100
AcDbLine
 62
7
  6
CONTINUOUS
 10
70.5025055391
 20
121.8243166184
 11
47.655109849
 21
121.8243166184
  0
LINE
  5
36F
100
AcDbEntity
  8
A_RUNDUNGEN
100
AcDbLine
 62
7
  6
CONTINUOUS
 10
67.0608063763
 20
121.9369187996
 11
51.6525055391
 21
121.9369187996
  0
LINE
  5
370
100
AcDbEntity
  8
A_RUNDUNGEN
100
AcDbLine
 62
7
  6
CONTINUOUS
 10
49.9275055391
 20
121.9369187996
 11
47.7677120303
 21
121.9369187996
  0
LINE
  5
371
100
AcDbEntity
  8
0
100
AcDbLine
 62
7
  6
CONTINUOUS
 10
48.6525332475
 20
122.0717123084
 11
54.6524778307
 21
122.0717123084
  0
LINE
  5
372
100
AcDbEntity
  8
ALLE_ACHSEN
100
AcDbLine
 62
7
  6
CONTINUOUS
 10
48.6542671613
 20
122.0717123084
 11
54.6507439169
 21
122.0717123084
  0
LINE
  5
373
100
AcDbEntity
  8
A_ACHSEN
100
AcDbLine
 62
7
  6
CONTINUOUS
 10
29.4544839741
 20
122.4217123084
 11
35.9544839741
 21
122.4217123084
  0
LINE
  5
374
100
AcDbEntity
  8
ALLE_ACHSEN
100
AcDbLine
 62
7
  6
CONTINUOUS
 10
30.4544716595
 20
123.3717123084
 11
29.9572171383
 21
123.3717123084
  0
LINE
  5
375
100
AcDbEntity
  8
A_ACHSEN
100
AcDbLine
 62
7
  6
CONTINUOUS
 10
29.9572171383
 20
123.3717123084
 11
30.4327211839
 21
123.3717123084
  0
LINE
  5
376
100
AcDbEntity
  8
0
100
AcDbLine
 62
7
  6
CONTINUOUS
 10
29.954498979
 20
123.3717123084
 11
30.5324115443
 21
123.3717123084
  0
LINE
  5
377
100
AcDbEntity
  8
A_RUNDUNGEN
100
AcDbLine
 62
7
  6
CONTINUOUS
 10
30.4327211839
 20
123.3717123084
 11
58.1858321565
 21
123.3717123084
  0
LINE
  5
378
100
AcDbEntity
  8
A_ACHSEN
100
AcDbLine
 62
7
  6
CONTINUOUS
 10
29.4544839741
 20
124.9217123084
 11
29.9544712707
 21
124.9217123084
  0
LINE
  5
379
100
AcDbEntity
  8
A_ACHSEN
100
AcDbLine
 62
7
  6
CONTINUOUS
 10
29.4544839741
 20
126.8217123084
 11
29.9544712707
 21
126.8217123084
  0
LINE
  5
37A
100
AcDbEntity
  8
A_RUNDUNGEN
100
AcDbLine
 62
7
  6
CONTINUOUS
 10
47.655109849
 20
57.8243166184
 11
47.7677120303
 21
57.9369187996
  0
LINE
  5
37B
100
AcDbEntity
  8
A_RUNDUNGEN
100
AcDbLine
 62
7
  6
CONTINUOUS
 10
47.655109849
 20
138.7191079985
 11
47.7677120303
 21
138.6065058172
  0
LINE
  5
37C
100
AcDbEntity
  8
A_ACHSEN
100
AcDbLine
 62
7
  6
CONTINUOUS
 10
29.4544839741
 20
133.7217123084
 11
29.9544712707
 21
133.7217123084
  0
LINE
  5
37D
100
AcDbEntity
  8
A_ACHSEN
100
AcDbLine
 62
2
  6
CONTINUOUS
 10
22.4878173074
 20
133.7717123084
 11
21.4211506407
 21
133.7717123084
  0
LINE
  5
37E
100
AcDbEntity
  8
A_ACHSEN
100
AcDbLine
 62
2
  6
CENTER
 10
19.2878173074
 20
133.7717123084
 11
15.9544839741
 21
133.7717123084
  0
LINE
  5
37F
100
AcDbEntity
  8
A_ACHSEN
100
AcDbLine
 62
2
  6
CENTER
 10
24.6211506407
 20
133.7717123084
 11
27.9544839741
 21
133.7717123084
  0
LINE
  5
380
100
AcDbEntity
  8
A_ACHSEN
100
AcDbLine
 62
7
  6
CONTINUOUS
 10
29.4544839741
 20
135.6217123084
 11
29.9544712707
 21
135.6217123084
  0
LINE
  5
381
100
AcDbEntity
  8
0
100
AcDbLine
 62
7
  6
CONTINUOUS
 10
30.5324115443
 20
137.1717123084
 11
29.954498979
 21
137.1717123084
  0
LINE
  5
382
100
AcDbEntity
  8
ALLE_ACHSEN
100
AcDbLine
 62
7
  6
CONTINUOUS
 10
29.9572171383
 20
137.1717123084
 11
30.4544716595
 21
137.1717123084
  0
LINE
  5
383
100
AcDbEntity
  8
A_ACHSEN
100
AcDbLine
 62
7
  6
CONTINUOUS
 10
29.9572171383
 20
137.1717123084
 11
30.4327211839
 21
137.1717123084
  0
LINE
  5
384
100
AcDbEntity
  8
A_RUNDUNGEN
100
AcDbLine
 62
7
  6
CONTINUOUS
 10
30.4327211839
 20
137.1717123084
 11
58.1858321565
 21
137.1717123084
  0
LINE
  5
385
100
AcDbEntity
  8
0
100
AcDbLine
 62
7
  6
CONTINUOUS
 10
35.9544839741
 20
138.1217123084
 11
29.4544839741
 21
138.1217123084
  0
LINE
  5
386
100
AcDbEntity
  8
ALLE_ACHSEN
100
AcDbLine
 62
7
  6
CONTINUOUS
 10
48.6542671613
 20
138.4717123084
 11
54.6507439169
 21
138.4717123084
  0
LINE
  5
387
100
AcDbEntity
  8
0
100
AcDbLine
 62
7
  6
CONTINUOUS
 10
48.6525332475
 20
138.4717123084
 11
54.6524778307
 21
138.4717123084
  0
LINE
  5
388
100
AcDbEntity
  8
A_RUNDUNGEN
100
AcDbLine
 62
7
  6
CONTINUOUS
 10
67.0608063763
 20
138.6065058172
 11
53.1525055391
 21
138.6065058172
  0
LINE
  5
389
100
AcDbEntity
  8
A_RUNDUNGEN
100
AcDbLine
 62
7
  6
CONTINUOUS
 10
49.1525055391
 20
138.6065058172
 11
47.7677120303
 21
138.6065058172
  0
LINE
  5
38A
100
AcDbEntity
  8
A_RUNDUNGEN
100
AcDbLine
 62
7
  6
CONTINUOUS
 10
47.655109849
 20
138.7191079985
 11
70.5025055391
 21
138.7191079985
  0
LINE
  5
38B
100
AcDbEntity
  8
A_RUNDUNGEN
100
AcDbLine
 62
7
  6
CONTINUOUS
 10
17.9544839741
 20
143.7717123084
 11
35.9544839741
 21
143.7717123084
  0
LINE
  5
38C
100
AcDbEntity
  8
0
100
AcDbLine
 62
7
  6
CONTINUOUS
 10
69.8425055391
 20
44.2612760029
 11
68.9825055391
 21
42.7717123084
  0
LINE
  5
38D
100
AcDbEntity
  8
0
100
AcDbLine
 62
7
  6
CONTINUOUS
 10
71.5625055391
 20
41.2821486139
 11
72.4225055391
 21
42.7717123084
  0
LINE
  5
38E
100
AcDbEntity
  8
0
100
AcDbLine
 62
7
  6
CONTINUOUS
 10
46.7018354488
 20
146.4101017548
 11
46.5025055391
 21
146.4066224383
  0
LINE
  5
38F
100
AcDbEntity
  8
A_RUNDUNGEN
100
AcDbLine
 62
7
  6
CONTINUOUS
 10
44.7568686407
 20
146.3761522329
 11
46.5025055391
 21
146.4066224383
  0
LINE
  5
390
100
AcDbEntity
  8
A_RUNDUNGEN
100
AcDbLine
 62
7
  6
CONTINUOUS
 10
61.5046872564
 20
146.3279175185
 11
70.0025055391
 21
146.3279175185
  0
LINE
  5
391
100
AcDbEntity
  8
0
100
AcDbLine
 62
7
  6
CONTINUOUS
 10
61.3112086442
 20
146.3717123084
 11
46.7025055391
 21
146.3717123084
  0
LINE
  5
392
100
AcDbEntity
  8
A_RUNDUNGEN
100
AcDbLine
 62
7
  6
CONTINUOUS
 10
46.6068461262
 20
146.5450387948
 11
46.7025055391
 21
146.5450387948
  0
LINE
  5
393
100
AcDbEntity
  8
A_RUNDUNGEN
100
AcDbLine
 62
7
  6
CONTINUOUS
 10
19.9544839741
 20
148.2717123084
 11
36.9544839741
 21
148.2717123084
  0
LINE
  5
394
100
AcDbEntity
  8
A_RUNDUNGEN
100
AcDbLine
 62
7
  6
CONTINUOUS
 10
46.6321401223
 20
146.5298626437
 11
46.7025055391
 21
146.5298562127
  0
LINE
  5
395
100
AcDbEntity
  8
A_RUNDUNGEN
100
AcDbLine
 62
7
  6
CONTINUOUS
 10
44.2568686407
 20
149.7759999164
 11
41.7481424375
 21
149.8197898952
  0
LINE
  5
396
100
AcDbEntity
  8
0
100
AcDbLine
 62
7
  6
CONTINUOUS
 10
68.9825055391
 20
153.7717123084
 11
69.8425055391
 21
152.2821486139
  0
LINE
  5
397
100
AcDbEntity
  8
0
100
AcDbLine
 62
7
  6
CONTINUOUS
 10
72.4225055391
 20
153.7717123084
 11
71.5625055391
 21
155.2612760029
  0
LINE
  5
398
100
AcDbEntity
  8
A_FASEN
100
AcDbLine
 62
2
  6
HIDDEN
 10
61.1127277912
 20
35.2940665949
 11
61.1087820782
 21
35.2901208819
  0
LINE
  5
399
100
AcDbEntity
  8
A_FASEN
100
AcDbLine
 62
7
  6
CONTINUOUS
 10
59.8840969656
 20
34.0654357693
 11
59.8801512526
 21
34.0614900563
  0
LINE
  5
39A
100
AcDbEntity
  8
A_FASEN
100
AcDbLine
 62
7
  6
CONTINUOUS
 10
60.0581622266
 20
34.027368996
 11
59.1882919767
 21
33.157498746
  0
LINE
  5
39B
100
AcDbEntity
  8
A_FASEN
100
AcDbLine
 62
2
  6
HIDDEN
 10
61.1468488515
 20
35.1160556209
 11
62.0167191015
 21
35.9859258708
  0
LINE
  5
39C
100
AcDbEntity
  8
A_FASEN
100
AcDbLine
 62
2
  6
HIDDEN
 10
60.0942578294
 20
33.8513325644
 11
60.096229
 21
33.8533037349
  0
LINE
  5
39D
100
AcDbEntity
  8
A_FASEN
100
AcDbLine
 62
7
  6
CONTINUOUS
 10
60.092283287
 20
33.8493580219
 11
60.0942578294
 21
33.8513325644
  0
LINE
  5
39E
100
AcDbEntity
  8
A_FASEN
100
AcDbLine
 62
2
  6
HIDDEN
 10
61.3209141126
 20
35.0779888475
 11
61.3248598256
 21
35.0819345605
  0
LINE
  5
39F
100
AcDbEntity
  8
0
100
AcDbLine
 62
7
  6
CONTINUOUS
 10
69.8425055391
 20
152.2821486139
 11
71.5625055391
 21
152.2821486139
  0
LINE
  5
3A0
100
AcDbEntity
  8
A_RUNDUNGEN
100
AcDbLine
 62
7
  6
CONTINUOUS
 10
42.084993634
 20
152.7717123084
 11
42.2525055391
 21
152.7717123084
  0
LINE
  5
3A1
100
AcDbEntity
  8
A_ACHSEN
100
AcDbLine
 62
2
  6
CONTINUOUS
 10
71.2358388724
 20
153.7717123084
 11
70.1691722057
 21
153.7717123084
  0
LINE
  5
3A2
100
AcDbEntity
  8
A_ACHSEN
100
AcDbLine
 62
2
  6
CENTER
 10
68.0358388724
 20
153.7717123084
 11
65.8025055391
 21
153.7717123084
  0
LINE
  5
3A3
100
AcDbEntity
  8
A_ACHSEN
100
AcDbLine
 62
2
  6
CENTER
 10
73.3691722057
 20
153.7717123084
 11
75.6025055391
 21
153.7717123084
  0
LINE
  5
3A4
100
AcDbEntity
  8
0
100
AcDbLine
 62
7
  6
CONTINUOUS
 10
71.5625055391
 20
155.2612760029
 11
69.8425055391
 21
155.2612760029
  0
LINE
  5
3A5
100
AcDbEntity
  8
0
100
AcDbLine
 62
7
  6
CONTINUOUS
 10
46.6025055391
 20
150.7001465422
 11
46.5025055391
 21
150.7018920487
  0
LINE
  5
3A6
100
AcDbEntity
  8
A_RUNDUNGEN
100
AcDbLine
 62
7
  6
CONTINUOUS
 10
42.7481424375
 20
150.7674247004
 11
46.5025055391
 21
150.7018920487
  0
LINE
  5
3A7
100
AcDbEntity
  8
A_FASEN
100
AcDbLine
 62
2
  6
HIDDEN
 10
59.882125795
 20
162.4799600181
 11
59.8840969656
 21
162.4779888475
  0
LINE
  5
3A8
100
AcDbEntity
  8
A_FASEN
100
AcDbLine
 62
7
  6
CONTINUOUS
 10
59.8801512526
 20
162.4819345605
 11
59.882125795
 21
162.4799600181
  0
LINE
  5
3A9
100
AcDbEntity
  8
A_FASEN
100
AcDbLine
 62
2
  6
HIDDEN
 10
61.1087820782
 20
161.2533037349
 11
61.1127277912
 21
161.2493580219
  0
LINE
  5
3AA
100
AcDbEntity
  8
A_FASEN
100
AcDbLine
 62
7
  6
CONTINUOUS
 10
59.1882919767
 20
163.3859258708
 11
60.0581622266
 21
162.5160556209
  0
LINE
  5
3AB
100
AcDbEntity
  8
A_FASEN
100
AcDbLine
 62
2
  6
HIDDEN
 10
62.0167191015
 20
160.557498746
 11
61.1468488515
 21
161.427368996
  0
LINE
  5
3AC
100
AcDbEntity
  8
A_FASEN
100
AcDbLine
 62
2
  6
HIDDEN
 10
61.3248598256
 20
161.4614900563
 11
61.3209141126
 21
161.4654357693
  0
LINE
  5
3AD
100
AcDbEntity
  8
A_FASEN
100
AcDbLine
 62
7
  6
CONTINUOUS
 10
60.096229
 20
162.6901208819
 11
60.092283287
 21
162.6940665949
  0
LINE
  5
3AE
100
AcDbEntity
  8
0
100
AcDbLine
 62
7
  6
CONTINUOUS
 10
60.1025055391
 20
160.0717123084
 11
61.0047062949
 21
160.0717123084
  0
LINE
  5
3AF
100
AcDbEntity
  8
DEFAULT_2
100
AcDbLine
 62
2
  6
HIDDEN
 10
61.0047062949
 20
160.0717123084
 11
61.1025055391
 21
160.0717123084
  0
LINE
  5
3B0
100
AcDbEntity
  8
0
100
AcDbLine
 62
7
  6
CONTINUOUS
 10
58.7025055391
 20
161.4717123084
 11
59.8025055391
 21
161.4717123084
  0
LINE
  5
3B1
100
AcDbEntity
  8
DEFAULT_2
100
AcDbLine
 62
2
  6
HIDDEN
 10
61.4025055391
 20
161.4717123084
 11
62.5025055391
 21
161.4717123084
  0
LINE
  5
3B2
100
AcDbEntity
  8
DEFAULT_2
100
AcDbLine
 62
2
  6
HIDDEN
 10
62.5025055391
 20
162.4717123084
 11
61.4025055391
 21
162.4717123084
  0
LINE
  5
3B3
100
AcDbEntity
  8
0
100
AcDbLine
 62
7
  6
CONTINUOUS
 10
59.8025055391
 20
162.4717123084
 11
58.7025055391
 21
162.4717123084
  0
LINE
  5
3B4
100
AcDbEntity
  8
DEFAULT_2
100
AcDbLine
 62
2
  6
HIDDEN
 10
61.1025055391
 20
163.8717123084
 11
61.0047062949
 21
163.8717123084
  0
LINE
  5
3B5
100
AcDbEntity
  8
0
100
AcDbLine
 62
7
  6
CONTINUOUS
 10
61.0047062949
 20
163.8717123084
 11
60.1025055391
 21
163.8717123084
  0
LINE
  5
3B6
100
AcDbEntity
  8
A_ACHSEN
100
AcDbLine
 62
2
  6
CENTER
 10
47.6245057763
 20
166.1717123084
 11
58.4805053019
 21
166.1717123084
  0
LINE
  5
3B7
100
AcDbEntity
  8
A_ACHSEN
100
AcDbLine
 62
2
  6
CENTER
 10
62.7114155185
 20
166.1717123084
 11
73.3935955597
 21
166.1717123084
  0
LINE
  5
3B8
100
AcDbEntity
  8
A_ACHSEN
100
AcDbLine
 62
2
  6
CENTER
 10
47.2676725279
 20
168.3717123084
 11
58.8373385503
 21
168.3717123084
  0
LINE
  5
3B9
100
AcDbEntity
  8
A_ACHSEN
100
AcDbLine
 62
2
  6
CENTER
 10
62.9821627457
 20
168.3717123084
 11
73.1228483325
 21
168.3717123084
  0
ARC
  5
3BA
100
AcDbEntity
  8
0
100
AcDbCircle
 62
2
  6
CONTINUOUS
 10
21.9561861069
 20
62.770228154
 40
3.0022255336
100
AcDbArc
 50
115.7324303865
 51
141.4547615025
  0
ARC
  5
3BB
100
AcDbEntity
  8
0
100
AcDbCircle
 62
2
  6
CONTINUOUS
 10
21.9544839741
 20
62.7717123084
 40
3.0
100
AcDbArc
 50
270.0
 51
90.0
  0
ARC
  5
3BC
100
AcDbEntity
  8
A_ACHSEN
100
AcDbCircle
 62
7
  6
CONTINUOUS
 10
21.9544839741
 20
62.7717123084
 40
3.0
100
AcDbArc
 50
90.0
 51
254.357253464
  0
CIRCLE
  5
3BD
100
AcDbEntity
  8
A_ACHSEN
100
AcDbCircle
 62
7
  6
CONTINUOUS
 10
21.9544839741
 20
62.7717123084
 40
2.5
  0
ARC
  5
3BE
100
AcDbEntity
  8
ALLE_ACHSEN
100
AcDbCircle
 62
7
  6
CONTINUOUS
 10
21.9544839741
 20
62.7717123084
 40
2.5
100
AcDbArc
 50
270.0
 51
90.0
  0
ARC
  5
3BF
100
AcDbEntity
  8
0
100
AcDbCircle
 62
2
  6
CONTINUOUS
 10
21.9544839741
 20
62.7717123084
 40
2.3
100
AcDbArc
 50
255.0
 51
195.0
  0
ARC
  5
3C0
100
AcDbEntity
  8
A_RUNDUNGEN
100
AcDbCircle
 62
7
  6
CONTINUOUS
 10
19.9544839741
 20
50.2717123084
 40
2.0
100
AcDbArc
 50
180.0
 51
270.0
  0
CIRCLE
  5
3C1
100
AcDbEntity
  8
0
100
AcDbCircle
 62
7
  6
CONTINUOUS
 10
21.9544839741
 20
62.7717123084
 40
1.7320508076
  0
ARC
  5
3C2
100
AcDbEntity
  8
0
100
AcDbCircle
 62
2
  6
CONTINUOUS
 10
21.9552387631
 20
98.2668131537
 40
3.0049120718
100
AcDbArc
 50
90.0143919053
 51
115.6981733046
  0
ARC
  5
3C3
100
AcDbEntity
  8
0
100
AcDbCircle
 62
2
  6
CONTINUOUS
 10
21.9567223846
 20
98.2695290188
 40
3.0031018186
100
AcDbArc
 50
115.7461474728
 51
141.4384025695
  0
ARC
  5
3C4
100
AcDbEntity
  8
A_RUNDUNGEN
100
AcDbCircle
 62
7
  6
CONTINUOUS
 10
36.9544839741
 20
50.2717123084
 40
2.0
100
AcDbArc
 50
270.0
 51
360.0
  0
ARC
  5
3C5
100
AcDbEntity
  8
A_RUNDUNGEN
100
AcDbCircle
 62
7
  6
CONTINUOUS
 10
43.0025055391
 20
45.2558640891
 40
1.5
100
AcDbArc
 50
180.0
 51
197.7446716251
  0
ARC
  5
3C6
100
AcDbEntity
  8
A_RUNDUNGEN
100
AcDbCircle
 62
7
  6
CONTINUOUS
 10
42.7525055391
 20
45.5260379926
 40
0.25
100
AcDbArc
 50
91.0
 51
180.0
  0
ARC
  5
3C7
100
AcDbEntity
  8
A_RUNDUNGEN
100
AcDbCircle
 62
7
  6
CONTINUOUS
 10
42.2525055391
 20
44.0217123084
 40
0.25
100
AcDbArc
 50
270.0
 51
360.0
  0
ARC
  5
3C8
100
AcDbEntity
  8
A_RUNDUNGEN
100
AcDbCircle
 62
7
  6
CONTINUOUS
 10
44.2525055391
 20
47.0173866242
 40
0.25
100
AcDbArc
 50
271.0
 51
360.0
  0
ARC
  5
3C9
100
AcDbEntity
  8
A_RUNDUNGEN
100
AcDbCircle
 62
7
  6
CONTINUOUS
 10
44.7525055391
 20
49.9173104602
 40
0.25
100
AcDbArc
 50
89.0
 51
179.9999999999
  0
ARC
  5
3CA
100
AcDbEntity
  8
A_RUNDUNGEN
100
AcDbCircle
 62
7
  6
CONTINUOUS
 10
41.7525055391
 20
46.4736727978
 40
0.25
100
AcDbArc
 50
91.0
 51
180.0
  0
ARC
  5
3CB
100
AcDbEntity
  8
A_RUNDUNGEN
100
AcDbCircle
 62
7
  6
CONTINUOUS
 10
42.084993634
 20
44.0217123084
 40
0.25
100
AcDbArc
 50
197.7446716251
 51
270.0
  0
ARC
  5
3CC
100
AcDbEntity
  8
0
100
AcDbCircle
 62
2
  6
CONTINUOUS
 10
21.9544839741
 20
98.2717123084
 40
3.0
100
AcDbArc
 50
270.0
 51
90.0
  0
ARC
  5
3CD
100
AcDbEntity
  8
A_ACHSEN
100
AcDbCircle
 62
7
  6
CONTINUOUS
 10
21.9544839741
 20
98.2717123084
 40
3.0
100
AcDbArc
 50
90.0
 51
254.2258477537
  0
CIRCLE
  5
3CE
100
AcDbEntity
  8
A_ACHSEN
100
AcDbCircle
 62
7
  6
CONTINUOUS
 10
21.9544839741
 20
98.2717123084
 40
2.5
  0
ARC
  5
3CF
100
AcDbEntity
  8
ALLE_ACHSEN
100
AcDbCircle
 62
7
  6
CONTINUOUS
 10
21.9544839741
 20
98.2717123084
 40
2.5
100
AcDbArc
 50
270.0
 51
90.0
  0
ARC
  5
3D0
100
AcDbEntity
  8
0
100
AcDbCircle
 62
2
  6
CONTINUOUS
 10
21.9544839741
 20
98.2717123084
 40
2.3
100
AcDbArc
 50
255.0
 51
195.0
  0
CIRCLE
  5
3D1
100
AcDbEntity
  8
0
100
AcDbCircle
 62
7
  6
CONTINUOUS
 10
21.9544839741
 20
98.2717123084
 40
1.7320508076
  0
ARC
  5
3D2
100
AcDbEntity
  8
0
100
AcDbCircle
 62
2
  6
CONTINUOUS
 10
21.9561861069
 20
133.770228154
 40
3.0022255336
100
AcDbArc
 50
115.7324303865
 51
141.4547615025
  0
ARC
  5
3D3
100
AcDbEntity
  8
0
100
AcDbCircle
 62
2
  6
CONTINUOUS
 10
21.9544839741
 20
133.7717123084
 40
3.0
100
AcDbArc
 50
270.0
 51
90.0
  0
ARC
  5
3D4
100
AcDbEntity
  8
A_ACHSEN
100
AcDbCircle
 62
7
  6
CONTINUOUS
 10
21.9544839741
 20
133.7717123084
 40
3.0
100
AcDbArc
 50
90.0
 51
254.357253464
  0
CIRCLE
  5
3D5
100
AcDbEntity
  8
A_ACHSEN
100
AcDbCircle
 62
7
  6
CONTINUOUS
 10
21.9544839741
 20
133.7717123084
 40
2.5
  0
ARC
  5
3D6
100
AcDbEntity
  8
ALLE_ACHSEN
100
AcDbCircle
 62
7
  6
CONTINUOUS
 10
21.9544839741
 20
133.7717123084
 40
2.5
100
AcDbArc
 50
270.0
 51
90.0
  0
ARC
  5
3D7
100
AcDbEntity
  8
0
100
AcDbCircle
 62
2
  6
CONTINUOUS
 10
21.9544839741
 20
133.7717123084
 40
2.3
100
AcDbArc
 50
255.0
 51
195.0
  0
ARC
  5
3D8
100
AcDbEntity
  8
A_RUNDUNGEN
100
AcDbCircle
 62
7
  6
CONTINUOUS
 10
19.9544839741
 20
146.2717123084
 40
2.0
100
AcDbArc
 50
90.0
 51
180.0
  0
CIRCLE
  5
3D9
100
AcDbEntity
  8
0
100
AcDbCircle
 62
7
  6
CONTINUOUS
 10
21.9544839741
 20
133.7717123084
 40
1.7320508076
  0
ARC
  5
3DA
100
AcDbEntity
  8
A_RUNDUNGEN
100
AcDbCircle
 62
7
  6
CONTINUOUS
 10
36.9544839741
 20
146.2717123084
 40
2.0
100
AcDbArc
 50
0.0
 51
90.0
  0
ARC
  5
3DB
100
AcDbEntity
  8
A_RUNDUNGEN
100
AcDbCircle
 62
7
  6
CONTINUOUS
 10
43.0025055391
 20
151.2875605278
 40
1.5
100
AcDbArc
 50
162.2553283749
 51
180.0
  0
ARC
  5
3DC
100
AcDbEntity
  8
A_RUNDUNGEN
100
AcDbCircle
 62
7
  6
CONTINUOUS
 10
42.7525055391
 20
151.0173866242
 40
0.25
100
AcDbArc
 50
180.0
 51
269.0
  0
ARC
  5
3DD
100
AcDbEntity
  8
A_RUNDUNGEN
100
AcDbCircle
 62
7
  6
CONTINUOUS
 10
42.2525055391
 20
152.5217123084
 40
0.25
100
AcDbArc
 50
0.0
 51
90.0
  0
ARC
  5
3DE
100
AcDbEntity
  8
A_RUNDUNGEN
100
AcDbCircle
 62
7
  6
CONTINUOUS
 10
44.2525055391
 20
149.5260379926
 40
0.25
100
AcDbArc
 50
0.0
 51
89.0
  0
ARC
  5
3DF
100
AcDbEntity
  8
A_RUNDUNGEN
100
AcDbCircle
 62
7
  6
CONTINUOUS
 10
44.7525055391
 20
146.6261141567
 40
0.25
100
AcDbArc
 50
180.0000000007
 51
271.0
  0
ARC
  5
3E0
100
AcDbEntity
  8
A_RUNDUNGEN
100
AcDbCircle
 62
7
  6
CONTINUOUS
 10
41.7525055391
 20
150.069751819
 40
0.25
100
AcDbArc
 50
180.0
 51
269.0
  0
ARC
  5
3E1
100
AcDbEntity
  8
A_RUNDUNGEN
100
AcDbCircle
 62
7
  6
CONTINUOUS
 10
42.084993634
 20
152.5217123084
 40
0.25
100
AcDbArc
 50
90.0
 51
162.2553283749
  0
ARC
  5
3E2
100
AcDbEntity
  8
0
100
AcDbCircle
 62
7
  6
CONTINUOUS
 10
60.5525055391
 20
33.2717123084
 40
13.95
100
AcDbArc
 50
180.0
 51
184.5513298984
  0
ARC
  5
3E3
100
AcDbEntity
  8
A_RUNDUNGEN
100
AcDbCircle
 62
7
  6
CONTINUOUS
 10
60.5525055391
 20
32.2717123084
 40
13.9477992442
100
AcDbArc
 50
274.0602632552
 51
360.0
  0
ARC
  5
3E4
100
AcDbEntity
  8
0
100
AcDbCircle
 62
7
  6
CONTINUOUS
 10
60.6025055391
 20
32.1717123084
 40
13.9
100
AcDbArc
 50
180.0
 51
360.0
  0
ARC
  5
3E5
100
AcDbEntity
  8
DEFAULT_2
100
AcDbCircle
 62
2
  6
HIDDEN
 10
53.0525055391
 20
30.3717123084
 40
4.6
100
AcDbArc
 50
0.0
 51
180.0
  0
ARC
  5
3E6
100
AcDbEntity
  8
DEFAULT_2
100
AcDbCircle
 62
2
  6
HIDDEN
 10
53.0525055391
 20
28.1717123084
 40
4.6
100
AcDbArc
 50
180.0
 51
360.0
  0
ARC
  5
3E7
100
AcDbEntity
  8
A_FASEN
100
AcDbCircle
 62
2
  6
HIDDEN
 10
60.6025055391
 20
33.5717123084
 40
4.0
100
AcDbArc
 50
275.8004484653
 51
360.0
  0
ARC
  5
3E8
100
AcDbEntity
  8
A_FASEN
100
AcDbCircle
 62
7
  6
CONTINUOUS
 10
60.6025055391
 20
33.5717123084
 40
4.0
100
AcDbArc
 50
180.0
 51
275.8004484653
  0
ARC
  5
3E9
100
AcDbEntity
  8
DEFAULT_2
100
AcDbCircle
 62
2
  6
HIDDEN
 10
60.6025055391
 20
34.5717123084
 40
3.75
100
AcDbArc
 50
276.6260299059
 51
83.3739700941
  0
ARC
  5
3EA
100
AcDbEntity
  8
0
100
AcDbCircle
 62
7
  6
CONTINUOUS
 10
60.6025055391
 20
34.5717123084
 40
3.75
100
AcDbArc
 50
83.3739700941
 51
276.6260299059
  0
ARC
  5
3EB
100
AcDbEntity
  8
A_RUNDUNGEN
100
AcDbCircle
 62
2
  6
HIDDEN
 10
53.0525055391
 20
30.3717123084
 40
2.6088798489
100
AcDbArc
 50
0.0
 51
180.0
  0
ARC
  5
3EC
100
AcDbEntity
  8
A_RUNDUNGEN
100
AcDbCircle
 62
2
  6
HIDDEN
 10
53.0525055391
 20
28.1717123084
 40
2.6088798489
100
AcDbArc
 50
180.0
 51
360.0
  0
ARC
  5
3ED
100
AcDbEntity
  8
A_RUNDUNGEN
100
AcDbCircle
 62
7
  6
CONTINUOUS
 10
61.5047293172
 20
18.8576888315
 40
0.5000246663
100
AcDbArc
 50
180.0048719749
 51
274.0551107587
  0
ARC
  5
3EE
100
AcDbEntity
  8
A_FASEN
100
AcDbCircle
 62
7
  6
CONTINUOUS
 10
59.9057062892
 20
33.6122436935
 40
0.4540948596
100
AcDbArc
 50
69.1434825168
 51
84.5592442947
  0
ARC
  5
3EF
100
AcDbEntity
  8
A_FASEN
100
AcDbCircle
 62
7
  6
CONTINUOUS
 10
59.9090020827
 20
33.6446682992
 40
0.4215038894
100
AcDbArc
 50
84.5873222337
 51
93.3873701698
  0
ARC
  5
3F0
100
AcDbEntity
  8
DEFAULT_2
100
AcDbCircle
 62
2
  6
HIDDEN
 10
61.4025055391
 20
33.7717123084
 40
0.3
100
AcDbArc
 50
90.0
 51
105.0
  0
ARC
  5
3F1
100
AcDbEntity
  8
DEFAULT_2
100
AcDbCircle
 62
2
  6
HIDDEN
 10
61.4025055391
 20
33.7717123084
 40
0.3
100
AcDbArc
 50
165.0
 51
180.0
  0
ARC
  5
3F2
100
AcDbEntity
  8
0
100
AcDbCircle
 62
7
  6
CONTINUOUS
 10
59.8025055391
 20
33.7717123084
 40
0.3
100
AcDbArc
 50
75.0
 51
90.0
  0
ARC
  5
3F3
100
AcDbEntity
  8
0
100
AcDbCircle
 62
7
  6
CONTINUOUS
 10
59.8025055391
 20
33.7717123084
 40
0.3
100
AcDbArc
 50
0.0
 51
15.0
  0
ARC
  5
3F4
100
AcDbEntity
  8
A_FASEN
100
AcDbCircle
 62
2
  6
HIDDEN
 10
60.6025055391
 20
35.5717123084
 40
4.0
100
AcDbArc
 50
0.0
 51
84.1995501964
  0
ARC
  5
3F5
100
AcDbEntity
  8
A_FASEN
100
AcDbCircle
 62
7
  6
CONTINUOUS
 10
60.6025055391
 20
35.5717123084
 40
4.0
100
AcDbArc
 50
84.1995501964
 51
180.0
  0
ARC
  5
3F6
100
AcDbEntity
  8
A_RUNDUNGEN
100
AcDbCircle
 62
7
  6
CONTINUOUS
 10
61.5047243397
 20
49.7154867999
 40
0.5000217152
100
AcDbArc
 50
90.0042491766
 51
179.9954924836
  0
ARC
  5
3F7
100
AcDbEntity
  8
A_FASEN
100
AcDbCircle
 62
7
  6
CONTINUOUS
 10
59.6706247606
 20
35.2651825444
 40
0.4263342459
100
AcDbArc
 50
351.4246235572
 51
3.3534195257
  0
ARC
  5
3F8
100
AcDbEntity
  8
DEFAULT_2
100
AcDbCircle
 62
2
  6
HIDDEN
 10
61.4025055391
 20
35.3717123084
 40
0.3
100
AcDbArc
 50
255.0
 51
270.0
  0
ARC
  5
3F9
100
AcDbEntity
  8
DEFAULT_2
100
AcDbCircle
 62
2
  6
HIDDEN
 10
61.4025055391
 20
35.3717123084
 40
0.3
100
AcDbArc
 50
180.0
 51
195.0
  0
ARC
  5
3FA
100
AcDbEntity
  8
0
100
AcDbCircle
 62
7
  6
CONTINUOUS
 10
59.8025055391
 20
35.3717123084
 40
0.3
100
AcDbArc
 50
345.0
 51
360.0
  0
ARC
  5
3FB
100
AcDbEntity
  8
0
100
AcDbCircle
 62
7
  6
CONTINUOUS
 10
59.8025055391
 20
35.3717123084
 40
0.3
100
AcDbArc
 50
270.0
 51
285.0
  0
ARC
  5
3FC
100
AcDbEntity
  8
DEFAULT_2
100
AcDbCircle
 62
2
  6
HIDDEN
 10
68.0525055391
 20
30.3717123084
 40
4.6
100
AcDbArc
 50
0.0
 51
180.0
  0
ARC
  5
3FD
100
AcDbEntity
  8
DEFAULT_2
100
AcDbCircle
 62
2
  6
HIDDEN
 10
68.0525055391
 20
28.1717123084
 40
4.6
100
AcDbArc
 50
180.0
 51
360.0
  0
ARC
  5
3FE
100
AcDbEntity
  8
A_RUNDUNGEN
100
AcDbCircle
 62
2
  6
HIDDEN
 10
68.0525055391
 20
30.3717123084
 40
2.6088798489
100
AcDbArc
 50
0.0
 51
180.0
  0
ARC
  5
3FF
100
AcDbEntity
  8
A_RUNDUNGEN
100
AcDbCircle
 62
2
  6
HIDDEN
 10
68.0525055391
 20
28.1717123084
 40
2.6088798489
100
AcDbArc
 50
180.0
 51
360.0
  0
CIRCLE
  5
400
100
AcDbEntity
  8
0
100
AcDbCircle
 62
7
  6
CONTINUOUS
 10
70.7025055391
 20
42.7717123084
 40
1.830158461
  0
CIRCLE
  5
401
100
AcDbEntity
  8
0
100
AcDbCircle
 62
7
  6
CONTINUOUS
 10
70.7025055391
 20
42.7717123084
 40
1.72
  0
ARC
  5
402
100
AcDbEntity
  8
A_RUNDUNGEN
100
AcDbCircle
 62
7
  6
CONTINUOUS
 10
69.9997363547
 20
50.7159526746
 40
0.5027763901
100
AcDbArc
 50
343.612167436
 51
358.5915123032
  0
ARC
  5
403
100
AcDbEntity
  8
A_RUNDUNGEN
100
AcDbCircle
 62
7
  6
CONTINUOUS
 10
70.002486853
 20
50.715516633
 40
0.5000110791
100
AcDbArc
 50
270.002141225
 51
343.5711801182
  0
ARC
  5
404
100
AcDbEntity
  8
A_RUNDUNGEN
100
AcDbCircle
 62
7
  6
CONTINUOUS
 10
70.0063069871
 20
50.7155769184
 40
0.496198553
100
AcDbArc
 50
358.6162383305
 51
359.9963348819
  0
ARC
  5
405
100
AcDbEntity
  8
A_FASEN
100
AcDbCircle
 62
2
  6
HIDDEN
 10
60.6025055391
 20
160.9717123084
 40
4.0
100
AcDbArc
 50
275.8004484653
 51
360.0
  0
ARC
  5
406
100
AcDbEntity
  8
A_FASEN
100
AcDbCircle
 62
7
  6
CONTINUOUS
 10
60.6025055391
 20
160.9717123084
 40
4.0
100
AcDbArc
 50
180.0
 51
275.8004484653
  0
ARC
  5
407
100
AcDbEntity
  8
A_RUNDUNGEN
100
AcDbCircle
 62
7
  6
CONTINUOUS
 10
61.5047294819
 20
146.8279407058
 40
0.5000257788
100
AcDbArc
 50
180.0048384901
 51
269.9951616061
  0
ARC
  5
408
100
AcDbEntity
  8
A_FASEN
100
AcDbCircle
 62
7
  6
CONTINUOUS
 10
59.9057062892
 20
161.0122436935
 40
0.4540948596
100
AcDbArc
 50
69.1434825168
 51
84.5592442947
  0
ARC
  5
409
100
AcDbEntity
  8
A_FASEN
100
AcDbCircle
 62
7
  6
CONTINUOUS
 10
59.9090020827
 20
161.0446682992
 40
0.4215038894
100
AcDbArc
 50
84.5873222337
 51
93.3873701698
  0
ARC
  5
40A
100
AcDbEntity
  8
DEFAULT_2
100
AcDbCircle
 62
2
  6
HIDDEN
 10
61.4025055391
 20
161.1717123084
 40
0.3
100
AcDbArc
 50
90.0
 51
105.0
  0
ARC
  5
40B
100
AcDbEntity
  8
DEFAULT_2
100
AcDbCircle
 62
2
  6
HIDDEN
 10
61.4025055391
 20
161.1717123084
 40
0.3
100
AcDbArc
 50
165.0
 51
180.0
  0
ARC
  5
40C
100
AcDbEntity
  8
0
100
AcDbCircle
 62
7
  6
CONTINUOUS
 10
59.8025055391
 20
161.1717123084
 40
0.3
100
AcDbArc
 50
75.0
 51
90.0
  0
ARC
  5
40D
100
AcDbEntity
  8
0
100
AcDbCircle
 62
7
  6
CONTINUOUS
 10
59.8025055391
 20
161.1717123084
 40
0.3
100
AcDbArc
 50
0.0
 51
15.0
  0
ARC
  5
40E
100
AcDbEntity
  8
0
100
AcDbCircle
 62
7
  6
CONTINUOUS
 10
60.5525055391
 20
163.2717123084
 40
13.95
100
AcDbArc
 50
175.4486701016
 51
180.0
  0
ARC
  5
40F
100
AcDbEntity
  8
A_RUNDUNGEN
100
AcDbCircle
 62
7
  6
CONTINUOUS
 10
60.5525055391
 20
164.2717123084
 40
13.9477992442
100
AcDbArc
 50
0.0
 51
85.9397367448
  0
ARC
  5
410
100
AcDbEntity
  8
0
100
AcDbCircle
 62
7
  6
CONTINUOUS
 10
60.6025055391
 20
164.3717123084
 40
13.9
100
AcDbArc
 50
0.0
 51
180.0
  0
ARC
  5
411
100
AcDbEntity
  8
DEFAULT_2
100
AcDbCircle
 62
2
  6
HIDDEN
 10
53.0525055391
 20
166.1717123084
 40
4.6
100
AcDbArc
 50
180.0
 51
360.0
  0
ARC
  5
412
100
AcDbEntity
  8
DEFAULT_2
100
AcDbCircle
 62
2
  6
HIDDEN
 10
53.0525055391
 20
168.3717123084
 40
4.6
100
AcDbArc
 50
0.0
 51
180.0
  0
ARC
  5
413
100
AcDbEntity
  8
A_FASEN
100
AcDbCircle
 62
2
  6
HIDDEN
 10
60.6025055391
 20
162.9717123084
 40
4.0
100
AcDbArc
 50
0.0
 51
84.1995501964
  0
ARC
  5
414
100
AcDbEntity
  8
A_FASEN
100
AcDbCircle
 62
7
  6
CONTINUOUS
 10
60.6025055391
 20
162.9717123084
 40
4.0
100
AcDbArc
 50
84.1995501964
 51
180.0
  0
ARC
  5
415
100
AcDbEntity
  8
DEFAULT_2
100
AcDbCircle
 62
2
  6
HIDDEN
 10
60.6025055391
 20
161.9717123084
 40
3.75
100
AcDbArc
 50
276.6260299059
 51
83.3739700941
  0
ARC
  5
416
100
AcDbEntity
  8
0
100
AcDbCircle
 62
7
  6
CONTINUOUS
 10
60.6025055391
 20
161.9717123084
 40
3.75
100
AcDbArc
 50
83.3739700941
 51
276.6260299059
  0
ARC
  5
417
100
AcDbEntity
  8
A_RUNDUNGEN
100
AcDbCircle
 62
2
  6
HIDDEN
 10
53.0525055391
 20
166.1717123084
 40
2.6088798489
100
AcDbArc
 50
180.0
 51
360.0
  0
ARC
  5
418
100
AcDbEntity
  8
A_RUNDUNGEN
100
AcDbCircle
 62
2
  6
HIDDEN
 10
53.0525055391
 20
168.3717123084
 40
2.6088798489
100
AcDbArc
 50
0.0
 51
180.0
  0
ARC
  5
419
100
AcDbEntity
  8
A_RUNDUNGEN
100
AcDbCircle
 62
7
  6
CONTINUOUS
 10
61.5047328916
 20
177.6857293148
 40
0.50002965
100
AcDbArc
 50
85.9453501443
 51
179.9943866
  0
ARC
  5
41A
100
AcDbEntity
  8
A_FASEN
100
AcDbCircle
 62
7
  6
CONTINUOUS
 10
59.6706247606
 20
162.6651825444
 40
0.4263342459
100
AcDbArc
 50
351.4246235572
 51
3.3534195257
  0
ARC
  5
41B
100
AcDbEntity
  8
DEFAULT_2
100
AcDbCircle
 62
2
  6
HIDDEN
 10
61.4025055391
 20
162.7717123084
 40
0.3
100
AcDbArc
 50
255.0
 51
270.0
  0
ARC
  5
41C
100
AcDbEntity
  8
DEFAULT_2
100
AcDbCircle
 62
2
  6
HIDDEN
 10
61.4025055391
 20
162.7717123084
 40
0.3
100
AcDbArc
 50
180.0
 51
195.0
  0
ARC
  5
41D
100
AcDbEntity
  8
0
100
AcDbCircle
 62
7
  6
CONTINUOUS
 10
59.8025055391
 20
162.7717123084
 40
0.3
100
AcDbArc
 50
345.0
 51
360.0
  0
ARC
  5
41E
100
AcDbEntity
  8
0
100
AcDbCircle
 62
7
  6
CONTINUOUS
 10
59.8025055391
 20
162.7717123084
 40
0.3
100
AcDbArc
 50
270.0
 51
285.0
  0
CIRCLE
  5
41F
100
AcDbEntity
  8
0
100
AcDbCircle
 62
7
  6
CONTINUOUS
 10
70.7025055391
 20
153.7717123084
 40
1.830158461
  0
CIRCLE
  5
420
100
AcDbEntity
  8
0
100
AcDbCircle
 62
7
  6
CONTINUOUS
 10
70.7025055391
 20
153.7717123084
 40
1.72
  0
ARC
  5
421
100
AcDbEntity
  8
A_RUNDUNGEN
100
AcDbCircle
 62
7
  6
CONTINUOUS
 10
69.999963845
 20
145.8275378956
 40
0.5025418102
100
AcDbArc
 50
0.0389401498
 51
16.0052948665
  0
ARC
  5
422
100
AcDbEntity
  8
A_RUNDUNGEN
100
AcDbCircle
 62
7
  6
CONTINUOUS
 10
70.0024793294
 20
145.827894497
 40
0.5000251195
100
AcDbArc
 50
16.0454922991
 51
89.9969967281
  0
ARC
  5
423
100
AcDbEntity
  8
DEFAULT_2
100
AcDbCircle
 62
2
  6
HIDDEN
 10
68.0525055391
 20
166.1717123084
 40
4.6
100
AcDbArc
 50
180.0
 51
360.0
  0
ARC
  5
424
100
AcDbEntity
  8
DEFAULT_2
100
AcDbCircle
 62
2
  6
HIDDEN
 10
68.0525055391
 20
168.3717123084
 40
4.6
100
AcDbArc
 50
0.0
 51
180.0
  0
ARC
  5
425
100
AcDbEntity
  8
A_RUNDUNGEN
100
AcDbCircle
 62
2
  6
HIDDEN
 10
68.0525055391
 20
166.1717123084
 40
2.6088798489
100
AcDbArc
 50
180.0
 51
360.0
  0
ARC
  5
426
100
AcDbEntity
  8
A_RUNDUNGEN
100
AcDbCircle
 62
2
  6
HIDDEN
 10
68.0525055391
 20
168.3717123084
 40
2.6088798489
100
AcDbArc
 50
0.0
 51
180.0
  0
SPLINE
  5
427
100
AcDbEntity
  8
A_FASEN
100
AcDbSpline
 62
2
  6
HIDDEN
 70
0
 71
3
 72
9
 73
5
 74
0
 42
0.0000001
 43
0.0000001
 44
0.0000000001
 40
0.0
 40
0.0
 40
0.0
 40
0.0
 40
0.2340993006
 40
1.0
 40
1.0
 40
1.0
 40
1.0
 10
61.1376530633
 20
162.5068598327
 30
0.0
 10
61.1324678822
 20
162.5204362154
 30
0.0
 10
61.1132598546
 20
162.5794819262
 30
0.0
 10
61.1059775623
 20
162.6426566014
 30
0.0
 10
61.1087820782
 20
162.6901208819
 30
0.0
  0
SPLINE
  5
428
100
AcDbEntity
  8
A_FASEN
100
AcDbSpline
 62
2
  6
HIDDEN
 70
0
 71
3
 72
9
 73
5
 74
0
 42
0.0000001
 43
0.0000001
 44
0.0000000001
 40
0.0
 40
0.0
 40
0.0
 40
0.0
 40
0.2720496667
 40
1.0
 40
1.0
 40
1.0
 40
1.0
 10
61.3209141126
 20
162.4779888475
 30
0.0
 10
61.3040428053
 20
162.4769919747
 30
0.0
 10
61.2418291378
 20
162.4770919069
 30
0.0
 10
61.1798797143
 20
162.4907035204
 30
0.0
 10
61.137633888
 20
162.5068406573
 30
0.0
  0
SPLINE
  5
429
100
AcDbEntity
  8
A_FASEN
100
AcDbSpline
 62
2
  6
HIDDEN
 70
0
 71
3
 72
9
 73
5
 74
0
 42
0.0000001
 43
0.0000001
 44
0.0000000001
 40
0.0
 40
0.0
 40
0.0
 40
0.0
 40
0.2340689775
 40
1.0
 40
1.0
 40
1.0
 40
1.0
 10
61.137633888
 20
161.4365839595
 30
0.0
 10
61.1512095837
 20
161.4417695758
 30
0.0
 10
61.2102575839
 20
161.4609926563
 30
0.0
 10
61.2734433932
 20
161.4682406657
 30
0.0
 10
61.3209141126
 20
161.4654357693
 30
0.0
  0
SPLINE
  5
42A
100
AcDbEntity
  8
A_FASEN
100
AcDbSpline
 62
2
  6
HIDDEN
 70
0
 71
3
 72
9
 73
5
 74
0
 42
0.0000001
 43
0.0000001
 44
0.0000000001
 40
0.0
 40
0.0
 40
0.0
 40
0.0
 40
0.2720387836
 40
1.0
 40
1.0
 40
1.0
 40
1.0
 10
61.1087820782
 20
161.2533037349
 30
0.0
 10
61.1077853202
 20
161.2701730996
 30
0.0
 10
61.107896667
 20
161.3323827064
 30
0.0
 10
61.1215161005
 20
161.3943234685
 30
0.0
 10
61.1376503718
 20
161.4365674757
 30
0.0
  0
SPLINE
  5
42B
100
AcDbEntity
  8
A_FASEN
100
AcDbSpline
 62
2
  6
HIDDEN
 70
0
 71
3
 72
9
 73
5
 74
0
 42
0.0000001
 43
0.0000001
 44
0.0000000001
 40
0.0
 40
0.0
 40
0.0
 40
0.0
 40
0.2340993006
 40
1.0
 40
1.0
 40
1.0
 40
1.0
 10
61.1376530633
 20
35.1068598327
 30
0.0
 10
61.1324678822
 20
35.1204362154
 30
0.0
 10
61.1132598546
 20
35.1794819262
 30
0.0
 10
61.1059775623
 20
35.2426566014
 30
0.0
 10
61.1087820782
 20
35.2901208819
 30
0.0
  0
SPLINE
  5
42C
100
AcDbEntity
  8
A_FASEN
100
AcDbSpline
 62
2
  6
HIDDEN
 70
0
 71
3
 72
9
 73
5
 74
0
 42
0.0000001
 43
0.0000001
 44
0.0000000001
 40
0.0
 40
0.0
 40
0.0
 40
0.0
 40
0.2720496667
 40
1.0
 40
1.0
 40
1.0
 40
1.0
 10
61.3209141126
 20
35.0779888475
 30
0.0
 10
61.3040428053
 20
35.0769919747
 30
0.0
 10
61.2418291378
 20
35.0770919069
 30
0.0
 10
61.1798797143
 20
35.0907035204
 30
0.0
 10
61.137633888
 20
35.1068406573
 30
0.0
  0
SPLINE
  5
42D
100
AcDbEntity
  8
A_FASEN
100
AcDbSpline
 62
2
  6
HIDDEN
 70
0
 71
3
 72
9
 73
5
 74
0
 42
0.0000001
 43
0.0000001
 44
0.0000000001
 40
0.0
 40
0.0
 40
0.0
 40
0.0
 40
0.2340689775
 40
1.0
 40
1.0
 40
1.0
 40
1.0
 10
61.137633888
 20
34.0365839595
 30
0.0
 10
61.1512095837
 20
34.0417695758
 30
0.0
 10
61.2102575839
 20
34.0609926563
 30
0.0
 10
61.2734433932
 20
34.0682406657
 30
0.0
 10
61.3209141126
 20
34.0654357693
 30
0.0
  0
SPLINE
  5
42E
100
AcDbEntity
  8
A_FASEN
100
AcDbSpline
 62
2
  6
HIDDEN
 70
0
 71
3
 72
9
 73
5
 74
0
 42
0.0000001
 43
0.0000001
 44
0.0000000001
 40
0.0
 40
0.0
 40
0.0
 40
0.0
 40
0.2720387836
 40
1.0
 40
1.0
 40
1.0
 40
1.0
 10
61.1087820782
 20
33.8533037349
 30
0.0
 10
61.1077853202
 20
33.8701730996
 30
0.0
 10
61.107896667
 20
33.9323827064
 30
0.0
 10
61.1215161005
 20
33.9943234685
 30
0.0
 10
61.1376503718
 20
34.0365674757
 30
0.0
  0
SPLINE
  5
42F
100
AcDbEntity
  8
0
100
AcDbSpline
 62
2
  6
CONTINUOUS
 70
0
 71
3
 72
9
 73
5
 74
0
 42
0.0000001
 43
0.0000001
 44
0.0000000001
 40
0.0
 40
0.0
 40
0.0
 40
0.0
 40
0.3333333333
 40
1.0
 40
1.0
 40
1.0
 40
1.0
 10
21.1401891051
 20
95.3846889053
 30
0.0
 10
21.2299176175
 20
95.3593762394
 30
0.0
 10
21.5030409773
 20
95.2954011497
 30
0.0
 10
21.7744853747
 20
95.2717123084
 30
0.0
 10
21.9544839741
 20
95.2717123084
 30
0.0
  0
SPLINE
  5
430
100
AcDbEntity
  8
0
100
AcDbSpline
 62
2
  6
CONTINUOUS
 70
0
 71
3
 72
10
 73
6
 74
0
 42
0.0000001
 43
0.0000001
 44
0.0000000001
 40
0.0
 40
0.0
 40
0.0
 40
0.0
 40
0.4051535226
 40
0.8103070451
 40
1.0
 40
1.0
 40
1.0
 40
1.0
 10
21.9544839741
 20
65.7717123084
 30
0.0
 10
21.7754720969
 20
65.7717123084
 30
0.0
 10
21.4158769634
 20
65.7404731292
 30
0.0
 10
20.9690209745
 20
65.6149397483
 30
0.0
 10
20.7274232722
 20
65.510778563
 30
0.0
 10
20.6526887188
 20
65.4747770577
 30
0.0
  0
SPLINE
  5
431
100
AcDbEntity
  8
0
100
AcDbSpline
 62
2
  6
CONTINUOUS
 70
0
 71
3
 72
9
 73
5
 74
0
 42
0.0000001
 43
0.0000001
 44
0.0000000001
 40
0.0
 40
0.0
 40
0.0
 40
0.0
 40
0.3333333333
 40
1.0
 40
1.0
 40
1.0
 40
1.0
 10
21.1467651008
 20
59.8828388928
 30
0.0
 10
21.2357744643
 20
59.8579479652
 30
0.0
 10
21.5067049318
 20
59.7950204426
 30
0.0
 10
21.7759091664
 20
59.7717123084
 30
0.0
 10
21.9544839741
 20
59.7717123084
 30
0.0
  0
SPLINE
  5
432
100
AcDbEntity
  8
0
100
AcDbSpline
 62
2
  6
CONTINUOUS
 70
0
 71
3
 72
10
 73
6
 74
0
 42
0.0000001
 43
0.0000001
 44
0.0000000001
 40
0.0
 40
0.0
 40
0.0
 40
0.0
 40
0.4051535226
 40
0.8103070451
 40
1.0
 40
1.0
 40
1.0
 40
1.0
 10
21.9544839741
 20
136.7717123084
 30
0.0
 10
21.7754720969
 20
136.7717123084
 30
0.0
 10
21.4158769634
 20
136.7404731292
 30
0.0
 10
20.9690209745
 20
136.6149397483
 30
0.0
 10
20.7274232722
 20
136.510778563
 30
0.0
 10
20.6526887188
 20
136.4747770577
 30
0.0
  0
SPLINE
  5
433
100
AcDbEntity
  8
0
100
AcDbSpline
 62
2
  6
CONTINUOUS
 70
0
 71
3
 72
9
 73
5
 74
0
 42
0.0000001
 43
0.0000001
 44
0.0000000001
 40
0.0
 40
0.0
 40
0.0
 40
0.0
 40
0.3333333333
 40
1.0
 40
1.0
 40
1.0
 40
1.0
 10
21.1467651008
 20
130.8828388928
 30
0.0
 10
21.2357744643
 20
130.8579479652
 30
0.0
 10
21.5067049318
 20
130.7950204426
 30
0.0
 10
21.7759091664
 20
130.7717123084
 30
0.0
 10
21.9544839741
 20
130.7717123084
 30
0.0
  0
SPLINE
  5
434
100
AcDbEntity
  8
A_FASEN
100
AcDbSpline
 62
7
  6
CONTINUOUS
 70
0
 71
3
 72
9
 73
5
 74
0
 42
0.0000001
 43
0.0000001
 44
0.0000000001
 40
0.0
 40
0.0
 40
0.0
 40
0.0
 40
0.2340993006
 40
1.0
 40
1.0
 40
1.0
 40
1.0
 10
60.0673580148
 20
161.4365647842
 30
0.0
 10
60.0725431959
 20
161.4229884014
 30
0.0
 10
60.0917512236
 20
161.3639426906
 30
0.0
 10
60.0990335159
 20
161.3007680154
 30
0.0
 10
60.096229
 20
161.2533037349
 30
0.0
  0
SPLINE
  5
435
100
AcDbEntity
  8
A_FASEN
100
AcDbSpline
 62
7
  6
CONTINUOUS
 70
0
 71
3
 72
9
 73
5
 74
0
 42
0.0000001
 43
0.0000001
 44
0.0000000001
 40
0.0
 40
0.0
 40
0.0
 40
0.0
 40
0.2580930657
 40
1.0
 40
1.0
 40
1.0
 40
1.0
 10
60.092192826
 20
162.6016116747
 30
0.0
 10
60.0909448578
 20
162.5932681707
 30
0.0
 10
60.0851603164
 20
162.5610905068
 30
0.0
 10
60.076013217
 20
162.5295118459
 30
0.0
 10
60.0673606991
 20
162.5068571484
 30
0.0
  0
SPLINE
  5
436
100
AcDbEntity
  8
A_FASEN
100
AcDbSpline
 62
7
  6
CONTINUOUS
 70
0
 71
3
 72
9
 73
5
 74
0
 42
0.0000001
 43
0.0000001
 44
0.0000000001
 40
0.0
 40
0.0
 40
0.0
 40
0.0
 40
0.2340689774
 40
1.0
 40
1.0
 40
1.0
 40
1.0
 10
60.0673771902
 20
162.5068406573
 30
0.0
 10
60.0538014945
 20
162.5016550409
 30
0.0
 10
59.9947534942
 20
162.4824319606
 30
0.0
 10
59.931567685
 20
162.4751839511
 30
0.0
 10
59.8840969656
 20
162.4779888475
 30
0.0
  0
SPLINE
  5
437
100
AcDbEntity
  8
A_FASEN
100
AcDbSpline
 62
7
  6
CONTINUOUS
 70
0
 71
3
 72
9
 73
5
 74
0
 42
0.0000001
 43
0.0000001
 44
0.0000000001
 40
0.0
 40
0.0
 40
0.0
 40
0.0
 40
0.2340993006
 40
1.0
 40
1.0
 40
1.0
 40
1.0
 10
60.0673580148
 20
34.0365647842
 30
0.0
 10
60.0725431959
 20
34.0229884014
 30
0.0
 10
60.0917512236
 20
33.9639426906
 30
0.0
 10
60.0990335159
 20
33.9007680154
 30
0.0
 10
60.096229
 20
33.8533037349
 30
0.0
  0
SPLINE
  5
438
100
AcDbEntity
  8
A_FASEN
100
AcDbSpline
 62
7
  6
CONTINUOUS
 70
0
 71
3
 72
9
 73
5
 74
0
 42
0.0000001
 43
0.0000001
 44
0.0000000001
 40
0.0
 40
0.0
 40
0.0
 40
0.0
 40
0.2580930657
 40
1.0
 40
1.0
 40
1.0
 40
1.0
 10
60.092192826
 20
35.2016116747
 30
0.0
 10
60.0909448578
 20
35.1932681707
 30
0.0
 10
60.0851603164
 20
35.1610905068
 30
0.0
 10
60.076013217
 20
35.1295118459
 30
0.0
 10
60.0673606991
 20
35.1068571484
 30
0.0
  0
SPLINE
  5
439
100
AcDbEntity
  8
A_FASEN
100
AcDbSpline
 62
7
  6
CONTINUOUS
 70
0
 71
3
 72
9
 73
5
 74
0
 42
0.0000001
 43
0.0000001
 44
0.0000000001
 40
0.0
 40
0.0
 40
0.0
 40
0.0
 40
0.2340689774
 40
1.0
 40
1.0
 40
1.0
 40
1.0
 10
60.0673771902
 20
35.1068406573
 30
0.0
 10
60.0538014945
 20
35.1016550409
 30
0.0
 10
59.9947534942
 20
35.0824319606
 30
0.0
 10
59.931567685
 20
35.0751839511
 30
0.0
 10
59.8840969656
 20
35.0779888475
 30
0.0
  0
SPLINE
  5
43A
100
AcDbEntity
  8
0
100
AcDbSpline
 62
7
  6
CONTINUOUS
 70
0
 71
3
 72
9
 73
5
 74
0
 42
0.0000001
 43
0.0000001
 44
0.0000000001
 40
0.0
 40
0.0
 40
0.0
 40
0.0
 40
0.5173705929
 40
1.0
 40
1.0
 40
1.0
 40
1.0
 10
29.960091812
 20
112.8494236088
 30
0.0
 10
29.8911766915
 20
112.7228400755
 30
0.0
 10
29.7438227
 20
112.485184893
 30
0.0
 10
29.5554081475
 20
112.2769179792
 30
0.0
 10
29.4544839741
 20
112.1880871868
 30
0.0
  0
SPLINE
  5
43B
100
AcDbEntity
  8
0
100
AcDbSpline
 62
7
  6
CONTINUOUS
 70
0
 71
3
 72
9
 73
5
 74
0
 42
0.0000001
 43
0.0000001
 44
0.0000000001
 40
0.0
 40
0.0
 40
0.0
 40
0.0
 40
0.4826278358
 40
1.0
 40
1.0
 40
1.0
 40
1.0
 10
29.4544839741
 20
84.35533743
 30
0.0
 10
29.5554112837
 20
84.2665038772
 30
0.0
 10
29.7438320825
 20
84.0582293933
 30
0.0
 10
29.8911885918
 20
83.820564417
 30
0.0
 10
29.9601053836
 20
83.6939756614
 30
0.0
  0
SPLINE
  5
43C
100
AcDbEntity
  8
A_FASEN
100
AcDbSpline
 62
7
  6
CONTINUOUS
 70
0
 71
3
 72
24
 73
20
 74
0
 42
0.0000001
 43
0.0000001
 44
0.0000000001
 40
0.0
 40
0.0
 40
0.0
 40
0.0
 40
0.0014876882
 40
0.0053691433
 40
0.0116414218
 40
0.0202927826
 40
0.0313103131
 40
0.044678423
 40
0.0603583453
 40
0.0782981469
 40
0.1207488817
 40
0.1716091718
 40
0.2304104704
 40
0.2966553711
 40
0.3698102192
 40
0.4492040969
 40
0.6235528856
 40
0.8099039905
 40
1.0
 40
1.0
 40
1.0
 40
1.0
 10
49.1275338353
 20
74.6212453645
 30
0.0
 10
49.1282439293
 20
74.6219554709
 30
0.0
 10
49.13242852
 20
74.6214673407
 30
0.0
 10
49.139762452
 20
74.6226841236
 30
0.0
 10
49.1527269428
 20
74.6227491383
 30
0.0
 10
49.1701102606
 20
74.6234242994
 30
0.0
 10
49.1924522912
 20
74.6238502532
 30
0.0
 10
49.2194766541
 20
74.6243678115
 30
0.0
 10
49.2511967333
 20
74.6248468687
 30
0.0
 10
49.3025396975
 20
74.6255294379
 30
0.0
 10
49.3776345631
 20
74.6263265197
 30
0.0
 10
49.480310632
 20
74.6271987044
 30
0.0
 10
49.599050105
 20
74.6280161806
 30
0.0
 10
49.7328394667
 20
74.6287731671
 30
0.0
 10
49.8805300418
 20
74.6294606848
 30
0.0
 10
50.1011938932
 20
74.6303018293
 30
0.0
 10
50.3982691756
 20
74.6310966425
 30
0.0
 10
50.7700722378
 20
74.6316684018
 30
0.0
 10
51.0241851395
 20
74.6317916216
 30
0.0
 10
51.1525055391
 20
74.6317916216
 30
0.0
  0
SPLINE
  5
43D
100
AcDbEntity
  8
A_FASEN
100
AcDbSpline
 62
7
  6
CONTINUOUS
 70
0
 71
3
 72
24
 73
20
 74
0
 42
0.0000001
 43
0.0000001
 44
0.0000000001
 40
0.0
 40
0.0
 40
0.0
 40
0.0
 40
0.0014865826
 40
0.005364462
 40
0.0116298677
 40
0.0202702357
 40
0.0312718305
 40
0.0446183663
 40
0.0602723687
 40
0.0781846515
 40
0.1205866514
 40
0.1714210986
 40
0.2301953388
 40
0.296362501
 40
0.369360671
 40
0.4485737851
 40
0.6227592568
 40
0.8093708454
 40
1.0
 40
1.0
 40
1.0
 40
1.0
 10
53.1774774856
 20
121.9221794759
 30
0.0
 10
53.1767679192
 20
121.9214698972
 30
0.0
 10
53.1725870043
 20
121.9219573879
 30
0.0
 10
53.1652603253
 20
121.9207417251
 30
0.0
 10
53.1523106635
 20
121.9206764039
 30
0.0
 10
53.1349499792
 20
121.9200018115
 30
0.0
 10
53.1126407695
 20
121.9195760322
 30
0.0
 10
53.0856591893
 20
121.9190588221
 30
0.0
 10
53.0539897546
 20
121.9185800506
 30
0.0
 10
53.0027157519
 20
121.9178978113
 30
0.0
 10
52.927689798
 20
121.9171009813
 30
0.0
 10
52.8250823237
 20
121.9162290867
 30
0.0
 10
52.7064310238
 20
121.9154116721
 30
0.0
 10
52.5728181512
 20
121.9146548024
 30
0.0
 10
52.4254078183
 20
121.9139676341
 30
0.0
 10
52.205081968
 20
121.9131268148
 30
0.0
 10
51.9080630832
 20
121.912330756
 30
0.0
 10
51.5358344989
 20
121.9117568204
 30
0.0
 10
51.281185843
 20
121.9116329952
 30
0.0
 10
51.1525055391
 20
121.9116329952
 30
0.0
  0
SPLINE
  5
43E
100
AcDbEntity
  8
A_FASEN
100
AcDbSpline
 62
7
  6
CONTINUOUS
 70
0
 71
3
 72
24
 73
20
 74
0
 42
0.0000001
 43
0.0000001
 44
0.0000000001
 40
0.0
 40
0.0
 40
0.0
 40
0.0
 40
0.1936265364
 40
0.3808355293
 40
0.5536819077
 40
0.6323428917
 40
0.704941914
 40
0.770858547
 40
0.8294624553
 40
0.8801217183
 40
0.9223045049
 40
0.9401050721
 40
0.9556555647
 40
0.9689139255
 40
0.9798459168
 40
0.9884341065
 40
0.9946635606
 40
0.9985205162
 40
1.0
 40
1.0
 40
1.0
 40
1.0
 10
51.1525055391
 20
121.9116329952
 30
0.0
 10
51.0218019036
 20
121.9116329952
 30
0.0
 10
50.7647266413
 20
121.9117615221
 30
0.0
 10
50.3909753742
 20
121.912341507
 30
0.0
 10
50.0948298531
 20
121.9131440896
 30
0.0
 10
49.8760500577
 20
121.9139828764
 30
0.0
 10
49.7294509721
 20
121.9146689265
 30
0.0
 10
49.5963916275
 20
121.9154257765
 30
0.0
 10
49.4781426775
 20
121.9162433099
 30
0.0
 10
49.375916408
 20
121.9171142683
 30
0.0
 10
49.3012321015
 20
121.917909726
 30
0.0
 10
49.2502513428
 20
121.918590449
 30
0.0
 10
49.2187867591
 20
121.9190680522
 30
0.0
 10
49.1919814309
 20
121.9195838518
 30
0.0
 10
49.1698143076
 20
121.9200091446
 30
0.0
 10
49.1525592487
 20
121.9206812454
 30
0.0
 10
49.1396850984
 20
121.9207489578
 30
0.0
 10
49.1323983994
 20
121.921958013
 30
0.0
 10
49.128239786
 20
121.9214758109
 30
0.0
 10
49.1275336079
 20
121.9221820012
 30
0.0
  0
SPLINE
  5
43F
100
AcDbEntity
  8
A_FASEN
100
AcDbSpline
 62
7
  6
CONTINUOUS
 70
0
 71
3
 72
24
 73
20
 74
0
 42
0.0000001
 43
0.0000001
 44
0.0000000001
 40
0.0
 40
0.0
 40
0.0
 40
0.0
 40
0.1939420481
 40
0.3811076582
 40
0.5537723104
 40
0.6324423548
 40
0.7050628056
 40
0.7709680182
 40
0.8295376133
 40
0.8801649336
 40
0.922331228
 40
0.9401273655
 40
0.9556745603
 40
0.9689296922
 40
0.9798577713
 40
0.9884417823
 40
0.9946674366
 40
0.9985216175
 40
1.0
 40
1.0
 40
1.0
 40
1.0
 10
51.1525055391
 20
74.6317916216
 30
0.0
 10
51.2834221403
 20
74.6317916216
 30
0.0
 10
51.5406810698
 20
74.6316624203
 30
0.0
 10
51.914493322
 20
74.6310826056
 30
0.0
 10
52.21049297
 20
74.6302793086
 30
0.0
 10
52.4291706518
 20
74.629440611
 30
0.0
 10
52.5757825937
 20
74.6287545471
 30
0.0
 10
52.7088255174
 20
74.6279977197
 30
0.0
 10
52.82702202
 20
74.627180246
 30
0.0
 10
52.9291924201
 20
74.6263093492
 30
0.0
 10
53.0038410322
 20
74.6255140357
 30
0.0
 10
53.0548054369
 20
74.6248334203
 30
0.0
 10
53.0862626204
 20
74.6243558698
 30
0.0
 10
53.1130609029
 20
74.6238401566
 30
0.0
 10
53.1352203658
 20
74.6234148894
 30
0.0
 10
53.1524674597
 20
74.622743011
 30
0.0
 10
53.165334154
 20
74.622674978
 30
0.0
 10
53.1726160872
 20
74.6214668376
 30
0.0
 10
53.1767715722
 20
74.6219481097
 30
0.0
 10
53.1774772245
 20
74.6212424451
 30
0.0
  0
SPLINE
  5
440
100
AcDbEntity
  8
A_FASEN
100
AcDbSpline
 62
7
  6
CONTINUOUS
 70
0
 71
3
 72
24
 73
20
 74
0
 42
0.0000001
 43
0.0000001
 44
0.0000000001
 40
0.0
 40
0.0
 40
0.0
 40
0.0
 40
0.0010007943
 40
0.0044198163
 40
0.0102634116
 40
0.0185201637
 40
0.0291770216
 40
0.0422194904
 40
0.0576131205
 40
0.0753054431
 40
0.1173734993
 40
0.1679950063
 40
0.2266962448
 40
0.292970207
 40
0.3662779675
 40
0.4459408559
 40
0.6211394121
 40
0.8086544263
 40
1.0
 40
1.0
 40
1.0
 40
1.0
 10
53.1774772245
 20
74.6212424451
 30
0.0
 10
53.1779549241
 20
74.6207647371
 30
0.0
 10
53.1721056656
 20
74.6206906031
 30
0.0
 10
53.1681859078
 20
74.6199532411
 30
0.0
 10
53.154599621
 20
74.6196479832
 30
0.0
 10
53.1386882527
 20
74.6190725997
 30
0.0
 10
53.1168109917
 20
74.6186048943
 30
0.0
 10
53.0905391251
 20
74.6180970611
 30
0.0
 10
53.0593659985
 20
74.6176092648
 30
0.0
 10
53.0086551002
 20
74.6169211451
 30
0.0
 10
52.9341373647
 20
74.6161147046
 30
0.0
 10
52.8319504054
 20
74.615233971
 30
0.0
 10
52.7134172709
 20
74.6144075386
 30
0.0
 10
52.5795711238
 20
74.6136420018
 30
0.0
 10
52.4315739308
 20
74.6129463848
 30
0.0
 10
52.2100485715
 20
74.6120945285
 30
0.0
 10
51.9114281471
 20
74.6112895436
 30
0.0
 10
51.5374169868
 20
74.6107105285
 30
0.0
 10
51.2816712721
 20
74.6105856774
 30
0.0
 10
51.1525055391
 20
74.6105856774
 30
0.0
  0
SPLINE
  5
441
100
AcDbEntity
  8
A_FASEN
100
AcDbSpline
 62
7
  6
CONTINUOUS
 70
0
 71
3
 72
24
 73
20
 74
0
 42
0.0000001
 43
0.0000001
 44
0.0000000001
 40
0.0
 40
0.0
 40
0.0
 40
0.0
 40
0.1952159724
 40
0.3835128543
 40
0.557013466
 40
0.635956223
 40
0.7087367762
 40
0.7746779106
 40
0.8331486763
 40
0.8835311873
 40
0.9253098228
 40
0.9428579327
 40
0.9581198161
 40
0.9710517196
 40
0.981621573
 40
0.9898133508
 40
0.9956125986
 40
0.9990064977
 40
1.0
 40
1.0
 40
1.0
 40
1.0
 10
51.1525055391
 20
74.6105856774
 30
0.0
 10
51.0207271139
 20
74.6105856774
 30
0.0
 10
50.7618408953
 20
74.6107165304
 30
0.0
 10
50.3858353979
 20
74.6113037085
 30
0.0
 10
50.0883194559
 20
74.6121171374
 30
0.0
 10
49.8687822466
 20
74.6129664718
 30
0.0
 10
49.7218517094
 20
74.6136607061
 30
0.0
 10
49.5887416851
 20
74.6144261626
 30
0.0
 10
49.4707501304
 20
74.6152525648
 30
0.0
 10
49.3690754233
 20
74.616131925
 30
0.0
 10
49.2950118005
 20
74.6169365526
 30
0.0
 10
49.2446824164
 20
74.6176226934
 30
0.0
 10
49.2137705748
 20
74.6181089899
 30
0.0
 10
49.1877199579
 20
74.6186150131
 30
0.0
 10
49.166022735
 20
74.6190819936
 30
0.0
 10
49.1502371002
 20
74.6196542625
 30
0.0
 10
49.1367561286
 20
74.6199621732
 30
0.0
 10
49.1328644206
 20
74.6206917845
 30
0.0
 10
49.1270596162
 20
74.6207711371
 30
0.0
 10
49.1275338353
 20
74.6212453645
 30
0.0
  0
SPLINE
  5
442
100
AcDbEntity
  8
A_FASEN
100
AcDbSpline
 62
7
  6
CONTINUOUS
 70
0
 71
3
 72
24
 73
20
 74
0
 42
0.0000001
 43
0.0000001
 44
0.0000000001
 40
0.0
 40
0.0
 40
0.0
 40
0.0
 40
0.0010000663
 40
0.0044160371
 40
0.0102534081
 40
0.0184999229
 40
0.0291416917
 40
0.0421634227
 40
0.0575314979
 40
0.0751961807
 40
0.1172140246
 40
0.1678079783
 40
0.2264834827
 40
0.2926833768
 40
0.3658366452
 40
0.445317118
 40
0.6203451914
 40
0.808118136
 40
1.0
 40
1.0
 40
1.0
 40
1.0
 10
49.1275336079
 20
121.9221820012
 30
0.0
 10
49.1270562556
 20
121.9226593618
 30
0.0
 10
49.1329005063
 20
121.9227336945
 30
0.0
 10
49.136816509
 20
121.9234703579
 30
0.0
 10
49.1503875023
 20
121.9237756642
 30
0.0
 10
49.1662787083
 20
121.924350613
 30
0.0
 10
49.1881243542
 20
121.9248180866
 30
0.0
 10
49.2143550009
 20
121.9253255911
 30
0.0
 10
49.2454781461
 20
121.925813095
 30
0.0
 10
49.2961192735
 20
121.9265008757
 30
0.0
 10
49.3705658516
 20
121.9273070519
 30
0.0
 10
49.4726829593
 20
121.9281874809
 30
0.0
 10
49.5911301357
 20
121.9290138388
 30
0.0
 10
49.7248046384
 20
121.929779268
 30
0.0
 10
49.8725244227
 20
121.930474551
 30
0.0
 10
50.0937072989
 20
121.9313260701
 30
0.0
 10
50.3922636483
 20
121.9321322659
 30
0.0
 10
50.7666958982
 20
121.9327134802
 30
0.0
 10
51.0229777737
 20
121.9328389394
 30
0.0
 10
51.1525055391
 20
121.9328389394
 30
0.0
  0
SPLINE
  5
443
100
AcDbEntity
  8
A_FASEN
100
AcDbSpline
 62
7
  6
CONTINUOUS
 70
0
 71
3
 72
24
 73
20
 74
0
 42
0.0000001
 43
0.0000001
 44
0.0000000001
 40
0.0
 40
0.0
 40
0.0
 40
0.0
 40
0.1948980712
 40
0.3832422819
 40
0.5569213653
 40
0.6358531071
 40
0.7086129054
 40
0.7745674844
 40
0.8330734466
 40
0.8834872934
 40
0.9252818387
 40
0.9428343284
 40
0.9580996496
 40
0.9710351347
 40
0.9816092801
 40
0.9898055227
 40
0.9956087492
 40
0.9990054815
 40
1.0
 40
1.0
 40
1.0
 40
1.0
 10
51.1525055391
 20
121.9328389394
 30
0.0
 10
51.2840693801
 20
121.9328389394
 30
0.0
 10
51.5427729749
 20
121.9327087632
 30
0.0
 10
51.9187163335
 20
121.9321214179
 30
0.0
 10
52.2163772928
 20
121.9313087282
 30
0.0
 10
52.4360135515
 20
121.930459301
 30
0.0
 10
52.5829317311
 20
121.9297650777
 30
0.0
 10
52.7160605916
 20
121.9289996035
 30
0.0
 10
52.8341061457
 20
121.9281731493
 30
0.0
 10
52.9358365131
 20
121.9272937296
 30
0.0
 10
53.0099349951
 20
121.9264889632
 30
0.0
 10
53.0602803988
 20
121.9258027176
 30
0.0
 10
53.0911999402
 20
121.925316375
 30
0.0
 10
53.1172581803
 20
121.9248102465
 30
0.0
 10
53.1389638266
 20
121.9243432932
 30
0.0
 10
53.1547576758
 20
121.9237706893
 30
0.0
 10
53.1682474518
 20
121.923463299
 30
0.0
 10
53.172141922
 20
121.922732529
 30
0.0
 10
53.1779521898
 20
121.9226541883
 30
0.0
 10
53.1774774856
 20
121.9221794759
 30
0.0
  0
ELLIPSE
  5
444
100
AcDbEntity
  8
0
100
AcDbEllipse
 62
7
  6
CONTINUOUS
 10
33.0278642582
 20
82.9217123084
 30
0.0
 11
6.3901634046
 21
0.0
 31
0.0
 40
0.4694715628
 41
2.0732084817
 42
2.1642170039
  0
ELLIPSE
  5
445
100
AcDbEntity
  8
0
100
AcDbEllipse
 62
7
  6
CONTINUOUS
 10
33.0278642582
 20
113.6217123084
 30
0.0
 11
6.3901634046
 21
0.0
 31
0.0
 40
0.4694715628
 41
-2.1642170039
 42
-2.0732084767
  0
ELLIPSE
  5
446
100
AcDbEntity
  8
A_RUNDUNGEN
100
AcDbEllipse
 62
7
  6
CONTINUOUS
 10
48.1525123931
 20
50.5717191624
 30
0.0
 11
-0.3535630835
 21
-0.3535630835
 31
0.0
 40
0.9999725851
 41
-0.7853844557
 42
0.1444519185
  0
ELLIPSE
  5
447
100
AcDbEntity
  8
A_RUNDUNGEN
100
AcDbEllipse
 62
7
  6
CONTINUOUS
 10
48.1525123931
 20
145.9717054544
 30
0.0
 11
0.3535630835
 21
-0.3535630835
 31
0.0
 40
0.9999725851
 41
2.9971407351
 42
3.9269771093
  0
ELLIPSE
  5
448
100
AcDbEntity
  8
A_RUNDUNGEN
100
AcDbEllipse
 62
7
  6
CONTINUOUS
 10
47.6551235569
 20
57.3243234722
 30
0.0
 11
-0.0
 21
0.5
 31
0.0
 40
0.0052360356
 41
0.0052359878
 42
1.5707963268
  0
ELLIPSE
  5
449
100
AcDbEntity
  8
A_RUNDUNGEN
100
AcDbEllipse
 62
7
  6
CONTINUOUS
 10
47.6551235569
 20
139.2191011446
 30
0.0
 11
-0.0
 21
0.5
 31
0.0
 40
0.0052360356
 41
-4.7123889804
 42
-3.1468286413
  0
ELLIPSE
  5
44A
100
AcDbEntity
  8
A_RUNDUNGEN
100
AcDbEllipse
 62
7
  6
CONTINUOUS
 10
47.6551235569
 20
121.3243234722
 30
0.0
 11
-0.0
 21
0.5
 31
0.0
 40
0.0052360356
 41
0.0052359878
 42
1.5707963268
  0
ELLIPSE
  5
44B
100
AcDbEntity
  8
A_RUNDUNGEN
100
AcDbEllipse
 62
7
  6
CONTINUOUS
 10
47.6551235569
 20
117.7191011446
 30
0.0
 11
-0.0
 21
0.5
 31
0.0
 40
0.0052360356
 41
-4.7123889804
 42
-3.1468286413
  0
ELLIPSE
  5
44C
100
AcDbEntity
  8
A_RUNDUNGEN
100
AcDbEllipse
 62
7
  6
CONTINUOUS
 10
47.6551235569
 20
78.8243234722
 30
0.0
 11
0.0
 21
0.5
 31
0.0
 40
0.0052360356
 41
0.0052359878
 42
1.5707963268
  0
ELLIPSE
  5
44D
100
AcDbEntity
  8
A_RUNDUNGEN
100
AcDbEllipse
 62
7
  6
CONTINUOUS
 10
47.6551235569
 20
75.2191011446
 30
0.0
 11
0.0
 21
0.5
 31
0.0
 40
0.0052360356
 41
1.5707963268
 42
3.1363566658
  0
ELLIPSE
  5
44E
100
AcDbEntity
  8
A_RUNDUNGEN
100
AcDbEllipse
 62
7
  6
CONTINUOUS
 10
47.7676983224
 20
74.1065126711
 30
0.0
 11
0.0
 21
0.5
 31
0.0
 40
0.0052360356
 41
-1.5707963268
 42
-0.0052359878
  0
ELLIPSE
  5
44F
100
AcDbEntity
  8
A_RUNDUNGEN
100
AcDbEllipse
 62
7
  6
CONTINUOUS
 10
47.7676983224
 20
58.4369119457
 30
0.0
 11
0.0
 21
0.5
 31
0.0
 40
0.0052360356
 41
-3.1363566658
 42
-1.5707963268
  0
ELLIPSE
  5
450
100
AcDbEntity
  8
A_RUNDUNGEN
100
AcDbEllipse
 62
7
  6
CONTINUOUS
 10
47.7676983224
 20
79.9369119457
 30
0.0
 11
0.0
 21
0.5
 31
0.0
 40
0.0052360356
 41
-3.1363566658
 42
-1.5707963268
  0
ELLIPSE
  5
451
100
AcDbEntity
  8
A_RUNDUNGEN
100
AcDbEllipse
 62
7
  6
CONTINUOUS
 10
47.7676983224
 20
116.6065126711
 30
0.0
 11
-0.0
 21
0.5
 31
0.0
 40
0.0052360356
 41
-1.5707963268
 42
-0.0052359878
  0
ELLIPSE
  5
452
100
AcDbEntity
  8
A_RUNDUNGEN
100
AcDbEllipse
 62
7
  6
CONTINUOUS
 10
47.7676983224
 20
138.1065126711
 30
0.0
 11
0.0
 21
0.5
 31
0.0
 40
0.0052360356
 41
-1.5707963268
 42
-0.0052359878
  0
ELLIPSE
  5
453
100
AcDbEntity
  8
A_RUNDUNGEN
100
AcDbEllipse
 62
7
  6
CONTINUOUS
 10
47.7676983224
 20
122.4369119457
 30
0.0
 11
-0.0
 21
0.5
 31
0.0
 40
0.0052360356
 41
-3.1363566658
 42
-1.5707963268
  0
ELLIPSE
  5
454
100
AcDbEntity
  8
0
100
AcDbEllipse
 62
7
  6
CONTINUOUS
 10
51.6525055391
 20
74.6525966384
 30
0.0
 11
1.725
 21
-0.0
 31
0.0
 40
0.0052360356
 41
-1.5707963268
 42
3.1415926536
  0
ELLIPSE
  5
455
100
AcDbEntity
  8
0
100
AcDbEllipse
 62
7
  6
CONTINUOUS
 10
51.6525055391
 20
79.3908279784
 30
0.0
 11
1.725
 21
-0.0
 31
0.0
 40
0.0052360356
 41
3.1415926536
 42
7.853981634
  0
ELLIPSE
  5
456
100
AcDbEntity
  8
0
100
AcDbEllipse
 62
7
  6
CONTINUOUS
 10
51.6525055391
 20
57.8908279784
 30
0.0
 11
1.725
 21
-0.0
 31
0.0
 40
0.0052360356
 41
3.1415926536
 42
7.853981634
  0
ELLIPSE
  5
457
100
AcDbEntity
  8
0
100
AcDbEllipse
 62
7
  6
CONTINUOUS
 10
51.1525055391
 20
79.422244192
 30
0.0
 11
1.725
 21
-0.0
 31
0.0
 40
0.0052360356
 41
0.0
 42
6.2831853072
  0
ELLIPSE
  5
458
100
AcDbEntity
  8
0
100
AcDbEllipse
 62
7
  6
CONTINUOUS
 10
51.6525055391
 20
138.6525966384
 30
0.0
 11
1.725
 21
-0.0
 31
0.0
 40
0.0052360356
 41
-1.5707963268
 42
3.1415926536
  0
ELLIPSE
  5
459
100
AcDbEntity
  8
0
100
AcDbEllipse
 62
7
  6
CONTINUOUS
 10
51.1525055391
 20
138.6211804248
 30
0.0
 11
2.0
 21
0.0
 31
0.0
 40
0.0052360356
 41
0.0
 42
6.2831853072
  0
ELLIPSE
  5
45A
100
AcDbEntity
  8
0
100
AcDbEllipse
 62
7
  6
CONTINUOUS
 10
51.1525055391
 20
117.1211804248
 30
0.0
 11
1.725
 21
-0.0
 31
0.0
 40
0.0052360356
 41
-1.5707963268
 42
3.1415926536
  0
ELLIPSE
  5
45B
100
AcDbEntity
  8
0
100
AcDbEllipse
 62
7
  6
CONTINUOUS
 10
51.6525055391
 20
117.1525966384
 30
0.0
 11
1.725
 21
0.0
 31
0.0
 40
0.0052360356
 41
-1.5707963268
 42
3.1415926536
  0
ELLIPSE
  5
45C
100
AcDbEntity
  8
0
100
AcDbEllipse
 62
7
  6
CONTINUOUS
 10
51.6525055391
 20
121.8908279784
 30
0.0
 11
1.725
 21
-0.0
 31
0.0
 40
0.0052360356
 41
3.1415926536
 42
7.853981634
  0
ELLIPSE
  5
45D
100
AcDbEntity
  8
0
100
AcDbEllipse
 62
7
  6
CONTINUOUS
 10
51.1525055391
 20
57.922244192
 30
0.0
 11
2.0
 21
-0.0
 31
0.0
 40
0.0052360356
 41
0.0
 42
6.2831853072
  0
ELLIPSE
  5
45E
100
AcDbEntity
  8
A_RUNDUNGEN
100
AcDbEllipse
 62
7
  6
CONTINUOUS
 10
46.7691887139
 20
50.5957966461
 30
0.0
 11
0.0
 21
0.5
 31
0.0
 40
0.0087268678
 41
3.6834611767
 42
4.7123889804
  0
ELLIPSE
  5
45F
100
AcDbEntity
  8
A_RUNDUNGEN
100
AcDbEllipse
 62
7
  6
CONTINUOUS
 10
46.7691887139
 20
145.9476279707
 30
0.0
 11
0.0
 21
0.5
 31
0.0
 40
0.0087268678
 41
-1.5707963268
 42
-0.5418685231
  0
ELLIPSE
  5
460
100
AcDbEntity
  8
A_RUNDUNGEN
100
AcDbEllipse
 62
7
  6
CONTINUOUS
 10
46.606868973
 20
49.4983926759
 30
0.0
 11
0.0
 21
0.5
 31
0.0
 40
0.0087268678
 41
0.0052359878
 42
1.5707963268
  0
ELLIPSE
  5
461
100
AcDbEntity
  8
A_RUNDUNGEN
100
AcDbEllipse
 62
7
  6
CONTINUOUS
 10
46.606868973
 20
147.0450319409
 30
0.0
 11
-0.0
 21
0.5
 31
0.0
 40
0.0087268678
 41
-4.7123889804
 42
-3.1468286413
  0
ENDSEC
  0
SECTION
  2
OBJECTS
  0
DICTIONARY
  5
462
100
AcDbDictionary
  3
ACAD_GROUP
350
463
  3
ACAD_MLINESTYLE
350
464
  0
DICTIONARY
  5
463
102
{ACAD_REACTORS
330
462
102
}
100
AcDbDictionary
  0
DICTIONARY
  5
464
102
{ACAD_REACTORS
330
462
102
}
100
AcDbDictionary
  3
STANDARD
350
465
  0
MLINESTYLE
  5
465
102
{ACAD_REACTORS
330
464
102
}
100
AcDbMlineStyle
  2
STANDARD
 70
0
  3

 62
256
 51
90.0
 52
90.0
 71
2
 49
0.5
 62
256
  6
BYLAYER
 49
-0.5
 62
256
  6
BYLAYER
  0
ENDSEC
  0
EOF
