  0
SECTION
  2
HEADER
  9
$ACADVER
  1
AC1018
  9
$ACADMAINTVER
 70
     0
  9
$DWGCODEPAGE
  3
ANSI_1252
  9
$INSBASE
 10
0.0
 20
0.0
 30
0.0
  9
$EXTMIN
 10
-27.7629144585976
 20
-32.5616744024362
 30
0.0
  9
$EXTMAX
 10
42.9228915477394
 20
54.82016917698211
 30
0.0
  9
$LIMMIN
 10
0.0
 20
0.0
  9
$LIMMAX
 10
12.0
 20
9.0
  9
$ORTHOMODE
 70
     0
  9
$REGENMODE
 70
     1
  9
$FILLMODE
 70
     1
  9
$QTEXTMODE
 70
     0
  9
$MIRRTEXT
 70
     1
  9
$LTSCALE
 40
1.0
  9
$ATTMODE
 70
     1
  9
$TEXTSIZE
 40
0.2
  9
$TRACEWID
 40
0.05
  9
$TEXTSTYLE
  7
Standard
  9
$CLAYER
  8
0
  9
$CELTYPE
  6
ByLayer
  9
$CECOLOR
 62
   256
  9
$CELTSCALE
 40
1.0
  9
$DISPSILH
 70
     0
  9
$DIMSCALE
 40
1.0
  9
$DIMASZ
 40
0.18
  9
$DIMEXO
 40
0.0625
  9
$DIMDLI
 40
0.38
  9
$DIMRND
 40
0.0
  9
$DIMDLE
 40
0.0
  9
$DIMEXE
 40
0.18
  9
$DIMTP
 40
0.0
  9
$DIMTM
 40
0.0
  9
$DIMTXT
 40
0.18
  9
$DIMCEN
 40
0.09
  9
$DIMTSZ
 40
0.0
  9
$DIMTOL
 70
     0
  9
$DIMLIM
 70
     0
  9
$DIMTIH
 70
     1
  9
$DIMTOH
 70
     1
  9
$DIMSE1
 70
     0
  9
$DIMSE2
 70
     0
  9
$DIMTAD
 70
     0
  9
$DIMZIN
 70
     0
  9
$DIMBLK
  1

  9
$DIMASO
 70
     1
  9
$DIMSHO
 70
     1
  9
$DIMPOST
  1

  9
$DIMAPOST
  1

  9
$DIMALT
 70
     0
  9
$DIMALTD
 70
     2
  9
$DIMALTF
 40
25.4
  9
$DIMLFAC
 40
1.0
  9
$DIMTOFL
 70
     0
  9
$DIMTVP
 40
0.0
  9
$DIMTIX
 70
     0
  9
$DIMSOXD
 70
     0
  9
$DIMSAH
 70
     0
  9
$DIMBLK1
  1

  9
$DIMBLK2
  1

  9
$DIMSTYLE
  2
Standard
  9
$DIMCLRD
 70
     0
  9
$DIMCLRE
 70
     0
  9
$DIMCLRT
 70
     0
  9
$DIMTFAC
 40
1.0
  9
$DIMGAP
 40
0.09
  9
$DIMJUST
 70
     0
  9
$DIMSD1
 70
     0
  9
$DIMSD2
 70
     0
  9
$DIMTOLJ
 70
     1
  9
$DIMTZIN
 70
     0
  9
$DIMALTZ
 70
     0
  9
$DIMALTTZ
 70
     0
  9
$DIMUPT
 70
     0
  9
$DIMDEC
 70
     4
  9
$DIMTDEC
 70
     4
  9
$DIMALTU
 70
     2
  9
$DIMALTTD
 70
     2
  9
$DIMTXSTY
  7
Standard
  9
$DIMAUNIT
 70
     0
  9
$DIMADEC
 70
     0
  9
$DIMALTRND
 40
0.0
  9
$DIMAZIN
 70
     0
  9
$DIMDSEP
 70
    46
  9
$DIMATFIT
 70
     3
  9
$DIMFRAC
 70
     0
  9
$DIMLDRBLK
  1

  9
$DIMLUNIT
 70
     2
  9
$DIMLWD
 70
    -2
  9
$DIMLWE
 70
    -2
  9
$DIMTMOVE
 70
     0
  9
$LUNITS
 70
     2
  9
$LUPREC
 70
     4
  9
$SKETCHINC
 40
0.1
  9
$FILLETRAD
 40
0.5
  9
$AUNITS
 70
     0
  9
$AUPREC
 70
     0
  9
$MENU
  1
.
  9
$ELEVATION
 40
0.0
  9
$PELEVATION
 40
0.0
  9
$THICKNESS
 40
0.0
  9
$LIMCHECK
 70
     0
  9
$CHAMFERA
 40
0.5
  9
$CHAMFERB
 40
0.5
  9
$CHAMFERC
 40
1.0
  9
$CHAMFERD
 40
0.0
  9
$SKPOLY
 70
     0
  9
$TDCREATE
 40
2454428.411837453
  9
$TDUCREATE
 40
2454428.370170787
  9
$TDUPDATE
 40
2454428.411837465
  9
$TDUUPDATE
 40
2454428.370170799
  9
$TDINDWG
 40
0.0000000116
  9
$TDUSRTIMER
 40
0.0000000116
  9
$USRTIMER
 70
     1
  9
$ANGBASE
 50
0.0
  9
$ANGDIR
 70
     0
  9
$PDMODE
 70
     0
  9
$PDSIZE
 40
0.0
  9
$PLINEWID
 40
0.0
  9
$SPLFRAME
 70
     0
  9
$SPLINETYPE
 70
     6
  9
$SPLINESEGS
 70
     8
  9
$HANDSEED
  5
CC
  9
$SURFTAB1
 70
     6
  9
$SURFTAB2
 70
     6
  9
$SURFTYPE
 70
     6
  9
$SURFU
 70
     6
  9
$SURFV
 70
     6
  9
$UCSBASE
  2

  9
$UCSNAME
  2

  9
$UCSORG
 10
0.0
 20
0.0
 30
0.0
  9
$UCSXDIR
 10
1.0
 20
0.0
 30
0.0
  9
$UCSYDIR
 10
0.0
 20
1.0
 30
0.0
  9
$UCSORTHOREF
  2

  9
$UCSORTHOVIEW
 70
     0
  9
$UCSORGTOP
 10
0.0
 20
0.0
 30
0.0
  9
$UCSORGBOTTOM
 10
0.0
 20
0.0
 30
0.0
  9
$UCSORGLEFT
 10
0.0
 20
0.0
 30
0.0
  9
$UCSORGRIGHT
 10
0.0
 20
0.0
 30
0.0
  9
$UCSORGFRONT
 10
0.0
 20
0.0
 30
0.0
  9
$UCSORGBACK
 10
0.0
 20
0.0
 30
0.0
  9
$PUCSBASE
  2

  9
$PUCSNAME
  2

  9
$PUCSORG
 10
0.0
 20
0.0
 30
0.0
  9
$PUCSXDIR
 10
1.0
 20
0.0
 30
0.0
  9
$PUCSYDIR
 10
0.0
 20
1.0
 30
0.0
  9
$PUCSORTHOREF
  2

  9
$PUCSORTHOVIEW
 70
     0
  9
$PUCSORGTOP
 10
0.0
 20
0.0
 30
0.0
  9
$PUCSORGBOTTOM
 10
0.0
 20
0.0
 30
0.0
  9
$PUCSORGLEFT
 10
0.0
 20
0.0
 30
0.0
  9
$PUCSORGRIGHT
 10
0.0
 20
0.0
 30
0.0
  9
$PUCSORGFRONT
 10
0.0
 20
0.0
 30
0.0
  9
$PUCSORGBACK
 10
0.0
 20
0.0
 30
0.0
  9
$USERI1
 70
     0
  9
$USERI2
 70
     0
  9
$USERI3
 70
     0
  9
$USERI4
 70
     0
  9
$USERI5
 70
     0
  9
$USERR1
 40
14.5
  9
$USERR2
 40
0.0
  9
$USERR3
 40
0.0
  9
$USERR4
 40
0.0
  9
$USERR5
 40
0.0
  9
$WORLDVIEW
 70
     1
  9
$SHADEDGE
 70
     3
  9
$SHADEDIF
 70
    70
  9
$TILEMODE
 70
     1
  9
$MAXACTVP
 70
    64
  9
$PINSBASE
 10
0.0
 20
0.0
 30
0.0
  9
$PLIMCHECK
 70
     0
  9
$PEXTMIN
 10
1.00000000000000E+20
 20
1.00000000000000E+20
 30
1.00000000000000E+20
  9
$PEXTMAX
 10
-1.00000000000000E+20
 20
-1.00000000000000E+20
 30
-1.00000000000000E+20
  9
$PLIMMIN
 10
0.0
 20
0.0
  9
$PLIMMAX
 10
12.0
 20
9.0
  9
$UNITMODE
 70
     0
  9
$VISRETAIN
 70
     1
  9
$PLINEGEN
 70
     0
  9
$PSLTSCALE
 70
     1
  9
$TREEDEPTH
 70
  3020
  9
$CMLSTYLE
  2
Standard
  9
$CMLJUST
 70
     0
  9
$CMLSCALE
 40
1.0
  9
$PROXYGRAPHICS
 70
     1
  9
$MEASUREMENT
 70
     1
  9
$CELWEIGHT
370
    -1
  9
$ENDCAPS
280
     0
  9
$JOINSTYLE
280
     0
  9
$LWDISPLAY
290
     0
  9
$INSUNITS
 70
     1
  9
$HYPERLINKBASE
  1

  9
$STYLESHEET
  1

  9
$XEDIT
290
     1
  9
$CEPSNTYPE
380
     0
  9
$PSTYLEMODE
290
     1
  9
$FINGERPRINTGUID
  2
{CFC56ADC-DA33-4BBC-A46A-7E70C5925894}
  9
$VERSIONGUID
  2
{FAEB1C32-E019-11D5-929B-00C0DF256EC4}
  9
$EXTNAMES
290
     1
  9
$PSVPSCALE
 40
0.0
  9
$OLESTARTUP
290
     0
  9
$SORTENTS
280
   127
  9
$INDEXCTL
280
     0
  9
$HIDETEXT
280
     1
  9
$XCLIPFRAME
290
     0
  9
$HALOGAP
280
     0
  9
$OBSCOLOR
 70
   257
  9
$OBSLTYPE
280
     0
  9
$INTERSECTIONDISPLAY
280
     0
  9
$INTERSECTIONCOLOR
 70
   257
  9
$DIMASSOC
280
     2
  9
$PROJECTNAME
  1

  0
ENDSEC
  0
SECTION
  2
CLASSES
  0
CLASS
  1
ACDBDICTIONARYWDFLT
  2
AcDbDictionaryWithDefault
  3
ObjectDBX Classes
 90
        0
 91
        3
280
     0
281
     0
  0
ENDSEC
  0
SECTION
  2
TABLES
  0
TABLE
  2
VPORT
  5
8
330
0
100
AcDbSymbolTable
 70
     1
  0
VPORT
  5
29
330
8
100
AcDbSymbolTableRecord
100
AcDbViewportTableRecord
  2
*Active
 70
     0
 10
0.0
 20
0.0
 11
1.0
 21
1.0
 12
7.5799885445709
 22
11.12924738727295
 13
0.0
 23
0.0
 14
0.5
 24
0.5
 15
0.5
 25
0.5
 16
0.0
 26
0.0
 36
1.0
 17
0.0
 27
0.0
 37
0.0
 40
96.12002793736015
 41
1.60267857142857
 42
50.0
 43
0.0
 44
0.0
 50
0.0
 51
0.0
 71
     0
 72
   100
 73
     1
 74
     3
 75
     0
 76
     0
 77
     0
 78
     0
281
     0
 65
     1
110
0.0
120
0.0
130
0.0
111
1.0
121
0.0
131
0.0
112
0.0
122
1.0
132
0.0
 79
     0
146
0.0
  0
ENDTAB
  0
TABLE
  2
LTYPE
  5
5
330
0
100
AcDbSymbolTable
 70
     8
  0
LTYPE
  5
14
330
5
100
AcDbSymbolTableRecord
100
AcDbLinetypeTableRecord
  2
ByBlock
 70
     0
  3

 72
    65
 73
     0
 40
0.0
  0
LTYPE
  5
15
330
5
100
AcDbSymbolTableRecord
100
AcDbLinetypeTableRecord
  2
ByLayer
 70
     0
  3

 72
    65
 73
     0
 40
0.0
  0
LTYPE
  5
16
330
5
100
AcDbSymbolTableRecord
100
AcDbLinetypeTableRecord
  2
Continuous
 70
     0
  3
Solid line
 72
    65
 73
     0
 40
0.0
  0
LTYPE
  5
2A
330
5
100
AcDbSymbolTableRecord
100
AcDbLinetypeTableRecord
  2
DASHED
 70
     0
  3
Dashed
 72
    65
 73
     2
 40
15.0
 49
7.0
 74
     0
 49
-8.0
 74
     0
  0
LTYPE
  5
2B
330
5
100
AcDbSymbolTableRecord
100
AcDbLinetypeTableRecord
  2
DOTTED
 70
     0
  3
Dotted
 72
    65
 73
     2
 40
1.0
 49
0.0
 74
     0
 49
-1.0
 74
     0
  0
LTYPE
  5
2C
330
5
100
AcDbSymbolTableRecord
100
AcDbLinetypeTableRecord
  2
DOT_CENTER
 70
     0
  3
Dot_Center
 72
    65
 73
     4
 40
14.0
 49
12.0
 74
     0
 49
-1.0
 74
     0
 49
0.0
 74
     0
 49
-1.0
 74
     0
  0
LTYPE
  5
2D
330
5
100
AcDbSymbolTableRecord
100
AcDbLinetypeTableRecord
  2
LONG_DASHED
 70
     0
  3
Long_Dashed
 72
    65
 73
     2
 40
15.0
 49
10.0
 74
     0
 49
-5.0
 74
     0
  0
LTYPE
  5
2E
330
5
100
AcDbSymbolTableRecord
100
AcDbLinetypeTableRecord
  2
DASH_CENTER
 70
     0
  3
Dash_Center
 72
    65
 73
     4
 40
14.0
 49
11.0
 74
     0
 49
-1.0
 74
     0
 49
1.0
 74
     0
 49
-1.0
 74
     0
  0
LTYPE
  5
2F
330
5
100
AcDbSymbolTableRecord
100
AcDbLinetypeTableRecord
  2
PHANTOM
 70
     0
  3
Phantom
 72
    65
 73
     6
 40
13.0
 49
10.0
 74
     0
 49
-1.0
 74
     0
 49
0.0
 74
     0
 49
-1.0
 74
     0
 49
0.0
 74
     0
 49
-1.0
 74
     0
  0
LTYPE
  5
30
330
5
100
AcDbSymbolTableRecord
100
AcDbLinetypeTableRecord
  2
CENTER_DASH_DASH
 70
     0
  3
Center_Dash_Dash
 72
    65
 73
     6
 40
14.0
 49
9.0
 74
     0
 49
-1.0
 74
     0
 49
1.0
 74
     0
 49
-1.0
 74
     0
 49
1.0
 74
     0
 49
-1.0
 74
     0
  0
ENDTAB
  0
TABLE
  2
LAYER
  5
2
330
0
100
AcDbSymbolTable
 70
     2
  0
LAYER
  5
10
330
2
100
AcDbSymbolTableRecord
100
AcDbLayerTableRecord
  2
0
 70
     0
 62
     7
  6
Continuous
370
    -3
390
F
  0
LAYER
  5
31
330
2
100
AcDbSymbolTableRecord
100
AcDbLayerTableRecord
  2
1
 70
     0
 62
     7
  6
Continuous
370
    -3
390
F
  0
ENDTAB
  0
TABLE
  2
STYLE
  5
3
330
0
100
AcDbSymbolTable
 70
     2
  0
STYLE
  5
11
330
3
100
AcDbSymbolTableRecord
100
AcDbTextStyleTableRecord
  2
Standard
 70
     0
 40
0.0
 41
1.0
 50
0.0
 71
     0
 42
0.2
  3
txt
  4

  0
STYLE
  5
88
330
3
100
AcDbSymbolTableRecord
100
AcDbTextStyleTableRecord
  2
CONVERTER_11
 70
     0
 40
0.0
 41
0.9
 50
0.0
 71
     0
 42
0.2
  3
txt.shx
  4

  0
ENDTAB
  0
TABLE
  2
VIEW
  5
6
330
0
100
AcDbSymbolTable
 70
     0
  0
ENDTAB
  0
TABLE
  2
UCS
  5
7
330
0
100
AcDbSymbolTable
 70
     0
  0
ENDTAB
  0
TABLE
  2
APPID
  5
9
330
0
100
AcDbSymbolTable
 70
     1
  0
APPID
  5
12
330
9
100
AcDbSymbolTableRecord
100
AcDbRegAppTableRecord
  2
ACAD
 70
     0
  0
ENDTAB
  0
TABLE
  2
DIMSTYLE
  5
A
330
0
100
AcDbSymbolTable
 70
     7
100
AcDbDimStyleTable
  0
DIMSTYLE
105
27
330
A
100
AcDbSymbolTableRecord
100
AcDbDimStyleTableRecord
  2
Standard
 70
     0
340
11
  0
DIMSTYLE
105
93
102
{ACAD_REACTORS
330
94
102
}
330
A
100
AcDbSymbolTableRecord
100
AcDbDimStyleTableRecord
  2
ME10_DIM_10
 70
     0
 41
3.5
 42
0.0
 44
2.0
 73
     0
 74
     0
 77
     1
 78
     8
140
3.5
147
2.0
172
     1
173
     1
176
     2
177
     2
178
     2
271
     2
340
88
  0
DIMSTYLE
105
9E
102
{ACAD_REACTORS
330
9F
102
}
330
A
100
AcDbSymbolTableRecord
100
AcDbDimStyleTableRecord
  2
ME10_DIM_11
 70
     0
 41
3.5
 42
0.0
 44
2.0
 73
     0
 74
     0
 77
     1
 78
     8
140
3.5
147
2.0
172
     1
173
     1
176
     2
177
     2
178
     2
271
     2
340
88
  0
DIMSTYLE
105
A9
102
{ACAD_REACTORS
330
AA
102
}
330
A
100
AcDbSymbolTableRecord
100
AcDbDimStyleTableRecord
  2
ME10_DIM_12
 70
     0
  3
{\Fgdt;n}<>
 41
3.5
 42
0.0
 44
2.0
 73
     0
 74
     0
 77
     1
 78
     8
140
3.5
147
2.0
172
     1
173
     1
176
     2
177
     2
178
     2
271
     2
340
88
  0
DIMSTYLE
105
B4
102
{ACAD_REACTORS
330
B5
102
}
330
A
100
AcDbSymbolTableRecord
100
AcDbDimStyleTableRecord
  2
ME10_DIM_13
 70
     0
  3
ø<>
 41
3.5
 42
0.0
 44
2.0
 73
     0
 74
     0
 77
     1
 78
     8
140
3.5
147
2.0
172
     1
173
     1
176
     2
177
     2
178
     2
271
     2
340
88
  0
DIMSTYLE
105
BF
102
{ACAD_REACTORS
330
C0
102
}
330
A
100
AcDbSymbolTableRecord
100
AcDbDimStyleTableRecord
  2
ME10_DIM_14
 70
     0
 41
3.5
 42
0.0
 44
2.0
 73
     0
 74
     0
 77
     1
 78
     8
140
3.5
147
2.0
172
     1
173
     1
176
     2
177
     2
178
     2
271
     3
340
88
  0
DIMSTYLE
105
CA
102
{ACAD_REACTORS
330
CB
102
}
330
A
100
AcDbSymbolTableRecord
100
AcDbDimStyleTableRecord
  2
ME10_DIM_15
 70
     0
 41
3.5
 42
0.0
 44
2.0
 73
     0
 74
     0
 77
     1
 78
     8
140
3.5
147
2.0
172
     1
173
     1
176
     2
177
     2
178
     2
271
     2
340
88
  0
ENDTAB
  0
TABLE
  2
BLOCK_RECORD
  5
1
330
0
100
AcDbSymbolTable
 70
     7
  0
BLOCK_RECORD
  5
1F
330
1
100
AcDbSymbolTableRecord
100
AcDbBlockTableRecord
  2
*Model_Space
340
22
  0
BLOCK_RECORD
  5
1B
330
1
100
AcDbSymbolTableRecord
100
AcDbBlockTableRecord
  2
*Paper_Space
340
1E
  0
BLOCK_RECORD
  5
23
330
1
100
AcDbSymbolTableRecord
100
AcDbBlockTableRecord
  2
*Paper_Space0
340
26
  0
BLOCK_RECORD
  5
8A
330
1
100
AcDbSymbolTableRecord
100
AcDbBlockTableRecord
  2
*D1
340
0
  0
BLOCK_RECORD
  5
95
330
1
100
AcDbSymbolTableRecord
100
AcDbBlockTableRecord
  2
*D2
340
0
  0
BLOCK_RECORD
  5
A0
330
1
100
AcDbSymbolTableRecord
100
AcDbBlockTableRecord
  2
*D3
340
0
  0
BLOCK_RECORD
  5
AB
330
1
100
AcDbSymbolTableRecord
100
AcDbBlockTableRecord
  2
*D4
340
0
  0
BLOCK_RECORD
  5
B6
330
1
100
AcDbSymbolTableRecord
100
AcDbBlockTableRecord
  2
*D5
340
0
  0
BLOCK_RECORD
  5
C1
330
1
100
AcDbSymbolTableRecord
100
AcDbBlockTableRecord
  2
*D6
340
0
  0
ENDTAB
  0
ENDSEC
  0
SECTION
  2
BLOCKS
  0
BLOCK
  5
20
330
1F
100
AcDbEntity
  8
0
100
AcDbBlockBegin
  2
*Model_Space
 70
     0
 71
     0
 10
0.0
 20
0.0
 30
0.0
  3
*Model_Space
  1

  0
ENDBLK
  5
21
330
1F
100
AcDbEntity
  8
0
100
AcDbBlockEnd
  0
BLOCK
  5
1C
330
1B
100
AcDbEntity
 67
     1
  8
0
100
AcDbBlockBegin
  2
*Paper_Space
 70
     0
 71
     0
 10
0.0
 20
0.0
 30
0.0
  3
*Paper_Space
  1

  0
ENDBLK
  5
1D
330
1B
100
AcDbEntity
 67
     1
  8
0
100
AcDbBlockEnd
  0
BLOCK
  5
24
330
23
100
AcDbEntity
  8
0
100
AcDbBlockBegin
  2
*Paper_Space0
 70
     0
 71
     0
 10
0.0
 20
0.0
 30
0.0
  3
*Paper_Space0
  1

  0
ENDBLK
  5
25
330
23
100
AcDbEntity
  8
0
100
AcDbBlockEnd
  0
BLOCK
  5
91
330
8A
100
AcDbEntity
  8
0
100
AcDbBlockBegin
  2
*D1
 70
     1
 71
     0
 10
0.0
 20
0.0
 30
0.0
  3
*D1
  1

  0
LINE
  5
8B
330
8A
100
AcDbEntity
  8
1
  6
Continuous
 62
     2
100
AcDbLine
 10
4.6537392591096
 20
-30.5616744024362
 30
0.0
 11
23.1537392591096
 21
-30.5616744024362
 31
0.0
  0
LINE
  5
8C
330
8A
100
AcDbEntity
  8
1
  6
Continuous
 62
     2
100
AcDbLine
 10
23.1537392591096
 20
-13.86374100888859
 30
0.0
 11
23.1537392591096
 21
-32.5616744024362
 31
0.0
  0
LINE
  5
8D
330
8A
100
AcDbEntity
  8
1
  6
Continuous
 62
     2
100
AcDbLine
 10
4.6537392591096
 20
-18.7736665945541
 30
0.0
 11
4.6537392591096
 21
-32.5616744024362
 31
0.0
  0
SOLID
  5
8E
330
8A
100
AcDbEntity
  8
1
 62
     2
100
AcDbTrace
 10
8.1537392591096
 20
-30.10089066088031
 30
0.0
 11
8.1537392591096
 21
-31.02245814399209
 31
0.0
 12
4.6537392591096
 22
-30.5616744024362
 32
0.0
 13
4.6537392591096
 23
-30.5616744024362
 33
0.0
  0
SOLID
  5
8F
330
8A
100
AcDbEntity
  8
1
 62
     2
100
AcDbTrace
 10
19.6537392591096
 20
-31.02245814399209
 30
0.0
 11
19.6537392591096
 21
-30.10089066088031
 31
0.0
 12
23.1537392591096
 22
-30.5616744024362
 32
0.0
 13
23.1537392591096
 23
-30.5616744024362
 33
0.0
  0
MTEXT
  5
90
330
8A
100
AcDbEntity
  8
1
 62
     2
100
AcDbMText
 10
10.1141265224964
 20
-28.5616744024362
 30
0.0
 40
3.5
 41
0.0
 71
     7
 72
     1
  1
18.5
  7
CONVERTER_11
 11
0.9999999999970621
 21
2.424068405545307E-6
 31
0.0
 73
     1
 44
0.60024009603842
  0
ENDBLK
  5
92
330
8A
100
AcDbEntity
  8
0
100
AcDbBlockEnd
  0
BLOCK
  5
9C
330
95
100
AcDbEntity
  8
0
100
AcDbBlockBegin
  2
*D2
 70
     1
 71
     0
 10
0.0
 20
0.0
 30
0.0
  3
*D2
  1

  0
LINE
  5
96
330
95
100
AcDbEntity
  8
1
  6
Continuous
 62
     2
100
AcDbLine
 10
40.9228915477394
 20
-14.7736665945541
 30
0.0
 11
40.9228915477394
 21
19.5263334054459
 31
0.0
  0
LINE
  5
97
330
95
100
AcDbEntity
  8
1
  6
Continuous
 62
     2
100
AcDbLine
 10
36.85714183122209
 20
19.5263334054459
 30
0.0
 11
42.9228915477394
 21
19.5263334054459
 31
0.0
  0
LINE
  5
98
330
95
100
AcDbEntity
  8
1
  6
Continuous
 62
     2
100
AcDbLine
 10
20.6537392591096
 20
-14.7736665945541
 30
0.0
 11
42.9228915477394
 21
-14.7736665945541
 31
0.0
  0
SOLID
  5
99
330
95
100
AcDbEntity
  8
1
 62
     2
100
AcDbTrace
 10
40.46210780618351
 20
-11.2736665945541
 30
0.0
 11
41.38367528929528
 21
-11.2736665945541
 31
0.0
 12
40.9228915477394
 22
-14.7736665945541
 32
0.0
 13
40.9228915477394
 23
-14.7736665945541
 33
0.0
  0
SOLID
  5
9A
330
95
100
AcDbEntity
  8
1
 62
     2
100
AcDbTrace
 10
41.38367528929528
 20
16.0263334054459
 30
0.0
 11
40.46210780618351
 21
16.0263334054459
 31
0.0
 12
40.9228915477394
 22
19.5263334054459
 32
0.0
 13
40.9228915477394
 23
19.5263334054459
 33
0.0
  0
MTEXT
  5
9B
330
95
100
AcDbEntity
  8
1
 62
     2
100
AcDbMText
 10
38.9228915477394
 20
-2.06697190490541
 30
0.0
 40
3.5
 41
0.0
 71
     7
 72
     1
  1
34.5
  7
CONVERTER_11
 11
0.0
 21
1.0
 31
0.0
 73
     1
 44
0.60024009603842
  0
ENDBLK
  5
9D
330
95
100
AcDbEntity
  8
0
100
AcDbBlockEnd
  0
BLOCK
  5
A7
330
A0
100
AcDbEntity
  8
0
100
AcDbBlockBegin
  2
*D3
 70
     1
 71
     0
 10
0.0
 20
0.0
 30
0.0
  3
*D3
  1

  0
LINE
  5
A1
330
A0
100
AcDbEntity
  8
1
  6
Continuous
 62
     2
100
AcDbLine
 10
-7.69626074089042
 20
49.32016917698211
 30
0.0
 11
2.30373925910958
 21
49.32016917698211
 31
0.0
  0
LINE
  5
A2
330
A0
100
AcDbEntity
  8
1
  6
Continuous
 62
     2
100
AcDbLine
 10
2.30373925910958
 20
40.42825719409258
 30
0.0
 11
2.30373925910958
 21
51.32016917698211
 31
0.0
  0
LINE
  5
A3
330
A0
100
AcDbEntity
  8
1
  6
Continuous
 62
     2
100
AcDbLine
 10
-7.69626074089042
 20
40.42825719409258
 30
0.0
 11
-7.69626074089042
 21
51.32016917698211
 31
0.0
  0
SOLID
  5
A4
330
A0
100
AcDbEntity
  8
1
 62
     2
100
AcDbTrace
 10
-4.19626074089042
 20
49.780952918538
 30
0.0
 11
-4.19626074089042
 21
48.85938543542623
 31
0.0
 12
-7.69626074089042
 22
49.32016917698211
 32
0.0
 13
-7.69626074089042
 23
49.32016917698211
 33
0.0
  0
SOLID
  5
A5
330
A0
100
AcDbEntity
  8
1
 62
     2
100
AcDbTrace
 10
-1.19626074089042
 20
48.85938543542623
 30
0.0
 11
-1.19626074089042
 21
49.780952918538
 31
0.0
 12
2.30373925910958
 22
49.32016917698211
 32
0.0
 13
2.30373925910958
 23
49.32016917698211
 33
0.0
  0
MTEXT
  5
A6
330
A0
100
AcDbEntity
  8
1
 62
     2
100
AcDbMText
 10
-8.57764964062558
 20
51.32015526282947
 30
0.0
 40
3.5
 41
0.0
 71
     7
 72
     1
  1
\C2;{\Fgdt;n}\C2;10
  7
CONVERTER_11
 11
0.9999999999970621
 21
2.424068405545307E-6
 31
0.0
 73
     1
 44
0.60024009603842
  0
ENDBLK
  5
A8
330
A0
100
AcDbEntity
  8
0
100
AcDbBlockEnd
  0
BLOCK
  5
B2
330
AB
100
AcDbEntity
  8
0
100
AcDbBlockBegin
  2
*D4
 70
     1
 71
     0
 10
0.0
 20
0.0
 30
0.0
  3
*D4
  1

  0
LINE
  5
AC
330
AB
100
AcDbEntity
  8
1
  6
Continuous
 62
     2
100
AcDbLine
 10
-10.0462607408904
 20
-30.5616744024362
 30
0.0
 11
4.6537392591096
 21
-30.5616744024362
 31
0.0
  0
LINE
  5
AD
330
AB
100
AcDbEntity
  8
1
  6
Continuous
 62
     2
100
AcDbLine
 10
4.6537392591096
 20
-18.7736665945541
 30
0.0
 11
4.6537392591096
 21
-32.5616744024362
 31
0.0
  0
LINE
  5
AE
330
AB
100
AcDbEntity
  8
1
  6
Continuous
 62
     2
100
AcDbLine
 10
-10.0462607408904
 20
-18.7736665945541
 30
0.0
 11
-10.0462607408904
 21
-32.5616744024362
 31
0.0
  0
SOLID
  5
AF
330
AB
100
AcDbEntity
  8
1
 62
     2
100
AcDbTrace
 10
-6.5462607408904
 20
-30.10089066088031
 30
0.0
 11
-6.5462607408904
 21
-31.02245814399209
 31
0.0
 12
-10.0462607408904
 22
-30.5616744024362
 32
0.0
 13
-10.0462607408904
 23
-30.5616744024362
 33
0.0
  0
SOLID
  5
B0
330
AB
100
AcDbEntity
  8
1
 62
     2
100
AcDbTrace
 10
1.1537392591096
 20
-31.02245814399209
 30
0.0
 11
1.1537392591096
 21
-30.10089066088031
 31
0.0
 12
4.6537392591096
 22
-30.5616744024362
 32
0.0
 13
4.6537392591096
 23
-30.5616744024362
 33
0.0
  0
MTEXT
  5
B1
330
AB
100
AcDbEntity
  8
1
 62
     2
100
AcDbMText
 10
-5.20239637615987
 20
-28.56168135951252
 30
0.0
 40
3.5
 41
0.0
 71
     7
 72
     1
  1
\C2;ø\C2;15
  7
CONVERTER_11
 11
0.9999999999970621
 21
2.424068405545307E-6
 31
0.0
 73
     1
 44
0.60024009603842
  0
ENDBLK
  5
B3
330
AB
100
AcDbEntity
  8
0
100
AcDbBlockEnd
  0
BLOCK
  5
BD
330
B6
100
AcDbEntity
  8
0
100
AcDbBlockBegin
  2
*D5
 70
     1
 71
     0
 10
0.0
 20
0.0
 30
0.0
  3
*D5
  1

  0
LINE
  5
B7
330
B6
100
AcDbEntity
  8
1
  6
Continuous
 62
     2
100
AcDbLine
 10
-22.0936572162946
 20
43.0263334054459
 30
0.0
 11
-22.0936572162946
 21
19.5263334054459
 31
0.0
  0
LINE
  5
B8
330
B6
100
AcDbEntity
  8
1
  6
Continuous
 62
     2
100
AcDbLine
 10
-19.8813517408257
 20
19.5263334054459
 30
0.0
 11
-24.0936572162946
 21
19.5263334054459
 31
0.0
  0
LINE
  5
B9
330
B6
100
AcDbEntity
  8
1
  6
Continuous
 62
     2
100
AcDbLine
 10
-5.19626074089042
 20
43.0263334054459
 30
0.0
 11
-24.0936572162946
 21
43.0263334054459
 31
0.0
  0
SOLID
  5
BA
330
B6
100
AcDbEntity
  8
1
 62
     2
100
AcDbTrace
 10
-21.63287347473872
 20
39.5263334054459
 30
0.0
 11
-22.55444095785048
 21
39.5263334054459
 31
0.0
 12
-22.0936572162946
 22
43.0263334054459
 32
0.0
 13
-22.0936572162946
 23
43.0263334054459
 33
0.0
  0
SOLID
  5
BB
330
B6
100
AcDbEntity
  8
1
 62
     2
100
AcDbTrace
 10
-22.55444095785048
 20
23.0263334054459
 30
0.0
 11
-21.63287347473871
 21
23.0263334054459
 31
0.0
 12
-22.0936572162946
 22
19.5263334054459
 32
0.0
 13
-22.0936572162946
 23
19.5263334054459
 33
0.0
  0
MTEXT
  5
BC
330
B6
100
AcDbEntity
  8
1
 62
     2
100
AcDbMText
 10
-24.0936572162946
 20
26.4911512419394
 30
0.0
 40
3.5
 41
0.0
 71
     7
 72
     1
  1
23.5
  7
CONVERTER_11
 11
0.0
 21
1.0
 31
0.0
 73
     1
 44
0.60024009603842
  0
ENDBLK
  5
BE
330
B6
100
AcDbEntity
  8
0
100
AcDbBlockEnd
  0
BLOCK
  5
C8
330
C1
100
AcDbEntity
  8
0
100
AcDbBlockBegin
  2
*D6
 70
     1
 71
     0
 10
0.0
 20
0.0
 30
0.0
  3
*D6
  1

  0
LINE
  5
C2
330
C1
100
AcDbEntity
  8
1
  6
Continuous
 62
     2
100
AcDbLine
 10
-22.2629144585976
 20
-18.7736665945541
 30
0.0
 11
-22.2629144585976
 21
19.5263334054459
 31
0.0
  0
LINE
  5
C3
330
C1
100
AcDbEntity
  8
1
  6
Continuous
 62
     2
100
AcDbLine
 10
-10.0462607408904
 20
-18.7736665945541
 30
0.0
 11
-24.2629144585976
 21
-18.7736665945541
 31
0.0
  0
LINE
  5
C4
330
C1
100
AcDbEntity
  8
1
  6
Continuous
 62
     2
100
AcDbLine
 10
-19.8813517408257
 20
19.5263334054459
 30
0.0
 11
-24.2629144585976
 21
19.5263334054459
 31
0.0
  0
SOLID
  5
C5
330
C1
100
AcDbEntity
  8
1
 62
     2
100
AcDbTrace
 10
-21.80213071704172
 20
16.0263334054459
 30
0.0
 11
-22.72369820015349
 21
16.0263334054459
 31
0.0
 12
-22.2629144585976
 22
19.5263334054459
 32
0.0
 13
-22.2629144585976
 23
19.5263334054459
 33
0.0
  0
SOLID
  5
C6
330
C1
100
AcDbEntity
  8
1
 62
     2
100
AcDbTrace
 10
-22.72369820015349
 20
-15.2736665945541
 30
0.0
 11
-21.80213071704171
 21
-15.2736665945541
 31
0.0
 12
-22.2629144585976
 22
-18.7736665945541
 32
0.0
 13
-22.2629144585976
 23
-18.7736665945541
 33
0.0
  0
MTEXT
  5
C7
330
C1
100
AcDbEntity
  8
1
 62
     2
100
AcDbMText
 10
-24.2629144585976
 20
-2.2486665945541
 30
0.0
 40
3.5
 41
0.0
 71
     7
 72
     1
  1
38
  7
CONVERTER_11
 11
0.0
 21
1.0
 31
0.0
 73
     1
 44
0.60024009603842
  0
ENDBLK
  5
C9
330
C1
100
AcDbEntity
  8
0
100
AcDbBlockEnd
  0
ENDSEC
  0
SECTION
  2
ENTITIES
  0
LINE
  5
32
330
1F
100
AcDbEntity
  8
1
  6
DOT_CENTER
 62
     2
100
AcDbLine
 10
8.97686476006361
 20
2.37633340544591
 30
0.0
 11
25.47205653738062
 21
2.37633340544591
 31
0.0
  0
LINE
  5
33
330
1F
100
AcDbEntity
  8
1
  6
Continuous
 62
     7
100
AcDbLine
 10
20.6537392591096
 20
-14.7736665945541
 30
0.0
 11
23.1537392591096
 21
-13.86374100888859
 31
0.0
  0
LINE
  5
34
330
1F
100
AcDbEntity
  8
1
  6
Continuous
 62
     7
100
AcDbLine
 10
23.1537392591096
 20
-13.86374100888859
 30
0.0
 11
23.1537392591096
 21
-1.12366659455409
 31
0.0
  0
LINE
  5
35
330
1F
100
AcDbEntity
  8
1
  6
Continuous
 62
     7
100
AcDbLine
 10
20.6537392591096
 20
19.5263334054459
 30
0.0
 11
23.1537392591096
 21
18.61640781978039
 31
0.0
  0
LINE
  5
36
330
1F
100
AcDbEntity
  8
1
  6
Continuous
 62
     7
100
AcDbLine
 10
23.1537392591096
 20
18.61640781978039
 30
0.0
 11
23.1537392591096
 21
5.87633340544591
 31
0.0
  0
LINE
  5
37
330
1F
100
AcDbEntity
  8
1
  6
Continuous
 62
     7
100
AcDbLine
 10
22.1537392591096
 20
11.7763334054459
 30
0.0
 11
22.1537392591096
 21
14.9763334054459
 31
0.0
  0
LINE
  5
38
330
1F
100
AcDbEntity
  8
1
  6
Continuous
 62
     7
100
AcDbLine
 10
22.1537392591096
 20
14.9763334054459
 30
0.0
 11
11.6537392591096
 21
14.9763334054459
 31
0.0
  0
LINE
  5
39
330
1F
100
AcDbEntity
  8
1
  6
Continuous
 62
     7
100
AcDbLine
 10
11.6537392591096
 20
14.9763334054459
 30
0.0
 11
11.6537392591096
 21
11.7763334054459
 31
0.0
  0
LINE
  5
3A
330
1F
100
AcDbEntity
  8
1
  6
Continuous
 62
     7
100
AcDbLine
 10
11.6537392591096
 20
-10.2236665945541
 30
0.0
 11
22.1537392591096
 21
-10.2236665945541
 31
0.0
  0
LINE
  5
3B
330
1F
100
AcDbEntity
  8
1
  6
Continuous
 62
     7
100
AcDbLine
 10
22.1537392591096
 20
-10.2236665945541
 30
0.0
 11
22.1537392591096
 21
-7.0236665945541
 31
0.0
  0
LINE
  5
3C
330
1F
100
AcDbEntity
  8
1
  6
Continuous
 62
     7
100
AcDbLine
 10
11.6537392591096
 20
-7.0236665945541
 30
0.0
 11
11.6537392591096
 21
-10.2236665945541
 31
0.0
  0
LINE
  5
3D
330
1F
100
AcDbEntity
  8
1
  6
DOT_CENTER
 62
     2
100
AcDbLine
 10
15.1537392591096
 20
6.9894823296373
 30
0.0
 11
15.1537392591096
 21
-2.8305743233758
 31
0.0
  0
LINE
  5
3E
330
1F
100
AcDbEntity
  8
1
  6
Continuous
 62
     2
100
AcDbLine
 10
8.15373925910972
 20
11.7763334054459
 30
0.0
 11
8.15373925910972
 21
5.87633340544591
 31
0.0
  0
LINE
  5
3F
330
1F
100
AcDbEntity
  8
1
  6
Continuous
 62
     2
100
AcDbLine
 10
8.75373925910971
 20
11.7763334054459
 30
0.0
 11
8.75373925910971
 21
5.87633340544591
 31
0.0
  0
LINE
  5
40
330
1F
100
AcDbEntity
  8
1
  6
Continuous
 62
     2
100
AcDbLine
 10
9.35373925910971
 20
11.7763334054459
 30
0.0
 11
9.35373925910971
 21
5.87633340544591
 31
0.0
  0
LINE
  5
41
330
1F
100
AcDbEntity
  8
1
  6
Continuous
 62
     2
100
AcDbLine
 10
9.95373925910972
 20
11.7763334054459
 30
0.0
 11
9.95373925910972
 21
5.87633340544591
 31
0.0
  0
LINE
  5
42
330
1F
100
AcDbEntity
  8
1
  6
Continuous
 62
     2
100
AcDbLine
 10
10.55373925910972
 20
11.7763334054459
 30
0.0
 11
10.55373925910972
 21
5.87633340544591
 31
0.0
  0
LINE
  5
43
330
1F
100
AcDbEntity
  8
1
  6
Continuous
 62
     2
100
AcDbLine
 10
11.15373925910971
 20
11.7763334054459
 30
0.0
 11
11.15373925910971
 21
5.87633340544591
 31
0.0
  0
LINE
  5
44
330
1F
100
AcDbEntity
  8
1
  6
Continuous
 62
     2
100
AcDbLine
 10
11.75373925910971
 20
5.87633340544591
 30
0.0
 11
11.75373925910971
 21
11.7763334054459
 31
0.0
  0
LINE
  5
45
330
1F
100
AcDbEntity
  8
1
  6
Continuous
 62
     2
100
AcDbLine
 10
12.3537392591097
 20
5.87633340544591
 30
0.0
 11
12.3537392591097
 21
11.7763334054459
 31
0.0
  0
LINE
  5
46
330
1F
100
AcDbEntity
  8
1
  6
Continuous
 62
     2
100
AcDbLine
 10
12.95373925910972
 20
11.7763334054459
 30
0.0
 11
12.95373925910972
 21
5.87633340544591
 31
0.0
  0
LINE
  5
47
330
1F
100
AcDbEntity
  8
1
  6
Continuous
 62
     2
100
AcDbLine
 10
13.55373925910972
 20
11.7763334054459
 30
0.0
 11
13.55373925910972
 21
5.87633340544591
 31
0.0
  0
LINE
  5
48
330
1F
100
AcDbEntity
  8
1
  6
Continuous
 62
     2
100
AcDbLine
 10
14.15373925910971
 20
11.7763334054459
 30
0.0
 11
14.15373925910971
 21
5.87633340544591
 31
0.0
  0
LINE
  5
49
330
1F
100
AcDbEntity
  8
1
  6
Continuous
 62
     2
100
AcDbLine
 10
14.75373925910971
 20
11.7763334054459
 30
0.0
 11
14.75373925910971
 21
5.87633340544591
 31
0.0
  0
LINE
  5
4A
330
1F
100
AcDbEntity
  8
1
  6
Continuous
 62
     2
100
AcDbLine
 10
15.3537392591097
 20
11.7763334054459
 30
0.0
 11
15.3537392591097
 21
5.87633340544591
 31
0.0
  0
LINE
  5
4B
330
1F
100
AcDbEntity
  8
1
  6
Continuous
 62
     2
100
AcDbLine
 10
15.95373925910972
 20
11.7763334054459
 30
0.0
 11
15.95373925910972
 21
5.87633340544591
 31
0.0
  0
LINE
  5
4C
330
1F
100
AcDbEntity
  8
1
  6
Continuous
 62
     2
100
AcDbLine
 10
16.55373925910972
 20
11.7763334054459
 30
0.0
 11
16.55373925910972
 21
5.87633340544591
 31
0.0
  0
LINE
  5
4D
330
1F
100
AcDbEntity
  8
1
  6
Continuous
 62
     2
100
AcDbLine
 10
17.1537392591096
 20
11.7763334054459
 30
0.0
 11
17.1537392591096
 21
5.87633340544591
 31
0.0
  0
LINE
  5
4E
330
1F
100
AcDbEntity
  8
1
  6
Continuous
 62
     2
100
AcDbLine
 10
17.75373925910962
 20
11.7763334054459
 30
0.0
 11
17.75373925910962
 21
5.87633340544591
 31
0.0
  0
LINE
  5
4F
330
1F
100
AcDbEntity
  8
1
  6
Continuous
 62
     2
100
AcDbLine
 10
18.35373925910962
 20
11.7763334054459
 30
0.0
 11
18.35373925910962
 21
5.87633340544591
 31
0.0
  0
LINE
  5
50
330
1F
100
AcDbEntity
  8
1
  6
Continuous
 62
     2
100
AcDbLine
 10
18.95373925910961
 20
11.7763334054459
 30
0.0
 11
18.95373925910961
 21
5.87633340544591
 31
0.0
  0
LINE
  5
51
330
1F
100
AcDbEntity
  8
1
  6
Continuous
 62
     2
100
AcDbLine
 10
19.55373925910961
 20
11.7763334054459
 30
0.0
 11
19.55373925910961
 21
5.87633340544591
 31
0.0
  0
LINE
  5
52
330
1F
100
AcDbEntity
  8
1
  6
Continuous
 62
     2
100
AcDbLine
 10
20.1537392591096
 20
11.7763334054459
 30
0.0
 11
20.1537392591096
 21
5.87633340544591
 31
0.0
  0
LINE
  5
53
330
1F
100
AcDbEntity
  8
1
  6
Continuous
 62
     2
100
AcDbLine
 10
20.75373925910962
 20
11.7763334054459
 30
0.0
 11
20.75373925910962
 21
5.87633340544591
 31
0.0
  0
LINE
  5
54
330
1F
100
AcDbEntity
  8
1
  6
Continuous
 62
     2
100
AcDbLine
 10
21.35373925910962
 20
11.7763334054459
 30
0.0
 11
21.35373925910962
 21
5.87633340544591
 31
0.0
  0
LINE
  5
55
330
1F
100
AcDbEntity
  8
1
  6
Continuous
 62
     2
100
AcDbLine
 10
21.95373925910961
 20
11.7763334054459
 30
0.0
 11
21.95373925910961
 21
5.87633340544591
 31
0.0
  0
LINE
  5
56
330
1F
100
AcDbEntity
  8
1
  6
Continuous
 62
     7
100
AcDbLine
 10
11.6537392591096
 20
11.7763334054459
 30
0.0
 11
22.1537392591096
 21
11.7763334054459
 31
0.0
  0
LINE
  5
57
330
1F
100
AcDbEntity
  8
1
  6
Continuous
 62
     2
100
AcDbLine
 10
22.55373925910961
 20
11.7763334054459
 30
0.0
 11
22.55373925910961
 21
5.87633340544591
 31
0.0
  0
LINE
  5
58
330
1F
100
AcDbEntity
  8
1
  6
Continuous
 62
     7
100
AcDbLine
 10
15.1537392591096
 20
5.87633340544591
 30
0.0
 11
23.1537392591096
 21
5.87633340544591
 31
0.0
  0
LINE
  5
59
330
1F
100
AcDbEntity
  8
1
  6
Continuous
 62
     2
100
AcDbLine
 10
8.15373925910972
 20
-1.12366659455409
 30
0.0
 11
8.15373925910972
 21
-7.0236665945541
 31
0.0
  0
LINE
  5
5A
330
1F
100
AcDbEntity
  8
1
  6
Continuous
 62
     2
100
AcDbLine
 10
8.75373925910971
 20
-1.12366659455409
 30
0.0
 11
8.75373925910971
 21
-7.0236665945541
 31
0.0
  0
LINE
  5
5B
330
1F
100
AcDbEntity
  8
1
  6
Continuous
 62
     2
100
AcDbLine
 10
9.35373925910971
 20
-1.12366659455409
 30
0.0
 11
9.35373925910971
 21
-7.0236665945541
 31
0.0
  0
LINE
  5
5C
330
1F
100
AcDbEntity
  8
1
  6
Continuous
 62
     2
100
AcDbLine
 10
9.95373925910972
 20
-1.12366659455409
 30
0.0
 11
9.95373925910972
 21
-7.0236665945541
 31
0.0
  0
LINE
  5
5D
330
1F
100
AcDbEntity
  8
1
  6
Continuous
 62
     2
100
AcDbLine
 10
10.55373925910972
 20
-1.12366659455409
 30
0.0
 11
10.55373925910972
 21
-7.0236665945541
 31
0.0
  0
LINE
  5
5E
330
1F
100
AcDbEntity
  8
1
  6
Continuous
 62
     2
100
AcDbLine
 10
11.15373925910971
 20
-1.12366659455409
 30
0.0
 11
11.15373925910971
 21
-7.0236665945541
 31
0.0
  0
LINE
  5
5F
330
1F
100
AcDbEntity
  8
1
  6
Continuous
 62
     2
100
AcDbLine
 10
11.75373925910971
 20
-1.12366659455409
 30
0.0
 11
11.75373925910971
 21
-7.0236665945541
 31
0.0
  0
LINE
  5
60
330
1F
100
AcDbEntity
  8
1
  6
Continuous
 62
     2
100
AcDbLine
 10
12.3537392591097
 20
-1.12366659455409
 30
0.0
 11
12.3537392591097
 21
-7.0236665945541
 31
0.0
  0
LINE
  5
61
330
1F
100
AcDbEntity
  8
1
  6
Continuous
 62
     2
100
AcDbLine
 10
12.95373925910972
 20
-1.12366659455409
 30
0.0
 11
12.95373925910972
 21
-7.0236665945541
 31
0.0
  0
LINE
  5
62
330
1F
100
AcDbEntity
  8
1
  6
Continuous
 62
     2
100
AcDbLine
 10
13.55373925910972
 20
-1.12366659455409
 30
0.0
 11
13.55373925910972
 21
-7.0236665945541
 31
0.0
  0
LINE
  5
63
330
1F
100
AcDbEntity
  8
1
  6
Continuous
 62
     2
100
AcDbLine
 10
14.15373925910971
 20
-1.12366659455409
 30
0.0
 11
14.15373925910971
 21
-7.0236665945541
 31
0.0
  0
LINE
  5
64
330
1F
100
AcDbEntity
  8
1
  6
Continuous
 62
     2
100
AcDbLine
 10
14.75373925910971
 20
-7.0236665945541
 30
0.0
 11
14.75373925910971
 21
-1.12366659455409
 31
0.0
  0
LINE
  5
65
330
1F
100
AcDbEntity
  8
1
  6
Continuous
 62
     2
100
AcDbLine
 10
15.3537392591097
 20
-7.0236665945541
 30
0.0
 11
15.3537392591097
 21
-1.12366659455409
 31
0.0
  0
LINE
  5
66
330
1F
100
AcDbEntity
  8
1
  6
Continuous
 62
     2
100
AcDbLine
 10
15.95373925910972
 20
-7.0236665945541
 30
0.0
 11
15.95373925910972
 21
-1.12366659455409
 31
0.0
  0
LINE
  5
67
330
1F
100
AcDbEntity
  8
1
  6
Continuous
 62
     2
100
AcDbLine
 10
16.55373925910972
 20
-1.12366659455409
 30
0.0
 11
16.55373925910972
 21
-7.0236665945541
 31
0.0
  0
LINE
  5
68
330
1F
100
AcDbEntity
  8
1
  6
Continuous
 62
     2
100
AcDbLine
 10
17.1537392591096
 20
-1.12366659455409
 30
0.0
 11
17.1537392591096
 21
-7.0236665945541
 31
0.0
  0
LINE
  5
69
330
1F
100
AcDbEntity
  8
1
  6
Continuous
 62
     2
100
AcDbLine
 10
17.75373925910962
 20
-1.12366659455409
 30
0.0
 11
17.75373925910962
 21
-7.0236665945541
 31
0.0
  0
LINE
  5
6A
330
1F
100
AcDbEntity
  8
1
  6
Continuous
 62
     2
100
AcDbLine
 10
18.35373925910962
 20
-1.12366659455409
 30
0.0
 11
18.35373925910962
 21
-7.0236665945541
 31
0.0
  0
LINE
  5
6B
330
1F
100
AcDbEntity
  8
1
  6
Continuous
 62
     2
100
AcDbLine
 10
18.95373925910961
 20
-1.12366659455409
 30
0.0
 11
18.95373925910961
 21
-7.0236665945541
 31
0.0
  0
LINE
  5
6C
330
1F
100
AcDbEntity
  8
1
  6
Continuous
 62
     2
100
AcDbLine
 10
20.1537392591096
 20
-1.12366659455409
 30
0.0
 11
20.1537392591096
 21
-7.0236665945541
 31
0.0
  0
LINE
  5
6D
330
1F
100
AcDbEntity
  8
1
  6
Continuous
 62
     2
100
AcDbLine
 10
20.75373925910962
 20
-1.12366659455409
 30
0.0
 11
20.75373925910962
 21
-7.0236665945541
 31
0.0
  0
LINE
  5
6E
330
1F
100
AcDbEntity
  8
1
  6
Continuous
 62
     2
100
AcDbLine
 10
21.35373925910962
 20
-1.12366659455409
 30
0.0
 11
21.35373925910962
 21
-7.0236665945541
 31
0.0
  0
LINE
  5
6F
330
1F
100
AcDbEntity
  8
1
  6
Continuous
 62
     2
100
AcDbLine
 10
21.95373925910961
 20
-1.12366659455409
 30
0.0
 11
21.95373925910961
 21
-7.0236665945541
 31
0.0
  0
LINE
  5
70
330
1F
100
AcDbEntity
  8
1
  6
Continuous
 62
     7
100
AcDbLine
 10
22.1537392591096
 20
-7.0236665945541
 30
0.0
 11
11.6537392591096
 21
-7.0236665945541
 31
0.0
  0
LINE
  5
71
330
1F
100
AcDbEntity
  8
1
  6
Continuous
 62
     2
100
AcDbLine
 10
22.55373925910961
 20
-1.12366659455409
 30
0.0
 11
22.55373925910961
 21
-7.0236665945541
 31
0.0
  0
LINE
  5
72
330
1F
100
AcDbEntity
  8
1
  6
Continuous
 62
     7
100
AcDbLine
 10
15.1537392591096
 20
-1.12366659455409
 30
0.0
 11
23.1537392591096
 21
-1.12366659455409
 31
0.0
  0
LINE
  5
73
330
1F
100
AcDbEntity
  8
1
  6
Continuous
 62
     2
100
AcDbLine
 10
19.55373925910961
 20
-1.12366659455409
 30
0.0
 11
19.55373925910961
 21
-7.0236665945541
 31
0.0
  0
LINE
  5
74
330
1F
100
AcDbEntity
  8
1
  6
Continuous
 62
     7
100
AcDbLine
 10
4.6537392591096
 20
-14.7736665945541
 30
0.0
 11
20.6537392591096
 21
-14.7736665945541
 31
0.0
  0
LINE
  5
75
330
1F
100
AcDbEntity
  8
1
  6
Continuous
 62
     7
100
AcDbLine
 10
4.6537392591096
 20
19.5263334054459
 30
0.0
 11
20.6537392591096
 21
19.5263334054459
 31
0.0
  0
LINE
  5
76
330
1F
100
AcDbEntity
  8
1
  6
Continuous
 62
     7
100
AcDbLine
 10
-7.6962607408904
 20
19.5263334054459
 30
0.0
 11
4.6537392591096
 21
19.5263334054459
 31
0.0
  0
LINE
  5
77
330
1F
100
AcDbEntity
  8
1
  6
Continuous
 62
     7
100
AcDbLine
 10
-7.32925390274584
 20
41.5829577324718
 30
0.0
 11
1.93673242096509
 21
41.5829577324718
 31
0.0
  0
LINE
  5
78
330
1F
100
AcDbEntity
  8
1
  6
Continuous
 62
     7
100
AcDbLine
 10
-0.19626074089042
 20
43.0263334054459
 30
0.0
 11
1.30373925910958
 21
42.1603080016614
 31
0.0
  0
LINE
  5
79
330
1F
100
AcDbEntity
  8
1
  6
Continuous
 62
     7
100
AcDbLine
 10
-5.19626074089042
 20
43.0263334054459
 30
0.0
 11
-0.19626074089042
 21
43.0263334054459
 31
0.0
  0
LINE
  5
7A
330
1F
100
AcDbEntity
  8
1
  6
Continuous
 62
     7
100
AcDbLine
 10
-6.69626074089042
 20
42.1603080016614
 30
0.0
 11
-5.19626074089042
 21
43.0263334054459
 31
0.0
  0
LINE
  5
7B
330
1F
100
AcDbEntity
  8
1
  6
Continuous
 62
     7
100
AcDbLine
 10
2.30373925910958
 20
40.42825719409259
 30
0.0
 11
2.3037392591096
 21
19.5263334054459
 31
0.0
  0
LINE
  5
7C
330
1F
100
AcDbEntity
  8
1
  6
Continuous
 62
     7
100
AcDbLine
 10
-7.6962607408904
 20
19.5263334054459
 30
0.0
 11
-7.69626074089042
 21
40.42825719409259
 31
0.0
  0
LINE
  5
7D
330
1F
100
AcDbEntity
  8
1
  6
Continuous
 62
     7
100
AcDbLine
 10
-10.0462607408904
 20
-18.7736665945541
 30
0.0
 11
4.6537392591096
 21
-18.7736665945541
 31
0.0
  0
LINE
  5
7E
330
1F
100
AcDbEntity
  8
1
  6
Continuous
 62
     7
100
AcDbLine
 10
-10.0462607408904
 20
-18.7736665945541
 30
0.0
 11
-10.0462607408904
 21
19.5263334054459
 31
0.0
  0
LINE
  5
7F
330
1F
100
AcDbEntity
  8
1
  6
DOT_CENTER
 62
     2
100
AcDbLine
 10
-2.6962607408904
 20
19.5263334054459
 30
0.0
 11
-2.6962607408904
 21
-20.43023608801531
 31
0.0
  0
LINE
  5
80
330
1F
100
AcDbEntity
  8
1
  6
Continuous
 62
     7
100
AcDbLine
 10
4.6537392591096
 20
19.5263334054459
 30
0.0
 11
4.6537392591096
 21
-18.7736665945541
 31
0.0
  0
LINE
  5
81
330
1F
100
AcDbEntity
  8
1
  6
Continuous
 62
     7
100
AcDbLine
 10
-10.0462607408904
 20
19.5263334054459
 30
0.0
 11
-7.6962607408904
 21
19.5263334054459
 31
0.0
  0
LINE
  5
82
330
1F
100
AcDbEntity
  8
1
  6
DOT_CENTER
 62
     2
100
AcDbLine
 10
-2.6962607408904
 20
19.5263334054459
 30
0.0
 11
-2.6962607408904
 21
44.82573703686089
 31
0.0
  0
LINE
  5
83
330
1F
100
AcDbEntity
  8
1
  6
PHANTOM
 62
     7
100
AcDbLine
 10
-10.0462607408904
 20
19.5263334054459
 30
0.0
 11
-19.8813517408257
 21
19.5263334054459
 31
0.0
  0
LINE
  5
84
330
1F
100
AcDbEntity
  8
1
  6
PHANTOM
 62
     7
100
AcDbLine
 10
20.6537392591096
 20
19.5263334054459
 30
0.0
 11
36.85714183122209
 21
19.5263334054459
 31
0.0
  0
ARC
  5
85
330
1F
100
AcDbEntity
  8
1
  6
Continuous
 62
     7
100
AcDbCircle
 10
15.1537392591096
 20
2.37633340544591
 30
0.0
 40
3.5
100
AcDbArc
 50
90.0
 51
-90.0
  0
ARC
  5
86
330
1F
100
AcDbEntity
  8
1
  6
Continuous
 62
     7
100
AcDbCircle
 10
0.30373925910958
 20
40.42825719409259
 30
0.0
 40
2.0
100
AcDbArc
 50
0.0
 51
59.99999999999904
  0
ARC
  5
87
330
1F
100
AcDbEntity
  8
1
  6
Continuous
 62
     7
100
AcDbCircle
 10
-5.69626074089042
 20
40.42825719409259
 30
0.0
 40
1.999999999999942
100
AcDbArc
 50
120.000000000001
 51
180.0
  0
MTEXT
  5
89
330
1F
100
AcDbEntity
  8
1
 62
     2
100
AcDbMText
 10
31.73857433063489
 20
22.7819561344311
 30
0.0
 40
2.5
 41
0.0
 71
     5
 72
     1
  1
BBL
  7
CONVERTER_11
 73
     1
 44
1.32052821128451
  0
DIMENSION
  5
94
330
1F
100
AcDbEntity
  8
1
100
AcDbDimension
  2
*D1
 10
4.6537392591096
 20
-30.5616744024362
 30
0.0
 11
14.3578765224964
 21
-26.8116744024362
 31
0.0
 70
    32
  1
<>
 71
     5
 42
-1.0
 53
0.00013888888889
  3
ME10_DIM_10
100
AcDbAlignedDimension
 13
23.1537392591096
 23
-13.86374100888859
 33
0.0
 14
4.6537392591096
 24
-18.7736665945541
 34
0.0
100
AcDbRotatedDimension
  0
DIMENSION
  5
9F
330
1F
100
AcDbEntity
  8
1
100
AcDbDimension
  2
*D2
 10
40.9228915477394
 20
-14.7736665945541
 30
0.0
 11
37.1728915477394
 21
2.7017780950946
 31
0.0
 70
    32
  1
34.5
 71
     5
 42
-1.0
 53
90.0
  3
ME10_DIM_11
100
AcDbAlignedDimension
 13
36.85714183122209
 23
19.5263334054459
 33
0.0
 14
20.6537392591096
 24
-14.7736665945541
 34
0.0
 50
90.0
100
AcDbRotatedDimension
  0
DIMENSION
  5
AA
330
1F
100
AcDbEntity
  8
1
100
AcDbDimension
  2
*D3
 10
-7.69626074089042
 20
49.32016917698211
 30
0.0
 11
-2.83764964064245
 21
53.07016917698211
 31
0.0
 70
    32
  1
<>
 71
     5
 42
-1.0
 53
0.00013888888889
  3
ME10_DIM_12
100
AcDbAlignedDimension
 13
2.30373925910958
 23
40.42825719409259
 33
0.0
 14
-7.69626074089042
 24
40.42825719409259
 34
0.0
100
AcDbRotatedDimension
  0
DIMENSION
  5
B5
330
1F
100
AcDbEntity
  8
1
100
AcDbDimension
  2
*D4
 10
-10.0462607408904
 20
-30.5616744024362
 30
0.0
 11
-2.33239637616831
 21
-26.8116744024362
 31
0.0
 70
    33
  1
ø15
 71
     5
 42
-1.0
 53
0.00013888888889
  3
ME10_DIM_13
100
AcDbAlignedDimension
 13
4.6537392591096
 23
-18.7736665945541
 33
0.0
 14
-10.0462607408904
 24
-18.7736665945541
 34
0.0
  0
DIMENSION
  5
C0
330
1F
100
AcDbEntity
  8
1
100
AcDbDimension
  2
*D5
 10
-22.0936572162946
 20
43.0263334054459
 30
0.0
 11
-25.8436572162946
 21
31.2599012419394
 31
0.0
 70
    32
  1
<>
 71
     5
 42
-1.0
 53
90.0
  3
ME10_DIM_14
100
AcDbAlignedDimension
 13
-19.8813517408257
 23
19.5263334054459
 33
0.0
 14
-5.19626074089042
 24
43.0263334054459
 34
0.0
 50
90.0
100
AcDbRotatedDimension
  0
DIMENSION
  5
CB
330
1F
100
AcDbEntity
  8
1
100
AcDbDimension
  2
*D6
 10
-22.2629144585976
 20
19.5263334054459
 30
0.0
 11
-26.0129144585976
 21
0.3763334054459
 31
0.0
 70
    32
  1
38
 71
     5
 42
-1.0
 53
90.0
  3
ME10_DIM_15
100
AcDbAlignedDimension
 13
-10.0462607408904
 23
-18.7736665945541
 33
0.0
 14
-19.8813517408257
 24
19.5263334054459
 34
0.0
 50
90.0
100
AcDbRotatedDimension
  0
ENDSEC
  0
SECTION
  2
OBJECTS
  0
DICTIONARY
  5
C
330
0
100
AcDbDictionary
281
     1
  3
ACAD_GROUP
350
D
  3
ACAD_LAYOUT
350
1A
  3
ACAD_MLINESTYLE
350
17
  3
ACAD_PLOTSETTINGS
350
19
  3
ACAD_PLOTSTYLENAME
350
E
  0
DICTIONARY
  5
D
102
{ACAD_REACTORS
330
C
102
}
330
C
100
AcDbDictionary
281
     1
  0
DICTIONARY
  5
1A
102
{ACAD_REACTORS
330
C
102
}
330
C
100
AcDbDictionary
281
     1
  3
Layout1
350
1E
  3
Layout2
350
26
  3
Model
350
22
  0
DICTIONARY
  5
17
102
{ACAD_REACTORS
330
C
102
}
330
C
100
AcDbDictionary
281
     1
  3
Standard
350
18
  0
DICTIONARY
  5
19
102
{ACAD_REACTORS
330
C
102
}
330
C
100
AcDbDictionary
281
     1
  0
ACDBDICTIONARYWDFLT
  5
E
102
{ACAD_REACTORS
330
C
102
}
330
C
100
AcDbDictionary
281
     1
  3
Normal
350
F
100
AcDbDictionaryWithDefault
340
F
  0
LAYOUT
  5
1E
102
{ACAD_REACTORS
330
1A
102
}
330
1A
100
AcDbPlotSettings
  1

  2

  4

  6

 40
0.0
 41
0.0
 42
0.0
 43
0.0
 44
0.0
 45
0.0
 46
0.0
 47
0.0
 48
0.0
 49
0.0
140
0.0
141
0.0
142
1.0
143
1.0
 70
   688
 72
     0
 73
     0
 74
     5
  7

 75
    16
 76
     0
 77
     2
 78
   300
147
1.0
148
0.0
149
0.0
100
AcDbLayout
  1
Layout1
 70
     1
 71
     1
 10
0.0
 20
0.0
 11
0.0
 21
0.0
 12
0.0
 22
0.0
 32
0.0
 14
0.0
 24
0.0
 34
0.0
 15
0.0
 25
0.0
 35
0.0
146
0.0
 13
0.0
 23
0.0
 33
0.0
 16
1.0
 26
0.0
 36
0.0
 17
0.0
 27
1.0
 37
0.0
 76
     0
330
1B
  0
LAYOUT
  5
26
102
{ACAD_REACTORS
330
1A
102
}
330
1A
100
AcDbPlotSettings
  1

  2

  4

  6

 40
0.0
 41
0.0
 42
0.0
 43
0.0
 44
0.0
 45
0.0
 46
0.0
 47
0.0
 48
0.0
 49
0.0
140
0.0
141
0.0
142
1.0
143
1.0
 70
   688
 72
     0
 73
     0
 74
     5
  7

 75
    16
 76
     0
 77
     2
 78
   300
147
1.0
148
0.0
149
0.0
100
AcDbLayout
  1
Layout2
 70
     1
 71
     2
 10
0.0
 20
0.0
 11
0.0
 21
0.0
 12
0.0
 22
0.0
 32
0.0
 14
0.0
 24
0.0
 34
0.0
 15
0.0
 25
0.0
 35
0.0
146
0.0
 13
0.0
 23
0.0
 33
0.0
 16
1.0
 26
0.0
 36
0.0
 17
0.0
 27
1.0
 37
0.0
 76
     0
330
23
  0
LAYOUT
  5
22
102
{ACAD_REACTORS
330
1A
102
}
330
1A
100
AcDbPlotSettings
  1

  2

  4

  6

 40
0.0
 41
0.0
 42
0.0
 43
0.0
 44
0.0
 45
0.0
 46
0.0
 47
0.0
 48
0.0
 49
0.0
140
0.0
141
0.0
142
1.0
143
1.0
 70
  1712
 72
     0
 73
     0
 74
     0
  7

 75
     0
 76
     0
 77
     2
 78
   300
147
1.0
148
0.0
149
0.0
100
AcDbLayout
  1
Model
 70
     1
 71
     0
 10
0.0
 20
0.0
 11
0.0
 21
0.0
 12
0.0
 22
0.0
 32
0.0
 14
-27.7629144585976
 24
-32.5616744024362
 34
0.0
 15
42.9228915477394
 25
54.82016917698211
 35
0.0
146
0.0
 13
0.0
 23
0.0
 33
0.0
 16
1.0
 26
0.0
 36
0.0
 17
0.0
 27
1.0
 37
0.0
 76
     0
330
1F
  0
MLINESTYLE
  5
18
102
{ACAD_REACTORS
330
17
102
}
330
17
100
AcDbMlineStyle
  2
Standard
 70
     0
  3

 62
   256
 51
90.0
 52
90.0
 71
     2
 49
0.5
 62
   256
  6
BYLAYER
 49
-0.5
 62
   256
  6
BYLAYER
  0
ACDBPLACEHOLDER
  5
F
102
{ACAD_REACTORS
330
E
102
}
330
E
  0
ENDSEC
  0
EOF
