999
DXF file: d:\tmp\workingDir\0000094785\te_540_3d_st_v01_01.dxf
999
Pro/ENGINEER 2016380 by Parametric Technology Corporation
  0
SECTION
  2
HEADER
  9
$ACADVER
  1
AC1014
  9
$DWGCODEPAGE
  3
ANSI_1252
  9
$EXTMAX
 10
80.01
 20
320.0
 30
0.0
  9
$EXTMIN
 10
0.0
 20
0.0
 30
0.0
  9
$LIMMIN
 10
0.0
 20
0.0
  9
$LIMMAX
 10
80.01
 20
320.0
  9
$VIEWCTR
 10
40.005
 20
160.0
  9
$VIEWSIZE
 40
320.0
  9
$CLAYER
  8
0
  9
$LTSCALE
 40
20.8592592593
  9
$CELTYPE
  6
BYLAYER
  9
$DIMSCALE
 40
1.0
  9
$DIMASZ
 40
3.5
  9
$DIMEXO
 40
0.0
  9
$DIMDLI
 40
14.4118518519
  9
$DIMEXE
 40
2.0
  9
$DIMCEN
 40
3.4133333333
  9
$DIMLFAC
 40
1.0
  9
$DIMBLK
  1
_ARROW_FILLED
  9
$DIMALT
 70
0
  9
$DIMALTF
 40
25.4
  9
$DIMTXT
 40
3.5
  9
$DIMTOL
 70
1
  9
$DIMLIM
 70
0
  9
$DIMTFAC
 40
1.0
  9
$DIMTP
 40
0.01
  9
$DIMTM
 40
0.01
  9
$DIMGAP
 40
0.625
  9
$AUNITS
 70
0
  9
$PDMODE
 70
0
  9
$PDSIZE
 40
0.04
  9
$HANDSEED
  5
396
  9
$TILEMODE
 70
1
  9
$MEASUREMENT
 70
1
  0
ENDSEC
  0
SECTION
  2
CLASSES
  0
ENDSEC
  0
SECTION
  2
TABLES
  0
TABLE
  2
VPORT
  5
8
100
AcDbSymbolTable
 70
2
  0
VPORT
  5
1F4
100
AcDbSymbolTableRecord
100
AcDbViewportTableRecord
  2
*ACTIVE
 70
0
 10
0.0
 20
0.0
 11
1.0
 21
1.0
 12
40.005
 22
160.0
 13
0.0
 23
0.0
 14
1.0
 24
1.0
 15
0.0
 25
0.0
 16
0.0
 26
0.0
 36
1.0
 17
0.0
 27
0.0
 37
0.0
 40
320.0
 41
0.25003125
 42
50.0
 43
0.0
 44
0.0
 50
0.0
 51
0.0
 71
0
 72
100
 73
1
 74
1
 75
0
 76
0
 77
0
 78
0
  0
ENDTAB
  0
TABLE
  2
LTYPE
  5
5
100
AcDbSymbolTable
 70
6
  0
LTYPE
  5
14
100
AcDbSymbolTableRecord
100
AcDbLinetypeTableRecord
  2
BYBLOCK
 70
0
  3

 72
65
 73
0
 40
0.0
  0
LTYPE
  5
15
100
AcDbSymbolTableRecord
100
AcDbLinetypeTableRecord
  2
BYLAYER
 70
0
  3

 72
65
 73
0
 40
0.0
  0
LTYPE
  5
16
100
AcDbSymbolTableRecord
100
AcDbLinetypeTableRecord
  2
CONTINUOUS
 70
64
  3
Solid line
 72
65
 73
0
 40
0.0
  0
LTYPE
  5
1F5
100
AcDbSymbolTableRecord
100
AcDbLinetypeTableRecord
  2
CENTER
 70
64
  3
____ _ ____ _ ____ _ ____ _ ____ _ ____ _ ____
 72
65
 73
4
 40
0.6
 49
0.375
 74
0
 49
-0.075
 74
0
 49
0.075
 74
0
 49
-0.075
 74
0
  0
LTYPE
  5
1F6
100
AcDbSymbolTableRecord
100
AcDbLinetypeTableRecord
  2
HIDDEN
 70
64
  3
- - - - - - - - - - - - - - - - - - - -
 72
65
 73
2
 40
0.2
 49
0.1
 74
0
 49
-0.1
 74
0
  0
LTYPE
  5
1F7
100
AcDbSymbolTableRecord
100
AcDbLinetypeTableRecord
  2
PHANTOM
 70
64
  3
_____ _ _ _____ _ _ _____ _ _ _____
 72
65
 73
6
 40
0.8
 49
0.45
 74
0
 49
-0.05
 74
0
 49
0.1
 74
0
 49
-0.05
 74
0
 49
0.1
 74
0
 49
-0.05
 74
0
  0
LTYPE
  5
1F8
100
AcDbSymbolTableRecord
100
AcDbLinetypeTableRecord
  2
DOT
 70
64
  3
. . . . . . . . . . . . . . . . . . . .
 72
65
 73
2
 40
0.2
 49
0.1
 74
0
 49
-0.1
 74
0
  0
LTYPE
  5
1F9
100
AcDbSymbolTableRecord
100
AcDbLinetypeTableRecord
  2
DASHED
 70
64
  3
- - - - - - - - - - - - - - - - - - - -
 72
65
 73
2
 40
0.2
 49
0.1
 74
0
 49
-0.1
 74
0
  0
ENDTAB
  0
TABLE
  2
LAYER
  5
2
100
AcDbSymbolTable
 70
36
  0
LAYER
  5
10
100
AcDbSymbolTableRecord
100
AcDbLayerTableRecord
  2
0
 70
0
 62
7
  6
CONTINUOUS
  0
LAYER
  5
1FA
100
AcDbSymbolTableRecord
100
AcDbLayerTableRecord
  2
DEFAULT_1
 70
0
 62
7
  6
CENTER
  0
LAYER
  5
1FB
100
AcDbSymbolTableRecord
100
AcDbLayerTableRecord
  2
DEFAULT_2
 70
0
 62
8
  6
HIDDEN
  0
LAYER
  5
1FC
100
AcDbSymbolTableRecord
100
AcDbLayerTableRecord
  2
DEFAULT_3
 70
0
 62
7
  6
PHANTOM
  0
LAYER
  5
1FD
100
AcDbSymbolTableRecord
100
AcDbLayerTableRecord
  2
A_ACHSEN
 70
0
 62
7
  6
CONTINUOUS
  0
LAYER
  5
1FE
100
AcDbSymbolTableRecord
100
AcDbLayerTableRecord
  2
A_BASISEBENEN
 70
0
 62
7
  6
CONTINUOUS
  0
LAYER
  5
1FF
100
AcDbSymbolTableRecord
100
AcDbLayerTableRecord
  2
A_BEMASSUNGEN
 70
0
 62
7
  6
CONTINUOUS
  0
LAYER
  5
200
100
AcDbSymbolTableRecord
100
AcDbLayerTableRecord
  2
A_BOHRUNGEN
 70
0
 62
7
  6
CONTINUOUS
  0
LAYER
  5
201
100
AcDbSymbolTableRecord
100
AcDbLayerTableRecord
  2
A_EBENEN
 70
0
 62
7
  6
CONTINUOUS
  0
LAYER
  5
202
100
AcDbSymbolTableRecord
100
AcDbLayerTableRecord
  2
A_FASEN
 70
0
 62
7
  6
CONTINUOUS
  0
LAYER
  5
203
100
AcDbSymbolTableRecord
100
AcDbLayerTableRecord
  2
A_FL_VERBAENDE
 70
0
 62
7
  6
CONTINUOUS
  0
LAYER
  5
204
100
AcDbSymbolTableRecord
100
AcDbLayerTableRecord
  2
A_NOTIZEN_SYMB
 70
0
 62
7
  6
CONTINUOUS
  0
LAYER
  5
205
100
AcDbSymbolTableRecord
100
AcDbLayerTableRecord
  2
A_RUNDUNGEN
 70
0
 62
7
  6
CONTINUOUS
  0
LAYER
  5
206
100
AcDbSymbolTableRecord
100
AcDbLayerTableRecord
  2
BASISEBENEN
 70
0
 62
7
  6
CONTINUOUS
  0
ENDTAB
  0
TABLE
  2
STYLE
  5
3
100
AcDbSymbolTable
 70
1
  0
STYLE
  5
11
100
AcDbSymbolTableRecord
100
AcDbTextStyleTableRecord
  2
STANDARD
 70
0
 40
0.0
 41
1.0
 50
0.0
 71
0
 42
0.2
  3
txt
  4

  0
STYLE
  5
207
100
AcDbSymbolTableRecord
100
AcDbTextStyleTableRecord
  2
TEXTSTYLE_1
 70
0
 40
0.0
 41
0.8
 50
0.0
 71
0
 42
0.2
  3
gdt
  4

  0
STYLE
  5
208
100
AcDbSymbolTableRecord
100
AcDbTextStyleTableRecord
  2
TEXTSTYLE_2
 70
0
 40
0.0
 41
1.0
 50
0.0
 71
0
 42
0.2
  3
txt
  4

  0
ENDTAB
  0
TABLE
  2
VIEW
  5
6
100
AcDbSymbolTable
 70
0
  0
ENDTAB
  0
TABLE
  2
UCS
  5
7
100
AcDbSymbolTable
 70
0
  0
ENDTAB
  0
TABLE
  2
APPID
  5
9
100
AcDbSymbolTable
 70
1
  0
APPID
  5
209
100
AcDbSymbolTableRecord
100
AcDbRegAppTableRecord
  2
ACAD
 70
0
  0
ENDTAB
  0
TABLE
  2
BLOCK_RECORD
  5
1
100
AcDbSymbolTable
 70
0
  0
BLOCK_RECORD
  5
1F
100
AcDbSymbolTableRecord
100
AcDbBlockTableRecord
  2
*MODEL_SPACE
  0
BLOCK_RECORD
  5
1B
100
AcDbSymbolTableRecord
100
AcDbBlockTableRecord
  2
*PAPER_SPACE
  0
BLOCK_RECORD
  5
20A
100
AcDbSymbolTableRecord
100
AcDbBlockTableRecord
  2
_ARROW_FILLED
  0
BLOCK_RECORD
  5
20B
100
AcDbSymbolTableRecord
100
AcDbBlockTableRecord
  2
*D0
  0
BLOCK_RECORD
  5
20C
100
AcDbSymbolTableRecord
100
AcDbBlockTableRecord
  2
*D1
  0
BLOCK_RECORD
  5
20D
100
AcDbSymbolTableRecord
100
AcDbBlockTableRecord
  2
*D2
  0
ENDTAB
  0
TABLE
  2
DIMSTYLE
  5
A
100
AcDbSymbolTable
 70
1
  0
DIMSTYLE
105
20E
100
AcDbSymbolTableRecord
100
AcDbDimStyleTableRecord
  2
STANDARD
 70
0
  3

  4

  5
_ARROW_FILLED
  6
_ARROW_FILLED
  7
_ARROW_FILLED
 40
1.0
 41
3.5
 42
0.0
 43
0.38
 44
2.0
 45
0.0
 46
0.0
 47
0.01
 48
0.01
140
3.5
141
0.09
142
0.0
143
25.4
144
1.0
145
0.0
146
1.0
147
0.625
 71
1.0
 72
0.0
 73
0
 74
0
 75
0
 76
0
 77
1
 78
8
170
0
171
1
172
0
173
0
174
0
175
0
176
0
177
0
178
5
270
2
271
2
272
2
273
2
274
2
275
0
280
0
281
0
282
0
283
1
284
8
285
0
286
0
287
3
288
0
340
11
  0
DIMSTYLE
105
20F
100
AcDbSymbolTableRecord
100
AcDbDimStyleTableRecord
  2
DIMSTYLE_1
 70
0
  3

  4

  5
_ARROW_FILLED
  6
_ARROW_FILLED
  7
_ARROW_FILLED
 40
1.0
 41
3.5
 42
0.0
 43
0.38
 44
2.0
 45
0.0
 46
0.0
 47
0.5
 48
0.5
140
3.5
141
0.09
142
0.0
143
25.4
144
1.0
145
0.0
146
1.0
147
0.875
 71
0.0
 72
0.0
 73
0
 74
0
 75
0
 76
0
 77
1
 78
8
170
0
171
1
172
0
173
0
174
0
175
0
176
0
177
0
178
5
270
2
271
4
272
-1
273
2
274
2
275
0
280
0
281
0
282
0
283
1
284
8
285
0
286
0
287
3
288
0
340
208
  0
DIMSTYLE
105
210
100
AcDbSymbolTableRecord
100
AcDbDimStyleTableRecord
  2
DIMSTYLE_2
 70
0
  3

  4

  5
_ARROW_FILLED
  6
_ARROW_FILLED
  7
_ARROW_FILLED
 40
1.0
 41
3.5
 42
0.0
 43
0.38
 44
2.0
 45
0.0
 46
0.0
 47
0.2
 48
0.2
140
3.5
141
0.09
142
0.0
143
25.4
144
1.0
145
0.0
146
1.0
147
0.875
 71
0.0
 72
0.0
 73
0
 74
0
 75
0
 76
0
 77
1
 78
8
170
0
171
1
172
0
173
0
174
0
175
0
176
0
177
0
178
5
270
2
271
1
272
-1
273
2
274
2
275
0
280
0
281
0
282
0
283
1
284
8
285
0
286
0
287
3
288
0
340
208
  0
DIMSTYLE
105
211
100
AcDbSymbolTableRecord
100
AcDbDimStyleTableRecord
  2
DIMSTYLE_3
 70
0
  3

  4

  5
_ARROW_FILLED
  6
_ARROW_FILLED
  7
_ARROW_FILLED
 40
1.0
 41
3.5
 42
0.0
 43
0.38
 44
2.0
 45
0.0
 46
0.0
 47
0.3
 48
0.3
140
3.5
141
0.09
142
0.0
143
25.4
144
1.0
145
0.0
146
1.0
147
0.875
 71
0.0
 72
0.0
 73
0
 74
0
 75
0
 76
0
 77
1
 78
8
170
0
171
1
172
0
173
0
174
0
175
0
176
0
177
0
178
5
270
2
271
4
272
-1
273
2
274
2
275
0
280
0
281
0
282
0
283
1
284
8
285
0
286
0
287
3
288
0
340
208
  0
ENDTAB
  0
ENDSEC
  0
SECTION
  2
BLOCKS
  0
BLOCK
  5
20
100
AcDbEntity
  8
0
100
AcDbBlockBegin
  2
*MODEL_SPACE
 70
0
 10
0.0
 20
0.0
 30
0.0
  3
*MODEL_SPACE
  1

  0
ENDBLK
  5
21
100
AcDbEntity
  8
0
100
AcDbBlockEnd
  0
BLOCK
  5
1C
100
AcDbEntity
  8
0
100
AcDbBlockBegin
  2
*PAPER_SPACE
 70
0
 10
0.0
 20
0.0
 30
0.0
  3
*PAPER_SPACE
  1

  0
ENDBLK
  5
1D
100
AcDbEntity
  8
0
100
AcDbBlockEnd
  0
BLOCK
  5
212
100
AcDbEntity
  8
0
100
AcDbBlockBegin
  2
_ARROW_FILLED
 70
64
 10
0.0
 20
0.0
  3
_ARROW_FILLED
  1

  0
SOLID
  5
213
100
AcDbEntity
  8
0
  6
BYBLOCK
 62
0
100
AcDbTrace
 10
0.0
 20
0.0
 11
-1.0
 21
0.1428571429
 12
-1.0
 22
-0.1428571429
 13
-1.0
 23
-0.1428571429
  0
ENDBLK
  5
214
100
AcDbEntity
  8
0
  6
BYBLOCK
 62
0
100
AcDbBlockEnd
  0
BLOCK
  5
215
100
AcDbEntity
  8
A_BEMASSUNGEN
100
AcDbBlockBegin
 62
2
  6
CONTINUOUS
  2
*D0
 70
65
 10
0.0
 20
0.0
  3
*D0
  1

  0
MTEXT
  5
216
100
AcDbEntity
  8
A_BEMASSUNGEN
100
AcDbMText
 62
5
  6
CONTINUOUS
  7
TEXTSTYLE_2
 71
2
 72
1
 10
12.1623807855
 20
147.6159502262
 30
0.0
 11
0.0
 21
1.0
 31
0.0
  1
286
 40
3.5
 41
12.375
  0
LINE
  5
217
100
AcDbEntity
  8
A_BEMASSUNGEN
100
AcDbLine
 62
2
  6
CONTINUOUS
 10
30.4010361979
 20
290.6159502262
 11
26.5694462578
 21
290.6159502262
  0
LINE
  5
218
100
AcDbEntity
  8
A_BEMASSUNGEN
100
AcDbLine
 62
2
  6
CONTINUOUS
 10
25.2090493767
 20
290.6159502262
 11
14.5373807855
 21
290.6159502262
  0
LINE
  5
219
100
AcDbEntity
  8
A_BEMASSUNGEN
100
AcDbLine
 62
2
  6
CONTINUOUS
 10
30.4010361979
 20
4.6159502262
 11
14.5373807855
 21
4.6159502262
  0
LINE
  5
21A
100
AcDbEntity
  8
A_BEMASSUNGEN
100
AcDbLine
 62
2
  6
CONTINUOUS
 10
16.5373807855
 20
290.6159502262
 11
16.5373807855
 21
147.6159502262
  0
LINE
  5
21B
100
AcDbEntity
  8
A_BEMASSUNGEN
100
AcDbLine
 62
2
  6
CONTINUOUS
 10
16.5373807855
 20
4.6159502262
 11
16.5373807855
 21
147.6159502262
  0
INSERT
  5
21C
100
AcDbEntity
  8
A_BEMASSUNGEN
100
AcDbBlockReference
 62
2
  6
CONTINUOUS
  2
_ARROW_FILLED
 10
16.5373807855
 20
290.6159502262
 41
3.5
 42
3.5
 43
3.5
 50
90.0
  0
INSERT
  5
21D
100
AcDbEntity
  8
A_BEMASSUNGEN
100
AcDbBlockReference
 62
2
  6
CONTINUOUS
  2
_ARROW_FILLED
 10
16.5373807855
 20
4.6159502262
 41
3.5
 42
3.5
 43
3.5
 50
270.0
  0
ENDBLK
  5
21E
100
AcDbEntity
  8
0
  6
BYBLOCK
 62
0
100
AcDbBlockEnd
  0
BLOCK
  5
21F
100
AcDbEntity
  8
A_BEMASSUNGEN
100
AcDbBlockBegin
 62
2
  6
CONTINUOUS
  2
*D1
 70
65
 10
0.0
 20
0.0
  3
*D1
  1

  0
MTEXT
  5
220
100
AcDbEntity
  8
A_BEMASSUNGEN
100
AcDbMText
 62
5
  6
CONTINUOUS
  7
TEXTSTYLE_2
 71
2
 72
1
 10
45.1809954751
 20
304.0837301502
 30
0.0
 11
1.0
 21
0.0
 31
0.0
  1
29.6
 40
3.5
 41
15.375
  0
LINE
  5
221
100
AcDbEntity
  8
A_BEMASSUNGEN
100
AcDbLine
 62
2
  6
CONTINUOUS
 10
30.4010361979
 20
290.6159502262
 11
30.4010361979
 21
301.7087301502
  0
LINE
  5
222
100
AcDbEntity
  8
A_BEMASSUNGEN
100
AcDbLine
 62
2
  6
CONTINUOUS
 10
59.9609547524
 20
290.6159502262
 11
59.9609547524
 21
301.7087301502
  0
LINE
  5
223
100
AcDbEntity
  8
A_BEMASSUNGEN
100
AcDbLine
 62
2
  6
CONTINUOUS
 10
30.4010361979
 20
299.7087301502
 11
45.1809954751
 21
299.7087301502
  0
LINE
  5
224
100
AcDbEntity
  8
A_BEMASSUNGEN
100
AcDbLine
 62
2
  6
CONTINUOUS
 10
59.9609547524
 20
299.7087301502
 11
45.1809954751
 21
299.7087301502
  0
INSERT
  5
225
100
AcDbEntity
  8
A_BEMASSUNGEN
100
AcDbBlockReference
 62
2
  6
CONTINUOUS
  2
_ARROW_FILLED
 10
30.4010361979
 20
299.7087301502
 41
3.5
 42
3.5
 43
3.5
 50
180.0
  0
INSERT
  5
226
100
AcDbEntity
  8
A_BEMASSUNGEN
100
AcDbBlockReference
 62
2
  6
CONTINUOUS
  2
_ARROW_FILLED
 10
59.9609547524
 20
299.7087301502
 41
3.5
 42
3.5
 43
3.5
  0
ENDBLK
  5
227
100
AcDbEntity
  8
0
  6
BYBLOCK
 62
0
100
AcDbBlockEnd
  0
BLOCK
  5
228
100
AcDbEntity
  8
A_BEMASSUNGEN
100
AcDbBlockBegin
 62
2
  6
CONTINUOUS
  2
*D2
 70
65
 10
0.0
 20
0.0
  3
*D2
  1

  0
MTEXT
  5
229
100
AcDbEntity
  8
A_BEMASSUNGEN
100
AcDbMText
 62
5
  6
CONTINUOUS
  7
TEXTSTYLE_2
 71
2
 72
1
 10
45.1809954751
 20
313.9289572995
 30
0.0
 11
1.0
 21
0.0
 31
0.0
  1
38.5
 40
3.5
 41
14.625
  0
LINE
  5
22A
100
AcDbEntity
  8
A_BEMASSUNGEN
100
AcDbLine
 62
2
  6
CONTINUOUS
 10
25.9309954751
 20
271.7159502262
 11
25.9309954751
 21
311.5539572995
  0
LINE
  5
22B
100
AcDbEntity
  8
A_BEMASSUNGEN
100
AcDbLine
 62
2
  6
CONTINUOUS
 10
64.4309954751
 20
271.7159502262
 11
64.4309954751
 21
311.5539572995
  0
LINE
  5
22C
100
AcDbEntity
  8
A_BEMASSUNGEN
100
AcDbLine
 62
2
  6
CONTINUOUS
 10
25.9309954751
 20
309.5539572995
 11
45.1809954751
 21
309.5539572995
  0
LINE
  5
22D
100
AcDbEntity
  8
A_BEMASSUNGEN
100
AcDbLine
 62
2
  6
CONTINUOUS
 10
64.4309954751
 20
309.5539572995
 11
45.1809954751
 21
309.5539572995
  0
INSERT
  5
22E
100
AcDbEntity
  8
A_BEMASSUNGEN
100
AcDbBlockReference
 62
2
  6
CONTINUOUS
  2
_ARROW_FILLED
 10
25.9309954751
 20
309.5539572995
 41
3.5
 42
3.5
 43
3.5
 50
180.0
  0
INSERT
  5
22F
100
AcDbEntity
  8
A_BEMASSUNGEN
100
AcDbBlockReference
 62
2
  6
CONTINUOUS
  2
_ARROW_FILLED
 10
64.4309954751
 20
309.5539572995
 41
3.5
 42
3.5
 43
3.5
  0
ENDBLK
  5
230
100
AcDbEntity
  8
0
  6
BYBLOCK
 62
0
100
AcDbBlockEnd
  0
ENDSEC
  0
SECTION
  2
ENTITIES
  0
DIMENSION
  5
231
100
AcDbEntity
  8
A_BEMASSUNGEN
100
AcDbDimension
 62
2
  6
CONTINUOUS
  2
*D0
 10
16.5373807855
 20
4.6159502262
 11
16.5373807855
 21
147.1159537
 70
160
  3
DIMSTYLE_1
100
AcDbAlignedDimension
 13
30.4010361979
 23
290.6159502262
 14
30.4010361979
 24
4.6159502262
 50
270.0
100
AcDbRotatedDimension
  0
DIMENSION
  5
232
100
AcDbEntity
  8
A_BEMASSUNGEN
100
AcDbDimension
 62
2
  6
CONTINUOUS
  2
*D1
 10
59.9609547524
 20
299.7087301502
 11
44.6809953704
 21
299.7087301502
 70
160
  3
DIMSTYLE_2
100
AcDbAlignedDimension
 13
30.4010361979
 23
290.6159502262
 14
59.9609547524
 24
290.6159502262
100
AcDbRotatedDimension
  0
DIMENSION
  5
233
100
AcDbEntity
  8
A_BEMASSUNGEN
100
AcDbDimension
 62
2
  6
CONTINUOUS
  2
*D2
 10
64.4309954751
 20
309.5539572995
 11
44.6809953704
 21
309.5539572995
 70
160
  3
DIMSTYLE_3
100
AcDbAlignedDimension
 13
25.9309954751
 23
271.7159502262
 14
64.4309954751
 24
271.7159502262
100
AcDbRotatedDimension
  0
LINE
  5
234
100
AcDbEntity
  8
A_RUNDUNGEN
100
AcDbLine
 62
3
  6
CONTINUOUS
 10
30.4010361979
 20
4.6159502262
 11
43.7667819127
 21
4.6159502262
  0
LINE
  5
235
100
AcDbEntity
  8
A_RUNDUNGEN
100
AcDbLine
 62
3
  6
CONTINUOUS
 10
46.5952090375
 20
4.6159502262
 11
59.9609547524
 21
4.6159502262
  0
LINE
  5
236
100
AcDbEntity
  8
A_RUNDUNGEN
100
AcDbLine
 62
7
  6
CONTINUOUS
 10
28.9309954751
 20
22.5159502262
 11
25.9309954751
 21
22.5159502262
  0
LINE
  5
237
100
AcDbEntity
  8
A_RUNDUNGEN
100
AcDbLine
 62
7
  6
CONTINUOUS
 10
61.4309954751
 20
22.5159502262
 11
64.4309954751
 21
22.5159502262
  0
LINE
  5
238
100
AcDbEntity
  8
DEFAULT_2
100
AcDbLine
 62
8
  6
HIDDEN
 10
59.9609547524
 20
23.6159502262
 11
30.4010361979
 21
23.6159502262
  0
LINE
  5
239
100
AcDbEntity
  8
DEFAULT_2
100
AcDbLine
 62
8
  6
HIDDEN
 10
64.4309954751
 20
26.6159502262
 11
61.4309954751
 21
26.6159502262
  0
LINE
  5
23A
100
AcDbEntity
  8
DEFAULT_2
100
AcDbLine
 62
8
  6
HIDDEN
 10
61.4309954751
 20
26.6159502262
 11
61.424818627
 21
26.6159502262
  0
LINE
  5
23B
100
AcDbEntity
  8
DEFAULT_2
100
AcDbLine
 62
8
  6
HIDDEN
 10
28.9371723232
 20
26.6159502262
 11
28.9309954751
 21
26.6159502262
  0
LINE
  5
23C
100
AcDbEntity
  8
DEFAULT_2
100
AcDbLine
 62
8
  6
HIDDEN
 10
25.9309954751
 20
26.6159502262
 11
28.9309954751
 21
26.6159502262
  0
LINE
  5
23D
100
AcDbEntity
  8
0
100
AcDbLine
 62
3
  6
CONTINUOUS
 10
30.4010361979
 20
26.6159502262
 11
59.9609547524
 21
26.6159502262
  0
LINE
  5
23E
100
AcDbEntity
  8
DEFAULT_2
100
AcDbLine
 62
8
  6
HIDDEN
 10
61.7417501942
 20
28.0857359276
 11
61.1865186314
 21
28.0857359276
  0
LINE
  5
23F
100
AcDbEntity
  8
DEFAULT_2
100
AcDbLine
 62
8
  6
HIDDEN
 10
29.1754723188
 20
28.0857359276
 11
28.620240756
 21
28.0857359276
  0
LINE
  5
240
100
AcDbEntity
  8
A_ACHSEN
100
AcDbLine
 62
7
  6
CENTER
 10
30.4649560688
 20
62.6159502262
 11
41.8970348814
 21
62.6159502262
  0
LINE
  5
241
100
AcDbEntity
  8
A_ACHSEN
100
AcDbLine
 62
7
  6
CENTER
 10
48.1379691222
 20
62.6159502262
 11
60.2240218281
 21
62.6159502262
  0
LINE
  5
242
100
AcDbEntity
  8
0
100
AcDbLine
 62
3
  6
CONTINUOUS
 10
49.0809954751
 20
68.6159502262
 11
41.2809954751
 21
68.6159502262
  0
LINE
  5
243
100
AcDbEntity
  8
0
100
AcDbLine
 62
3
  6
CONTINUOUS
 10
61.4309954751
 20
71.3659502262
 11
56.7254379008
 21
71.3659502262
  0
LINE
  5
244
100
AcDbEntity
  8
DEFAULT_2
100
AcDbLine
 62
8
  6
HIDDEN
 10
28.9309954751
 20
71.3659502262
 11
25.9309954751
 21
71.3659502262
  0
LINE
  5
245
100
AcDbEntity
  8
0
100
AcDbLine
 62
3
  6
CONTINUOUS
 10
28.9309954751
 20
71.3659502262
 11
33.6365530494
 21
71.3659502262
  0
LINE
  5
246
100
AcDbEntity
  8
DEFAULT_2
100
AcDbLine
 62
8
  6
HIDDEN
 10
61.4309954751
 20
71.3659502262
 11
64.4309954751
 21
71.3659502262
  0
LINE
  5
247
100
AcDbEntity
  8
A_RUNDUNGEN
100
AcDbLine
 62
8
  6
HIDDEN
 10
64.2309954751
 20
75.3659502262
 11
61.2309954751
 21
75.3659502262
  0
LINE
  5
248
100
AcDbEntity
  8
A_RUNDUNGEN
100
AcDbLine
 62
8
  6
HIDDEN
 10
28.9309954751
 20
75.3659502262
 11
25.9309954751
 21
75.3659502262
  0
LINE
  5
249
100
AcDbEntity
  8
A_RUNDUNGEN
100
AcDbLine
 62
7
  6
CONTINUOUS
 10
64.2309954751
 20
101.6159502262
 11
61.2309954751
 21
101.6159502262
  0
LINE
  5
24A
100
AcDbEntity
  8
DEFAULT_2
100
AcDbLine
 62
8
  6
HIDDEN
 10
25.9309954751
 20
268.6159502262
 11
25.9309954751
 21
223.8659502262
  0
LINE
  5
24B
100
AcDbEntity
  8
DEFAULT_2
100
AcDbLine
 62
8
  6
HIDDEN
 10
25.9309954751
 20
71.3659502262
 11
25.9309954751
 21
26.6159502262
  0
LINE
  5
24C
100
AcDbEntity
  8
A_RUNDUNGEN
100
AcDbLine
 62
7
  6
CONTINUOUS
 10
25.9309954751
 20
22.5159502262
 11
25.9309954751
 21
272.7159502262
  0
LINE
  5
24D
100
AcDbEntity
  8
DEFAULT_2
100
AcDbLine
 62
8
  6
HIDDEN
 10
28.9309954751
 20
122.6159502262
 11
28.8309954751
 21
122.6159502262
  0
LINE
  5
24E
100
AcDbEntity
  8
DEFAULT_2
100
AcDbLine
 62
8
  6
HIDDEN
 10
28.9309954751
 20
122.6888668951
 11
28.8309954751
 21
122.6888668951
  0
LINE
  5
24F
100
AcDbEntity
  8
DEFAULT_2
100
AcDbLine
 62
8
  6
HIDDEN
 10
28.9309954751
 20
122.8347002262
 11
28.8309954751
 21
122.8347002262
  0
LINE
  5
250
100
AcDbEntity
  8
DEFAULT_2
100
AcDbLine
 62
8
  6
HIDDEN
 10
28.9309954751
 20
122.9076169016
 11
28.8309954751
 21
122.9076169016
  0
LINE
  5
251
100
AcDbEntity
  8
DEFAULT_2
100
AcDbLine
 62
8
  6
HIDDEN
 10
28.9309954751
 20
123.0534502262
 11
28.8309954751
 21
123.0534502262
  0
LINE
  5
252
100
AcDbEntity
  8
DEFAULT_2
100
AcDbLine
 62
8
  6
HIDDEN
 10
28.9309954751
 20
123.1263668755
 11
28.8309954751
 21
123.1263668755
  0
LINE
  5
253
100
AcDbEntity
  8
DEFAULT_2
100
AcDbLine
 62
8
  6
HIDDEN
 10
28.9309954751
 20
123.199283577
 11
28.8309954751
 21
123.199283577
  0
LINE
  5
254
100
AcDbEntity
  8
DEFAULT_2
100
AcDbLine
 62
8
  6
HIDDEN
 10
28.9309954751
 20
123.2722002262
 11
28.8309954751
 21
123.2722002262
  0
LINE
  5
255
100
AcDbEntity
  8
DEFAULT_2
100
AcDbLine
 62
8
  6
HIDDEN
 10
28.9309954751
 20
123.3451168755
 11
28.8309954751
 21
123.3451168755
  0
LINE
  5
256
100
AcDbEntity
  8
DEFAULT_2
100
AcDbLine
 62
8
  6
HIDDEN
 10
28.9309954751
 20
123.4909502262
 11
28.8309954751
 21
123.4909502262
  0
LINE
  5
257
100
AcDbEntity
  8
DEFAULT_2
100
AcDbLine
 62
8
  6
HIDDEN
 10
28.9309954751
 20
123.5638669277
 11
28.8309954751
 21
123.5638669277
  0
LINE
  5
258
100
AcDbEntity
  8
DEFAULT_2
100
AcDbLine
 62
8
  6
HIDDEN
 10
28.9309954751
 20
123.6367835248
 11
28.8309954751
 21
123.6367835248
  0
LINE
  5
259
100
AcDbEntity
  8
DEFAULT_2
100
AcDbLine
 62
8
  6
HIDDEN
 10
28.9309954751
 20
123.7826169277
 11
28.8309954751
 21
123.7826169277
  0
LINE
  5
25A
100
AcDbEntity
  8
DEFAULT_2
100
AcDbLine
 62
8
  6
HIDDEN
 10
28.9309954751
 20
124.1472002262
 11
28.8309954751
 21
124.1472002262
  0
LINE
  5
25B
100
AcDbEntity
  8
DEFAULT_2
100
AcDbLine
 62
8
  6
HIDDEN
 10
28.9309954751
 20
124.2201169277
 11
28.8309954751
 21
124.2201169277
  0
LINE
  5
25C
100
AcDbEntity
  8
DEFAULT_2
100
AcDbLine
 62
8
  6
HIDDEN
 10
28.9309954751
 20
124.4388668234
 11
28.8309954751
 21
124.4388668234
  0
LINE
  5
25D
100
AcDbEntity
  8
DEFAULT_2
100
AcDbLine
 62
8
  6
HIDDEN
 10
28.9309954751
 20
124.5117836291
 11
28.8309954751
 21
124.5117836291
  0
LINE
  5
25E
100
AcDbEntity
  8
DEFAULT_2
100
AcDbLine
 62
8
  6
HIDDEN
 10
28.9309954751
 20
124.5847002262
 11
28.8309954751
 21
124.5847002262
  0
LINE
  5
25F
100
AcDbEntity
  8
DEFAULT_2
100
AcDbLine
 62
8
  6
HIDDEN
 10
28.9309954751
 20
124.6576168234
 11
28.8309954751
 21
124.6576168234
  0
LINE
  5
260
100
AcDbEntity
  8
DEFAULT_2
100
AcDbLine
 62
8
  6
HIDDEN
 10
28.9309954751
 20
124.7305336291
 11
28.8309954751
 21
124.7305336291
  0
LINE
  5
261
100
AcDbEntity
  8
DEFAULT_2
100
AcDbLine
 62
8
  6
HIDDEN
 10
28.9309954751
 20
124.8034502262
 11
28.8309954751
 21
124.8034502262
  0
LINE
  5
262
100
AcDbEntity
  8
DEFAULT_2
100
AcDbLine
 62
8
  6
HIDDEN
 10
28.9309954751
 20
124.8763668234
 11
28.8309954751
 21
124.8763668234
  0
LINE
  5
263
100
AcDbEntity
  8
DEFAULT_2
100
AcDbLine
 62
8
  6
HIDDEN
 10
28.9309954751
 20
125.0222002262
 11
28.8309954751
 21
125.0222002262
  0
LINE
  5
264
100
AcDbEntity
  8
DEFAULT_2
100
AcDbLine
 62
8
  6
HIDDEN
 10
28.9309954751
 20
125.0951168234
 11
28.8309954751
 21
125.0951168234
  0
LINE
  5
265
100
AcDbEntity
  8
DEFAULT_2
100
AcDbLine
 62
8
  6
HIDDEN
 10
28.9309954751
 20
125.1680336291
 11
28.8309954751
 21
125.1680336291
  0
LINE
  5
266
100
AcDbEntity
  8
DEFAULT_2
100
AcDbLine
 62
8
  6
HIDDEN
 10
28.9309954751
 20
125.3138668234
 11
28.8309954751
 21
125.3138668234
  0
LINE
  5
267
100
AcDbEntity
  8
DEFAULT_2
100
AcDbLine
 62
8
  6
HIDDEN
 10
28.9309954751
 20
125.8972002262
 11
28.8309954751
 21
125.8972002262
  0
LINE
  5
268
100
AcDbEntity
  8
DEFAULT_2
100
AcDbLine
 62
8
  6
HIDDEN
 10
28.9309954751
 20
125.9701168234
 11
28.8309954751
 21
125.9701168234
  0
LINE
  5
269
100
AcDbEntity
  8
DEFAULT_2
100
AcDbLine
 62
8
  6
HIDDEN
 10
28.9309954751
 20
126.1159502262
 11
28.8309954751
 21
126.1159502262
  0
LINE
  5
26A
100
AcDbEntity
  8
DEFAULT_2
100
AcDbLine
 62
8
  6
HIDDEN
 10
28.9309954751
 20
126.2617834205
 11
28.8309954751
 21
126.2617834205
  0
LINE
  5
26B
100
AcDbEntity
  8
DEFAULT_2
100
AcDbLine
 62
8
  6
HIDDEN
 10
28.9309954751
 20
126.3347002262
 11
28.8309954751
 21
126.3347002262
  0
LINE
  5
26C
100
AcDbEntity
  8
DEFAULT_2
100
AcDbLine
 62
8
  6
HIDDEN
 10
28.9309954751
 20
126.407617032
 11
28.8309954751
 21
126.407617032
  0
LINE
  5
26D
100
AcDbEntity
  8
DEFAULT_2
100
AcDbLine
 62
8
  6
HIDDEN
 10
28.9309954751
 20
126.4805334205
 11
28.8309954751
 21
126.4805334205
  0
LINE
  5
26E
100
AcDbEntity
  8
DEFAULT_2
100
AcDbLine
 62
8
  6
HIDDEN
 10
28.9309954751
 20
126.626367032
 11
28.8309954751
 21
126.626367032
  0
LINE
  5
26F
100
AcDbEntity
  8
DEFAULT_2
100
AcDbLine
 62
8
  6
HIDDEN
 10
28.9309954751
 20
126.6992834205
 11
28.8309954751
 21
126.6992834205
  0
LINE
  5
270
100
AcDbEntity
  8
DEFAULT_2
100
AcDbLine
 62
8
  6
HIDDEN
 10
28.9309954751
 20
126.7722002262
 11
28.8309954751
 21
126.7722002262
  0
LINE
  5
271
100
AcDbEntity
  8
DEFAULT_2
100
AcDbLine
 62
8
  6
HIDDEN
 10
28.9309954751
 20
127.063867032
 11
28.8309954751
 21
127.063867032
  0
LINE
  5
272
100
AcDbEntity
  8
DEFAULT_2
100
AcDbLine
 62
8
  6
HIDDEN
 10
28.9309954751
 20
127.1367834205
 11
28.8309954751
 21
127.1367834205
  0
LINE
  5
273
100
AcDbEntity
  8
DEFAULT_2
100
AcDbLine
 62
8
  6
HIDDEN
 10
28.9309954751
 20
127.501367032
 11
28.8309954751
 21
127.501367032
  0
LINE
  5
274
100
AcDbEntity
  8
DEFAULT_2
100
AcDbLine
 62
8
  6
HIDDEN
 10
28.9309954751
 20
127.5742834205
 11
28.8309954751
 21
127.5742834205
  0
LINE
  5
275
100
AcDbEntity
  8
DEFAULT_2
100
AcDbLine
 62
8
  6
HIDDEN
 10
28.9309954751
 20
127.6472002262
 11
28.8309954751
 21
127.6472002262
  0
LINE
  5
276
100
AcDbEntity
  8
DEFAULT_2
100
AcDbLine
 62
8
  6
HIDDEN
 10
28.9309954751
 20
127.720117032
 11
28.8309954751
 21
127.720117032
  0
LINE
  5
277
100
AcDbEntity
  8
DEFAULT_2
100
AcDbLine
 62
8
  6
HIDDEN
 10
28.9309954751
 20
127.7930334205
 11
28.8309954751
 21
127.7930334205
  0
LINE
  5
278
100
AcDbEntity
  8
DEFAULT_2
100
AcDbLine
 62
8
  6
HIDDEN
 10
28.9309954751
 20
127.8659502262
 11
28.8309954751
 21
127.8659502262
  0
LINE
  5
279
100
AcDbEntity
  8
DEFAULT_2
100
AcDbLine
 62
8
  6
HIDDEN
 10
28.9309954751
 20
127.938867032
 11
28.8309954751
 21
127.938867032
  0
LINE
  5
27A
100
AcDbEntity
  8
DEFAULT_2
100
AcDbLine
 62
8
  6
HIDDEN
 10
28.9309954751
 20
128.157617032
 11
28.8309954751
 21
128.157617032
  0
LINE
  5
27B
100
AcDbEntity
  8
DEFAULT_2
100
AcDbLine
 62
8
  6
HIDDEN
 10
28.9309954751
 20
128.2305334205
 11
28.8309954751
 21
128.2305334205
  0
LINE
  5
27C
100
AcDbEntity
  8
DEFAULT_2
100
AcDbLine
 62
8
  6
HIDDEN
 10
28.9309954751
 20
128.813867032
 11
28.8309954751
 21
128.813867032
  0
LINE
  5
27D
100
AcDbEntity
  8
DEFAULT_2
100
AcDbLine
 62
8
  6
HIDDEN
 10
28.9309954751
 20
129.1784502262
 11
28.8309954751
 21
129.1784502262
  0
LINE
  5
27E
100
AcDbEntity
  8
DEFAULT_2
100
AcDbLine
 62
8
  6
HIDDEN
 10
28.9309954751
 20
129.3242834205
 11
28.8309954751
 21
129.3242834205
  0
LINE
  5
27F
100
AcDbEntity
  8
DEFAULT_2
100
AcDbLine
 62
8
  6
HIDDEN
 10
28.9309954751
 20
129.3972002262
 11
28.8309954751
 21
129.3972002262
  0
LINE
  5
280
100
AcDbEntity
  8
DEFAULT_2
100
AcDbLine
 62
8
  6
HIDDEN
 10
28.9309954751
 20
129.5430334205
 11
28.8309954751
 21
129.5430334205
  0
LINE
  5
281
100
AcDbEntity
  8
DEFAULT_2
100
AcDbLine
 62
8
  6
HIDDEN
 10
30.4010361979
 20
26.585990949
 11
30.4009590672
 21
26.60120233
  0
LINE
  5
282
100
AcDbEntity
  8
DEFAULT_2
100
AcDbLine
 62
8
  6
HIDDEN
 10
28.8309954751
 20
170.1576157803
 11
28.8309954751
 21
167.6784502262
  0
LINE
  5
283
100
AcDbEntity
  8
DEFAULT_2
100
AcDbLine
 62
8
  6
HIDDEN
 10
28.8309954751
 20
167.0951157803
 11
28.8309954751
 21
164.6159502262
  0
LINE
  5
284
100
AcDbEntity
  8
DEFAULT_2
100
AcDbLine
 62
8
  6
HIDDEN
 10
28.8309954751
 20
164.0326157803
 11
28.8309954751
 21
161.5534502262
  0
LINE
  5
285
100
AcDbEntity
  8
DEFAULT_2
100
AcDbLine
 62
8
  6
HIDDEN
 10
28.8309954751
 20
157.4701157803
 11
28.8309954751
 21
154.8451157803
  0
LINE
  5
286
100
AcDbEntity
  8
DEFAULT_2
100
AcDbLine
 62
8
  6
HIDDEN
 10
28.8309954751
 20
154.2617846722
 11
28.8309954751
 21
151.3451157803
  0
LINE
  5
287
100
AcDbEntity
  8
DEFAULT_2
100
AcDbLine
 62
8
  6
HIDDEN
 10
28.8309954751
 20
150.7617846722
 11
28.8309954751
 21
148.1367830033
  0
LINE
  5
288
100
AcDbEntity
  8
DEFAULT_2
100
AcDbLine
 62
8
  6
HIDDEN
 10
28.8309954751
 20
144.0534502262
 11
28.8309954751
 21
141.4284502262
  0
LINE
  5
289
100
AcDbEntity
  8
DEFAULT_2
100
AcDbLine
 62
8
  6
HIDDEN
 10
28.8309954751
 20
140.8451174492
 11
28.8309954751
 21
138.0742830033
  0
LINE
  5
28A
100
AcDbEntity
  8
DEFAULT_2
100
AcDbLine
 62
8
  6
HIDDEN
 10
28.8309954751
 20
133.9909502262
 11
28.8309954751
 21
131.6576166148
  0
LINE
  5
28B
100
AcDbEntity
  8
DEFAULT_2
100
AcDbLine
 62
8
  6
HIDDEN
 10
28.8309954751
 20
131.0742838377
 11
28.8309954751
 21
130.7097002262
  0
LINE
  5
28C
100
AcDbEntity
  8
DEFAULT_2
100
AcDbLine
 62
8
  6
HIDDEN
 10
28.8309954751
 20
130.1263666148
 11
28.8309954751
 21
128.813867032
  0
LINE
  5
28D
100
AcDbEntity
  8
DEFAULT_2
100
AcDbLine
 62
8
  6
HIDDEN
 10
28.8309954751
 20
128.2305334205
 11
28.8309954751
 21
125.8972002262
  0
LINE
  5
28E
100
AcDbEntity
  8
DEFAULT_2
100
AcDbLine
 62
8
  6
HIDDEN
 10
28.8309954751
 20
125.3138668234
 11
28.8309954751
 21
122.6159502262
  0
LINE
  5
28F
100
AcDbEntity
  8
DEFAULT_2
100
AcDbLine
 62
8
  6
HIDDEN
 10
28.9309954751
 20
268.6159502262
 11
28.9309954751
 21
223.8659502262
  0
LINE
  5
290
100
AcDbEntity
  8
DEFAULT_2
100
AcDbLine
 62
8
  6
HIDDEN
 10
28.9309954751
 20
71.3659502262
 11
28.9309954751
 21
26.6159502262
  0
LINE
  5
291
100
AcDbEntity
  8
DEFAULT_2
100
AcDbLine
 62
8
  6
HIDDEN
 10
28.9309954751
 20
122.6159502262
 11
28.9309954751
 21
125.3138668234
  0
LINE
  5
292
100
AcDbEntity
  8
DEFAULT_2
100
AcDbLine
 62
8
  6
HIDDEN
 10
28.9309954751
 20
125.8972002262
 11
28.9309954751
 21
128.2305334205
  0
LINE
  5
293
100
AcDbEntity
  8
DEFAULT_2
100
AcDbLine
 62
8
  6
HIDDEN
 10
28.9309954751
 20
128.813867032
 11
28.9309954751
 21
130.1263666148
  0
LINE
  5
294
100
AcDbEntity
  8
DEFAULT_2
100
AcDbLine
 62
8
  6
HIDDEN
 10
28.9309954751
 20
130.7097002262
 11
28.9309954751
 21
131.0742838377
  0
LINE
  5
295
100
AcDbEntity
  8
DEFAULT_2
100
AcDbLine
 62
8
  6
HIDDEN
 10
28.9309954751
 20
131.6576166148
 11
28.9309954751
 21
133.9909502262
  0
LINE
  5
296
100
AcDbEntity
  8
DEFAULT_2
100
AcDbLine
 62
8
  6
HIDDEN
 10
28.9309954751
 20
138.0742830033
 11
28.9309954751
 21
140.8451174492
  0
LINE
  5
297
100
AcDbEntity
  8
DEFAULT_2
100
AcDbLine
 62
8
  6
HIDDEN
 10
28.9309954751
 20
141.4284502262
 11
28.9309954751
 21
144.0534502262
  0
LINE
  5
298
100
AcDbEntity
  8
DEFAULT_2
100
AcDbLine
 62
8
  6
HIDDEN
 10
28.9309954751
 20
148.1367830033
 11
28.9309954751
 21
150.7617846722
  0
LINE
  5
299
100
AcDbEntity
  8
DEFAULT_2
100
AcDbLine
 62
8
  6
HIDDEN
 10
28.9309954751
 20
151.3451157803
 11
28.9309954751
 21
154.2617846722
  0
LINE
  5
29A
100
AcDbEntity
  8
DEFAULT_2
100
AcDbLine
 62
8
  6
HIDDEN
 10
28.9309954751
 20
154.8451157803
 11
28.9309954751
 21
157.4701157803
  0
LINE
  5
29B
100
AcDbEntity
  8
DEFAULT_2
100
AcDbLine
 62
8
  6
HIDDEN
 10
28.9309954751
 20
161.5534502262
 11
28.9309954751
 21
164.0326157803
  0
LINE
  5
29C
100
AcDbEntity
  8
DEFAULT_2
100
AcDbLine
 62
8
  6
HIDDEN
 10
28.9309954751
 20
164.6159502262
 11
28.9309954751
 21
167.0951157803
  0
LINE
  5
29D
100
AcDbEntity
  8
DEFAULT_2
100
AcDbLine
 62
8
  6
HIDDEN
 10
28.9309954751
 20
167.6784502262
 11
28.9309954751
 21
170.1576157803
  0
LINE
  5
29E
100
AcDbEntity
  8
A_RUNDUNGEN
100
AcDbLine
 62
3
  6
CONTINUOUS
 10
28.9309954751
 20
22.5159502262
 11
28.9309954751
 21
272.7159502262
  0
LINE
  5
29F
100
AcDbEntity
  8
DEFAULT_2
100
AcDbLine
 62
8
  6
HIDDEN
 10
30.4007811764
 20
26.6136495687
 11
30.4007811764
 21
26.86042707
  0
LINE
  5
2A0
100
AcDbEntity
  8
DEFAULT_2
100
AcDbLine
 62
8
  6
HIDDEN
 10
30.4010361979
 20
268.6159502262
 11
30.4007811764
 21
268.3714733825
  0
LINE
  5
2A1
100
AcDbEntity
  8
0
100
AcDbLine
 62
3
  6
CONTINUOUS
 10
30.4010361979
 20
4.6159502262
 11
30.4010361979
 21
26.6159502262
  0
LINE
  5
2A2
100
AcDbEntity
  8
0
100
AcDbLine
 62
3
  6
CONTINUOUS
 10
30.4010361979
 20
268.6159502262
 11
30.4010361979
 21
290.6159502262
  0
LINE
  5
2A3
100
AcDbEntity
  8
A_ACHSEN
100
AcDbLine
 62
7
  6
CENTER
 10
36.1809954751
 20
56.8999108199
 11
36.1809954751
 21
68.3319896326
  0
LINE
  5
2A4
100
AcDbEntity
  8
A_ACHSEN
100
AcDbLine
 62
7
  6
CENTER
 10
36.1809954751
 20
227.0441493285
 11
36.1809954751
 21
238.187751124
  0
LINE
  5
2A5
100
AcDbEntity
  8
DEFAULT_2
100
AcDbLine
 62
8
  6
HIDDEN
 10
30.4009590067
 20
268.6306921642
 11
30.4010361979
 21
268.6459095035
  0
LINE
  5
2A6
100
AcDbEntity
  8
DEFAULT_2
100
AcDbLine
 62
8
  6
HIDDEN
 10
28.9309954751
 20
129.6888666148
 11
28.8309954751
 21
129.6888666148
  0
LINE
  5
2A7
100
AcDbEntity
  8
DEFAULT_2
100
AcDbLine
 62
8
  6
HIDDEN
 10
28.9309954751
 20
129.7617838377
 11
28.8309954751
 21
129.7617838377
  0
LINE
  5
2A8
100
AcDbEntity
  8
DEFAULT_2
100
AcDbLine
 62
8
  6
HIDDEN
 10
28.9309954751
 20
130.1263666148
 11
28.8309954751
 21
130.1263666148
  0
LINE
  5
2A9
100
AcDbEntity
  8
DEFAULT_2
100
AcDbLine
 62
8
  6
HIDDEN
 10
28.9309954751
 20
130.7097002262
 11
28.8309954751
 21
130.7097002262
  0
LINE
  5
2AA
100
AcDbEntity
  8
DEFAULT_2
100
AcDbLine
 62
8
  6
HIDDEN
 10
28.9309954751
 20
131.0742838377
 11
28.8309954751
 21
131.0742838377
  0
LINE
  5
2AB
100
AcDbEntity
  8
DEFAULT_2
100
AcDbLine
 62
8
  6
HIDDEN
 10
28.9309954751
 20
131.6576166148
 11
28.8309954751
 21
131.6576166148
  0
LINE
  5
2AC
100
AcDbEntity
  8
DEFAULT_2
100
AcDbLine
 62
8
  6
HIDDEN
 10
28.9309954751
 20
131.7305338377
 11
28.8309954751
 21
131.7305338377
  0
LINE
  5
2AD
100
AcDbEntity
  8
DEFAULT_2
100
AcDbLine
 62
8
  6
HIDDEN
 10
28.9309954751
 20
131.8763666148
 11
28.8309954751
 21
131.8763666148
  0
LINE
  5
2AE
100
AcDbEntity
  8
DEFAULT_2
100
AcDbLine
 62
8
  6
HIDDEN
 10
28.9309954751
 20
132.0222002262
 11
28.8309954751
 21
132.0222002262
  0
LINE
  5
2AF
100
AcDbEntity
  8
DEFAULT_2
100
AcDbLine
 62
8
  6
HIDDEN
 10
28.9309954751
 20
132.0951166148
 11
28.8309954751
 21
132.0951166148
  0
LINE
  5
2B0
100
AcDbEntity
  8
DEFAULT_2
100
AcDbLine
 62
8
  6
HIDDEN
 10
28.9309954751
 20
132.1680338377
 11
28.8309954751
 21
132.1680338377
  0
LINE
  5
2B1
100
AcDbEntity
  8
DEFAULT_2
100
AcDbLine
 62
8
  6
HIDDEN
 10
28.9309954751
 20
132.2409502262
 11
28.8309954751
 21
132.2409502262
  0
LINE
  5
2B2
100
AcDbEntity
  8
DEFAULT_2
100
AcDbLine
 62
8
  6
HIDDEN
 10
28.9309954751
 20
132.3867838377
 11
28.8309954751
 21
132.3867838377
  0
LINE
  5
2B3
100
AcDbEntity
  8
DEFAULT_2
100
AcDbLine
 62
8
  6
HIDDEN
 10
28.9309954751
 20
132.4597002262
 11
28.8309954751
 21
132.4597002262
  0
LINE
  5
2B4
100
AcDbEntity
  8
DEFAULT_2
100
AcDbLine
 62
8
  6
HIDDEN
 10
28.9309954751
 20
132.5326166148
 11
28.8309954751
 21
132.5326166148
  0
LINE
  5
2B5
100
AcDbEntity
  8
DEFAULT_2
100
AcDbLine
 62
8
  6
HIDDEN
 10
28.9309954751
 20
132.8242838377
 11
28.8309954751
 21
132.8242838377
  0
LINE
  5
2B6
100
AcDbEntity
  8
DEFAULT_2
100
AcDbLine
 62
8
  6
HIDDEN
 10
28.9309954751
 20
132.8972002262
 11
28.8309954751
 21
132.8972002262
  0
LINE
  5
2B7
100
AcDbEntity
  8
DEFAULT_2
100
AcDbLine
 62
8
  6
HIDDEN
 10
28.9309954751
 20
133.2617838377
 11
28.8309954751
 21
133.2617838377
  0
LINE
  5
2B8
100
AcDbEntity
  8
DEFAULT_2
100
AcDbLine
 62
8
  6
HIDDEN
 10
28.9309954751
 20
133.3347002262
 11
28.8309954751
 21
133.3347002262
  0
LINE
  5
2B9
100
AcDbEntity
  8
DEFAULT_2
100
AcDbLine
 62
8
  6
HIDDEN
 10
28.9309954751
 20
133.4076166148
 11
28.8309954751
 21
133.4076166148
  0
LINE
  5
2BA
100
AcDbEntity
  8
DEFAULT_2
100
AcDbLine
 62
8
  6
HIDDEN
 10
28.9309954751
 20
133.4805338377
 11
28.8309954751
 21
133.4805338377
  0
LINE
  5
2BB
100
AcDbEntity
  8
DEFAULT_2
100
AcDbLine
 62
8
  6
HIDDEN
 10
28.9309954751
 20
133.5534502262
 11
28.8309954751
 21
133.5534502262
  0
LINE
  5
2BC
100
AcDbEntity
  8
DEFAULT_2
100
AcDbLine
 62
8
  6
HIDDEN
 10
28.9309954751
 20
133.6263666148
 11
28.8309954751
 21
133.6263666148
  0
LINE
  5
2BD
100
AcDbEntity
  8
DEFAULT_2
100
AcDbLine
 62
8
  6
HIDDEN
 10
28.9309954751
 20
133.6992838377
 11
28.8309954751
 21
133.6992838377
  0
LINE
  5
2BE
100
AcDbEntity
  8
DEFAULT_2
100
AcDbLine
 62
8
  6
HIDDEN
 10
28.9309954751
 20
133.9180338377
 11
28.8309954751
 21
133.9180338377
  0
LINE
  5
2BF
100
AcDbEntity
  8
DEFAULT_2
100
AcDbLine
 62
8
  6
HIDDEN
 10
28.9309954751
 20
133.9909502262
 11
28.8309954751
 21
133.9909502262
  0
LINE
  5
2C0
100
AcDbEntity
  8
DEFAULT_2
100
AcDbLine
 62
8
  6
HIDDEN
 10
28.9309954751
 20
138.0742830033
 11
28.8309954751
 21
138.0742830033
  0
LINE
  5
2C1
100
AcDbEntity
  8
DEFAULT_2
100
AcDbLine
 62
8
  6
HIDDEN
 10
28.9309954751
 20
139.2409502262
 11
28.8309954751
 21
139.2409502262
  0
LINE
  5
2C2
100
AcDbEntity
  8
A_ACHSEN
100
AcDbLine
 62
7
  6
CENTER
 10
45.1809954751
 20
1.6159502262
 11
45.1809954751
 21
293.6159502262
  0
LINE
  5
2C3
100
AcDbEntity
  8
DEFAULT_2
100
AcDbLine
 62
8
  6
HIDDEN
 10
28.9309954751
 20
139.6784502262
 11
28.8309954751
 21
139.6784502262
  0
LINE
  5
2C4
100
AcDbEntity
  8
DEFAULT_2
100
AcDbLine
 62
8
  6
HIDDEN
 10
28.9309954751
 20
140.8451174492
 11
28.8309954751
 21
140.8451174492
  0
LINE
  5
2C5
100
AcDbEntity
  8
DEFAULT_2
100
AcDbLine
 62
8
  6
HIDDEN
 10
28.9309954751
 20
141.4284502262
 11
28.8309954751
 21
141.4284502262
  0
LINE
  5
2C6
100
AcDbEntity
  8
DEFAULT_2
100
AcDbLine
 62
8
  6
HIDDEN
 10
28.9309954751
 20
141.8659502262
 11
28.8309954751
 21
141.8659502262
  0
LINE
  5
2C7
100
AcDbEntity
  8
DEFAULT_2
100
AcDbLine
 62
8
  6
HIDDEN
 10
28.9309954751
 20
143.7617830033
 11
28.8309954751
 21
143.7617830033
  0
LINE
  5
2C8
100
AcDbEntity
  8
DEFAULT_2
100
AcDbLine
 62
8
  6
HIDDEN
 10
28.9309954751
 20
144.0534502262
 11
28.8309954751
 21
144.0534502262
  0
LINE
  5
2C9
100
AcDbEntity
  8
DEFAULT_2
100
AcDbLine
 62
8
  6
HIDDEN
 10
28.9309954751
 20
146.6159502262
 11
25.9309954751
 21
146.6159502262
  0
LINE
  5
2CA
100
AcDbEntity
  8
DEFAULT_2
100
AcDbLine
 62
8
  6
HIDDEN
 10
61.2309954751
 20
146.6159502262
 11
64.2309954751
 21
146.6159502262
  0
LINE
  5
2CB
100
AcDbEntity
  8
DEFAULT_2
100
AcDbLine
 62
8
  6
HIDDEN
 10
28.9309954751
 20
147.6159502262
 11
25.9309954751
 21
147.6159502262
  0
LINE
  5
2CC
100
AcDbEntity
  8
DEFAULT_2
100
AcDbLine
 62
8
  6
HIDDEN
 10
61.2309954751
 20
147.6159502262
 11
64.2309954751
 21
147.6159502262
  0
LINE
  5
2CD
100
AcDbEntity
  8
A_ACHSEN
100
AcDbLine
 62
7
  6
CENTER
 10
22.6942531043
 20
147.6159502262
 11
67.6677378461
 21
147.6159502262
  0
LINE
  5
2CE
100
AcDbEntity
  8
DEFAULT_2
100
AcDbLine
 62
8
  6
HIDDEN
 10
28.9309954751
 20
148.1367830033
 11
28.8309954751
 21
148.1367830033
  0
LINE
  5
2CF
100
AcDbEntity
  8
DEFAULT_2
100
AcDbLine
 62
8
  6
HIDDEN
 10
28.9309954751
 20
148.2826174492
 11
28.8309954751
 21
148.2826174492
  0
LINE
  5
2D0
100
AcDbEntity
  8
DEFAULT_2
100
AcDbLine
 62
8
  6
HIDDEN
 10
28.9309954751
 20
148.5013674492
 11
28.8309954751
 21
148.5013674492
  0
LINE
  5
2D1
100
AcDbEntity
  8
DEFAULT_2
100
AcDbLine
 62
8
  6
HIDDEN
 10
28.9309954751
 20
148.5742830033
 11
28.8309954751
 21
148.5742830033
  0
LINE
  5
2D2
100
AcDbEntity
  8
DEFAULT_2
100
AcDbLine
 62
8
  6
HIDDEN
 10
28.9309954751
 20
148.6159502262
 11
25.9309954751
 21
148.6159502262
  0
LINE
  5
2D3
100
AcDbEntity
  8
DEFAULT_2
100
AcDbLine
 62
8
  6
HIDDEN
 10
61.2309954751
 20
148.6159502262
 11
64.2309954751
 21
148.6159502262
  0
LINE
  5
2D4
100
AcDbEntity
  8
DEFAULT_2
100
AcDbLine
 62
8
  6
HIDDEN
 10
28.9309954751
 20
148.6472002262
 11
28.8309954751
 21
148.6472002262
  0
LINE
  5
2D5
100
AcDbEntity
  8
DEFAULT_2
100
AcDbLine
 62
8
  6
HIDDEN
 10
28.9309954751
 20
148.7201174492
 11
28.8309954751
 21
148.7201174492
  0
LINE
  5
2D6
100
AcDbEntity
  8
DEFAULT_2
100
AcDbLine
 62
8
  6
HIDDEN
 10
28.9309954751
 20
148.8659502262
 11
28.8309954751
 21
148.8659502262
  0
LINE
  5
2D7
100
AcDbEntity
  8
A_ACHSEN
100
AcDbLine
 62
7
  6
CENTER
 10
54.1809954751
 20
56.5729238733
 11
54.1809954751
 21
68.6589765792
  0
LINE
  5
2D8
100
AcDbEntity
  8
A_ACHSEN
100
AcDbLine
 62
7
  6
CENTER
 10
54.1809954751
 20
226.7323453828
 11
54.1809954751
 21
238.4995550697
  0
LINE
  5
2D9
100
AcDbEntity
  8
DEFAULT_2
100
AcDbLine
 62
8
  6
HIDDEN
 10
28.9309954751
 20
148.9388674492
 11
28.8309954751
 21
148.9388674492
  0
LINE
  5
2DA
100
AcDbEntity
  8
DEFAULT_2
100
AcDbLine
 62
8
  6
HIDDEN
 10
28.9309954751
 20
149.2305330033
 11
28.8309954751
 21
149.2305330033
  0
LINE
  5
2DB
100
AcDbEntity
  8
DEFAULT_2
100
AcDbLine
 62
8
  6
HIDDEN
 10
28.9309954751
 20
149.6680330033
 11
28.8309954751
 21
149.6680330033
  0
LINE
  5
2DC
100
AcDbEntity
  8
DEFAULT_2
100
AcDbLine
 62
8
  6
HIDDEN
 10
28.9309954751
 20
149.9597002262
 11
28.8309954751
 21
149.9597002262
  0
LINE
  5
2DD
100
AcDbEntity
  8
DEFAULT_2
100
AcDbLine
 62
8
  6
HIDDEN
 10
28.9309954751
 20
150.0326174492
 11
28.8309954751
 21
150.0326174492
  0
LINE
  5
2DE
100
AcDbEntity
  8
DEFAULT_2
100
AcDbLine
 62
8
  6
HIDDEN
 10
28.9309954751
 20
150.1784502262
 11
28.8309954751
 21
150.1784502262
  0
LINE
  5
2DF
100
AcDbEntity
  8
DEFAULT_2
100
AcDbLine
 62
8
  6
HIDDEN
 10
28.9309954751
 20
150.3242830033
 11
28.8309954751
 21
150.3242830033
  0
LINE
  5
2E0
100
AcDbEntity
  8
DEFAULT_2
100
AcDbLine
 62
8
  6
HIDDEN
 10
28.9309954751
 20
150.3972002262
 11
28.8309954751
 21
150.3972002262
  0
LINE
  5
2E1
100
AcDbEntity
  8
DEFAULT_2
100
AcDbLine
 62
8
  6
HIDDEN
 10
28.9309954751
 20
150.6159502262
 11
28.8309954751
 21
150.6159502262
  0
LINE
  5
2E2
100
AcDbEntity
  8
DEFAULT_2
100
AcDbLine
 62
8
  6
HIDDEN
 10
28.9309954751
 20
150.7617846722
 11
28.8309954751
 21
150.7617846722
  0
LINE
  5
2E3
100
AcDbEntity
  8
DEFAULT_2
100
AcDbLine
 62
8
  6
HIDDEN
 10
28.9309954751
 20
151.3451157803
 11
28.8309954751
 21
151.3451157803
  0
LINE
  5
2E4
100
AcDbEntity
  8
DEFAULT_2
100
AcDbLine
 62
8
  6
HIDDEN
 10
28.9309954751
 20
151.8555346722
 11
28.8309954751
 21
151.8555346722
  0
LINE
  5
2E5
100
AcDbEntity
  8
DEFAULT_2
100
AcDbLine
 62
8
  6
HIDDEN
 10
28.9309954751
 20
153.0951157803
 11
28.8309954751
 21
153.0951157803
  0
LINE
  5
2E6
100
AcDbEntity
  8
DEFAULT_2
100
AcDbLine
 62
8
  6
HIDDEN
 10
28.9309954751
 20
153.5326157803
 11
28.8309954751
 21
153.5326157803
  0
LINE
  5
2E7
100
AcDbEntity
  8
DEFAULT_2
100
AcDbLine
 62
8
  6
HIDDEN
 10
28.9309954751
 20
154.2617846722
 11
28.8309954751
 21
154.2617846722
  0
LINE
  5
2E8
100
AcDbEntity
  8
DEFAULT_2
100
AcDbLine
 62
8
  6
HIDDEN
 10
28.9309954751
 20
154.8451157803
 11
28.8309954751
 21
154.8451157803
  0
LINE
  5
2E9
100
AcDbEntity
  8
DEFAULT_2
100
AcDbLine
 62
8
  6
HIDDEN
 10
28.9309954751
 20
154.9180346722
 11
28.8309954751
 21
154.9180346722
  0
LINE
  5
2EA
100
AcDbEntity
  8
DEFAULT_2
100
AcDbLine
 62
8
  6
HIDDEN
 10
28.9309954751
 20
154.9909502262
 11
28.8309954751
 21
154.9909502262
  0
LINE
  5
2EB
100
AcDbEntity
  8
DEFAULT_2
100
AcDbLine
 62
8
  6
HIDDEN
 10
28.9309954751
 20
155.1367846722
 11
28.8309954751
 21
155.1367846722
  0
LINE
  5
2EC
100
AcDbEntity
  8
DEFAULT_2
100
AcDbLine
 62
8
  6
HIDDEN
 10
28.9309954751
 20
155.2097002262
 11
28.8309954751
 21
155.2097002262
  0
LINE
  5
2ED
100
AcDbEntity
  8
DEFAULT_2
100
AcDbLine
 62
8
  6
HIDDEN
 10
28.9309954751
 20
155.2826157803
 11
28.8309954751
 21
155.2826157803
  0
LINE
  5
2EE
100
AcDbEntity
  8
DEFAULT_2
100
AcDbLine
 62
8
  6
HIDDEN
 10
28.9309954751
 20
155.3555346722
 11
28.8309954751
 21
155.3555346722
  0
LINE
  5
2EF
100
AcDbEntity
  8
DEFAULT_2
100
AcDbLine
 62
8
  6
HIDDEN
 10
28.9309954751
 20
155.5742846722
 11
28.8309954751
 21
155.5742846722
  0
LINE
  5
2F0
100
AcDbEntity
  8
DEFAULT_2
100
AcDbLine
 62
8
  6
HIDDEN
 10
28.9309954751
 20
155.7201157803
 11
28.8309954751
 21
155.7201157803
  0
LINE
  5
2F1
100
AcDbEntity
  8
DEFAULT_2
100
AcDbLine
 62
8
  6
HIDDEN
 10
28.9309954751
 20
155.7930346722
 11
28.8309954751
 21
155.7930346722
  0
LINE
  5
2F2
100
AcDbEntity
  8
DEFAULT_2
100
AcDbLine
 62
8
  6
HIDDEN
 10
28.9309954751
 20
156.1576157803
 11
28.8309954751
 21
156.1576157803
  0
LINE
  5
2F3
100
AcDbEntity
  8
DEFAULT_2
100
AcDbLine
 62
8
  6
HIDDEN
 10
28.9309954751
 20
156.5222002262
 11
28.8309954751
 21
156.5222002262
  0
LINE
  5
2F4
100
AcDbEntity
  8
DEFAULT_2
100
AcDbLine
 62
8
  6
HIDDEN
 10
28.9309954751
 20
156.5951157803
 11
28.8309954751
 21
156.5951157803
  0
LINE
  5
2F5
100
AcDbEntity
  8
DEFAULT_2
100
AcDbLine
 62
8
  6
HIDDEN
 10
28.9309954751
 20
156.7409502262
 11
28.8309954751
 21
156.7409502262
  0
LINE
  5
2F6
100
AcDbEntity
  8
DEFAULT_2
100
AcDbLine
 62
8
  6
HIDDEN
 10
28.9309954751
 20
156.9597002262
 11
28.8309954751
 21
156.9597002262
  0
LINE
  5
2F7
100
AcDbEntity
  8
DEFAULT_2
100
AcDbLine
 62
8
  6
HIDDEN
 10
28.9309954751
 20
157.0326157803
 11
28.8309954751
 21
157.0326157803
  0
LINE
  5
2F8
100
AcDbEntity
  8
DEFAULT_2
100
AcDbLine
 62
8
  6
HIDDEN
 10
28.9309954751
 20
157.1055346722
 11
28.8309954751
 21
157.1055346722
  0
LINE
  5
2F9
100
AcDbEntity
  8
DEFAULT_2
100
AcDbLine
 62
8
  6
HIDDEN
 10
28.9309954751
 20
157.1784502262
 11
28.8309954751
 21
157.1784502262
  0
LINE
  5
2FA
100
AcDbEntity
  8
DEFAULT_2
100
AcDbLine
 62
8
  6
HIDDEN
 10
28.9309954751
 20
157.3242846722
 11
28.8309954751
 21
157.3242846722
  0
LINE
  5
2FB
100
AcDbEntity
  8
DEFAULT_2
100
AcDbLine
 62
8
  6
HIDDEN
 10
28.9309954751
 20
157.3972002262
 11
28.8309954751
 21
157.3972002262
  0
LINE
  5
2FC
100
AcDbEntity
  8
DEFAULT_2
100
AcDbLine
 62
8
  6
HIDDEN
 10
28.9309954751
 20
157.4701157803
 11
28.8309954751
 21
157.4701157803
  0
LINE
  5
2FD
100
AcDbEntity
  8
DEFAULT_2
100
AcDbLine
 62
8
  6
HIDDEN
 10
59.9609547524
 20
268.6459095035
 11
59.961031883
 21
268.6306981224
  0
LINE
  5
2FE
100
AcDbEntity
  8
0
100
AcDbLine
 62
3
  6
CONTINUOUS
 10
59.9609547524
 20
26.6159502262
 11
59.9609547524
 21
4.6159502262
  0
LINE
  5
2FF
100
AcDbEntity
  8
0
100
AcDbLine
 62
3
  6
CONTINUOUS
 10
59.9609547524
 20
268.6159502262
 11
59.9609547524
 21
290.6159502262
  0
LINE
  5
300
100
AcDbEntity
  8
DEFAULT_2
100
AcDbLine
 62
8
  6
HIDDEN
 10
59.9612097738
 20
268.6182508837
 11
59.9612097738
 21
268.3714733825
  0
LINE
  5
301
100
AcDbEntity
  8
DEFAULT_2
100
AcDbLine
 62
8
  6
HIDDEN
 10
59.9612097738
 20
26.86042707
 11
59.9612097738
 21
26.6136495687
  0
LINE
  5
302
100
AcDbEntity
  8
A_RUNDUNGEN
100
AcDbLine
 62
3
  6
CONTINUOUS
 10
61.2309954751
 20
75.0159502262
 11
61.2309954751
 21
220.1159502262
  0
LINE
  5
303
100
AcDbEntity
  8
DEFAULT_2
100
AcDbLine
 62
8
  6
HIDDEN
 10
61.4309954751
 20
268.6159502262
 11
61.4309954751
 21
223.8659502262
  0
LINE
  5
304
100
AcDbEntity
  8
DEFAULT_2
100
AcDbLine
 62
8
  6
HIDDEN
 10
61.4309954751
 20
71.3659502262
 11
61.4309954751
 21
26.6159502262
  0
LINE
  5
305
100
AcDbEntity
  8
A_RUNDUNGEN
100
AcDbLine
 62
3
  6
CONTINUOUS
 10
61.4309954751
 20
22.5159502262
 11
61.4309954751
 21
73.8670376969
  0
LINE
  5
306
100
AcDbEntity
  8
A_RUNDUNGEN
100
AcDbLine
 62
3
  6
CONTINUOUS
 10
61.4309954751
 20
221.2821406052
 11
61.4309954751
 21
272.7159502262
  0
LINE
  5
307
100
AcDbEntity
  8
A_RUNDUNGEN
100
AcDbLine
 62
7
  6
CONTINUOUS
 10
64.2309954751
 20
75.0159502262
 11
64.2309954751
 21
220.1159502262
  0
LINE
  5
308
100
AcDbEntity
  8
A_RUNDUNGEN
100
AcDbLine
 62
7
  6
CONTINUOUS
 10
64.4309954751
 20
272.7159502262
 11
64.4309954751
 21
220.6058481748
  0
LINE
  5
309
100
AcDbEntity
  8
DEFAULT_2
100
AcDbLine
 62
8
  6
HIDDEN
 10
64.4309954751
 20
268.6159502262
 11
64.4309954751
 21
223.8659502262
  0
LINE
  5
30A
100
AcDbEntity
  8
DEFAULT_2
100
AcDbLine
 62
8
  6
HIDDEN
 10
64.4309954751
 20
71.3659502262
 11
64.4309954751
 21
26.6159502262
  0
LINE
  5
30B
100
AcDbEntity
  8
A_RUNDUNGEN
100
AcDbLine
 62
7
  6
CONTINUOUS
 10
64.4309954751
 20
74.5687366307
 11
64.4309954751
 21
22.5159502262
  0
LINE
  5
30C
100
AcDbEntity
  8
DEFAULT_2
100
AcDbLine
 62
8
  6
HIDDEN
 10
59.9610319435
 20
26.6012082883
 11
59.9609547524
 21
26.585990949
  0
LINE
  5
30D
100
AcDbEntity
  8
DEFAULT_2
100
AcDbLine
 62
8
  6
HIDDEN
 10
28.9309954751
 20
161.5534502262
 11
28.8309954751
 21
161.5534502262
  0
LINE
  5
30E
100
AcDbEntity
  8
DEFAULT_2
100
AcDbLine
 62
8
  6
HIDDEN
 10
28.9309954751
 20
161.9909502262
 11
28.8309954751
 21
161.9909502262
  0
LINE
  5
30F
100
AcDbEntity
  8
DEFAULT_2
100
AcDbLine
 62
8
  6
HIDDEN
 10
28.9309954751
 20
162.5742846722
 11
28.8309954751
 21
162.5742846722
  0
LINE
  5
310
100
AcDbEntity
  8
DEFAULT_2
100
AcDbLine
 62
8
  6
HIDDEN
 10
28.9309954751
 20
162.7930346722
 11
28.8309954751
 21
162.7930346722
  0
LINE
  5
311
100
AcDbEntity
  8
DEFAULT_2
100
AcDbLine
 62
8
  6
HIDDEN
 10
28.9309954751
 20
163.0117846722
 11
28.8309954751
 21
163.0117846722
  0
LINE
  5
312
100
AcDbEntity
  8
DEFAULT_2
100
AcDbLine
 62
8
  6
HIDDEN
 10
28.9309954751
 20
163.5951157803
 11
28.8309954751
 21
163.5951157803
  0
LINE
  5
313
100
AcDbEntity
  8
DEFAULT_2
100
AcDbLine
 62
8
  6
HIDDEN
 10
28.9309954751
 20
164.0326157803
 11
28.8309954751
 21
164.0326157803
  0
LINE
  5
314
100
AcDbEntity
  8
DEFAULT_2
100
AcDbLine
 62
8
  6
HIDDEN
 10
28.9309954751
 20
164.6159502262
 11
28.8309954751
 21
164.6159502262
  0
LINE
  5
315
100
AcDbEntity
  8
DEFAULT_2
100
AcDbLine
 62
8
  6
HIDDEN
 10
28.9309954751
 20
165.0534502262
 11
28.8309954751
 21
165.0534502262
  0
LINE
  5
316
100
AcDbEntity
  8
DEFAULT_2
100
AcDbLine
 62
8
  6
HIDDEN
 10
28.9309954751
 20
165.6367846722
 11
28.8309954751
 21
165.6367846722
  0
LINE
  5
317
100
AcDbEntity
  8
DEFAULT_2
100
AcDbLine
 62
8
  6
HIDDEN
 10
28.9309954751
 20
165.8555346722
 11
28.8309954751
 21
165.8555346722
  0
LINE
  5
318
100
AcDbEntity
  8
DEFAULT_2
100
AcDbLine
 62
8
  6
HIDDEN
 10
28.9309954751
 20
166.0742846722
 11
28.8309954751
 21
166.0742846722
  0
LINE
  5
319
100
AcDbEntity
  8
DEFAULT_2
100
AcDbLine
 62
8
  6
HIDDEN
 10
28.9309954751
 20
166.6576157803
 11
28.8309954751
 21
166.6576157803
  0
LINE
  5
31A
100
AcDbEntity
  8
DEFAULT_2
100
AcDbLine
 62
8
  6
HIDDEN
 10
28.9309954751
 20
167.0951157803
 11
28.8309954751
 21
167.0951157803
  0
LINE
  5
31B
100
AcDbEntity
  8
DEFAULT_2
100
AcDbLine
 62
8
  6
HIDDEN
 10
28.9309954751
 20
167.6784502262
 11
28.8309954751
 21
167.6784502262
  0
LINE
  5
31C
100
AcDbEntity
  8
DEFAULT_2
100
AcDbLine
 62
8
  6
HIDDEN
 10
28.9309954751
 20
168.1159502262
 11
28.8309954751
 21
168.1159502262
  0
LINE
  5
31D
100
AcDbEntity
  8
DEFAULT_2
100
AcDbLine
 62
8
  6
HIDDEN
 10
28.9309954751
 20
168.6992846722
 11
28.8309954751
 21
168.6992846722
  0
LINE
  5
31E
100
AcDbEntity
  8
DEFAULT_2
100
AcDbLine
 62
8
  6
HIDDEN
 10
28.9309954751
 20
168.9180346722
 11
28.8309954751
 21
168.9180346722
  0
LINE
  5
31F
100
AcDbEntity
  8
DEFAULT_2
100
AcDbLine
 62
8
  6
HIDDEN
 10
28.9309954751
 20
169.1367846722
 11
28.8309954751
 21
169.1367846722
  0
LINE
  5
320
100
AcDbEntity
  8
DEFAULT_2
100
AcDbLine
 62
8
  6
HIDDEN
 10
28.9309954751
 20
169.7201157803
 11
28.8309954751
 21
169.7201157803
  0
LINE
  5
321
100
AcDbEntity
  8
DEFAULT_2
100
AcDbLine
 62
8
  6
HIDDEN
 10
28.9309954751
 20
170.1576157803
 11
28.8309954751
 21
170.1576157803
  0
LINE
  5
322
100
AcDbEntity
  8
A_RUNDUNGEN
100
AcDbLine
 62
7
  6
CONTINUOUS
 10
64.2309954751
 20
193.6159502262
 11
61.2309954751
 21
193.6159502262
  0
LINE
  5
323
100
AcDbEntity
  8
A_RUNDUNGEN
100
AcDbLine
 62
8
  6
HIDDEN
 10
28.9309954751
 20
219.8659502262
 11
25.9309954751
 21
219.8659502262
  0
LINE
  5
324
100
AcDbEntity
  8
A_RUNDUNGEN
100
AcDbLine
 62
8
  6
HIDDEN
 10
61.2309954751
 20
219.8659502262
 11
64.2309954751
 21
219.8659502262
  0
LINE
  5
325
100
AcDbEntity
  8
0
100
AcDbLine
 62
3
  6
CONTINUOUS
 10
61.4309954751
 20
223.8659502262
 11
56.7254379008
 21
223.8659502262
  0
LINE
  5
326
100
AcDbEntity
  8
DEFAULT_2
100
AcDbLine
 62
8
  6
HIDDEN
 10
28.9309954751
 20
223.8659502262
 11
25.9309954751
 21
223.8659502262
  0
LINE
  5
327
100
AcDbEntity
  8
0
100
AcDbLine
 62
3
  6
CONTINUOUS
 10
28.9309954751
 20
223.8659502262
 11
33.6365530494
 21
223.8659502262
  0
LINE
  5
328
100
AcDbEntity
  8
DEFAULT_2
100
AcDbLine
 62
8
  6
HIDDEN
 10
61.4309954751
 20
223.8659502262
 11
64.4309954751
 21
223.8659502262
  0
LINE
  5
329
100
AcDbEntity
  8
0
100
AcDbLine
 62
3
  6
CONTINUOUS
 10
41.2809954751
 20
226.6159502262
 11
49.0809954751
 21
226.6159502262
  0
LINE
  5
32A
100
AcDbEntity
  8
A_ACHSEN
100
AcDbLine
 62
7
  6
CENTER
 10
30.6091945774
 20
232.6159502262
 11
41.7527963729
 21
232.6159502262
  0
LINE
  5
32B
100
AcDbEntity
  8
A_ACHSEN
100
AcDbLine
 62
7
  6
CENTER
 10
48.2973906317
 20
232.6159502262
 11
60.0646003186
 21
232.6159502262
  0
LINE
  5
32C
100
AcDbEntity
  8
DEFAULT_2
100
AcDbLine
 62
8
  6
HIDDEN
 10
28.620240756
 20
267.1461645249
 11
29.1754723188
 21
267.1461645249
  0
LINE
  5
32D
100
AcDbEntity
  8
DEFAULT_2
100
AcDbLine
 62
8
  6
HIDDEN
 10
61.1865186314
 20
267.1461645249
 11
61.7417501942
 21
267.1461645249
  0
LINE
  5
32E
100
AcDbEntity
  8
DEFAULT_2
100
AcDbLine
 62
8
  6
HIDDEN
 10
61.4309954751
 20
268.6159502262
 11
61.424818627
 21
268.6159502262
  0
LINE
  5
32F
100
AcDbEntity
  8
0
100
AcDbLine
 62
3
  6
CONTINUOUS
 10
59.9609547524
 20
268.6159502262
 11
30.4010361979
 21
268.6159502262
  0
LINE
  5
330
100
AcDbEntity
  8
DEFAULT_2
100
AcDbLine
 62
8
  6
HIDDEN
 10
28.9371723232
 20
268.6159502262
 11
28.9309954751
 21
268.6159502262
  0
LINE
  5
331
100
AcDbEntity
  8
DEFAULT_2
100
AcDbLine
 62
8
  6
HIDDEN
 10
25.9309954751
 20
268.6159502262
 11
28.9309954751
 21
268.6159502262
  0
LINE
  5
332
100
AcDbEntity
  8
DEFAULT_2
100
AcDbLine
 62
8
  6
HIDDEN
 10
61.4309954751
 20
268.6159502262
 11
64.4309954751
 21
268.6159502262
  0
LINE
  5
333
100
AcDbEntity
  8
DEFAULT_2
100
AcDbLine
 62
8
  6
HIDDEN
 10
59.9609547524
 20
271.6159502262
 11
30.4010361979
 21
271.6159502262
  0
LINE
  5
334
100
AcDbEntity
  8
A_RUNDUNGEN
100
AcDbLine
 62
7
  6
CONTINUOUS
 10
64.4309954751
 20
272.7159502262
 11
61.4309954751
 21
272.7159502262
  0
LINE
  5
335
100
AcDbEntity
  8
A_RUNDUNGEN
100
AcDbLine
 62
7
  6
CONTINUOUS
 10
28.9309954751
 20
272.7159502262
 11
25.9309954751
 21
272.7159502262
  0
LINE
  5
336
100
AcDbEntity
  8
A_RUNDUNGEN
100
AcDbLine
 62
3
  6
CONTINUOUS
 10
59.9609547524
 20
290.6159502262
 11
46.5952090375
 21
290.6159502262
  0
LINE
  5
337
100
AcDbEntity
  8
A_RUNDUNGEN
100
AcDbLine
 62
3
  6
CONTINUOUS
 10
43.7667819127
 20
290.6159502262
 11
30.4010361979
 21
290.6159502262
  0
ARC
  5
338
100
AcDbEntity
  8
0
100
AcDbCircle
 62
3
  6
CONTINUOUS
 10
41.2809954751
 20
80.6159502262
 40
12.0
100
AcDbArc
 50
230.4287805428
 51
270.0
  0
ARC
  5
339
100
AcDbEntity
  8
DEFAULT_2
100
AcDbCircle
 62
8
  6
HIDDEN
 10
28.6209034867
 20
22.9476347056
 40
5.1381073539
100
AcDbArc
 50
86.5482520124
 51
90.0073292472
  0
ARC
  5
33A
100
AcDbEntity
  8
DEFAULT_2
100
AcDbCircle
 62
8
  6
HIDDEN
 10
28.6258294337
 20
23.0233150646
 40
5.0622677216
100
AcDbArc
 50
84.3136389097
 51
86.5523316904
  0
ARC
  5
33B
100
AcDbEntity
  8
DEFAULT_2
100
AcDbCircle
 62
8
  6
HIDDEN
 10
28.6343831543
 20
23.1129873159
 40
4.9721892177
100
AcDbArc
 50
83.7716430013
 51
84.309336639
  0
ARC
  5
33C
100
AcDbEntity
  8
DEFAULT_2
100
AcDbCircle
 62
8
  6
HIDDEN
 10
28.6397909984
 20
23.1623222115
 40
4.9225588223
100
AcDbArc
 50
83.1020655809
 51
83.7719166825
  0
ARC
  5
33D
100
AcDbEntity
  8
0
100
AcDbCircle
 62
2
  6
CONTINUOUS
 10
36.1809954751
 20
62.6159502262
 40
2.5
100
AcDbArc
 50
255.0
 51
195.0
  0
CIRCLE
  5
33E
100
AcDbEntity
  8
A_ACHSEN
100
AcDbCircle
 62
3
  6
CONTINUOUS
 10
36.1809954751
 20
62.6159502262
 40
2.325
  0
ARC
  5
33F
100
AcDbEntity
  8
DEFAULT_2
100
AcDbCircle
 62
8
  6
HIDDEN
 10
28.9010361979
 20
26.585990949
 40
1.5
100
AcDbArc
 50
0.0
 51
1.1444361927
  0
ARC
  5
340
100
AcDbEntity
  8
DEFAULT_2
100
AcDbCircle
 62
8
  6
HIDDEN
 10
28.9010361979
 20
26.585990949
 40
1.5
100
AcDbArc
 50
1.1444361927
 51
2.1359148834
  0
ARC
  5
341
100
AcDbEntity
  8
0
100
AcDbCircle
 62
3
  6
CONTINUOUS
 10
28.9010361979
 20
26.585990949
 40
1.5
100
AcDbArc
 50
12.7074384376
 51
77.2925615624
  0
ARC
  5
342
100
AcDbEntity
  8
0
100
AcDbCircle
 62
3
  6
CONTINUOUS
 10
28.9010361979
 20
26.585990949
 40
1.5
100
AcDbArc
 50
2.1359148834
 51
9.0452392268
  0
ARC
  5
343
100
AcDbEntity
  8
DEFAULT_2
100
AcDbCircle
 62
8
  6
HIDDEN
 10
28.9010361979
 20
26.585990949
 40
1.5
100
AcDbArc
 50
9.0452392268
 51
12.7074384376
  0
ARC
  5
344
100
AcDbEntity
  8
A_RUNDUNGEN
100
AcDbCircle
 62
3
  6
CONTINUOUS
 10
45.1809954751
 20
4.2017366639
 40
1.0
100
AcDbArc
 50
45.0
 51
135.0
  0
ARC
  5
345
100
AcDbEntity
  8
A_RUNDUNGEN
100
AcDbCircle
 62
3
  6
CONTINUOUS
 10
43.7667819127
 20
5.6159502262
 40
1.0
100
AcDbArc
 50
270.0
 51
315.0
  0
ARC
  5
346
100
AcDbEntity
  8
A_RUNDUNGEN
100
AcDbCircle
 62
3
  6
CONTINUOUS
 10
46.5952090375
 20
5.6159502262
 40
1.0
100
AcDbArc
 50
225.0
 51
270.0
  0
ARC
  5
347
100
AcDbEntity
  8
0
100
AcDbCircle
 62
3
  6
CONTINUOUS
 10
41.2809954751
 20
214.6159502262
 40
12.0
100
AcDbArc
 50
90.0
 51
129.5712194572
  0
ARC
  5
348
100
AcDbEntity
  8
DEFAULT_2
100
AcDbCircle
 62
8
  6
HIDDEN
 10
28.6208954767
 20
272.2844799066
 40
5.1383212631
100
AcDbArc
 50
269.9927597623
 51
273.4517219722
  0
ARC
  5
349
100
AcDbEntity
  8
DEFAULT_2
100
AcDbCircle
 62
8
  6
HIDDEN
 10
28.6258940012
 20
272.2078027353
 40
5.0614822582
100
AcDbArc
 50
273.4475005621
 51
275.7128330038
  0
ARC
  5
34A
100
AcDbEntity
  8
DEFAULT_2
100
AcDbCircle
 62
8
  6
HIDDEN
 10
28.6345240663
 20
272.1176304863
 40
4.9708988237
100
AcDbArc
 50
275.7173141709
 51
276.2294814864
  0
ARC
  5
34B
100
AcDbEntity
  8
DEFAULT_2
100
AcDbCircle
 62
8
  6
HIDDEN
 10
28.6398396333
 20
272.0691760432
 40
4.9221536947
100
AcDbArc
 50
276.2291748129
 51
276.8979346692
  0
ARC
  5
34C
100
AcDbEntity
  8
0
100
AcDbCircle
 62
3
  6
CONTINUOUS
 10
31.9372672135
 20
267.9330965155
 40
2.9390607759
100
AcDbArc
 50
186.7970693425
 51
188.3781509558
  0
ARC
  5
34D
100
AcDbEntity
  8
0
100
AcDbCircle
 62
2
  6
CONTINUOUS
 10
36.1809954751
 20
232.6159502262
 40
2.5
100
AcDbArc
 50
255.0
 51
195.0
  0
CIRCLE
  5
34E
100
AcDbEntity
  8
A_ACHSEN
100
AcDbCircle
 62
3
  6
CONTINUOUS
 10
36.1809954751
 20
232.6159502262
 40
2.325
  0
ARC
  5
34F
100
AcDbEntity
  8
0
100
AcDbCircle
 62
3
  6
CONTINUOUS
 10
31.2359414889
 20
267.8294068182
 40
2.2301114697
100
AcDbArc
 50
188.3679792261
 51
190.2975331992
  0
ARC
  5
350
100
AcDbEntity
  8
DEFAULT_2
100
AcDbCircle
 62
8
  6
HIDDEN
 10
28.9010361979
 20
268.6459095035
 40
1.5
100
AcDbArc
 50
347.2925615624
 51
350.9547607732
  0
ARC
  5
351
100
AcDbEntity
  8
0
100
AcDbCircle
 62
3
  6
CONTINUOUS
 10
28.9010361979
 20
268.6459095035
 40
1.5
100
AcDbArc
 50
282.7074384376
 51
347.2925615624
  0
ARC
  5
352
100
AcDbEntity
  8
0
100
AcDbCircle
 62
3
  6
CONTINUOUS
 10
28.9010361979
 20
268.6459095035
 40
1.5
100
AcDbArc
 50
350.9547607732
 51
358.8556694079
  0
ARC
  5
353
100
AcDbEntity
  8
DEFAULT_2
100
AcDbCircle
 62
8
  6
HIDDEN
 10
28.9010361979
 20
268.6459095035
 40
1.5
100
AcDbArc
 50
358.8556694079
 51
360.0
  0
ARC
  5
354
100
AcDbEntity
  8
A_RUNDUNGEN
100
AcDbCircle
 62
3
  6
CONTINUOUS
 10
45.1809954751
 20
291.0301637886
 40
1.0
100
AcDbArc
 50
225.0
 51
315.0
  0
ARC
  5
355
100
AcDbEntity
  8
A_RUNDUNGEN
100
AcDbCircle
 62
3
  6
CONTINUOUS
 10
43.7667819127
 20
289.6159502262
 40
1.0
100
AcDbArc
 50
45.0
 51
90.0
  0
ARC
  5
356
100
AcDbEntity
  8
A_RUNDUNGEN
100
AcDbCircle
 62
3
  6
CONTINUOUS
 10
46.5952090375
 20
289.6159502262
 40
1.0
100
AcDbArc
 50
90.0
 51
135.0
  0
ARC
  5
357
100
AcDbEntity
  8
0
100
AcDbCircle
 62
3
  6
CONTINUOUS
 10
49.0809954751
 20
80.6159502262
 40
12.0
100
AcDbArc
 50
270.0
 51
309.5712194572
  0
ARC
  5
358
100
AcDbEntity
  8
DEFAULT_2
100
AcDbCircle
 62
8
  6
HIDDEN
 10
61.7410925868
 20
22.9475231025
 40
5.1382188202
100
AcDbArc
 50
89.9927275916
 51
93.4517616016
  0
ARC
  5
359
100
AcDbEntity
  8
DEFAULT_2
100
AcDbCircle
 62
8
  6
HIDDEN
 10
61.7361013096
 20
23.0240699705
 40
5.0615103183
100
AcDbArc
 50
93.4475338978
 51
95.7126647609
  0
ARC
  5
35A
100
AcDbEntity
  8
DEFAULT_2
100
AcDbCircle
 62
8
  6
HIDDEN
 10
61.7274753731
 20
23.1142002331
 40
4.9709690715
100
AcDbArc
 50
95.7171419778
 51
96.2294878605
  0
ARC
  5
35B
100
AcDbEntity
  8
DEFAULT_2
100
AcDbCircle
 62
8
  6
HIDDEN
 10
61.7221603671
 20
23.1626497103
 40
4.9222289399
100
AcDbArc
 50
96.2291814746
 51
96.8979348238
  0
ARC
  5
35C
100
AcDbEntity
  8
0
100
AcDbCircle
 62
3
  6
CONTINUOUS
 10
64.6309954751
 20
75.0159502262
 40
3.4
100
AcDbArc
 50
180.0
 51
199.7499227956
  0
ARC
  5
35D
100
AcDbEntity
  8
0
100
AcDbCircle
 62
3
  6
CONTINUOUS
 10
58.4265548993
 20
27.2990397825
 40
2.9372145704
100
AcDbArc
 50
6.7967286699
 51
8.3860249796
  0
ARC
  5
35E
100
AcDbEntity
  8
0
100
AcDbCircle
 62
2
  6
CONTINUOUS
 10
54.1809954751
 20
62.6159502262
 40
2.5
100
AcDbArc
 50
255.0
 51
195.0
  0
CIRCLE
  5
35F
100
AcDbEntity
  8
A_ACHSEN
100
AcDbCircle
 62
3
  6
CONTINUOUS
 10
54.1809954751
 20
62.6159502262
 40
2.325
  0
ARC
  5
360
100
AcDbEntity
  8
0
100
AcDbCircle
 62
3
  6
CONTINUOUS
 10
59.1310792864
 20
27.4033099234
 40
2.2250161034
100
AcDbArc
 50
8.3755644748
 51
10.3186927566
  0
ARC
  5
361
100
AcDbEntity
  8
DEFAULT_2
100
AcDbCircle
 62
8
  6
HIDDEN
 10
61.4609547524
 20
26.585990949
 40
1.5
100
AcDbArc
 50
167.2925615624
 51
170.9547607732
  0
ARC
  5
362
100
AcDbEntity
  8
0
100
AcDbCircle
 62
3
  6
CONTINUOUS
 10
61.4609547524
 20
26.585990949
 40
1.5
100
AcDbArc
 50
102.7074384376
 51
167.2925615624
  0
ARC
  5
363
100
AcDbEntity
  8
0
100
AcDbCircle
 62
3
  6
CONTINUOUS
 10
61.4609547524
 20
26.585990949
 40
1.5
100
AcDbArc
 50
170.9547607732
 51
178.8556694079
  0
ARC
  5
364
100
AcDbEntity
  8
DEFAULT_2
100
AcDbCircle
 62
8
  6
HIDDEN
 10
61.4609547524
 20
26.585990949
 40
1.5
100
AcDbArc
 50
178.8556694079
 51
180.0
  0
ARC
  5
365
100
AcDbEntity
  8
A_RUNDUNGEN
100
AcDbCircle
 62
7
  6
CONTINUOUS
 10
64.6309954751
 20
75.0159502262
 40
0.4
100
AcDbArc
 50
180.0
 51
228.1896851042
  0
ARC
  5
366
100
AcDbEntity
  8
A_RUNDUNGEN
100
AcDbCircle
 62
7
  6
CONTINUOUS
 10
64.2309954751
 20
74.5687366307
 40
0.2
100
AcDbArc
 50
0.0
 51
48.1896851042
  0
ARC
  5
367
100
AcDbEntity
  8
0
100
AcDbCircle
 62
3
  6
CONTINUOUS
 10
49.0809954751
 20
214.6159502262
 40
12.0
100
AcDbArc
 50
50.4287805428
 51
90.0
  0
ARC
  5
368
100
AcDbEntity
  8
DEFAULT_2
100
AcDbCircle
 62
8
  6
HIDDEN
 10
61.7410866716
 20
272.2842384001
 40
5.1380800375
100
AcDbArc
 50
266.5482420781
 51
270.0073380531
  0
ARC
  5
369
100
AcDbEntity
  8
DEFAULT_2
100
AcDbCircle
 62
8
  6
HIDDEN
 10
61.7361630992
 20
272.2085982093
 40
5.0622806434
100
AcDbArc
 50
264.3138924027
 51
266.5523221406
  0
ARC
  5
36A
100
AcDbEntity
  8
DEFAULT_2
100
AcDbCircle
 62
8
  6
HIDDEN
 10
61.7276110453
 20
272.1189407649
 40
4.972217037
100
AcDbArc
 50
263.7716464739
 51
264.3095925434
  0
ARC
  5
36B
100
AcDbEntity
  8
DEFAULT_2
100
AcDbCircle
 62
8
  6
HIDDEN
 10
61.7222026489
 20
272.0696005005
 40
4.9225812446
100
AcDbArc
 50
263.1020655322
 51
263.7719197992
  0
ARC
  5
36C
100
AcDbEntity
  8
0
100
AcDbCircle
 62
3
  6
CONTINUOUS
 10
64.7309954751
 20
220.1159502262
 40
3.5
100
AcDbArc
 50
160.5370490537
 51
180.0
  0
ARC
  5
36D
100
AcDbEntity
  8
0
100
AcDbCircle
 62
2
  6
CONTINUOUS
 10
54.1809954751
 20
232.6159502262
 40
2.5
100
AcDbArc
 50
255.0
 51
195.0
  0
CIRCLE
  5
36E
100
AcDbEntity
  8
A_ACHSEN
100
AcDbCircle
 62
3
  6
CONTINUOUS
 10
54.1809954751
 20
232.6159502262
 40
2.325
  0
ARC
  5
36F
100
AcDbEntity
  8
DEFAULT_2
100
AcDbCircle
 62
8
  6
HIDDEN
 10
61.4609547524
 20
268.6459095035
 40
1.5
100
AcDbArc
 50
180.0
 51
181.1444361927
  0
ARC
  5
370
100
AcDbEntity
  8
DEFAULT_2
100
AcDbCircle
 62
8
  6
HIDDEN
 10
61.4609547524
 20
268.6459095035
 40
1.5
100
AcDbArc
 50
181.1444361927
 51
182.1359148834
  0
ARC
  5
371
100
AcDbEntity
  8
0
100
AcDbCircle
 62
3
  6
CONTINUOUS
 10
61.4609547524
 20
268.6459095035
 40
1.5
100
AcDbArc
 50
192.7074384376
 51
257.2925615624
  0
ARC
  5
372
100
AcDbEntity
  8
0
100
AcDbCircle
 62
3
  6
CONTINUOUS
 10
61.4609547524
 20
268.6459095035
 40
1.5
100
AcDbArc
 50
182.1359148834
 51
189.0452392268
  0
ARC
  5
373
100
AcDbEntity
  8
DEFAULT_2
100
AcDbCircle
 62
8
  6
HIDDEN
 10
61.4609547524
 20
268.6459095035
 40
1.5
100
AcDbArc
 50
189.0452392268
 51
192.7074384376
  0
ARC
  5
374
100
AcDbEntity
  8
A_RUNDUNGEN
100
AcDbCircle
 62
7
  6
CONTINUOUS
 10
64.7309954751
 20
220.1159502262
 40
0.5
100
AcDbArc
 50
135.5846914028
 51
180.0
  0
ARC
  5
375
100
AcDbEntity
  8
A_RUNDUNGEN
100
AcDbCircle
 62
7
  6
CONTINUOUS
 10
64.2309954751
 20
220.6058481748
 40
0.2
100
AcDbArc
 50
315.5846914028
 51
360.0
  0
SPLINE
  5
376
100
AcDbEntity
  8
DEFAULT_2
100
AcDbSpline
 62
8
  6
HIDDEN
 70
0
 71
3
 72
9
 73
5
 74
0
 42
0.0000001
 43
0.0000001
 44
0.0000000001
 40
0.0
 40
0.0
 40
0.0
 40
0.0
 40
0.5333401328
 40
1.0
 40
1.0
 40
1.0
 40
1.0
 10
61.7417447219
 20
267.1461584048
 30
0.0
 10
62.0615149487
 20
267.1462016264
 30
0.0
 10
62.6609809586
 20
267.1974822962
 30
0.0
 10
63.2415561153
 20
267.416122292
 30
0.0
 10
63.4644457081
 20
267.5852477042
 30
0.0
  0
SPLINE
  5
377
100
AcDbEntity
  8
DEFAULT_2
100
AcDbSpline
 62
8
  6
HIDDEN
 70
0
 71
3
 72
9
 73
5
 74
0
 42
0.0000001
 43
0.0000001
 44
0.0000000001
 40
0.0
 40
0.0
 40
0.0
 40
0.0
 40
0.5333399821
 40
1.0
 40
1.0
 40
1.0
 40
1.0
 10
28.6202462226
 20
28.0857420174
 30
0.0
 10
28.3004760895
 20
28.0856988586
 30
0.0
 10
27.7010100979
 20
28.0344181055
 30
0.0
 10
27.1204349051
 20
27.8157782137
 30
0.0
 10
26.8975452427
 20
27.6466527488
 30
0.0
  0
SPLINE
  5
378
100
AcDbEntity
  8
DEFAULT_2
100
AcDbSpline
 62
8
  6
HIDDEN
 70
0
 71
3
 72
9
 73
5
 74
0
 42
0.0000001
 43
0.0000001
 44
0.0000000001
 40
0.0
 40
0.0
 40
0.0
 40
0.0
 40
0.5576553188
 40
1.0
 40
1.0
 40
1.0
 40
1.0
 10
26.8975452427
 20
27.6466527488
 30
0.0
 10
26.6932022101
 20
27.4916001996
 30
0.0
 10
26.341484212
 20
27.1932153143
 30
0.0
 10
26.0705937672
 20
26.806385706
 30
0.0
 10
25.9989408041
 20
26.6159502262
 30
0.0
  0
SPLINE
  5
379
100
AcDbEntity
  8
DEFAULT_2
100
AcDbSpline
 62
8
  6
HIDDEN
 70
0
 71
3
 72
9
 73
5
 74
0
 42
0.0000001
 43
0.0000001
 44
0.0000000001
 40
0.0
 40
0.0
 40
0.0
 40
0.0
 40
0.4423446727
 40
1.0
 40
1.0
 40
1.0
 40
1.0
 10
25.9989408041
 20
268.6159502262
 30
0.0
 10
26.0705937376
 20
268.4255148252
 30
0.0
 10
26.3414840322
 20
268.0386853475
 30
0.0
 10
26.693201865
 20
267.7403005437
 30
0.0
 10
26.8975448063
 20
267.5852480348
 30
0.0
  0
SPLINE
  5
37A
100
AcDbEntity
  8
DEFAULT_2
100
AcDbSpline
 62
8
  6
HIDDEN
 70
0
 71
3
 72
9
 73
5
 74
0
 42
0.0000001
 43
0.0000001
 44
0.0000000001
 40
0.0
 40
0.0
 40
0.0
 40
0.0
 40
0.4666772847
 40
1.0
 40
1.0
 40
1.0
 40
1.0
 10
26.8975448063
 20
267.5852480348
 30
0.0
 10
27.1204426626
 20
267.416116321
 30
0.0
 10
27.701021958
 20
267.1974843439
 30
0.0
 10
28.3004864416
 20
267.1462013636
 30
0.0
 10
28.6202461677
 20
267.1461586845
 30
0.0
  0
SPLINE
  5
37B
100
AcDbEntity
  8
DEFAULT_2
100
AcDbSpline
 62
8
  6
HIDDEN
 70
0
 71
3
 72
9
 73
5
 74
0
 42
0.0000001
 43
0.0000001
 44
0.0000000001
 40
0.0
 40
0.0
 40
0.0
 40
0.0
 40
0.4423446226
 40
1.0
 40
1.0
 40
1.0
 40
1.0
 10
64.3630501461
 20
26.6159502262
 30
0.0
 10
64.291397221
 20
26.8063856049
 30
0.0
 10
64.0205069443
 20
27.1932150899
 30
0.0
 10
63.6687891084
 20
27.4915998908
 30
0.0
 10
63.4644461498
 20
27.6466524132
 30
0.0
  0
SPLINE
  5
37C
100
AcDbEntity
  8
DEFAULT_2
100
AcDbSpline
 62
8
  6
HIDDEN
 70
0
 71
3
 72
9
 73
5
 74
0
 42
0.0000001
 43
0.0000001
 44
0.0000000001
 40
0.0
 40
0.0
 40
0.0
 40
0.0
 40
0.466677354
 40
1.0
 40
1.0
 40
1.0
 40
1.0
 10
63.4644461498
 20
27.6466524132
 30
0.0
 10
63.2415482542
 20
27.8157841573
 30
0.0
 10
62.6609689657
 20
28.0344162916
 30
0.0
 10
62.0615044616
 20
28.0856989663
 30
0.0
 10
61.7417447679
 20
28.0857418813
 30
0.0
  0
SPLINE
  5
37D
100
AcDbEntity
  8
DEFAULT_2
100
AcDbSpline
 62
8
  6
HIDDEN
 70
0
 71
3
 72
9
 73
5
 74
0
 42
0.0000001
 43
0.0000001
 44
0.0000000001
 40
0.0
 40
0.0
 40
0.0
 40
0.0
 40
0.5576554194
 40
1.0
 40
1.0
 40
1.0
 40
1.0
 10
63.4644457081
 20
267.5852477042
 30
0.0
 10
63.6687887779
 20
267.7403002816
 30
0.0
 10
64.0205067866
 20
268.0386851632
 30
0.0
 10
64.2913971992
 20
268.4255147895
 30
0.0
 10
64.3630501461
 20
268.6159502262
 30
0.0
  0
SPLINE
  5
37E
100
AcDbEntity
  8
0
100
AcDbSpline
 62
3
  6
CONTINUOUS
 70
0
 71
3
 72
8
 73
4
 74
0
 42
0.0000001
 43
0.0000001
 44
0.0000000001
 40
0.0
 40
0.0
 40
0.0
 40
0.0
 40
1.0
 40
1.0
 40
1.0
 40
1.0
 10
29.0188634408
 20
267.5852493314
 30
0.0
 10
28.9778652913
 20
267.9274465031
 30
0.0
 10
28.9489541029
 20
268.2715072814
 30
0.0
 10
28.9371723232
 20
268.6159502262
 30
0.0
  0
SPLINE
  5
37F
100
AcDbEntity
  8
0
100
AcDbSpline
 62
3
  6
CONTINUOUS
 70
0
 71
3
 72
8
 73
4
 74
0
 42
0.0000001
 43
0.0000001
 44
0.0000000001
 40
0.0
 40
0.0
 40
0.0
 40
0.0
 40
1.0
 40
1.0
 40
1.0
 40
1.0
 10
28.9371723232
 20
26.6159502262
 30
0.0
 10
28.9489541029
 20
26.960393171
 30
0.0
 10
28.9778652913
 20
27.3044539492
 30
0.0
 10
29.0188634408
 20
27.6466511208
 30
0.0
  0
SPLINE
  5
380
100
AcDbEntity
  8
0
100
AcDbSpline
 62
3
  6
CONTINUOUS
 70
0
 71
3
 72
10
 73
6
 74
0
 42
0.0000001
 43
0.0000001
 44
0.0000000001
 40
0.0
 40
0.0
 40
0.0
 40
0.0
 40
0.5083294406
 40
0.7609260899
 40
1.0
 40
1.0
 40
1.0
 40
1.0
 10
29.0188634408
 20
27.6466511208
 30
0.0
 10
29.0285192076
 20
27.7272444195
 30
0.0
 10
29.0486657712
 20
27.8519156372
 30
0.0
 10
29.0877653586
 20
27.9948264925
 30
0.0
 10
29.1373138753
 20
28.0851411982
 30
0.0
 10
29.1754873647
 20
28.0847861275
 30
0.0
  0
SPLINE
  5
381
100
AcDbEntity
  8
0
100
AcDbSpline
 62
3
  6
CONTINUOUS
 70
0
 71
3
 72
11
 73
7
 74
0
 42
0.0000001
 43
0.0000001
 44
0.0000000001
 40
0.0
 40
0.0
 40
0.0
 40
0.0
 40
0.1247134566
 40
0.2498389075
 40
0.4985893926
 40
1.0
 40
1.0
 40
1.0
 40
1.0
 10
61.1864307467
 20
28.0844592491
 30
0.0
 10
61.2000391621
 20
28.0839863599
 30
0.0
 10
61.2276166015
 20
28.0720446577
 30
0.0
 10
61.2563474792
 20
28.0245438148
 30
0.0
 10
61.2935036369
 20
27.9366474221
 30
0.0
 10
61.3102600551
 20
27.8557143035
 30
0.0
 10
61.3201094286
 20
27.8018619239
 30
0.0
  0
SPLINE
  5
382
100
AcDbEntity
  8
0
100
AcDbSpline
 62
3
  6
CONTINUOUS
 70
0
 71
3
 72
11
 73
7
 74
0
 42
0.0000001
 43
0.0000001
 44
0.0000000001
 40
0.0
 40
0.0
 40
0.0
 40
0.0
 40
0.1247453177
 40
0.249847131
 40
0.4986004152
 40
1.0
 40
1.0
 40
1.0
 40
1.0
 10
29.1755612776
 20
267.1474404493
 30
0.0
 10
29.1619197798
 20
267.1479253574
 30
0.0
 10
29.1342909212
 20
267.1599212488
 30
0.0
 10
29.1055400714
 20
267.2075523039
 30
0.0
 10
29.068361753
 20
267.2956630858
 30
0.0
 10
29.0516013415
 20
267.3767788335
 30
0.0
 10
29.0417510154
 20
267.4307524154
 30
0.0
  0
SPLINE
  5
383
100
AcDbEntity
  8
0
100
AcDbSpline
 62
3
  6
CONTINUOUS
 70
0
 71
3
 72
8
 73
4
 74
0
 42
0.0000001
 43
0.0000001
 44
0.0000000001
 40
0.0
 40
0.0
 40
0.0
 40
0.0
 40
1.0
 40
1.0
 40
1.0
 40
1.0
 10
30.4005867284
 20
26.8604245265
 30
0.0
 10
30.4009791468
 20
26.8462005607
 30
0.0
 10
30.3923386995
 20
26.8319788996
 30
0.0
 10
30.3823829722
 20
26.821812352
 30
0.0
  0
SPLINE
  5
384
100
AcDbEntity
  8
0
100
AcDbSpline
 62
3
  6
CONTINUOUS
 70
0
 71
3
 72
8
 73
4
 74
0
 42
0.0000001
 43
0.0000001
 44
0.0000000001
 40
0.0
 40
0.0
 40
0.0
 40
0.0
 40
1.0
 40
1.0
 40
1.0
 40
1.0
 10
59.9614042218
 20
268.371475926
 30
0.0
 10
59.9610118035
 20
268.3856998918
 30
0.0
 10
59.9696522507
 20
268.3999215529
 30
0.0
 10
59.979607978
 20
268.4100881004
 30
0.0
  0
SPLINE
  5
385
100
AcDbEntity
  8
0
100
AcDbSpline
 62
3
  6
CONTINUOUS
 70
0
 71
3
 72
8
 73
4
 74
0
 42
0.0000001
 43
0.0000001
 44
0.0000000001
 40
0.0
 40
0.0
 40
0.0
 40
0.0
 40
1.0
 40
1.0
 40
1.0
 40
1.0
 10
61.3431275095
 20
27.6466511209
 30
0.0
 10
61.384125659
 20
27.3044539492
 30
0.0
 10
61.4130368473
 20
26.960393171
 30
0.0
 10
61.424818627
 20
26.6159502262
 30
0.0
  0
SPLINE
  5
386
100
AcDbEntity
  8
0
100
AcDbSpline
 62
3
  6
CONTINUOUS
 70
0
 71
3
 72
10
 73
6
 74
0
 42
0.0000001
 43
0.0000001
 44
0.0000000001
 40
0.0
 40
0.0
 40
0.0
 40
0.0
 40
0.5083310794
 40
0.7609288163
 40
1.0
 40
1.0
 40
1.0
 40
1.0
 10
61.3431275095
 20
267.5852493317
 30
0.0
 10
61.333471664
 20
267.5046553772
 30
0.0
 10
61.3133254261
 20
267.3799798537
 30
0.0
 10
61.2742239107
 20
267.2370768842
 30
0.0
 10
61.2246771063
 20
267.1467464177
 30
0.0
 10
61.1865039537
 20
267.1471109237
 30
0.0
  0
SPLINE
  5
387
100
AcDbEntity
  8
0
100
AcDbSpline
 62
3
  6
CONTINUOUS
 70
0
 71
3
 72
8
 73
4
 74
0
 42
0.0000001
 43
0.0000001
 44
0.0000000001
 40
0.0
 40
0.0
 40
0.0
 40
0.0
 40
1.0
 40
1.0
 40
1.0
 40
1.0
 10
61.424818627
 20
268.6159502262
 30
0.0
 10
61.4130368473
 20
268.2715072815
 30
0.0
 10
61.384125659
 20
267.9274465033
 30
0.0
 10
61.3431275095
 20
267.5852493317
 30
0.0
  0
SPLINE
  5
388
100
AcDbEntity
  8
0
100
AcDbSpline
 62
3
  6
CONTINUOUS
 70
0
 71
3
 72
8
 73
4
 74
0
 42
0.0000001
 43
0.0000001
 44
0.0000000001
 40
0.0
 40
0.0
 40
0.0
 40
0.0
 40
1.0
 40
1.0
 40
1.0
 40
1.0
 10
59.979607978
 20
26.821812352
 30
0.0
 10
59.9696568396
 20
26.8319742135
 30
0.0
 10
59.9610304073
 20
26.8462028994
 30
0.0
 10
59.9614403814
 20
26.8604198085
 30
0.0
  0
SPLINE
  5
389
100
AcDbEntity
  8
0
100
AcDbSpline
 62
3
  6
CONTINUOUS
 70
0
 71
3
 72
8
 73
4
 74
0
 42
0.0000001
 43
0.0000001
 44
0.0000000001
 40
0.0
 40
0.0
 40
0.0
 40
0.0
 40
1.0
 40
1.0
 40
1.0
 40
1.0
 10
30.3823829722
 20
268.4100881004
 30
0.0
 10
30.3923341106
 20
268.3999262389
 30
0.0
 10
30.4009605429
 20
268.3856975531
 30
0.0
 10
30.4005505688
 20
268.371480644
 30
0.0
  0
SPLINE
  5
38A
100
AcDbEntity
  8
0
100
AcDbSpline
 62
3
  6
CONTINUOUS
 70
0
 71
3
 72
8
 73
4
 74
0
 42
0.0000001
 43
0.0000001
 44
0.0000000001
 40
0.0
 40
0.0
 40
0.0
 40
0.0
 40
1.0
 40
1.0
 40
1.0
 40
1.0
 10
61.1309954751
 20
28.0492499402
 30
0.0
 10
61.1441453341
 20
28.06675072
 30
0.0
 10
61.1645534038
 20
28.0852194817
 30
0.0
 10
61.1864307467
 20
28.0844592491
 30
0.0
  0
SPLINE
  5
38B
100
AcDbEntity
  8
0
100
AcDbSpline
 62
3
  6
CONTINUOUS
 70
0
 71
3
 72
8
 73
4
 74
0
 42
0.0000001
 43
0.0000001
 44
0.0000000001
 40
0.0
 40
0.0
 40
0.0
 40
0.0
 40
1.0
 40
1.0
 40
1.0
 40
1.0
 10
30.3642951891
 20
26.9159502262
 30
0.0
 10
30.3819724387
 20
26.9026677701
 30
0.0
 10
30.3999769425
 20
26.8825273986
 30
0.0
 10
30.4005867284
 20
26.8604245265
 30
0.0
  0
SPLINE
  5
38C
100
AcDbEntity
  8
0
100
AcDbSpline
 62
3
  6
CONTINUOUS
 70
0
 71
3
 72
8
 73
4
 74
0
 42
0.0000001
 43
0.0000001
 44
0.0000000001
 40
0.0
 40
0.0
 40
0.0
 40
0.0
 40
1.0
 40
1.0
 40
1.0
 40
1.0
 10
61.1865039537
 20
267.1471109237
 30
0.0
 10
61.164534638
 20
267.1473207033
 30
0.0
 10
61.1441932523
 20
267.1650859594
 30
0.0
 10
61.1309954751
 20
267.1826505123
 30
0.0
  0
SPLINE
  5
38D
100
AcDbEntity
  8
0
100
AcDbSpline
 62
3
  6
CONTINUOUS
 70
0
 71
3
 72
8
 73
4
 74
0
 42
0.0000001
 43
0.0000001
 44
0.0000000001
 40
0.0
 40
0.0
 40
0.0
 40
0.0
 40
1.0
 40
1.0
 40
1.0
 40
1.0
 10
29.1754873647
 20
28.0847861275
 30
0.0
 10
29.1974560169
 20
28.0845817861
 30
0.0
 10
29.2177981272
 20
28.0668139217
 30
0.0
 10
29.2309954751
 20
28.0492499402
 30
0.0
  0
SPLINE
  5
38E
100
AcDbEntity
  8
0
100
AcDbSpline
 62
3
  6
CONTINUOUS
 70
0
 71
3
 72
8
 73
4
 74
0
 42
0.0000001
 43
0.0000001
 44
0.0000000001
 40
0.0
 40
0.0
 40
0.0
 40
0.0
 40
1.0
 40
1.0
 40
1.0
 40
1.0
 10
59.9976957611
 20
268.3159502262
 30
0.0
 10
59.9800185115
 20
268.3292326824
 30
0.0
 10
59.9620140077
 20
268.3493730539
 30
0.0
 10
59.9614042218
 20
268.371475926
 30
0.0
  0
SPLINE
  5
38F
100
AcDbEntity
  8
0
100
AcDbSpline
 62
3
  6
CONTINUOUS
 70
0
 71
3
 72
8
 73
4
 74
0
 42
0.0000001
 43
0.0000001
 44
0.0000000001
 40
0.0
 40
0.0
 40
0.0
 40
0.0
 40
1.0
 40
1.0
 40
1.0
 40
1.0
 10
59.9614403814
 20
26.8604198085
 30
0.0
 10
59.9620775892
 20
26.8825166297
 30
0.0
 10
59.9800227289
 20
26.902670939
 30
0.0
 10
59.9976957611
 20
26.9159502262
 30
0.0
  0
SPLINE
  5
390
100
AcDbEntity
  8
0
100
AcDbSpline
 62
3
  6
CONTINUOUS
 70
0
 71
3
 72
8
 73
4
 74
0
 42
0.0000001
 43
0.0000001
 44
0.0000000001
 40
0.0
 40
0.0
 40
0.0
 40
0.0
 40
1.0
 40
1.0
 40
1.0
 40
1.0
 10
29.2309954751
 20
267.1826505123
 30
0.0
 10
29.2178457167
 20
267.1651498663
 30
0.0
 10
29.1974378413
 20
267.1466628132
 30
0.0
 10
29.1755612776
 20
267.1474404493
 30
0.0
  0
SPLINE
  5
391
100
AcDbEntity
  8
0
100
AcDbSpline
 62
3
  6
CONTINUOUS
 70
0
 71
3
 72
8
 73
4
 74
0
 42
0.0000001
 43
0.0000001
 44
0.0000000001
 40
0.0
 40
0.0
 40
0.0
 40
0.0
 40
1.0
 40
1.0
 40
1.0
 40
1.0
 10
30.4005505688
 20
268.371480644
 30
0.0
 10
30.399913361
 20
268.3493838228
 30
0.0
 10
30.3819682213
 20
268.3292295135
 30
0.0
 10
30.3642951891
 20
268.3159502262
 30
0.0
  0
ENDSEC
  0
SECTION
  2
OBJECTS
  0
DICTIONARY
  5
392
100
AcDbDictionary
  3
ACAD_GROUP
350
393
  3
ACAD_MLINESTYLE
350
394
  0
DICTIONARY
  5
393
102
{ACAD_REACTORS
330
392
102
}
100
AcDbDictionary
  0
DICTIONARY
  5
394
102
{ACAD_REACTORS
330
392
102
}
100
AcDbDictionary
  3
STANDARD
350
395
  0
MLINESTYLE
  5
395
102
{ACAD_REACTORS
330
394
102
}
100
AcDbMlineStyle
  2
STANDARD
 70
0
  3

 62
256
 51
90.0
 52
90.0
 71
2
 49
0.5
 62
256
  6
BYLAYER
 49
-0.5
 62
256
  6
BYLAYER
  0
ENDSEC
  0
EOF
