999
DXF file: d:\tmp\workingDir\0000094795\te_640_3d_st_v01_01.dxf
999
Pro/ENGINEER 2016380 by Parametric Technology Corporation
  0
SECTION
  2
HEADER
  9
$ACADVER
  1
AC1014
  9
$DWGCODEPAGE
  3
ANSI_1252
  9
$EXTMAX
 10
70.104
 20
320.0
 30
0.0
  9
$EXTMIN
 10
0.0
 20
0.0
 30
0.0
  9
$LIMMIN
 10
0.0
 20
0.0
  9
$LIMMAX
 10
70.104
 20
320.0
  9
$VIEWCTR
 10
35.052
 20
160.0
  9
$VIEWSIZE
 40
320.0
  9
$CLAYER
  8
0
  9
$LTSCALE
 40
20.8592592593
  9
$CELTYPE
  6
BYLAYER
  9
$DIMSCALE
 40
1.0
  9
$DIMASZ
 40
3.5
  9
$DIMEXO
 40
0.0
  9
$DIMDLI
 40
14.4118518519
  9
$DIMEXE
 40
2.0
  9
$DIMCEN
 40
3.4133333333
  9
$DIMLFAC
 40
1.0
  9
$DIMBLK
  1
_ARROW_FILLED
  9
$DIMALT
 70
0
  9
$DIMALTF
 40
25.4
  9
$DIMTXT
 40
3.5
  9
$DIMTOL
 70
1
  9
$DIMLIM
 70
0
  9
$DIMTFAC
 40
1.0
  9
$DIMTP
 40
0.01
  9
$DIMTM
 40
0.01
  9
$DIMGAP
 40
0.625
  9
$AUNITS
 70
0
  9
$PDMODE
 70
0
  9
$PDSIZE
 40
0.04
  9
$HANDSEED
  5
38E
  9
$TILEMODE
 70
1
  9
$MEASUREMENT
 70
1
  0
ENDSEC
  0
SECTION
  2
CLASSES
  0
ENDSEC
  0
SECTION
  2
TABLES
  0
TABLE
  2
VPORT
  5
8
100
AcDbSymbolTable
 70
2
  0
VPORT
  5
1F4
100
AcDbSymbolTableRecord
100
AcDbViewportTableRecord
  2
*ACTIVE
 70
0
 10
0.0
 20
0.0
 11
1.0
 21
1.0
 12
35.052
 22
160.0
 13
0.0
 23
0.0
 14
1.0
 24
1.0
 15
0.0
 25
0.0
 16
0.0
 26
0.0
 36
1.0
 17
0.0
 27
0.0
 37
0.0
 40
320.0
 41
0.219075
 42
50.0
 43
0.0
 44
0.0
 50
0.0
 51
0.0
 71
0
 72
100
 73
1
 74
1
 75
0
 76
0
 77
0
 78
0
  0
ENDTAB
  0
TABLE
  2
LTYPE
  5
5
100
AcDbSymbolTable
 70
6
  0
LTYPE
  5
14
100
AcDbSymbolTableRecord
100
AcDbLinetypeTableRecord
  2
BYBLOCK
 70
0
  3

 72
65
 73
0
 40
0.0
  0
LTYPE
  5
15
100
AcDbSymbolTableRecord
100
AcDbLinetypeTableRecord
  2
BYLAYER
 70
0
  3

 72
65
 73
0
 40
0.0
  0
LTYPE
  5
16
100
AcDbSymbolTableRecord
100
AcDbLinetypeTableRecord
  2
CONTINUOUS
 70
64
  3
Solid line
 72
65
 73
0
 40
0.0
  0
LTYPE
  5
1F5
100
AcDbSymbolTableRecord
100
AcDbLinetypeTableRecord
  2
CENTER
 70
64
  3
____ _ ____ _ ____ _ ____ _ ____ _ ____ _ ____
 72
65
 73
4
 40
0.6
 49
0.375
 74
0
 49
-0.075
 74
0
 49
0.075
 74
0
 49
-0.075
 74
0
  0
LTYPE
  5
1F6
100
AcDbSymbolTableRecord
100
AcDbLinetypeTableRecord
  2
HIDDEN
 70
64
  3
- - - - - - - - - - - - - - - - - - - -
 72
65
 73
2
 40
0.2
 49
0.1
 74
0
 49
-0.1
 74
0
  0
LTYPE
  5
1F7
100
AcDbSymbolTableRecord
100
AcDbLinetypeTableRecord
  2
PHANTOM
 70
64
  3
_____ _ _ _____ _ _ _____ _ _ _____
 72
65
 73
6
 40
0.8
 49
0.45
 74
0
 49
-0.05
 74
0
 49
0.1
 74
0
 49
-0.05
 74
0
 49
0.1
 74
0
 49
-0.05
 74
0
  0
LTYPE
  5
1F8
100
AcDbSymbolTableRecord
100
AcDbLinetypeTableRecord
  2
DOT
 70
64
  3
. . . . . . . . . . . . . . . . . . . .
 72
65
 73
2
 40
0.2
 49
0.1
 74
0
 49
-0.1
 74
0
  0
LTYPE
  5
1F9
100
AcDbSymbolTableRecord
100
AcDbLinetypeTableRecord
  2
DASHED
 70
64
  3
- - - - - - - - - - - - - - - - - - - -
 72
65
 73
2
 40
0.2
 49
0.1
 74
0
 49
-0.1
 74
0
  0
ENDTAB
  0
TABLE
  2
LAYER
  5
2
100
AcDbSymbolTable
 70
36
  0
LAYER
  5
10
100
AcDbSymbolTableRecord
100
AcDbLayerTableRecord
  2
0
 70
0
 62
7
  6
CONTINUOUS
  0
LAYER
  5
1FA
100
AcDbSymbolTableRecord
100
AcDbLayerTableRecord
  2
DEFAULT_1
 70
0
 62
7
  6
CENTER
  0
LAYER
  5
1FB
100
AcDbSymbolTableRecord
100
AcDbLayerTableRecord
  2
DEFAULT_2
 70
0
 62
8
  6
HIDDEN
  0
LAYER
  5
1FC
100
AcDbSymbolTableRecord
100
AcDbLayerTableRecord
  2
DEFAULT_3
 70
0
 62
7
  6
PHANTOM
  0
LAYER
  5
1FD
100
AcDbSymbolTableRecord
100
AcDbLayerTableRecord
  2
A_ACHSEN
 70
0
 62
7
  6
CONTINUOUS
  0
LAYER
  5
1FE
100
AcDbSymbolTableRecord
100
AcDbLayerTableRecord
  2
A_BASISEBENEN
 70
0
 62
7
  6
CONTINUOUS
  0
LAYER
  5
1FF
100
AcDbSymbolTableRecord
100
AcDbLayerTableRecord
  2
A_BEMASSUNGEN
 70
0
 62
7
  6
CONTINUOUS
  0
LAYER
  5
200
100
AcDbSymbolTableRecord
100
AcDbLayerTableRecord
  2
A_BOHRUNGEN
 70
0
 62
7
  6
CONTINUOUS
  0
LAYER
  5
201
100
AcDbSymbolTableRecord
100
AcDbLayerTableRecord
  2
A_EBENEN
 70
0
 62
7
  6
CONTINUOUS
  0
LAYER
  5
202
100
AcDbSymbolTableRecord
100
AcDbLayerTableRecord
  2
A_FASEN
 70
0
 62
7
  6
CONTINUOUS
  0
LAYER
  5
203
100
AcDbSymbolTableRecord
100
AcDbLayerTableRecord
  2
A_FL_VERBAENDE
 70
0
 62
7
  6
CONTINUOUS
  0
LAYER
  5
204
100
AcDbSymbolTableRecord
100
AcDbLayerTableRecord
  2
A_NOTIZEN_SYMB
 70
0
 62
7
  6
CONTINUOUS
  0
LAYER
  5
205
100
AcDbSymbolTableRecord
100
AcDbLayerTableRecord
  2
A_RUNDUNGEN
 70
0
 62
7
  6
CONTINUOUS
  0
LAYER
  5
206
100
AcDbSymbolTableRecord
100
AcDbLayerTableRecord
  2
BASISEBENEN
 70
0
 62
7
  6
CONTINUOUS
  0
ENDTAB
  0
TABLE
  2
STYLE
  5
3
100
AcDbSymbolTable
 70
1
  0
STYLE
  5
11
100
AcDbSymbolTableRecord
100
AcDbTextStyleTableRecord
  2
STANDARD
 70
0
 40
0.0
 41
1.0
 50
0.0
 71
0
 42
0.2
  3
txt
  4

  0
STYLE
  5
207
100
AcDbSymbolTableRecord
100
AcDbTextStyleTableRecord
  2
TEXTSTYLE_1
 70
0
 40
0.0
 41
0.8
 50
0.0
 71
0
 42
0.2
  3
gdt
  4

  0
STYLE
  5
208
100
AcDbSymbolTableRecord
100
AcDbTextStyleTableRecord
  2
TEXTSTYLE_2
 70
0
 40
0.0
 41
1.0
 50
0.0
 71
0
 42
0.2
  3
txt
  4

  0
ENDTAB
  0
TABLE
  2
VIEW
  5
6
100
AcDbSymbolTable
 70
0
  0
ENDTAB
  0
TABLE
  2
UCS
  5
7
100
AcDbSymbolTable
 70
0
  0
ENDTAB
  0
TABLE
  2
APPID
  5
9
100
AcDbSymbolTable
 70
1
  0
APPID
  5
209
100
AcDbSymbolTableRecord
100
AcDbRegAppTableRecord
  2
ACAD
 70
0
  0
ENDTAB
  0
TABLE
  2
BLOCK_RECORD
  5
1
100
AcDbSymbolTable
 70
0
  0
BLOCK_RECORD
  5
1F
100
AcDbSymbolTableRecord
100
AcDbBlockTableRecord
  2
*MODEL_SPACE
  0
BLOCK_RECORD
  5
1B
100
AcDbSymbolTableRecord
100
AcDbBlockTableRecord
  2
*PAPER_SPACE
  0
BLOCK_RECORD
  5
20A
100
AcDbSymbolTableRecord
100
AcDbBlockTableRecord
  2
_ARROW_FILLED
  0
BLOCK_RECORD
  5
20B
100
AcDbSymbolTableRecord
100
AcDbBlockTableRecord
  2
*D0
  0
BLOCK_RECORD
  5
20C
100
AcDbSymbolTableRecord
100
AcDbBlockTableRecord
  2
*D1
  0
BLOCK_RECORD
  5
20D
100
AcDbSymbolTableRecord
100
AcDbBlockTableRecord
  2
*D2
  0
ENDTAB
  0
TABLE
  2
DIMSTYLE
  5
A
100
AcDbSymbolTable
 70
1
  0
DIMSTYLE
105
20E
100
AcDbSymbolTableRecord
100
AcDbDimStyleTableRecord
  2
STANDARD
 70
0
  3

  4

  5
_ARROW_FILLED
  6
_ARROW_FILLED
  7
_ARROW_FILLED
 40
1.0
 41
3.5
 42
0.0
 43
0.38
 44
2.0
 45
0.0
 46
0.0
 47
0.01
 48
0.01
140
3.5
141
0.09
142
0.0
143
25.4
144
1.0
145
0.0
146
1.0
147
0.625
 71
1.0
 72
0.0
 73
0
 74
0
 75
0
 76
0
 77
1
 78
8
170
0
171
1
172
0
173
0
174
0
175
0
176
0
177
0
178
5
270
2
271
2
272
2
273
2
274
2
275
0
280
0
281
0
282
0
283
1
284
8
285
0
286
0
287
3
288
0
340
11
  0
DIMSTYLE
105
20F
100
AcDbSymbolTableRecord
100
AcDbDimStyleTableRecord
  2
DIMSTYLE_1
 70
0
  3

  4

  5
_ARROW_FILLED
  6
_ARROW_FILLED
  7
_ARROW_FILLED
 40
1.0
 41
3.5
 42
0.0
 43
0.38
 44
2.0
 45
0.0
 46
0.0
 47
0.5
 48
0.5
140
3.5
141
0.09
142
0.0
143
25.4
144
1.0
145
0.0
146
1.0
147
0.875
 71
0.0
 72
0.0
 73
0
 74
0
 75
0
 76
0
 77
1
 78
8
170
0
171
1
172
0
173
0
174
0
175
0
176
0
177
0
178
5
270
2
271
4
272
-1
273
2
274
2
275
0
280
0
281
0
282
0
283
1
284
8
285
0
286
0
287
3
288
0
340
208
  0
DIMSTYLE
105
210
100
AcDbSymbolTableRecord
100
AcDbDimStyleTableRecord
  2
DIMSTYLE_2
 70
0
  3

  4

  5
_ARROW_FILLED
  6
_ARROW_FILLED
  7
_ARROW_FILLED
 40
1.0
 41
3.5
 42
0.0
 43
0.38
 44
2.0
 45
0.0
 46
0.0
 47
0.2
 48
0.2
140
3.5
141
0.09
142
0.0
143
25.4
144
1.0
145
0.0
146
1.0
147
0.875
 71
0.0
 72
0.0
 73
0
 74
0
 75
0
 76
0
 77
1
 78
8
170
0
171
1
172
0
173
0
174
0
175
0
176
0
177
0
178
5
270
2
271
1
272
-1
273
2
274
2
275
0
280
0
281
0
282
0
283
1
284
8
285
0
286
0
287
3
288
0
340
208
  0
DIMSTYLE
105
211
100
AcDbSymbolTableRecord
100
AcDbDimStyleTableRecord
  2
DIMSTYLE_3
 70
0
  3

  4

  5
_ARROW_FILLED
  6
_ARROW_FILLED
  7
_ARROW_FILLED
 40
1.0
 41
3.5
 42
0.0
 43
0.38
 44
2.0
 45
0.0
 46
0.0
 47
0.3
 48
0.3
140
3.5
141
0.09
142
0.0
143
25.4
144
1.0
145
0.0
146
1.0
147
0.875
 71
0.0
 72
0.0
 73
0
 74
0
 75
0
 76
0
 77
1
 78
8
170
0
171
1
172
0
173
0
174
0
175
0
176
0
177
0
178
5
270
2
271
4
272
-1
273
2
274
2
275
0
280
0
281
0
282
0
283
1
284
8
285
0
286
0
287
3
288
0
340
208
  0
ENDTAB
  0
ENDSEC
  0
SECTION
  2
BLOCKS
  0
BLOCK
  5
20
100
AcDbEntity
  8
0
100
AcDbBlockBegin
  2
*MODEL_SPACE
 70
0
 10
0.0
 20
0.0
 30
0.0
  3
*MODEL_SPACE
  1

  0
ENDBLK
  5
21
100
AcDbEntity
  8
0
100
AcDbBlockEnd
  0
BLOCK
  5
1C
100
AcDbEntity
  8
0
100
AcDbBlockBegin
  2
*PAPER_SPACE
 70
0
 10
0.0
 20
0.0
 30
0.0
  3
*PAPER_SPACE
  1

  0
ENDBLK
  5
1D
100
AcDbEntity
  8
0
100
AcDbBlockEnd
  0
BLOCK
  5
212
100
AcDbEntity
  8
0
100
AcDbBlockBegin
  2
_ARROW_FILLED
 70
64
 10
0.0
 20
0.0
  3
_ARROW_FILLED
  1

  0
SOLID
  5
213
100
AcDbEntity
  8
0
  6
BYBLOCK
 62
0
100
AcDbTrace
 10
0.0
 20
0.0
 11
-1.0
 21
0.1428571429
 12
-1.0
 22
-0.1428571429
 13
-1.0
 23
-0.1428571429
  0
ENDBLK
  5
214
100
AcDbEntity
  8
0
  6
BYBLOCK
 62
0
100
AcDbBlockEnd
  0
BLOCK
  5
215
100
AcDbEntity
  8
A_BEMASSUNGEN
100
AcDbBlockBegin
 62
2
  6
CONTINUOUS
  2
*D0
 70
65
 10
0.0
 20
0.0
  3
*D0
  1

  0
MTEXT
  5
216
100
AcDbEntity
  8
A_BEMASSUNGEN
100
AcDbMText
 62
5
  6
CONTINUOUS
  7
TEXTSTYLE_2
 71
2
 72
1
 10
8.0427013864
 20
150.1288090356
 30
0.0
 11
0.0
 21
1.0
 31
0.0
  1
286
 40
3.5
 41
12.375
  0
LINE
  5
217
100
AcDbEntity
  8
A_BEMASSUNGEN
100
AcDbLine
 62
2
  6
CONTINUOUS
 10
27.9083272754
 20
293.1288090356
 11
25.0470733321
 21
293.1288090356
  0
LINE
  5
218
100
AcDbEntity
  8
A_BEMASSUNGEN
100
AcDbLine
 62
2
  6
CONTINUOUS
 10
21.7257918842
 20
293.1288090356
 11
10.4177013864
 21
293.1288090356
  0
LINE
  5
219
100
AcDbEntity
  8
A_BEMASSUNGEN
100
AcDbLine
 62
2
  6
CONTINUOUS
 10
27.9083272754
 20
7.1288090356
 11
10.4177013864
 21
7.1288090356
  0
LINE
  5
21A
100
AcDbEntity
  8
A_BEMASSUNGEN
100
AcDbLine
 62
2
  6
CONTINUOUS
 10
12.4177013864
 20
293.1288090356
 11
12.4177013864
 21
150.1288090356
  0
LINE
  5
21B
100
AcDbEntity
  8
A_BEMASSUNGEN
100
AcDbLine
 62
2
  6
CONTINUOUS
 10
12.4177013864
 20
7.1288090356
 11
12.4177013864
 21
150.1288090356
  0
INSERT
  5
21C
100
AcDbEntity
  8
A_BEMASSUNGEN
100
AcDbBlockReference
 62
2
  6
CONTINUOUS
  2
_ARROW_FILLED
 10
12.4177013864
 20
293.1288090356
 41
3.5
 42
3.5
 43
3.5
 50
90.0
  0
INSERT
  5
21D
100
AcDbEntity
  8
A_BEMASSUNGEN
100
AcDbBlockReference
 62
2
  6
CONTINUOUS
  2
_ARROW_FILLED
 10
12.4177013864
 20
7.1288090356
 41
3.5
 42
3.5
 43
3.5
 50
270.0
  0
ENDBLK
  5
21E
100
AcDbEntity
  8
0
  6
BYBLOCK
 62
0
100
AcDbBlockEnd
  0
BLOCK
  5
21F
100
AcDbEntity
  8
A_BEMASSUNGEN
100
AcDbBlockBegin
 62
2
  6
CONTINUOUS
  2
*D1
 70
65
 10
0.0
 20
0.0
  3
*D1
  1

  0
MTEXT
  5
220
100
AcDbEntity
  8
A_BEMASSUNGEN
100
AcDbMText
 62
5
  6
CONTINUOUS
  7
TEXTSTYLE_2
 71
2
 72
1
 10
42.6882865526
 20
305.62279659
 30
0.0
 11
1.0
 21
0.0
 31
0.0
  1
29.6
 40
3.5
 41
15.375
  0
LINE
  5
221
100
AcDbEntity
  8
A_BEMASSUNGEN
100
AcDbLine
 62
2
  6
CONTINUOUS
 10
27.9083272754
 20
293.1288090356
 11
27.9083272754
 21
303.24779659
  0
LINE
  5
222
100
AcDbEntity
  8
A_BEMASSUNGEN
100
AcDbLine
 62
2
  6
CONTINUOUS
 10
57.4682458298
 20
293.1288090356
 11
57.4682458298
 21
303.24779659
  0
LINE
  5
223
100
AcDbEntity
  8
A_BEMASSUNGEN
100
AcDbLine
 62
2
  6
CONTINUOUS
 10
27.9083272754
 20
301.24779659
 11
42.6882865526
 21
301.24779659
  0
LINE
  5
224
100
AcDbEntity
  8
A_BEMASSUNGEN
100
AcDbLine
 62
2
  6
CONTINUOUS
 10
57.4682458298
 20
301.24779659
 11
42.6882865526
 21
301.24779659
  0
INSERT
  5
225
100
AcDbEntity
  8
A_BEMASSUNGEN
100
AcDbBlockReference
 62
2
  6
CONTINUOUS
  2
_ARROW_FILLED
 10
27.9083272754
 20
301.24779659
 41
3.5
 42
3.5
 43
3.5
 50
180.0
  0
INSERT
  5
226
100
AcDbEntity
  8
A_BEMASSUNGEN
100
AcDbBlockReference
 62
2
  6
CONTINUOUS
  2
_ARROW_FILLED
 10
57.4682458298
 20
301.24779659
 41
3.5
 42
3.5
 43
3.5
  0
ENDBLK
  5
227
100
AcDbEntity
  8
0
  6
BYBLOCK
 62
0
100
AcDbBlockEnd
  0
BLOCK
  5
228
100
AcDbEntity
  8
A_BEMASSUNGEN
100
AcDbBlockBegin
 62
2
  6
CONTINUOUS
  2
*D2
 70
65
 10
0.0
 20
0.0
  3
*D2
  1

  0
MTEXT
  5
229
100
AcDbEntity
  8
A_BEMASSUNGEN
100
AcDbMText
 62
5
  6
CONTINUOUS
  7
TEXTSTYLE_2
 71
2
 72
1
 10
42.6882865526
 20
316.8914300742
 30
0.0
 11
1.0
 21
0.0
 31
0.0
  1
38.5
 40
3.5
 41
14.625
  0
LINE
  5
22A
100
AcDbEntity
  8
A_BEMASSUNGEN
100
AcDbLine
 62
2
  6
CONTINUOUS
 10
23.4382865526
 20
274.2288090356
 11
23.4382865526
 21
314.5164300742
  0
LINE
  5
22B
100
AcDbEntity
  8
A_BEMASSUNGEN
100
AcDbLine
 62
2
  6
CONTINUOUS
 10
61.9382865526
 20
274.2288090356
 11
61.9382865526
 21
314.5164300742
  0
LINE
  5
22C
100
AcDbEntity
  8
A_BEMASSUNGEN
100
AcDbLine
 62
2
  6
CONTINUOUS
 10
23.4382865526
 20
312.5164300742
 11
42.6882865526
 21
312.5164300742
  0
LINE
  5
22D
100
AcDbEntity
  8
A_BEMASSUNGEN
100
AcDbLine
 62
2
  6
CONTINUOUS
 10
61.9382865526
 20
312.5164300742
 11
42.6882865526
 21
312.5164300742
  0
INSERT
  5
22E
100
AcDbEntity
  8
A_BEMASSUNGEN
100
AcDbBlockReference
 62
2
  6
CONTINUOUS
  2
_ARROW_FILLED
 10
23.4382865526
 20
312.5164300742
 41
3.5
 42
3.5
 43
3.5
 50
180.0
  0
INSERT
  5
22F
100
AcDbEntity
  8
A_BEMASSUNGEN
100
AcDbBlockReference
 62
2
  6
CONTINUOUS
  2
_ARROW_FILLED
 10
61.9382865526
 20
312.5164300742
 41
3.5
 42
3.5
 43
3.5
  0
ENDBLK
  5
230
100
AcDbEntity
  8
0
  6
BYBLOCK
 62
0
100
AcDbBlockEnd
  0
ENDSEC
  0
SECTION
  2
ENTITIES
  0
DIMENSION
  5
231
100
AcDbEntity
  8
A_BEMASSUNGEN
100
AcDbDimension
 62
2
  6
CONTINUOUS
  2
*D0
 10
12.4177013864
 20
7.1288090356
 11
12.4177013864
 21
149.6288136677
 70
160
  3
DIMSTYLE_1
100
AcDbAlignedDimension
 13
27.9083272754
 23
293.1288090356
 14
27.9083272754
 24
7.1288090356
 50
270.0
100
AcDbRotatedDimension
  0
DIMENSION
  5
232
100
AcDbEntity
  8
A_BEMASSUNGEN
100
AcDbDimension
 62
2
  6
CONTINUOUS
  2
*D1
 10
57.4682458298
 20
301.24779659
 11
42.1882905093
 21
301.24779659
 70
160
  3
DIMSTYLE_2
100
AcDbAlignedDimension
 13
27.9083272754
 23
293.1288090356
 14
57.4682458298
 24
293.1288090356
100
AcDbRotatedDimension
  0
DIMENSION
  5
233
100
AcDbEntity
  8
A_BEMASSUNGEN
100
AcDbDimension
 62
2
  6
CONTINUOUS
  2
*D2
 10
61.9382865526
 20
312.5164300742
 11
42.1882905093
 21
312.5164300742
 70
160
  3
DIMSTYLE_3
100
AcDbAlignedDimension
 13
23.4382865526
 23
274.2288090356
 14
61.9382865526
 24
274.2288090356
100
AcDbRotatedDimension
  0
LINE
  5
234
100
AcDbEntity
  8
A_RUNDUNGEN
100
AcDbLine
 62
3
  6
CONTINUOUS
 10
27.9083272754
 20
7.1288090356
 11
41.2740729902
 21
7.1288090356
  0
LINE
  5
235
100
AcDbEntity
  8
A_RUNDUNGEN
100
AcDbLine
 62
3
  6
CONTINUOUS
 10
44.102500115
 20
7.1288090356
 11
57.4682458298
 21
7.1288090356
  0
LINE
  5
236
100
AcDbEntity
  8
A_RUNDUNGEN
100
AcDbLine
 62
7
  6
CONTINUOUS
 10
26.4382865526
 20
25.0288090356
 11
23.4382865526
 21
25.0288090356
  0
LINE
  5
237
100
AcDbEntity
  8
A_RUNDUNGEN
100
AcDbLine
 62
7
  6
CONTINUOUS
 10
58.9382865526
 20
25.0288090356
 11
61.9382865526
 21
25.0288090356
  0
LINE
  5
238
100
AcDbEntity
  8
DEFAULT_2
100
AcDbLine
 62
8
  6
HIDDEN
 10
57.4682458298
 20
26.1288090356
 11
27.9083272754
 21
26.1288090356
  0
LINE
  5
239
100
AcDbEntity
  8
DEFAULT_2
100
AcDbLine
 62
8
  6
HIDDEN
 10
61.9382865526
 20
29.1288090356
 11
58.9382865526
 21
29.1288090356
  0
LINE
  5
23A
100
AcDbEntity
  8
DEFAULT_2
100
AcDbLine
 62
8
  6
HIDDEN
 10
58.9382865526
 20
29.1288090356
 11
58.9321097045
 21
29.1288090356
  0
LINE
  5
23B
100
AcDbEntity
  8
DEFAULT_2
100
AcDbLine
 62
8
  6
HIDDEN
 10
26.4444634007
 20
29.1288090356
 11
26.4382865526
 21
29.1288090356
  0
LINE
  5
23C
100
AcDbEntity
  8
DEFAULT_2
100
AcDbLine
 62
8
  6
HIDDEN
 10
23.4382865526
 20
29.1288090356
 11
26.4382865526
 21
29.1288090356
  0
LINE
  5
23D
100
AcDbEntity
  8
0
100
AcDbLine
 62
3
  6
CONTINUOUS
 10
27.9083272754
 20
29.1288090356
 11
57.4682458298
 21
29.1288090356
  0
LINE
  5
23E
100
AcDbEntity
  8
DEFAULT_2
100
AcDbLine
 62
8
  6
HIDDEN
 10
59.2490412717
 20
30.598594737
 11
58.6938097089
 21
30.598594737
  0
LINE
  5
23F
100
AcDbEntity
  8
DEFAULT_2
100
AcDbLine
 62
8
  6
HIDDEN
 10
26.6827633963
 20
30.598594737
 11
26.1275318335
 21
30.598594737
  0
LINE
  5
240
100
AcDbEntity
  8
A_ACHSEN
100
AcDbLine
 62
7
  6
CENTER
 10
28.9475458119
 20
45.1288090356
 11
38.1972524898
 21
45.1288090356
  0
LINE
  5
241
100
AcDbEntity
  8
A_ACHSEN
100
AcDbLine
 62
7
  6
CENTER
 10
46.3057456362
 20
45.1288090356
 11
57.070827469
 21
45.1288090356
  0
LINE
  5
242
100
AcDbEntity
  8
0
100
AcDbLine
 62
3
  6
CONTINUOUS
 10
46.5882865526
 20
51.1288090356
 11
38.7882865526
 21
51.1288090356
  0
LINE
  5
243
100
AcDbEntity
  8
0
100
AcDbLine
 62
3
  6
CONTINUOUS
 10
58.9382865526
 20
53.8788090356
 11
54.2327289783
 21
53.8788090356
  0
LINE
  5
244
100
AcDbEntity
  8
DEFAULT_2
100
AcDbLine
 62
8
  6
HIDDEN
 10
26.4382865526
 20
53.8788090356
 11
23.4382865526
 21
53.8788090356
  0
LINE
  5
245
100
AcDbEntity
  8
0
100
AcDbLine
 62
3
  6
CONTINUOUS
 10
26.4382865526
 20
53.8788090356
 11
31.1438441269
 21
53.8788090356
  0
LINE
  5
246
100
AcDbEntity
  8
DEFAULT_2
100
AcDbLine
 62
8
  6
HIDDEN
 10
58.9382865526
 20
53.8788090356
 11
61.9382865526
 21
53.8788090356
  0
LINE
  5
247
100
AcDbEntity
  8
A_RUNDUNGEN
100
AcDbLine
 62
8
  6
HIDDEN
 10
61.9382865526
 20
57.8788090356
 11
58.9382865526
 21
57.8788090356
  0
LINE
  5
248
100
AcDbEntity
  8
A_RUNDUNGEN
100
AcDbLine
 62
8
  6
HIDDEN
 10
26.4382865526
 20
57.8788090356
 11
23.4382865526
 21
57.8788090356
  0
LINE
  5
249
100
AcDbEntity
  8
A_RUNDUNGEN
100
AcDbLine
 62
7
  6
CONTINUOUS
 10
61.7382865526
 20
84.1288090356
 11
58.7382865526
 21
84.1288090356
  0
LINE
  5
24A
100
AcDbEntity
  8
DEFAULT_2
100
AcDbLine
 62
8
  6
HIDDEN
 10
23.4382865526
 20
271.1288090356
 11
23.4382865526
 21
246.3788090356
  0
LINE
  5
24B
100
AcDbEntity
  8
DEFAULT_2
100
AcDbLine
 62
8
  6
HIDDEN
 10
23.4382865526
 20
53.8788090356
 11
23.4382865526
 21
29.1288090356
  0
LINE
  5
24C
100
AcDbEntity
  8
A_RUNDUNGEN
100
AcDbLine
 62
7
  6
CONTINUOUS
 10
23.4382865526
 20
25.0288090356
 11
23.4382865526
 21
275.2288090356
  0
LINE
  5
24D
100
AcDbEntity
  8
DEFAULT_2
100
AcDbLine
 62
8
  6
HIDDEN
 10
26.4382865526
 20
125.1288090431
 11
26.3382865526
 21
125.1288090431
  0
LINE
  5
24E
100
AcDbEntity
  8
DEFAULT_2
100
AcDbLine
 62
8
  6
HIDDEN
 10
26.4382865526
 20
125.2189900958
 11
26.3382865526
 21
125.2189900958
  0
LINE
  5
24F
100
AcDbEntity
  8
DEFAULT_2
100
AcDbLine
 62
8
  6
HIDDEN
 10
26.4382865526
 20
125.6382101484
 11
26.3382865526
 21
125.6382101484
  0
LINE
  5
250
100
AcDbEntity
  8
DEFAULT_2
100
AcDbLine
 62
8
  6
HIDDEN
 10
26.4382865526
 20
125.733265885
 11
26.3382865526
 21
125.733265885
  0
LINE
  5
251
100
AcDbEntity
  8
DEFAULT_2
100
AcDbLine
 62
8
  6
HIDDEN
 10
26.4382865526
 20
127.1371656217
 11
26.3382865526
 21
127.1371656217
  0
LINE
  5
252
100
AcDbEntity
  8
DEFAULT_2
100
AcDbLine
 62
8
  6
HIDDEN
 10
26.4382865526
 20
127.185912148
 11
26.3382865526
 21
127.185912148
  0
LINE
  5
253
100
AcDbEntity
  8
DEFAULT_2
100
AcDbLine
 62
8
  6
HIDDEN
 10
26.4382865526
 20
127.6246306755
 11
26.3382865526
 21
127.6246306755
  0
LINE
  5
254
100
AcDbEntity
  8
DEFAULT_2
100
AcDbLine
 62
8
  6
HIDDEN
 10
26.4382865526
 20
127.7001879372
 11
26.3382865526
 21
127.7001879372
  0
LINE
  5
255
100
AcDbEntity
  8
DEFAULT_2
100
AcDbLine
 62
8
  6
HIDDEN
 10
26.4382865526
 20
128.2290875175
 11
26.3382865526
 21
128.2290875175
  0
LINE
  5
256
100
AcDbEntity
  8
DEFAULT_2
100
AcDbLine
 62
8
  6
HIDDEN
 10
26.4382865526
 20
128.689742253
 11
26.3382865526
 21
128.689742253
  0
LINE
  5
257
100
AcDbEntity
  8
DEFAULT_2
100
AcDbLine
 62
8
  6
HIDDEN
 10
26.4382865526
 20
128.7141153075
 11
26.3382865526
 21
128.7141153075
  0
LINE
  5
258
100
AcDbEntity
  8
DEFAULT_2
100
AcDbLine
 62
8
  6
HIDDEN
 10
26.4382865526
 20
129.9669009902
 11
26.3382865526
 21
129.9669009902
  0
LINE
  5
259
100
AcDbEntity
  8
DEFAULT_2
100
AcDbLine
 62
8
  6
HIDDEN
 10
26.4382865526
 20
129.9717755177
 11
26.3382865526
 21
129.9717755177
  0
LINE
  5
25A
100
AcDbEntity
  8
DEFAULT_2
100
AcDbLine
 62
8
  6
HIDDEN
 10
26.4382865526
 20
130.4299927809
 11
26.3382865526
 21
130.4299927809
  0
LINE
  5
25B
100
AcDbEntity
  8
DEFAULT_2
100
AcDbLine
 62
8
  6
HIDDEN
 10
26.4382865526
 20
130.4470542528
 11
26.3382865526
 21
130.4470542528
  0
LINE
  5
25C
100
AcDbEntity
  8
DEFAULT_2
100
AcDbLine
 62
8
  6
HIDDEN
 10
26.4382865526
 20
131.0758841493
 11
26.3382865526
 21
131.0758841493
  0
LINE
  5
25D
100
AcDbEntity
  8
DEFAULT_2
100
AcDbLine
 62
8
  6
HIDDEN
 10
26.4382865526
 20
131.1051321485
 11
26.3382865526
 21
131.1051321485
  0
LINE
  5
25E
100
AcDbEntity
  8
DEFAULT_2
100
AcDbLine
 62
8
  6
HIDDEN
 10
26.4382865526
 20
131.5438508847
 11
26.3382865526
 21
131.5438508847
  0
LINE
  5
25F
100
AcDbEntity
  8
DEFAULT_2
100
AcDbLine
 62
8
  6
HIDDEN
 10
26.4382865526
 20
131.5852854111
 11
26.3382865526
 21
131.5852854111
  0
LINE
  5
260
100
AcDbEntity
  8
DEFAULT_2
100
AcDbLine
 62
8
  6
HIDDEN
 10
27.9083272754
 20
29.0988497584
 11
27.9082501447
 21
29.1140611394
  0
LINE
  5
261
100
AcDbEntity
  8
DEFAULT_2
100
AcDbLine
 62
8
  6
HIDDEN
 10
26.3382865526
 20
179.5031136133
 11
26.3382865526
 21
177.1705902674
  0
LINE
  5
262
100
AcDbEntity
  8
DEFAULT_2
100
AcDbLine
 62
8
  6
HIDDEN
 10
26.3382865526
 20
176.7221253969
 11
26.3382865526
 21
174.3774155237
  0
LINE
  5
263
100
AcDbEntity
  8
DEFAULT_2
100
AcDbLine
 62
8
  6
HIDDEN
 10
26.3382865526
 20
173.8826378443
 11
26.3382865526
 21
171.5501178362
  0
LINE
  5
264
100
AcDbEntity
  8
DEFAULT_2
100
AcDbLine
 62
8
  6
HIDDEN
 10
26.3382865526
 20
169.7781814196
 11
26.3382865526
 21
167.630899296
  0
LINE
  5
265
100
AcDbEntity
  8
DEFAULT_2
100
AcDbLine
 62
8
  6
HIDDEN
 10
26.3382865526
 20
167.0873755076
 11
26.3382865526
 21
164.3965662577
  0
LINE
  5
266
100
AcDbEntity
  8
DEFAULT_2
100
AcDbLine
 62
8
  6
HIDDEN
 10
26.3382865526
 20
163.9480980494
 11
26.3382865526
 21
161.8300622561
  0
LINE
  5
267
100
AcDbEntity
  8
DEFAULT_2
100
AcDbLine
 62
8
  6
HIDDEN
 10
26.3382865526
 20
161.4205902674
 11
26.3382865526
 21
159.2099355318
  0
LINE
  5
268
100
AcDbEntity
  8
DEFAULT_2
100
AcDbLine
 62
8
  6
HIDDEN
 10
26.3382865526
 20
159.0783203699
 11
26.3382865526
 21
156.8676656344
  0
LINE
  5
269
100
AcDbEntity
  8
DEFAULT_2
100
AcDbLine
 62
8
  6
HIDDEN
 10
26.3382865526
 20
156.7360504725
 11
26.3382865526
 21
154.5253957369
  0
LINE
  5
26A
100
AcDbEntity
  8
DEFAULT_2
100
AcDbLine
 62
8
  6
HIDDEN
 10
26.3382865526
 20
153.0410660364
 11
26.3382865526
 21
150.5720542528
  0
LINE
  5
26B
100
AcDbEntity
  8
DEFAULT_2
100
AcDbLine
 62
8
  6
HIDDEN
 10
26.3382865526
 20
150.2405780413
 11
26.3382865526
 21
147.7106336214
  0
LINE
  5
26C
100
AcDbEntity
  8
DEFAULT_2
100
AcDbLine
 62
8
  6
HIDDEN
 10
26.3382865526
 20
147.3620959379
 11
26.3382865526
 21
145.0295742609
  0
LINE
  5
26D
100
AcDbEntity
  8
DEFAULT_2
100
AcDbLine
 62
8
  6
HIDDEN
 10
26.3382865526
 20
143.2576395132
 11
26.3382865526
 21
141.1103557207
  0
LINE
  5
26E
100
AcDbEntity
  8
DEFAULT_2
100
AcDbLine
 62
8
  6
HIDDEN
 10
26.3382865526
 20
140.5668319323
 11
26.3382865526
 21
137.8760235169
  0
LINE
  5
26F
100
AcDbEntity
  8
DEFAULT_2
100
AcDbLine
 62
8
  6
HIDDEN
 10
26.3382865526
 20
136.2893241503
 11
26.3382865526
 21
134.0713578322
  0
LINE
  5
270
100
AcDbEntity
  8
DEFAULT_2
100
AcDbLine
 62
8
  6
HIDDEN
 10
26.3382865526
 20
133.4132795193
 11
26.3382865526
 21
132.9331266739
  0
LINE
  5
271
100
AcDbEntity
  8
DEFAULT_2
100
AcDbLine
 62
8
  6
HIDDEN
 10
26.3382865526
 20
132.4480988838
 11
26.3382865526
 21
131.0758841493
  0
LINE
  5
272
100
AcDbEntity
  8
DEFAULT_2
100
AcDbLine
 62
8
  6
HIDDEN
 10
26.3382865526
 20
130.4470542528
 11
26.3382865526
 21
128.2290875175
  0
LINE
  5
273
100
AcDbEntity
  8
DEFAULT_2
100
AcDbLine
 62
8
  6
HIDDEN
 10
26.3382865526
 20
127.7001879372
 11
26.3382865526
 21
125.1288090431
  0
LINE
  5
274
100
AcDbEntity
  8
DEFAULT_2
100
AcDbLine
 62
8
  6
HIDDEN
 10
26.4382865526
 20
271.1288090356
 11
26.4382865526
 21
246.3788090356
  0
LINE
  5
275
100
AcDbEntity
  8
DEFAULT_2
100
AcDbLine
 62
8
  6
HIDDEN
 10
26.4382865526
 20
53.8788090356
 11
26.4382865526
 21
29.1288090356
  0
LINE
  5
276
100
AcDbEntity
  8
DEFAULT_2
100
AcDbLine
 62
8
  6
HIDDEN
 10
26.4382865526
 20
125.1288090431
 11
26.4382865526
 21
127.7001879372
  0
LINE
  5
277
100
AcDbEntity
  8
DEFAULT_2
100
AcDbLine
 62
8
  6
HIDDEN
 10
26.4382865526
 20
128.2290875175
 11
26.4382865526
 21
130.4470542528
  0
LINE
  5
278
100
AcDbEntity
  8
DEFAULT_2
100
AcDbLine
 62
8
  6
HIDDEN
 10
26.4382865526
 20
131.0758841493
 11
26.4382865526
 21
132.4480988838
  0
LINE
  5
279
100
AcDbEntity
  8
DEFAULT_2
100
AcDbLine
 62
8
  6
HIDDEN
 10
26.4382865526
 20
132.9331266739
 11
26.4382865526
 21
133.4132795193
  0
LINE
  5
27A
100
AcDbEntity
  8
DEFAULT_2
100
AcDbLine
 62
8
  6
HIDDEN
 10
26.4382865526
 20
134.0713578322
 11
26.4382865526
 21
136.2893241503
  0
LINE
  5
27B
100
AcDbEntity
  8
DEFAULT_2
100
AcDbLine
 62
8
  6
HIDDEN
 10
26.4382865526
 20
137.8760235169
 11
26.4382865526
 21
140.5668319323
  0
LINE
  5
27C
100
AcDbEntity
  8
DEFAULT_2
100
AcDbLine
 62
8
  6
HIDDEN
 10
26.4382865526
 20
141.1103557207
 11
26.4382865526
 21
143.2576395132
  0
LINE
  5
27D
100
AcDbEntity
  8
DEFAULT_2
100
AcDbLine
 62
8
  6
HIDDEN
 10
26.4382865526
 20
145.0295742609
 11
26.4382865526
 21
147.3620959379
  0
LINE
  5
27E
100
AcDbEntity
  8
DEFAULT_2
100
AcDbLine
 62
8
  6
HIDDEN
 10
26.4382865526
 20
147.7106336214
 11
26.4382865526
 21
150.2405780413
  0
LINE
  5
27F
100
AcDbEntity
  8
DEFAULT_2
100
AcDbLine
 62
8
  6
HIDDEN
 10
26.4382865526
 20
150.5720542528
 11
26.4382865526
 21
153.0410660364
  0
LINE
  5
280
100
AcDbEntity
  8
DEFAULT_2
100
AcDbLine
 62
8
  6
HIDDEN
 10
26.4382865526
 20
154.5253957369
 11
26.4382865526
 21
156.7360504725
  0
LINE
  5
281
100
AcDbEntity
  8
DEFAULT_2
100
AcDbLine
 62
8
  6
HIDDEN
 10
26.4382865526
 20
156.8676656344
 11
26.4382865526
 21
159.0783203699
  0
LINE
  5
282
100
AcDbEntity
  8
DEFAULT_2
100
AcDbLine
 62
8
  6
HIDDEN
 10
26.4382865526
 20
159.2099355318
 11
26.4382865526
 21
161.4205902674
  0
LINE
  5
283
100
AcDbEntity
  8
DEFAULT_2
100
AcDbLine
 62
8
  6
HIDDEN
 10
26.4382865526
 20
161.8300622561
 11
26.4382865526
 21
163.9480980494
  0
LINE
  5
284
100
AcDbEntity
  8
DEFAULT_2
100
AcDbLine
 62
8
  6
HIDDEN
 10
26.4382865526
 20
164.3965662577
 11
26.4382865526
 21
167.0873755076
  0
LINE
  5
285
100
AcDbEntity
  8
DEFAULT_2
100
AcDbLine
 62
8
  6
HIDDEN
 10
26.4382865526
 20
167.630899296
 11
26.4382865526
 21
169.7781814196
  0
LINE
  5
286
100
AcDbEntity
  8
DEFAULT_2
100
AcDbLine
 62
8
  6
HIDDEN
 10
26.4382865526
 20
171.5501178362
 11
26.4382865526
 21
173.8826378443
  0
LINE
  5
287
100
AcDbEntity
  8
DEFAULT_2
100
AcDbLine
 62
8
  6
HIDDEN
 10
26.4382865526
 20
174.3774155237
 11
26.4382865526
 21
176.7221253969
  0
LINE
  5
288
100
AcDbEntity
  8
DEFAULT_2
100
AcDbLine
 62
8
  6
HIDDEN
 10
26.4382865526
 20
177.1705902674
 11
26.4382865526
 21
179.5031136133
  0
LINE
  5
289
100
AcDbEntity
  8
A_RUNDUNGEN
100
AcDbLine
 62
3
  6
CONTINUOUS
 10
26.4382865526
 20
25.0288090356
 11
26.4382865526
 21
275.2288090356
  0
LINE
  5
28A
100
AcDbEntity
  8
DEFAULT_2
100
AcDbLine
 62
8
  6
HIDDEN
 10
27.9080722539
 20
29.1265083781
 11
27.9080722539
 21
29.3732858794
  0
LINE
  5
28B
100
AcDbEntity
  8
DEFAULT_2
100
AcDbLine
 62
8
  6
HIDDEN
 10
27.9083272754
 20
271.1288090356
 11
27.9080722539
 21
270.8843321919
  0
LINE
  5
28C
100
AcDbEntity
  8
0
100
AcDbLine
 62
3
  6
CONTINUOUS
 10
27.9083272754
 20
7.1288090356
 11
27.9083272754
 21
29.1288090356
  0
LINE
  5
28D
100
AcDbEntity
  8
0
100
AcDbLine
 62
3
  6
CONTINUOUS
 10
27.9083272754
 20
271.1288090356
 11
27.9083272754
 21
293.1288090356
  0
LINE
  5
28E
100
AcDbEntity
  8
0
100
AcDbLine
 62
7
  6
CONTINUOUS
 10
33.6882865526
 20
256.0769571838
 11
33.6882865526
 21
254.1806608875
  0
LINE
  5
28F
100
AcDbEntity
  8
DEFAULT_1
100
AcDbLine
 62
7
  6
CENTER
 10
33.6882865526
 20
250.3880682949
 11
33.6882865526
 21
249.6288090356
  0
LINE
  5
290
100
AcDbEntity
  8
A_ACHSEN
100
AcDbLine
 62
7
  6
CENTER
 10
33.6882865526
 20
40.3880682949
 11
33.6882865526
 21
49.8695497764
  0
LINE
  5
291
100
AcDbEntity
  8
A_ACHSEN
100
AcDbLine
 62
7
  6
CENTER
 10
33.6882865526
 20
250.3507006839
 11
33.6882865526
 21
259.9069173873
  0
LINE
  5
292
100
AcDbEntity
  8
DEFAULT_1
100
AcDbLine
 62
7
  6
CENTER
 10
33.6882865526
 20
259.8695497764
 11
33.6882865526
 21
260.6288090356
  0
LINE
  5
293
100
AcDbEntity
  8
DEFAULT_2
100
AcDbLine
 62
8
  6
HIDDEN
 10
27.9082500842
 20
271.1435509735
 11
27.9083272754
 21
271.1587683129
  0
LINE
  5
294
100
AcDbEntity
  8
DEFAULT_2
100
AcDbLine
 62
8
  6
HIDDEN
 10
26.4382865526
 20
132.4480988838
 11
26.3382865526
 21
132.4480988838
  0
LINE
  5
295
100
AcDbEntity
  8
DEFAULT_2
100
AcDbLine
 62
8
  6
HIDDEN
 10
26.4382865526
 20
132.9331266739
 11
26.3382865526
 21
132.9331266739
  0
LINE
  5
296
100
AcDbEntity
  8
DEFAULT_2
100
AcDbLine
 62
8
  6
HIDDEN
 10
26.4382865526
 20
133.4132795193
 11
26.3382865526
 21
133.4132795193
  0
LINE
  5
297
100
AcDbEntity
  8
DEFAULT_2
100
AcDbLine
 62
8
  6
HIDDEN
 10
26.4382865526
 20
134.0713578322
 11
26.3382865526
 21
134.0713578322
  0
LINE
  5
298
100
AcDbEntity
  8
DEFAULT_2
100
AcDbLine
 62
8
  6
HIDDEN
 10
26.4382865526
 20
134.5320125677
 11
26.3382865526
 21
134.5320125677
  0
LINE
  5
299
100
AcDbEntity
  8
DEFAULT_2
100
AcDbLine
 62
8
  6
HIDDEN
 10
26.4382865526
 20
134.5563856222
 11
26.3382865526
 21
134.5563856222
  0
LINE
  5
29A
100
AcDbEntity
  8
DEFAULT_2
100
AcDbLine
 62
8
  6
HIDDEN
 10
26.4382865526
 20
135.8091713049
 11
26.3382865526
 21
135.8091713049
  0
LINE
  5
29B
100
AcDbEntity
  8
DEFAULT_2
100
AcDbLine
 62
8
  6
HIDDEN
 10
26.4382865526
 20
135.8140454151
 11
26.3382865526
 21
135.8140454151
  0
LINE
  5
29C
100
AcDbEntity
  8
DEFAULT_2
100
AcDbLine
 62
8
  6
HIDDEN
 10
26.4382865526
 20
136.2722626784
 11
26.3382865526
 21
136.2722626784
  0
LINE
  5
29D
100
AcDbEntity
  8
DEFAULT_2
100
AcDbLine
 62
8
  6
HIDDEN
 10
26.4382865526
 20
136.2893241503
 11
26.3382865526
 21
136.2893241503
  0
LINE
  5
29E
100
AcDbEntity
  8
DEFAULT_2
100
AcDbLine
 62
8
  6
HIDDEN
 10
26.4382865526
 20
137.8760235169
 11
26.3382865526
 21
137.8760235169
  0
LINE
  5
29F
100
AcDbEntity
  8
DEFAULT_2
100
AcDbLine
 62
8
  6
HIDDEN
 10
26.4382865526
 20
138.9630702593
 11
26.3382865526
 21
138.9630702593
  0
LINE
  5
2A0
100
AcDbEntity
  8
DEFAULT_2
100
AcDbLine
 62
8
  6
HIDDEN
 10
26.4382865526
 20
139.4773460486
 11
26.3382865526
 21
139.4773460486
  0
LINE
  5
2A1
100
AcDbEntity
  8
DEFAULT_2
100
AcDbLine
 62
8
  6
HIDDEN
 10
26.4382865526
 20
140.5668319323
 11
26.3382865526
 21
140.5668319323
  0
LINE
  5
2A2
100
AcDbEntity
  8
DEFAULT_2
100
AcDbLine
 62
8
  6
HIDDEN
 10
26.4382865526
 20
141.1103557207
 11
26.3382865526
 21
141.1103557207
  0
LINE
  5
2A3
100
AcDbEntity
  8
DEFAULT_2
100
AcDbLine
 62
8
  6
HIDDEN
 10
26.4382865526
 20
141.62463151
 11
26.3382865526
 21
141.62463151
  0
LINE
  5
2A4
100
AcDbEntity
  8
A_ACHSEN
100
AcDbLine
 62
7
  6
CENTER
 10
42.6882865526
 20
4.1288090356
 11
42.6882865526
 21
296.1288090356
  0
LINE
  5
2A5
100
AcDbEntity
  8
DEFAULT_2
100
AcDbLine
 62
8
  6
HIDDEN
 10
26.4382865526
 20
143.0967763521
 11
26.3382865526
 21
143.0967763521
  0
LINE
  5
2A6
100
AcDbEntity
  8
DEFAULT_2
100
AcDbLine
 62
8
  6
HIDDEN
 10
26.4382865526
 20
143.2015801527
 11
26.3382865526
 21
143.2015801527
  0
LINE
  5
2A7
100
AcDbEntity
  8
DEFAULT_2
100
AcDbLine
 62
8
  6
HIDDEN
 10
26.4382865526
 20
143.2576395132
 11
26.3382865526
 21
143.2576395132
  0
LINE
  5
2A8
100
AcDbEntity
  8
DEFAULT_2
100
AcDbLine
 62
8
  6
HIDDEN
 10
26.4382865526
 20
145.0295742609
 11
26.3382865526
 21
145.0295742609
  0
LINE
  5
2A9
100
AcDbEntity
  8
DEFAULT_2
100
AcDbLine
 62
8
  6
HIDDEN
 10
26.4382865526
 20
145.5341018297
 11
26.3382865526
 21
145.5341018297
  0
LINE
  5
2AA
100
AcDbEntity
  8
DEFAULT_2
100
AcDbLine
 62
8
  6
HIDDEN
 10
26.4382865526
 20
145.5755363562
 11
26.3382865526
 21
145.5755363562
  0
LINE
  5
2AB
100
AcDbEntity
  8
DEFAULT_2
100
AcDbLine
 62
8
  6
HIDDEN
 10
26.4382865526
 20
146.7868875124
 11
26.3382865526
 21
146.7868875124
  0
LINE
  5
2AC
100
AcDbEntity
  8
DEFAULT_2
100
AcDbLine
 62
8
  6
HIDDEN
 10
26.4382865526
 20
146.8673182585
 11
26.3382865526
 21
146.8673182585
  0
LINE
  5
2AD
100
AcDbEntity
  8
DEFAULT_2
100
AcDbLine
 62
8
  6
HIDDEN
 10
26.4382865526
 20
147.3109115221
 11
26.3382865526
 21
147.3109115221
  0
LINE
  5
2AE
100
AcDbEntity
  8
DEFAULT_2
100
AcDbLine
 62
8
  6
HIDDEN
 10
26.4382865526
 20
147.3620959379
 11
26.3382865526
 21
147.3620959379
  0
LINE
  5
2AF
100
AcDbEntity
  8
DEFAULT_2
100
AcDbLine
 62
8
  6
HIDDEN
 10
26.4382865526
 20
147.7106336214
 11
26.3382865526
 21
147.7106336214
  0
LINE
  5
2B0
100
AcDbEntity
  8
DEFAULT_2
100
AcDbLine
 62
8
  6
HIDDEN
 10
26.4382865526
 20
148.1859115221
 11
26.3382865526
 21
148.1859115221
  0
LINE
  5
2B1
100
AcDbEntity
  8
DEFAULT_2
100
AcDbLine
 62
8
  6
HIDDEN
 10
26.4382865526
 20
149.1288090356
 11
23.4382865526
 21
149.1288090356
  0
LINE
  5
2B2
100
AcDbEntity
  8
DEFAULT_2
100
AcDbLine
 62
8
  6
HIDDEN
 10
58.7382865526
 20
149.1288090356
 11
61.7382865526
 21
149.1288090356
  0
LINE
  5
2B3
100
AcDbEntity
  8
DEFAULT_2
100
AcDbLine
 62
8
  6
HIDDEN
 10
26.4382865526
 20
149.2339628794
 11
26.3382865526
 21
149.2339628794
  0
LINE
  5
2B4
100
AcDbEntity
  8
DEFAULT_2
100
AcDbLine
 62
8
  6
HIDDEN
 10
26.4382865526
 20
149.6970542528
 11
26.3382865526
 21
149.6970542528
  0
LINE
  5
2B5
100
AcDbEntity
  8
DEFAULT_2
100
AcDbLine
 62
8
  6
HIDDEN
 10
26.4382865526
 20
150.1288090356
 11
23.4382865526
 21
150.1288090356
  0
LINE
  5
2B6
100
AcDbEntity
  8
DEFAULT_2
100
AcDbLine
 62
8
  6
HIDDEN
 10
58.7382865526
 20
150.1288090356
 11
61.7382865526
 21
150.1288090356
  0
LINE
  5
2B7
100
AcDbEntity
  8
A_ACHSEN
100
AcDbLine
 62
7
  6
CENTER
 10
20.2015441818
 20
150.1288090356
 11
65.1750289236
 21
150.1288090356
  0
LINE
  5
2B8
100
AcDbEntity
  8
DEFAULT_2
100
AcDbLine
 62
8
  6
HIDDEN
 10
26.4382865526
 20
150.2405780413
 11
26.3382865526
 21
150.2405780413
  0
LINE
  5
2B9
100
AcDbEntity
  8
DEFAULT_2
100
AcDbLine
 62
8
  6
HIDDEN
 10
26.4382865526
 20
150.5720542528
 11
26.3382865526
 21
150.5720542528
  0
LINE
  5
2BA
100
AcDbEntity
  8
DEFAULT_2
100
AcDbLine
 62
8
  6
HIDDEN
 10
26.4382865526
 20
151.0643936255
 11
26.3382865526
 21
151.0643936255
  0
LINE
  5
2BB
100
AcDbEntity
  8
DEFAULT_2
100
AcDbLine
 62
8
  6
HIDDEN
 10
26.4382865526
 20
151.1288090356
 11
23.4382865526
 21
151.1288090356
  0
LINE
  5
2BC
100
AcDbEntity
  8
DEFAULT_2
100
AcDbLine
 62
8
  6
HIDDEN
 10
58.7382865526
 20
151.1288090356
 11
61.7382865526
 21
151.1288090356
  0
LINE
  5
2BD
100
AcDbEntity
  8
A_ACHSEN
100
AcDbLine
 62
7
  6
CENTER
 10
51.6882865526
 20
39.7462681192
 11
51.6882865526
 21
50.511349952
  0
LINE
  5
2BE
100
AcDbEntity
  8
A_ACHSEN
100
AcDbLine
 62
7
  6
CENTER
 10
51.6882865526
 20
250.2666417518
 11
51.6882865526
 21
259.9909763195
  0
LINE
  5
2BF
100
AcDbEntity
  8
DEFAULT_2
100
AcDbLine
 62
8
  6
HIDDEN
 10
26.4382865526
 20
152.5487249949
 11
26.3382865526
 21
152.5487249949
  0
LINE
  5
2C0
100
AcDbEntity
  8
DEFAULT_2
100
AcDbLine
 62
8
  6
HIDDEN
 10
26.4382865526
 20
153.0410660364
 11
26.3382865526
 21
153.0410660364
  0
LINE
  5
2C1
100
AcDbEntity
  8
DEFAULT_2
100
AcDbLine
 62
8
  6
HIDDEN
 10
26.4382865526
 20
154.5253957369
 11
26.3382865526
 21
154.5253957369
  0
LINE
  5
2C2
100
AcDbEntity
  8
DEFAULT_2
100
AcDbLine
 62
8
  6
HIDDEN
 10
26.4382865526
 20
154.6253279307
 11
26.3382865526
 21
154.6253279307
  0
LINE
  5
2C3
100
AcDbEntity
  8
DEFAULT_2
100
AcDbLine
 62
8
  6
HIDDEN
 10
26.4382865526
 20
155.0177367785
 11
26.3382865526
 21
155.0177367785
  0
LINE
  5
2C4
100
AcDbEntity
  8
DEFAULT_2
100
AcDbLine
 62
8
  6
HIDDEN
 10
26.4382865526
 20
155.1688517191
 11
26.3382865526
 21
155.1688517191
  0
LINE
  5
2C5
100
AcDbEntity
  8
DEFAULT_2
100
AcDbLine
 62
8
  6
HIDDEN
 10
26.4382865526
 20
155.3540862658
 11
26.3382865526
 21
155.3540862658
  0
LINE
  5
2C6
100
AcDbEntity
  8
DEFAULT_2
100
AcDbLine
 62
8
  6
HIDDEN
 10
26.4382865526
 20
155.6270664789
 11
26.3382865526
 21
155.6270664789
  0
LINE
  5
2C7
100
AcDbEntity
  8
DEFAULT_2
100
AcDbLine
 62
8
  6
HIDDEN
 10
26.4382865526
 20
155.6782525637
 11
26.3382865526
 21
155.6782525637
  0
LINE
  5
2C8
100
AcDbEntity
  8
DEFAULT_2
100
AcDbLine
 62
8
  6
HIDDEN
 10
26.4382865526
 20
155.9219831087
 11
26.3382865526
 21
155.9219831087
  0
LINE
  5
2C9
100
AcDbEntity
  8
DEFAULT_2
100
AcDbLine
 62
8
  6
HIDDEN
 10
26.4382865526
 20
156.1974032976
 11
26.3382865526
 21
156.1974032976
  0
LINE
  5
2CA
100
AcDbEntity
  8
DEFAULT_2
100
AcDbLine
 62
8
  6
HIDDEN
 10
26.4382865526
 20
156.2168997385
 11
26.3382865526
 21
156.2168997385
  0
LINE
  5
2CB
100
AcDbEntity
  8
DEFAULT_2
100
AcDbLine
 62
8
  6
HIDDEN
 10
26.4382865526
 20
156.711677418
 11
26.3382865526
 21
156.711677418
  0
LINE
  5
2CC
100
AcDbEntity
  8
DEFAULT_2
100
AcDbLine
 62
8
  6
HIDDEN
 10
26.4382865526
 20
156.7360504725
 11
26.3382865526
 21
156.7360504725
  0
LINE
  5
2CD
100
AcDbEntity
  8
DEFAULT_2
100
AcDbLine
 62
8
  6
HIDDEN
 10
26.4382865526
 20
156.8676656344
 11
26.3382865526
 21
156.8676656344
  0
LINE
  5
2CE
100
AcDbEntity
  8
DEFAULT_2
100
AcDbLine
 62
8
  6
HIDDEN
 10
26.4382865526
 20
156.9675978281
 11
26.3382865526
 21
156.9675978281
  0
LINE
  5
2CF
100
AcDbEntity
  8
DEFAULT_2
100
AcDbLine
 62
8
  6
HIDDEN
 10
26.4382865526
 20
157.3600066759
 11
26.3382865526
 21
157.3600066759
  0
LINE
  5
2D0
100
AcDbEntity
  8
DEFAULT_2
100
AcDbLine
 62
8
  6
HIDDEN
 10
26.4382865526
 20
157.5111216166
 11
26.3382865526
 21
157.5111216166
  0
LINE
  5
2D1
100
AcDbEntity
  8
DEFAULT_2
100
AcDbLine
 62
8
  6
HIDDEN
 10
26.4382865526
 20
157.6963561632
 11
26.3382865526
 21
157.6963561632
  0
LINE
  5
2D2
100
AcDbEntity
  8
DEFAULT_2
100
AcDbLine
 62
8
  6
HIDDEN
 10
26.4382865526
 20
157.9693397143
 11
26.3382865526
 21
157.9693397143
  0
LINE
  5
2D3
100
AcDbEntity
  8
DEFAULT_2
100
AcDbLine
 62
8
  6
HIDDEN
 10
26.4382865526
 20
158.0205224612
 11
26.3382865526
 21
158.0205224612
  0
LINE
  5
2D4
100
AcDbEntity
  8
DEFAULT_2
100
AcDbLine
 62
8
  6
HIDDEN
 10
26.4382865526
 20
158.2642563441
 11
26.3382865526
 21
158.2642563441
  0
LINE
  5
2D5
100
AcDbEntity
  8
DEFAULT_2
100
AcDbLine
 62
8
  6
HIDDEN
 10
26.4382865526
 20
158.5396731951
 11
26.3382865526
 21
158.5396731951
  0
LINE
  5
2D6
100
AcDbEntity
  8
DEFAULT_2
100
AcDbLine
 62
8
  6
HIDDEN
 10
26.4382865526
 20
158.559169636
 11
26.3382865526
 21
158.559169636
  0
LINE
  5
2D7
100
AcDbEntity
  8
DEFAULT_2
100
AcDbLine
 62
8
  6
HIDDEN
 10
26.4382865526
 20
159.0539473154
 11
26.3382865526
 21
159.0539473154
  0
LINE
  5
2D8
100
AcDbEntity
  8
DEFAULT_2
100
AcDbLine
 62
8
  6
HIDDEN
 10
26.4382865526
 20
159.0783203699
 11
26.3382865526
 21
159.0783203699
  0
LINE
  5
2D9
100
AcDbEntity
  8
DEFAULT_2
100
AcDbLine
 62
8
  6
HIDDEN
 10
26.4382865526
 20
159.2099355318
 11
26.3382865526
 21
159.2099355318
  0
LINE
  5
2DA
100
AcDbEntity
  8
DEFAULT_2
100
AcDbLine
 62
8
  6
HIDDEN
 10
26.4382865526
 20
159.3098677256
 11
26.3382865526
 21
159.3098677256
  0
LINE
  5
2DB
100
AcDbEntity
  8
DEFAULT_2
100
AcDbLine
 62
8
  6
HIDDEN
 10
26.4382865526
 20
159.7022765734
 11
26.3382865526
 21
159.7022765734
  0
LINE
  5
2DC
100
AcDbEntity
  8
DEFAULT_2
100
AcDbLine
 62
8
  6
HIDDEN
 10
26.4382865526
 20
159.853391514
 11
26.3382865526
 21
159.853391514
  0
LINE
  5
2DD
100
AcDbEntity
  8
DEFAULT_2
100
AcDbLine
 62
8
  6
HIDDEN
 10
26.4382865526
 20
160.0386293986
 11
26.3382865526
 21
160.0386293986
  0
LINE
  5
2DE
100
AcDbEntity
  8
DEFAULT_2
100
AcDbLine
 62
8
  6
HIDDEN
 10
26.4382865526
 20
160.3116096117
 11
26.3382865526
 21
160.3116096117
  0
LINE
  5
2DF
100
AcDbEntity
  8
DEFAULT_2
100
AcDbLine
 62
8
  6
HIDDEN
 10
26.4382865526
 20
160.3627923586
 11
26.3382865526
 21
160.3627923586
  0
LINE
  5
2E0
100
AcDbEntity
  8
DEFAULT_2
100
AcDbLine
 62
8
  6
HIDDEN
 10
26.4382865526
 20
160.6065262415
 11
26.3382865526
 21
160.6065262415
  0
LINE
  5
2E1
100
AcDbEntity
  8
DEFAULT_2
100
AcDbLine
 62
8
  6
HIDDEN
 10
26.4382865526
 20
160.8819430926
 11
26.3382865526
 21
160.8819430926
  0
LINE
  5
2E2
100
AcDbEntity
  8
DEFAULT_2
100
AcDbLine
 62
8
  6
HIDDEN
 10
26.4382865526
 20
160.9014428713
 11
26.3382865526
 21
160.9014428713
  0
LINE
  5
2E3
100
AcDbEntity
  8
DEFAULT_2
100
AcDbLine
 62
8
  6
HIDDEN
 10
57.4682458298
 20
271.1587683129
 11
57.4683229605
 21
271.1435569318
  0
LINE
  5
2E4
100
AcDbEntity
  8
0
100
AcDbLine
 62
3
  6
CONTINUOUS
 10
57.4682458298
 20
29.1288090356
 11
57.4682458298
 21
7.1288090356
  0
LINE
  5
2E5
100
AcDbEntity
  8
0
100
AcDbLine
 62
3
  6
CONTINUOUS
 10
57.4682458298
 20
271.1288090356
 11
57.4682458298
 21
293.1288090356
  0
LINE
  5
2E6
100
AcDbEntity
  8
DEFAULT_2
100
AcDbLine
 62
8
  6
HIDDEN
 10
57.4685008513
 20
271.1311096931
 11
57.4685008513
 21
270.8843321919
  0
LINE
  5
2E7
100
AcDbEntity
  8
DEFAULT_2
100
AcDbLine
 62
8
  6
HIDDEN
 10
57.4685008513
 20
29.3732858794
 11
57.4685008513
 21
29.1265083781
  0
LINE
  5
2E8
100
AcDbEntity
  8
A_RUNDUNGEN
100
AcDbLine
 62
3
  6
CONTINUOUS
 10
58.7382865526
 20
78.2788090356
 11
58.7382865526
 21
221.8788090356
  0
LINE
  5
2E9
100
AcDbEntity
  8
DEFAULT_2
100
AcDbLine
 62
8
  6
HIDDEN
 10
58.9382865526
 20
271.1288090356
 11
58.9382865526
 21
246.3788090356
  0
LINE
  5
2EA
100
AcDbEntity
  8
DEFAULT_2
100
AcDbLine
 62
8
  6
HIDDEN
 10
58.9382865526
 20
53.8788090356
 11
58.9382865526
 21
29.1288090356
  0
LINE
  5
2EB
100
AcDbEntity
  8
A_RUNDUNGEN
100
AcDbLine
 62
3
  6
CONTINUOUS
 10
58.9382865526
 20
25.0288090356
 11
58.9382865526
 21
77.1298965063
  0
LINE
  5
2EC
100
AcDbEntity
  8
A_RUNDUNGEN
100
AcDbLine
 62
3
  6
CONTINUOUS
 10
58.9382865526
 20
223.0449994146
 11
58.9382865526
 21
275.2288090356
  0
LINE
  5
2ED
100
AcDbEntity
  8
A_RUNDUNGEN
100
AcDbLine
 62
7
  6
CONTINUOUS
 10
61.7382865526
 20
78.2788090356
 11
61.7382865526
 21
221.8788090356
  0
LINE
  5
2EE
100
AcDbEntity
  8
A_RUNDUNGEN
100
AcDbLine
 62
7
  6
CONTINUOUS
 10
61.9382865526
 20
275.2288090356
 11
61.9382865526
 21
222.3687069842
  0
LINE
  5
2EF
100
AcDbEntity
  8
DEFAULT_2
100
AcDbLine
 62
8
  6
HIDDEN
 10
61.9382865526
 20
271.1288090356
 11
61.9382865526
 21
246.3788090356
  0
LINE
  5
2F0
100
AcDbEntity
  8
DEFAULT_2
100
AcDbLine
 62
8
  6
HIDDEN
 10
61.9382865526
 20
53.8788090356
 11
61.9382865526
 21
29.1288090356
  0
LINE
  5
2F1
100
AcDbEntity
  8
A_RUNDUNGEN
100
AcDbLine
 62
7
  6
CONTINUOUS
 10
61.9382865526
 20
77.8315954401
 11
61.9382865526
 21
25.0288090356
  0
LINE
  5
2F2
100
AcDbEntity
  8
DEFAULT_2
100
AcDbLine
 62
8
  6
HIDDEN
 10
57.468323021
 20
29.1140670977
 11
57.4682458298
 21
29.0988497584
  0
LINE
  5
2F3
100
AcDbEntity
  8
DEFAULT_2
100
AcDbLine
 62
8
  6
HIDDEN
 10
26.4382865526
 20
161.3962172129
 11
26.3382865526
 21
161.3962172129
  0
LINE
  5
2F4
100
AcDbEntity
  8
DEFAULT_2
100
AcDbLine
 62
8
  6
HIDDEN
 10
26.4382865526
 20
161.4205902674
 11
26.3382865526
 21
161.4205902674
  0
LINE
  5
2F5
100
AcDbEntity
  8
DEFAULT_2
100
AcDbLine
 62
8
  6
HIDDEN
 10
26.4382865526
 20
161.8300622561
 11
26.3382865526
 21
161.8300622561
  0
LINE
  5
2F6
100
AcDbEntity
  8
DEFAULT_2
100
AcDbLine
 62
8
  6
HIDDEN
 10
26.4382865526
 20
162.2712172129
 11
26.3382865526
 21
162.2712172129
  0
LINE
  5
2F7
100
AcDbEntity
  8
DEFAULT_2
100
AcDbLine
 62
8
  6
HIDDEN
 10
26.4382865526
 20
163.5069430926
 11
26.3382865526
 21
163.5069430926
  0
LINE
  5
2F8
100
AcDbEntity
  8
DEFAULT_2
100
AcDbLine
 62
8
  6
HIDDEN
 10
26.4382865526
 20
163.9480980494
 11
26.3382865526
 21
163.9480980494
  0
LINE
  5
2F9
100
AcDbEntity
  8
DEFAULT_2
100
AcDbLine
 62
8
  6
HIDDEN
 10
26.4382865526
 20
164.3965662577
 11
26.3382865526
 21
164.3965662577
  0
LINE
  5
2FA
100
AcDbEntity
  8
DEFAULT_2
100
AcDbLine
 62
8
  6
HIDDEN
 10
26.4382865526
 20
165.4836138346
 11
26.3382865526
 21
165.4836138346
  0
LINE
  5
2FB
100
AcDbEntity
  8
DEFAULT_2
100
AcDbLine
 62
8
  6
HIDDEN
 10
26.4382865526
 20
165.9978912928
 11
26.3382865526
 21
165.9978912928
  0
LINE
  5
2FC
100
AcDbEntity
  8
DEFAULT_2
100
AcDbLine
 62
8
  6
HIDDEN
 10
26.4382865526
 20
167.0873755076
 11
26.3382865526
 21
167.0873755076
  0
LINE
  5
2FD
100
AcDbEntity
  8
DEFAULT_2
100
AcDbLine
 62
8
  6
HIDDEN
 10
26.4382865526
 20
167.630899296
 11
26.3382865526
 21
167.630899296
  0
LINE
  5
2FE
100
AcDbEntity
  8
DEFAULT_2
100
AcDbLine
 62
8
  6
HIDDEN
 10
26.4382865526
 20
168.1451734164
 11
26.3382865526
 21
168.1451734164
  0
LINE
  5
2FF
100
AcDbEntity
  8
DEFAULT_2
100
AcDbLine
 62
8
  6
HIDDEN
 10
26.4382865526
 20
169.6173199274
 11
26.3382865526
 21
169.6173199274
  0
LINE
  5
300
100
AcDbEntity
  8
DEFAULT_2
100
AcDbLine
 62
8
  6
HIDDEN
 10
26.4382865526
 20
169.7221253969
 11
26.3382865526
 21
169.7221253969
  0
LINE
  5
301
100
AcDbEntity
  8
DEFAULT_2
100
AcDbLine
 62
8
  6
HIDDEN
 10
26.4382865526
 20
169.7781814196
 11
26.3382865526
 21
169.7781814196
  0
LINE
  5
302
100
AcDbEntity
  8
DEFAULT_2
100
AcDbLine
 62
8
  6
HIDDEN
 10
26.4382865526
 20
171.5501178362
 11
26.3382865526
 21
171.5501178362
  0
LINE
  5
303
100
AcDbEntity
  8
DEFAULT_2
100
AcDbLine
 62
8
  6
HIDDEN
 10
26.4382865526
 20
172.054645405
 11
26.3382865526
 21
172.054645405
  0
LINE
  5
304
100
AcDbEntity
  8
DEFAULT_2
100
AcDbLine
 62
8
  6
HIDDEN
 10
26.4382865526
 20
172.0960782625
 11
26.3382865526
 21
172.0960782625
  0
LINE
  5
305
100
AcDbEntity
  8
DEFAULT_2
100
AcDbLine
 62
8
  6
HIDDEN
 10
26.4382865526
 20
173.3074310877
 11
26.3382865526
 21
173.3074310877
  0
LINE
  5
306
100
AcDbEntity
  8
DEFAULT_2
100
AcDbLine
 62
8
  6
HIDDEN
 10
26.4382865526
 20
173.3878635027
 11
26.3382865526
 21
173.3878635027
  0
LINE
  5
307
100
AcDbEntity
  8
DEFAULT_2
100
AcDbLine
 62
8
  6
HIDDEN
 10
26.4382865526
 20
173.8314550974
 11
26.3382865526
 21
173.8314550974
  0
LINE
  5
308
100
AcDbEntity
  8
DEFAULT_2
100
AcDbLine
 62
8
  6
HIDDEN
 10
26.4382865526
 20
173.8826378443
 11
26.3382865526
 21
173.8826378443
  0
LINE
  5
309
100
AcDbEntity
  8
DEFAULT_2
100
AcDbLine
 62
8
  6
HIDDEN
 10
26.4382865526
 20
174.3774155237
 11
26.3382865526
 21
174.3774155237
  0
LINE
  5
30A
100
AcDbEntity
  8
DEFAULT_2
100
AcDbLine
 62
8
  6
HIDDEN
 10
26.4382865526
 20
174.4115384676
 11
26.3382865526
 21
174.4115384676
  0
LINE
  5
30B
100
AcDbEntity
  8
DEFAULT_2
100
AcDbLine
 62
8
  6
HIDDEN
 10
26.4382865526
 20
174.9453123667
 11
26.3382865526
 21
174.9453123667
  0
LINE
  5
30C
100
AcDbEntity
  8
DEFAULT_2
100
AcDbLine
 62
8
  6
HIDDEN
 10
26.4382865526
 20
174.9745620348
 11
26.3382865526
 21
174.9745620348
  0
LINE
  5
30D
100
AcDbEntity
  8
DEFAULT_2
100
AcDbLine
 62
8
  6
HIDDEN
 10
26.4382865526
 20
176.0835460284
 11
26.3382865526
 21
176.0835460284
  0
LINE
  5
30E
100
AcDbEntity
  8
DEFAULT_2
100
AcDbLine
 62
8
  6
HIDDEN
 10
26.4382865526
 20
176.6221932032
 11
26.3382865526
 21
176.6221932032
  0
LINE
  5
30F
100
AcDbEntity
  8
DEFAULT_2
100
AcDbLine
 62
8
  6
HIDDEN
 10
26.4382865526
 20
176.7221253969
 11
26.3382865526
 21
176.7221253969
  0
LINE
  5
310
100
AcDbEntity
  8
DEFAULT_2
100
AcDbLine
 62
8
  6
HIDDEN
 10
26.4382865526
 20
177.1705902674
 11
26.3382865526
 21
177.1705902674
  0
LINE
  5
311
100
AcDbEntity
  8
DEFAULT_2
100
AcDbLine
 62
8
  6
HIDDEN
 10
26.4382865526
 20
177.6751178362
 11
26.3382865526
 21
177.6751178362
  0
LINE
  5
312
100
AcDbEntity
  8
DEFAULT_2
100
AcDbLine
 62
8
  6
HIDDEN
 10
26.4382865526
 20
177.7165540316
 11
26.3382865526
 21
177.7165540316
  0
LINE
  5
313
100
AcDbEntity
  8
DEFAULT_2
100
AcDbLine
 62
8
  6
HIDDEN
 10
26.4382865526
 20
178.9279035189
 11
26.3382865526
 21
178.9279035189
  0
LINE
  5
314
100
AcDbEntity
  8
DEFAULT_2
100
AcDbLine
 62
8
  6
HIDDEN
 10
26.4382865526
 20
179.0083359339
 11
26.3382865526
 21
179.0083359339
  0
LINE
  5
315
100
AcDbEntity
  8
DEFAULT_2
100
AcDbLine
 62
8
  6
HIDDEN
 10
26.4382865526
 20
179.4519275286
 11
26.3382865526
 21
179.4519275286
  0
LINE
  5
316
100
AcDbEntity
  8
DEFAULT_2
100
AcDbLine
 62
8
  6
HIDDEN
 10
26.4382865526
 20
179.5031136133
 11
26.3382865526
 21
179.5031136133
  0
LINE
  5
317
100
AcDbEntity
  8
A_RUNDUNGEN
100
AcDbLine
 62
7
  6
CONTINUOUS
 10
61.7382865526
 20
216.1288090356
 11
58.7382865526
 21
216.1288090356
  0
LINE
  5
318
100
AcDbEntity
  8
A_RUNDUNGEN
100
AcDbLine
 62
8
  6
HIDDEN
 10
61.9382865526
 20
242.3788090356
 11
58.9382865526
 21
242.3788090356
  0
LINE
  5
319
100
AcDbEntity
  8
A_RUNDUNGEN
100
AcDbLine
 62
8
  6
HIDDEN
 10
26.4382865526
 20
242.3788090356
 11
23.4382865526
 21
242.3788090356
  0
LINE
  5
31A
100
AcDbEntity
  8
0
100
AcDbLine
 62
3
  6
CONTINUOUS
 10
58.9382865526
 20
246.3788090356
 11
54.2327289783
 21
246.3788090356
  0
LINE
  5
31B
100
AcDbEntity
  8
DEFAULT_2
100
AcDbLine
 62
8
  6
HIDDEN
 10
26.4382865526
 20
246.3788090356
 11
23.4382865526
 21
246.3788090356
  0
LINE
  5
31C
100
AcDbEntity
  8
0
100
AcDbLine
 62
3
  6
CONTINUOUS
 10
26.4382865526
 20
246.3788090356
 11
31.1438441269
 21
246.3788090356
  0
LINE
  5
31D
100
AcDbEntity
  8
DEFAULT_2
100
AcDbLine
 62
8
  6
HIDDEN
 10
58.9382865526
 20
246.3788090356
 11
61.9382865526
 21
246.3788090356
  0
LINE
  5
31E
100
AcDbEntity
  8
0
100
AcDbLine
 62
3
  6
CONTINUOUS
 10
38.7882865526
 20
249.1288090356
 11
46.5882865526
 21
249.1288090356
  0
LINE
  5
31F
100
AcDbEntity
  8
0
100
AcDbLine
 62
7
  6
CONTINUOUS
 10
34.6364347008
 20
255.1288090356
 11
32.7401384045
 21
255.1288090356
  0
LINE
  5
320
100
AcDbEntity
  8
DEFAULT_1
100
AcDbLine
 62
7
  6
CENTER
 10
28.9475458119
 20
255.1288090356
 11
28.1882865526
 21
255.1288090356
  0
LINE
  5
321
100
AcDbEntity
  8
A_ACHSEN
100
AcDbLine
 62
7
  6
CENTER
 10
28.9101782009
 20
255.1288090356
 11
38.4663949043
 21
255.1288090356
  0
LINE
  5
322
100
AcDbEntity
  8
DEFAULT_1
100
AcDbLine
 62
7
  6
CENTER
 10
38.4290272933
 20
255.1288090356
 11
39.1882865526
 21
255.1288090356
  0
LINE
  5
323
100
AcDbEntity
  8
A_ACHSEN
100
AcDbLine
 62
7
  6
CENTER
 10
46.8261192688
 20
255.1288090356
 11
56.5504538364
 21
255.1288090356
  0
LINE
  5
324
100
AcDbEntity
  8
DEFAULT_2
100
AcDbLine
 62
8
  6
HIDDEN
 10
26.1275318335
 20
269.6590233343
 11
26.6827633963
 21
269.6590233343
  0
LINE
  5
325
100
AcDbEntity
  8
DEFAULT_2
100
AcDbLine
 62
8
  6
HIDDEN
 10
58.6938097089
 20
269.6590233343
 11
59.2490412717
 21
269.6590233343
  0
LINE
  5
326
100
AcDbEntity
  8
DEFAULT_2
100
AcDbLine
 62
8
  6
HIDDEN
 10
58.9382865526
 20
271.1288090356
 11
58.9321097045
 21
271.1288090356
  0
LINE
  5
327
100
AcDbEntity
  8
0
100
AcDbLine
 62
3
  6
CONTINUOUS
 10
57.4682458298
 20
271.1288090356
 11
27.9083272754
 21
271.1288090356
  0
LINE
  5
328
100
AcDbEntity
  8
DEFAULT_2
100
AcDbLine
 62
8
  6
HIDDEN
 10
26.4444634007
 20
271.1288090356
 11
26.4382865526
 21
271.1288090356
  0
LINE
  5
329
100
AcDbEntity
  8
DEFAULT_2
100
AcDbLine
 62
8
  6
HIDDEN
 10
23.4382865526
 20
271.1288090356
 11
26.4382865526
 21
271.1288090356
  0
LINE
  5
32A
100
AcDbEntity
  8
DEFAULT_2
100
AcDbLine
 62
8
  6
HIDDEN
 10
58.9382865526
 20
271.1288090356
 11
61.9382865526
 21
271.1288090356
  0
LINE
  5
32B
100
AcDbEntity
  8
DEFAULT_2
100
AcDbLine
 62
8
  6
HIDDEN
 10
57.4682458298
 20
274.1288090356
 11
27.9083272754
 21
274.1288090356
  0
LINE
  5
32C
100
AcDbEntity
  8
A_RUNDUNGEN
100
AcDbLine
 62
7
  6
CONTINUOUS
 10
61.9382865526
 20
275.2288090356
 11
58.9382865526
 21
275.2288090356
  0
LINE
  5
32D
100
AcDbEntity
  8
A_RUNDUNGEN
100
AcDbLine
 62
7
  6
CONTINUOUS
 10
26.4382865526
 20
275.2288090356
 11
23.4382865526
 21
275.2288090356
  0
LINE
  5
32E
100
AcDbEntity
  8
A_RUNDUNGEN
100
AcDbLine
 62
3
  6
CONTINUOUS
 10
57.4682458298
 20
293.1288090356
 11
44.102500115
 21
293.1288090356
  0
LINE
  5
32F
100
AcDbEntity
  8
A_RUNDUNGEN
100
AcDbLine
 62
3
  6
CONTINUOUS
 10
41.2740729902
 20
293.1288090356
 11
27.9083272754
 21
293.1288090356
  0
ARC
  5
330
100
AcDbEntity
  8
0
100
AcDbCircle
 62
3
  6
CONTINUOUS
 10
38.7882865526
 20
63.1288090356
 40
12.0
100
AcDbArc
 50
230.4287805428
 51
270.0
  0
ARC
  5
331
100
AcDbEntity
  8
DEFAULT_2
100
AcDbCircle
 62
8
  6
HIDDEN
 10
26.1281945642
 20
25.460493515
 40
5.1381073538
100
AcDbArc
 50
86.5482520123
 51
90.0073292472
  0
ARC
  5
332
100
AcDbEntity
  8
DEFAULT_2
100
AcDbCircle
 62
8
  6
HIDDEN
 10
26.1331205112
 20
25.5361738739
 40
5.0622677216
100
AcDbArc
 50
84.3136389097
 51
86.5523316904
  0
ARC
  5
333
100
AcDbEntity
  8
DEFAULT_2
100
AcDbCircle
 62
8
  6
HIDDEN
 10
26.1416742317
 20
25.6258461252
 40
4.9721892178
100
AcDbArc
 50
83.7716430013
 51
84.309336639
  0
ARC
  5
334
100
AcDbEntity
  8
DEFAULT_2
100
AcDbCircle
 62
8
  6
HIDDEN
 10
26.1470820758
 20
25.6751810203
 40
4.9225588229
100
AcDbArc
 50
83.102065581
 51
83.7719166825
  0
ARC
  5
335
100
AcDbEntity
  8
0
100
AcDbCircle
 62
2
  6
CONTINUOUS
 10
33.6882865526
 20
45.1288090356
 40
2.5
100
AcDbArc
 50
255.0
 51
195.0
  0
CIRCLE
  5
336
100
AcDbEntity
  8
A_ACHSEN
100
AcDbCircle
 62
3
  6
CONTINUOUS
 10
33.6882865526
 20
45.1288090356
 40
1.8
  0
ARC
  5
337
100
AcDbEntity
  8
DEFAULT_2
100
AcDbCircle
 62
8
  6
HIDDEN
 10
26.4083272754
 20
29.0988497584
 40
1.5
100
AcDbArc
 50
0.0
 51
1.1444361927
  0
ARC
  5
338
100
AcDbEntity
  8
DEFAULT_2
100
AcDbCircle
 62
8
  6
HIDDEN
 10
26.4083272754
 20
29.0988497584
 40
1.5
100
AcDbArc
 50
1.1444361927
 51
2.1359148834
  0
ARC
  5
339
100
AcDbEntity
  8
0
100
AcDbCircle
 62
3
  6
CONTINUOUS
 10
26.4083272754
 20
29.0988497584
 40
1.5
100
AcDbArc
 50
12.7074384376
 51
77.2925615624
  0
ARC
  5
33A
100
AcDbEntity
  8
0
100
AcDbCircle
 62
3
  6
CONTINUOUS
 10
26.4083272754
 20
29.0988497584
 40
1.5
100
AcDbArc
 50
2.1359148834
 51
9.0452392268
  0
ARC
  5
33B
100
AcDbEntity
  8
DEFAULT_2
100
AcDbCircle
 62
8
  6
HIDDEN
 10
26.4083272754
 20
29.0988497584
 40
1.5
100
AcDbArc
 50
9.0452392268
 51
12.7074384376
  0
ARC
  5
33C
100
AcDbEntity
  8
A_RUNDUNGEN
100
AcDbCircle
 62
3
  6
CONTINUOUS
 10
42.6882865526
 20
6.7145954733
 40
1.0
100
AcDbArc
 50
45.0
 51
135.0
  0
ARC
  5
33D
100
AcDbEntity
  8
A_RUNDUNGEN
100
AcDbCircle
 62
3
  6
CONTINUOUS
 10
41.2740729902
 20
8.1288090356
 40
1.0
100
AcDbArc
 50
270.0
 51
315.0
  0
ARC
  5
33E
100
AcDbEntity
  8
A_RUNDUNGEN
100
AcDbCircle
 62
3
  6
CONTINUOUS
 10
44.102500115
 20
8.1288090356
 40
1.0
100
AcDbArc
 50
225.0
 51
270.0
  0
ARC
  5
33F
100
AcDbEntity
  8
0
100
AcDbCircle
 62
3
  6
CONTINUOUS
 10
38.7882865526
 20
237.1288090356
 40
12.0
100
AcDbArc
 50
90.0
 51
129.5712194572
  0
ARC
  5
340
100
AcDbEntity
  8
DEFAULT_2
100
AcDbCircle
 62
8
  6
HIDDEN
 10
26.1281865542
 20
274.7973387161
 40
5.1383212632
100
AcDbArc
 50
269.9927597623
 51
273.4517219722
  0
ARC
  5
341
100
AcDbEntity
  8
DEFAULT_2
100
AcDbCircle
 62
8
  6
HIDDEN
 10
26.1331850787
 20
274.7206615446
 40
5.0614822581
100
AcDbArc
 50
273.447500562
 51
275.7128330038
  0
ARC
  5
342
100
AcDbEntity
  8
DEFAULT_2
100
AcDbCircle
 62
8
  6
HIDDEN
 10
26.1418151434
 20
274.6304892999
 40
4.970898828
100
AcDbArc
 50
275.7173141711
 51
276.2294814862
  0
ARC
  5
343
100
AcDbEntity
  8
DEFAULT_2
100
AcDbCircle
 62
8
  6
HIDDEN
 10
26.1471307108
 20
274.5820348527
 40
4.9221536947
100
AcDbArc
 50
276.2291748129
 51
276.8979346692
  0
ARC
  5
344
100
AcDbEntity
  8
0
100
AcDbCircle
 62
3
  6
CONTINUOUS
 10
29.4445582909
 20
270.4459553249
 40
2.9390607757
100
AcDbArc
 50
186.7970693425
 51
188.3781509559
  0
ARC
  5
345
100
AcDbEntity
  8
0
100
AcDbCircle
 62
2
  6
CONTINUOUS
 10
33.6882865526
 20
255.1288090356
 40
2.5
100
AcDbArc
 50
255.0
 51
195.0
  0
ARC
  5
346
100
AcDbEntity
  8
0
100
AcDbCircle
 62
3
  6
CONTINUOUS
 10
28.7432325664
 20
270.3422656276
 40
2.2301114697
100
AcDbArc
 50
188.3679792261
 51
190.2975331992
  0
CIRCLE
  5
347
100
AcDbEntity
  8
A_ACHSEN
100
AcDbCircle
 62
3
  6
CONTINUOUS
 10
33.6882865526
 20
255.1288090356
 40
1.8
  0
ARC
  5
348
100
AcDbEntity
  8
DEFAULT_2
100
AcDbCircle
 62
8
  6
HIDDEN
 10
26.4083272754
 20
271.1587683129
 40
1.5
100
AcDbArc
 50
347.2925615624
 51
350.9547607732
  0
ARC
  5
349
100
AcDbEntity
  8
0
100
AcDbCircle
 62
3
  6
CONTINUOUS
 10
26.4083272754
 20
271.1587683129
 40
1.5
100
AcDbArc
 50
282.7074384376
 51
347.2925615624
  0
ARC
  5
34A
100
AcDbEntity
  8
0
100
AcDbCircle
 62
3
  6
CONTINUOUS
 10
26.4083272754
 20
271.1587683129
 40
1.5
100
AcDbArc
 50
350.9547607732
 51
358.8556694079
  0
ARC
  5
34B
100
AcDbEntity
  8
DEFAULT_2
100
AcDbCircle
 62
8
  6
HIDDEN
 10
26.4083272754
 20
271.1587683129
 40
1.5
100
AcDbArc
 50
358.8556694079
 51
360.0
  0
ARC
  5
34C
100
AcDbEntity
  8
A_RUNDUNGEN
100
AcDbCircle
 62
3
  6
CONTINUOUS
 10
42.6882865526
 20
293.543022598
 40
1.0
100
AcDbArc
 50
225.0
 51
315.0
  0
ARC
  5
34D
100
AcDbEntity
  8
A_RUNDUNGEN
100
AcDbCircle
 62
3
  6
CONTINUOUS
 10
41.2740729902
 20
292.1288090356
 40
1.0
100
AcDbArc
 50
45.0
 51
90.0
  0
ARC
  5
34E
100
AcDbEntity
  8
A_RUNDUNGEN
100
AcDbCircle
 62
3
  6
CONTINUOUS
 10
44.102500115
 20
292.1288090356
 40
1.0
100
AcDbArc
 50
90.0
 51
135.0
  0
ARC
  5
34F
100
AcDbEntity
  8
0
100
AcDbCircle
 62
3
  6
CONTINUOUS
 10
46.5882865526
 20
63.1288090356
 40
12.0
100
AcDbArc
 50
270.0
 51
309.5712194572
  0
ARC
  5
350
100
AcDbEntity
  8
DEFAULT_2
100
AcDbCircle
 62
8
  6
HIDDEN
 10
59.2483836643
 20
25.4603819119
 40
5.1382188202
100
AcDbArc
 50
89.9927275916
 51
93.4517616016
  0
ARC
  5
351
100
AcDbEntity
  8
DEFAULT_2
100
AcDbCircle
 62
8
  6
HIDDEN
 10
59.2433923871
 20
25.5369287799
 40
5.0615103183
100
AcDbArc
 50
93.4475338978
 51
95.7126647609
  0
ARC
  5
352
100
AcDbEntity
  8
DEFAULT_2
100
AcDbCircle
 62
8
  6
HIDDEN
 10
59.2347664507
 20
25.6270590411
 40
4.9709690729
100
AcDbArc
 50
95.7171419779
 51
96.2294878605
  0
ARC
  5
353
100
AcDbEntity
  8
DEFAULT_2
100
AcDbCircle
 62
8
  6
HIDDEN
 10
59.2294514446
 20
25.6755085198
 40
4.9222289397
100
AcDbArc
 50
96.2291814746
 51
96.8979348238
  0
ARC
  5
354
100
AcDbEntity
  8
0
100
AcDbCircle
 62
3
  6
CONTINUOUS
 10
62.1382865526
 20
78.2788090356
 40
3.4
100
AcDbArc
 50
180.0
 51
199.7499227956
  0
ARC
  5
355
100
AcDbEntity
  8
0
100
AcDbCircle
 62
3
  6
CONTINUOUS
 10
55.933845977
 20
29.811898592
 40
2.9372145702
100
AcDbArc
 50
6.7967286699
 51
8.3860249797
  0
ARC
  5
356
100
AcDbEntity
  8
0
100
AcDbCircle
 62
2
  6
CONTINUOUS
 10
51.6882865526
 20
45.1288090356
 40
2.5
100
AcDbArc
 50
255.0
 51
195.0
  0
ARC
  5
357
100
AcDbEntity
  8
0
100
AcDbCircle
 62
3
  6
CONTINUOUS
 10
56.6383703636
 20
29.9161687327
 40
2.2250161037
100
AcDbArc
 50
8.375564475
 51
10.3186927565
  0
CIRCLE
  5
358
100
AcDbEntity
  8
A_ACHSEN
100
AcDbCircle
 62
3
  6
CONTINUOUS
 10
51.6882865526
 20
45.1288090356
 40
1.8
  0
ARC
  5
359
100
AcDbEntity
  8
DEFAULT_2
100
AcDbCircle
 62
8
  6
HIDDEN
 10
58.9682458298
 20
29.0988497584
 40
1.5
100
AcDbArc
 50
167.2925615624
 51
170.9547607732
  0
ARC
  5
35A
100
AcDbEntity
  8
0
100
AcDbCircle
 62
3
  6
CONTINUOUS
 10
58.9682458298
 20
29.0988497584
 40
1.5
100
AcDbArc
 50
102.7074384376
 51
167.2925615624
  0
ARC
  5
35B
100
AcDbEntity
  8
0
100
AcDbCircle
 62
3
  6
CONTINUOUS
 10
58.9682458298
 20
29.0988497584
 40
1.5
100
AcDbArc
 50
170.9547607732
 51
178.8556694079
  0
ARC
  5
35C
100
AcDbEntity
  8
DEFAULT_2
100
AcDbCircle
 62
8
  6
HIDDEN
 10
58.9682458298
 20
29.0988497584
 40
1.5
100
AcDbArc
 50
178.8556694079
 51
180.0
  0
ARC
  5
35D
100
AcDbEntity
  8
A_RUNDUNGEN
100
AcDbCircle
 62
7
  6
CONTINUOUS
 10
62.1382865526
 20
78.2788090356
 40
0.4
100
AcDbArc
 50
180.0
 51
228.1896851042
  0
ARC
  5
35E
100
AcDbEntity
  8
A_RUNDUNGEN
100
AcDbCircle
 62
7
  6
CONTINUOUS
 10
61.7382865526
 20
77.8315954401
 40
0.2
100
AcDbArc
 50
0.0
 51
48.1896851042
  0
ARC
  5
35F
100
AcDbEntity
  8
0
100
AcDbCircle
 62
3
  6
CONTINUOUS
 10
46.5882865526
 20
237.1288090356
 40
12.0
100
AcDbArc
 50
50.4287805428
 51
90.0
  0
ARC
  5
360
100
AcDbEntity
  8
DEFAULT_2
100
AcDbCircle
 62
8
  6
HIDDEN
 10
59.2483777491
 20
274.7970972095
 40
5.1380800375
100
AcDbArc
 50
266.5482420781
 51
270.0073380531
  0
ARC
  5
361
100
AcDbEntity
  8
DEFAULT_2
100
AcDbCircle
 62
8
  6
HIDDEN
 10
59.2434541767
 20
274.7214570188
 40
5.0622806436
100
AcDbArc
 50
264.3138924027
 51
266.5523221405
  0
ARC
  5
362
100
AcDbEntity
  8
DEFAULT_2
100
AcDbCircle
 62
8
  6
HIDDEN
 10
59.2349021227
 20
274.6317995739
 40
4.9722170366
100
AcDbArc
 50
263.7716464739
 51
264.3095925434
  0
ARC
  5
363
100
AcDbEntity
  8
DEFAULT_2
100
AcDbCircle
 62
8
  6
HIDDEN
 10
59.2294937264
 20
274.5824593096
 40
4.9225812443
100
AcDbArc
 50
263.1020655322
 51
263.7719197993
  0
ARC
  5
364
100
AcDbEntity
  8
0
100
AcDbCircle
 62
3
  6
CONTINUOUS
 10
62.2382865526
 20
221.8788090356
 40
3.5
100
AcDbArc
 50
160.5370490537
 51
180.0
  0
ARC
  5
365
100
AcDbEntity
  8
0
100
AcDbCircle
 62
2
  6
CONTINUOUS
 10
51.6882865526
 20
255.1288090356
 40
2.5
100
AcDbArc
 50
255.0
 51
195.0
  0
CIRCLE
  5
366
100
AcDbEntity
  8
A_ACHSEN
100
AcDbCircle
 62
3
  6
CONTINUOUS
 10
51.6882865526
 20
255.1288090356
 40
1.8
  0
ARC
  5
367
100
AcDbEntity
  8
DEFAULT_2
100
AcDbCircle
 62
8
  6
HIDDEN
 10
58.9682458298
 20
271.1587683129
 40
1.5
100
AcDbArc
 50
180.0
 51
181.1444361927
  0
ARC
  5
368
100
AcDbEntity
  8
DEFAULT_2
100
AcDbCircle
 62
8
  6
HIDDEN
 10
58.9682458298
 20
271.1587683129
 40
1.5
100
AcDbArc
 50
181.1444361927
 51
182.1359148834
  0
ARC
  5
369
100
AcDbEntity
  8
0
100
AcDbCircle
 62
3
  6
CONTINUOUS
 10
58.9682458298
 20
271.1587683129
 40
1.5
100
AcDbArc
 50
192.7074384376
 51
257.2925615624
  0
ARC
  5
36A
100
AcDbEntity
  8
0
100
AcDbCircle
 62
3
  6
CONTINUOUS
 10
58.9682458298
 20
271.1587683129
 40
1.5
100
AcDbArc
 50
182.1359148834
 51
189.0452392268
  0
ARC
  5
36B
100
AcDbEntity
  8
DEFAULT_2
100
AcDbCircle
 62
8
  6
HIDDEN
 10
58.9682458298
 20
271.1587683129
 40
1.5
100
AcDbArc
 50
189.0452392268
 51
192.7074384376
  0
ARC
  5
36C
100
AcDbEntity
  8
A_RUNDUNGEN
100
AcDbCircle
 62
7
  6
CONTINUOUS
 10
62.2382865526
 20
221.8788090356
 40
0.5
100
AcDbArc
 50
135.5846914028
 51
180.0
  0
ARC
  5
36D
100
AcDbEntity
  8
A_RUNDUNGEN
100
AcDbCircle
 62
7
  6
CONTINUOUS
 10
61.7382865526
 20
222.3687069842
 40
0.2
100
AcDbArc
 50
315.5846914028
 51
360.0
  0
SPLINE
  5
36E
100
AcDbEntity
  8
DEFAULT_2
100
AcDbSpline
 62
8
  6
HIDDEN
 70
0
 71
3
 72
9
 73
5
 74
0
 42
0.0000001
 43
0.0000001
 44
0.0000000001
 40
0.0
 40
0.0
 40
0.0
 40
0.0
 40
0.5333401328
 40
1.0
 40
1.0
 40
1.0
 40
1.0
 10
59.2490357994
 20
269.6590172142
 30
0.0
 10
59.5688060262
 20
269.6590604358
 30
0.0
 10
60.1682720361
 20
269.7103411056
 30
0.0
 10
60.7488471928
 20
269.9289811014
 30
0.0
 10
60.9717367856
 20
270.0981065135
 30
0.0
  0
SPLINE
  5
36F
100
AcDbEntity
  8
DEFAULT_2
100
AcDbSpline
 62
8
  6
HIDDEN
 70
0
 71
3
 72
9
 73
5
 74
0
 42
0.0000001
 43
0.0000001
 44
0.0000000001
 40
0.0
 40
0.0
 40
0.0
 40
0.0
 40
0.5333399821
 40
1.0
 40
1.0
 40
1.0
 40
1.0
 10
26.1275373001
 20
30.5986008268
 30
0.0
 10
25.807767167
 20
30.598557668
 30
0.0
 10
25.2083011754
 20
30.5472769149
 30
0.0
 10
24.6277259826
 20
30.3286370231
 30
0.0
 10
24.4048363202
 20
30.1595115582
 30
0.0
  0
SPLINE
  5
370
100
AcDbEntity
  8
DEFAULT_2
100
AcDbSpline
 62
8
  6
HIDDEN
 70
0
 71
3
 72
9
 73
5
 74
0
 42
0.0000001
 43
0.0000001
 44
0.0000000001
 40
0.0
 40
0.0
 40
0.0
 40
0.0
 40
0.5576553188
 40
1.0
 40
1.0
 40
1.0
 40
1.0
 10
24.4048363202
 20
30.1595115582
 30
0.0
 10
24.2004932875
 20
30.004459009
 30
0.0
 10
23.8487752895
 20
29.7060741237
 30
0.0
 10
23.5778848447
 20
29.3192445154
 30
0.0
 10
23.5062318816
 20
29.1288090356
 30
0.0
  0
SPLINE
  5
371
100
AcDbEntity
  8
DEFAULT_2
100
AcDbSpline
 62
8
  6
HIDDEN
 70
0
 71
3
 72
9
 73
5
 74
0
 42
0.0000001
 43
0.0000001
 44
0.0000000001
 40
0.0
 40
0.0
 40
0.0
 40
0.0
 40
0.4423446727
 40
1.0
 40
1.0
 40
1.0
 40
1.0
 10
23.5062318816
 20
271.1288090356
 30
0.0
 10
23.5778848151
 20
270.9383736346
 30
0.0
 10
23.8487751097
 20
270.5515441569
 30
0.0
 10
24.2004929425
 20
270.2531593531
 30
0.0
 10
24.4048358838
 20
270.0981068442
 30
0.0
  0
SPLINE
  5
372
100
AcDbEntity
  8
DEFAULT_2
100
AcDbSpline
 62
8
  6
HIDDEN
 70
0
 71
3
 72
9
 73
5
 74
0
 42
0.0000001
 43
0.0000001
 44
0.0000000001
 40
0.0
 40
0.0
 40
0.0
 40
0.0
 40
0.4666772847
 40
1.0
 40
1.0
 40
1.0
 40
1.0
 10
24.4048358838
 20
270.0981068442
 30
0.0
 10
24.6277337401
 20
269.9289751304
 30
0.0
 10
25.2083130355
 20
269.7103431533
 30
0.0
 10
25.807777519
 20
269.659060173
 30
0.0
 10
26.1275372452
 20
269.6590174939
 30
0.0
  0
SPLINE
  5
373
100
AcDbEntity
  8
DEFAULT_2
100
AcDbSpline
 62
8
  6
HIDDEN
 70
0
 71
3
 72
9
 73
5
 74
0
 42
0.0000001
 43
0.0000001
 44
0.0000000001
 40
0.0
 40
0.0
 40
0.0
 40
0.0
 40
0.4423446226
 40
1.0
 40
1.0
 40
1.0
 40
1.0
 10
61.8703412236
 20
29.1288090356
 30
0.0
 10
61.7986882985
 20
29.3192444143
 30
0.0
 10
61.5277980218
 20
29.7060738993
 30
0.0
 10
61.1760801859
 20
30.0044587002
 30
0.0
 10
60.9717372273
 20
30.1595112226
 30
0.0
  0
SPLINE
  5
374
100
AcDbEntity
  8
DEFAULT_2
100
AcDbSpline
 62
8
  6
HIDDEN
 70
0
 71
3
 72
9
 73
5
 74
0
 42
0.0000001
 43
0.0000001
 44
0.0000000001
 40
0.0
 40
0.0
 40
0.0
 40
0.0
 40
0.466677354
 40
1.0
 40
1.0
 40
1.0
 40
1.0
 10
60.9717372273
 20
30.1595112226
 30
0.0
 10
60.7488393317
 20
30.3286429667
 30
0.0
 10
60.1682600432
 20
30.547275101
 30
0.0
 10
59.5687955391
 20
30.5985577757
 30
0.0
 10
59.2490358454
 20
30.5986006907
 30
0.0
  0
SPLINE
  5
375
100
AcDbEntity
  8
DEFAULT_2
100
AcDbSpline
 62
8
  6
HIDDEN
 70
0
 71
3
 72
9
 73
5
 74
0
 42
0.0000001
 43
0.0000001
 44
0.0000000001
 40
0.0
 40
0.0
 40
0.0
 40
0.0
 40
0.5576554194
 40
1.0
 40
1.0
 40
1.0
 40
1.0
 10
60.9717367856
 20
270.0981065135
 30
0.0
 10
61.1760798554
 20
270.253159091
 30
0.0
 10
61.5277978641
 20
270.5515439726
 30
0.0
 10
61.7986882767
 20
270.9383735989
 30
0.0
 10
61.8703412236
 20
271.1288090356
 30
0.0
  0
SPLINE
  5
376
100
AcDbEntity
  8
0
100
AcDbSpline
 62
3
  6
CONTINUOUS
 70
0
 71
3
 72
11
 73
7
 74
0
 42
0.0000001
 43
0.0000001
 44
0.0000000001
 40
0.0
 40
0.0
 40
0.0
 40
0.0
 40
0.1247134566
 40
0.2498389075
 40
0.4985893926
 40
1.0
 40
1.0
 40
1.0
 40
1.0
 10
58.6937218242
 20
30.5973180585
 30
0.0
 10
58.7073302396
 20
30.5968451693
 30
0.0
 10
58.734907679
 20
30.5849034671
 30
0.0
 10
58.7636385567
 20
30.5374026242
 30
0.0
 10
58.8007947144
 20
30.4495062314
 30
0.0
 10
58.8175511326
 20
30.3685731129
 30
0.0
 10
58.8274005061
 20
30.3147207333
 30
0.0
  0
SPLINE
  5
377
100
AcDbEntity
  8
0
100
AcDbSpline
 62
3
  6
CONTINUOUS
 70
0
 71
3
 72
11
 73
7
 74
0
 42
0.0000001
 43
0.0000001
 44
0.0000000001
 40
0.0
 40
0.0
 40
0.0
 40
0.0
 40
0.1247453177
 40
0.249847131
 40
0.4986004152
 40
1.0
 40
1.0
 40
1.0
 40
1.0
 10
26.6828523551
 20
269.6602992587
 30
0.0
 10
26.6692108573
 20
269.6607841667
 30
0.0
 10
26.6415819987
 20
269.6727800582
 30
0.0
 10
26.6128311489
 20
269.7204111133
 30
0.0
 10
26.5756528305
 20
269.8085218952
 30
0.0
 10
26.5588924189
 20
269.8896376428
 30
0.0
 10
26.5490420929
 20
269.9436112247
 30
0.0
  0
SPLINE
  5
378
100
AcDbEntity
  8
0
100
AcDbSpline
 62
3
  6
CONTINUOUS
 70
0
 71
3
 72
8
 73
4
 74
0
 42
0.0000001
 43
0.0000001
 44
0.0000000001
 40
0.0
 40
0.0
 40
0.0
 40
0.0
 40
1.0
 40
1.0
 40
1.0
 40
1.0
 10
27.9078778059
 20
29.3732833359
 30
0.0
 10
27.9082702243
 20
29.3590593701
 30
0.0
 10
27.899629777
 20
29.344837709
 30
0.0
 10
27.8896740497
 20
29.3346711614
 30
0.0
  0
SPLINE
  5
379
100
AcDbEntity
  8
0
100
AcDbSpline
 62
3
  6
CONTINUOUS
 70
0
 71
3
 72
8
 73
4
 74
0
 42
0.0000001
 43
0.0000001
 44
0.0000000001
 40
0.0
 40
0.0
 40
0.0
 40
0.0
 40
1.0
 40
1.0
 40
1.0
 40
1.0
 10
57.4686952993
 20
270.8843347354
 30
0.0
 10
57.4683028809
 20
270.8985587012
 30
0.0
 10
57.4769433282
 20
270.9127803623
 30
0.0
 10
57.4868990555
 20
270.9229469098
 30
0.0
  0
SPLINE
  5
37A
100
AcDbEntity
  8
0
100
AcDbSpline
 62
3
  6
CONTINUOUS
 70
0
 71
3
 72
8
 73
4
 74
0
 42
0.0000001
 43
0.0000001
 44
0.0000000001
 40
0.0
 40
0.0
 40
0.0
 40
0.0
 40
1.0
 40
1.0
 40
1.0
 40
1.0
 10
58.8504185869
 20
30.1595099303
 30
0.0
 10
58.8914167365
 20
29.8173127586
 30
0.0
 10
58.9203279248
 20
29.4732519804
 30
0.0
 10
58.9321097045
 20
29.1288090356
 30
0.0
  0
SPLINE
  5
37B
100
AcDbEntity
  8
0
100
AcDbSpline
 62
3
  6
CONTINUOUS
 70
0
 71
3
 72
10
 73
6
 74
0
 42
0.0000001
 43
0.0000001
 44
0.0000000001
 40
0.0
 40
0.0
 40
0.0
 40
0.0
 40
0.5083310794
 40
0.7609288163
 40
1.0
 40
1.0
 40
1.0
 40
1.0
 10
58.850418587
 20
270.0981081411
 30
0.0
 10
58.8407627415
 20
270.0175141866
 30
0.0
 10
58.8206165036
 20
269.8928386631
 30
0.0
 10
58.7815149882
 20
269.7499356936
 30
0.0
 10
58.7319681838
 20
269.6596052271
 30
0.0
 10
58.6937950312
 20
269.6599697331
 30
0.0
  0
SPLINE
  5
37C
100
AcDbEntity
  8
0
100
AcDbSpline
 62
3
  6
CONTINUOUS
 70
0
 71
3
 72
8
 73
4
 74
0
 42
0.0000001
 43
0.0000001
 44
0.0000000001
 40
0.0
 40
0.0
 40
0.0
 40
0.0
 40
1.0
 40
1.0
 40
1.0
 40
1.0
 10
58.9321097045
 20
271.1288090356
 30
0.0
 10
58.9203279248
 20
270.7843660909
 30
0.0
 10
58.8914167365
 20
270.4403053127
 30
0.0
 10
58.850418587
 20
270.0981081411
 30
0.0
  0
SPLINE
  5
37D
100
AcDbEntity
  8
0
100
AcDbSpline
 62
3
  6
CONTINUOUS
 70
0
 71
3
 72
8
 73
4
 74
0
 42
0.0000001
 43
0.0000001
 44
0.0000000001
 40
0.0
 40
0.0
 40
0.0
 40
0.0
 40
1.0
 40
1.0
 40
1.0
 40
1.0
 10
57.4868990555
 20
29.3346711614
 30
0.0
 10
57.4769479171
 20
29.3448330229
 30
0.0
 10
57.4683214848
 20
29.3590617088
 30
0.0
 10
57.4687314589
 20
29.3732786179
 30
0.0
  0
SPLINE
  5
37E
100
AcDbEntity
  8
0
100
AcDbSpline
 62
3
  6
CONTINUOUS
 70
0
 71
3
 72
8
 73
4
 74
0
 42
0.0000001
 43
0.0000001
 44
0.0000000001
 40
0.0
 40
0.0
 40
0.0
 40
0.0
 40
1.0
 40
1.0
 40
1.0
 40
1.0
 10
27.8896740497
 20
270.9229469098
 30
0.0
 10
27.8996251881
 20
270.9127850483
 30
0.0
 10
27.9082516204
 20
270.8985563625
 30
0.0
 10
27.9078416463
 20
270.8843394533
 30
0.0
  0
SPLINE
  5
37F
100
AcDbEntity
  8
0
100
AcDbSpline
 62
3
  6
CONTINUOUS
 70
0
 71
3
 72
8
 73
4
 74
0
 42
0.0000001
 43
0.0000001
 44
0.0000000001
 40
0.0
 40
0.0
 40
0.0
 40
0.0
 40
1.0
 40
1.0
 40
1.0
 40
1.0
 10
26.5261545183
 20
270.0981081408
 30
0.0
 10
26.4851563688
 20
270.4403053125
 30
0.0
 10
26.4562451804
 20
270.7843660908
 30
0.0
 10
26.4444634007
 20
271.1288090356
 30
0.0
  0
SPLINE
  5
380
100
AcDbEntity
  8
0
100
AcDbSpline
 62
3
  6
CONTINUOUS
 70
0
 71
3
 72
8
 73
4
 74
0
 42
0.0000001
 43
0.0000001
 44
0.0000000001
 40
0.0
 40
0.0
 40
0.0
 40
0.0
 40
1.0
 40
1.0
 40
1.0
 40
1.0
 10
26.4444634007
 20
29.1288090356
 30
0.0
 10
26.4562451804
 20
29.4732519804
 30
0.0
 10
26.4851563687
 20
29.8173127585
 30
0.0
 10
26.5261545182
 20
30.1595099302
 30
0.0
  0
SPLINE
  5
381
100
AcDbEntity
  8
0
100
AcDbSpline
 62
3
  6
CONTINUOUS
 70
0
 71
3
 72
10
 73
6
 74
0
 42
0.0000001
 43
0.0000001
 44
0.0000000001
 40
0.0
 40
0.0
 40
0.0
 40
0.0
 40
0.5083294406
 40
0.7609260899
 40
1.0
 40
1.0
 40
1.0
 40
1.0
 10
26.5261545182
 20
30.1595099302
 30
0.0
 10
26.5358102851
 20
30.2401032289
 30
0.0
 10
26.5559568487
 20
30.3647744466
 30
0.0
 10
26.595056436
 20
30.5076853019
 30
0.0
 10
26.6446049528
 20
30.5980000076
 30
0.0
 10
26.6827784421
 20
30.5976449369
 30
0.0
  0
SPLINE
  5
382
100
AcDbEntity
  8
0
100
AcDbSpline
 62
3
  6
CONTINUOUS
 70
0
 71
3
 72
8
 73
4
 74
0
 42
0.0000001
 43
0.0000001
 44
0.0000000001
 40
0.0
 40
0.0
 40
0.0
 40
0.0
 40
1.0
 40
1.0
 40
1.0
 40
1.0
 10
27.8715862666
 20
29.4288090356
 30
0.0
 10
27.8892635162
 20
29.4155265795
 30
0.0
 10
27.90726802
 20
29.395386208
 30
0.0
 10
27.9078778059
 20
29.3732833359
 30
0.0
  0
SPLINE
  5
383
100
AcDbEntity
  8
0
100
AcDbSpline
 62
3
  6
CONTINUOUS
 70
0
 71
3
 72
8
 73
4
 74
0
 42
0.0000001
 43
0.0000001
 44
0.0000000001
 40
0.0
 40
0.0
 40
0.0
 40
0.0
 40
1.0
 40
1.0
 40
1.0
 40
1.0
 10
27.9078416463
 20
270.8843394533
 30
0.0
 10
27.9072044385
 20
270.8622426322
 30
0.0
 10
27.8892592988
 20
270.8420883229
 30
0.0
 10
27.8715862666
 20
270.8288090356
 30
0.0
  0
SPLINE
  5
384
100
AcDbEntity
  8
0
100
AcDbSpline
 62
3
  6
CONTINUOUS
 70
0
 71
3
 72
8
 73
4
 74
0
 42
0.0000001
 43
0.0000001
 44
0.0000000001
 40
0.0
 40
0.0
 40
0.0
 40
0.0
 40
1.0
 40
1.0
 40
1.0
 40
1.0
 10
57.5049868386
 20
270.8288090356
 30
0.0
 10
57.487309589
 20
270.8420914918
 30
0.0
 10
57.4693050852
 20
270.8622318632
 30
0.0
 10
57.4686952993
 20
270.8843347354
 30
0.0
  0
SPLINE
  5
385
100
AcDbEntity
  8
0
100
AcDbSpline
 62
3
  6
CONTINUOUS
 70
0
 71
3
 72
8
 73
4
 74
0
 42
0.0000001
 43
0.0000001
 44
0.0000000001
 40
0.0
 40
0.0
 40
0.0
 40
0.0
 40
1.0
 40
1.0
 40
1.0
 40
1.0
 10
57.4687314589
 20
29.3732786179
 30
0.0
 10
57.4693686667
 20
29.3953754391
 30
0.0
 10
57.4873138064
 20
29.4155297484
 30
0.0
 10
57.5049868386
 20
29.4288090356
 30
0.0
  0
SPLINE
  5
386
100
AcDbEntity
  8
0
100
AcDbSpline
 62
3
  6
CONTINUOUS
 70
0
 71
3
 72
8
 73
4
 74
0
 42
0.0000001
 43
0.0000001
 44
0.0000000001
 40
0.0
 40
0.0
 40
0.0
 40
0.0
 40
1.0
 40
1.0
 40
1.0
 40
1.0
 10
26.7382865526
 20
269.6955093217
 30
0.0
 10
26.7251367942
 20
269.6780086757
 30
0.0
 10
26.7047289187
 20
269.6595216226
 30
0.0
 10
26.6828523551
 20
269.6602992587
 30
0.0
  0
SPLINE
  5
387
100
AcDbEntity
  8
0
100
AcDbSpline
 62
3
  6
CONTINUOUS
 70
0
 71
3
 72
8
 73
4
 74
0
 42
0.0000001
 43
0.0000001
 44
0.0000000001
 40
0.0
 40
0.0
 40
0.0
 40
0.0
 40
1.0
 40
1.0
 40
1.0
 40
1.0
 10
58.6937950312
 20
269.6599697331
 30
0.0
 10
58.6718257155
 20
269.6601795127
 30
0.0
 10
58.6514843298
 20
269.6779447688
 30
0.0
 10
58.6382865526
 20
269.6955093217
 30
0.0
  0
SPLINE
  5
388
100
AcDbEntity
  8
0
100
AcDbSpline
 62
3
  6
CONTINUOUS
 70
0
 71
3
 72
8
 73
4
 74
0
 42
0.0000001
 43
0.0000001
 44
0.0000000001
 40
0.0
 40
0.0
 40
0.0
 40
0.0
 40
1.0
 40
1.0
 40
1.0
 40
1.0
 10
26.6827784421
 20
30.5976449369
 30
0.0
 10
26.7047470944
 20
30.5974405955
 30
0.0
 10
26.7250892047
 20
30.5796727311
 30
0.0
 10
26.7382865526
 20
30.5621087496
 30
0.0
  0
SPLINE
  5
389
100
AcDbEntity
  8
0
100
AcDbSpline
 62
3
  6
CONTINUOUS
 70
0
 71
3
 72
8
 73
4
 74
0
 42
0.0000001
 43
0.0000001
 44
0.0000000001
 40
0.0
 40
0.0
 40
0.0
 40
0.0
 40
1.0
 40
1.0
 40
1.0
 40
1.0
 10
58.6382865526
 20
30.5621087496
 30
0.0
 10
58.6514364116
 20
30.5796095294
 30
0.0
 10
58.6718444813
 20
30.598078291
 30
0.0
 10
58.6937218242
 20
30.5973180585
 30
0.0
  0
ENDSEC
  0
SECTION
  2
OBJECTS
  0
DICTIONARY
  5
38A
100
AcDbDictionary
  3
ACAD_GROUP
350
38B
  3
ACAD_MLINESTYLE
350
38C
  0
DICTIONARY
  5
38B
102
{ACAD_REACTORS
330
38A
102
}
100
AcDbDictionary
  0
DICTIONARY
  5
38C
102
{ACAD_REACTORS
330
38A
102
}
100
AcDbDictionary
  3
STANDARD
350
38D
  0
MLINESTYLE
  5
38D
102
{ACAD_REACTORS
330
38C
102
}
100
AcDbMlineStyle
  2
STANDARD
 70
0
  3

 62
256
 51
90.0
 52
90.0
 71
2
 49
0.5
 62
256
  6
BYLAYER
 49
-0.5
 62
256
  6
BYLAYER
  0
ENDSEC
  0
EOF
