999
DXF file: d:\tmp\workingDir\0000104221\5_401731_0_04000_mkt_v_01_01.dxf
999
Pro/ENGINEER 2016380 by Parametric Technology Corporation
  0
SECTION
  2
HEADER
  9
$ACADVER
  1
AC1014
  9
$DWGCODEPAGE
  3
ANSI_1252
  9
$EXTMAX
 10
65.024
 20
240.0
 30
0.0
  9
$EXTMIN
 10
0.0
 20
0.0
 30
0.0
  9
$LIMMIN
 10
0.0
 20
0.0
  9
$LIMMAX
 10
65.024
 20
240.0
  9
$VIEWCTR
 10
32.512
 20
120.0
  9
$VIEWSIZE
 40
240.0
  9
$CLAYER
  8
0
  9
$LTSCALE
 40
15.6444444444
  9
$CELTYPE
  6
BYLAYER
  9
$DIMSCALE
 40
1.0
  9
$DIMASZ
 40
3.5
  9
$DIMEXO
 40
0.0
  9
$DIMDLI
 40
10.8088888889
  9
$DIMEXE
 40
2.0
  9
$DIMCEN
 40
2.56
  9
$DIMLFAC
 40
1.0
  9
$DIMBLK
  1
_ARROW_FILLED
  9
$DIMALT
 70
0
  9
$DIMALTF
 40
25.4
  9
$DIMTXT
 40
3.5
  9
$DIMTOL
 70
1
  9
$DIMLIM
 70
0
  9
$DIMTFAC
 40
1.0
  9
$DIMTP
 40
0.01
  9
$DIMTM
 40
0.01
  9
$DIMGAP
 40
0.625
  9
$AUNITS
 70
0
  9
$PDMODE
 70
0
  9
$PDSIZE
 40
0.04
  9
$HANDSEED
  5
29E
  9
$TILEMODE
 70
1
  9
$MEASUREMENT
 70
1
  0
ENDSEC
  0
SECTION
  2
CLASSES
  0
ENDSEC
  0
SECTION
  2
TABLES
  0
TABLE
  2
VPORT
  5
8
100
AcDbSymbolTable
 70
2
  0
VPORT
  5
1F4
100
AcDbSymbolTableRecord
100
AcDbViewportTableRecord
  2
*ACTIVE
 70
0
 10
0.0
 20
0.0
 11
1.0
 21
1.0
 12
32.512
 22
120.0
 13
0.0
 23
0.0
 14
1.0
 24
1.0
 15
0.0
 25
0.0
 16
0.0
 26
0.0
 36
1.0
 17
0.0
 27
0.0
 37
0.0
 40
240.0
 41
0.2709333333
 42
50.0
 43
0.0
 44
0.0
 50
0.0
 51
0.0
 71
0
 72
100
 73
1
 74
1
 75
0
 76
0
 77
0
 78
0
  0
ENDTAB
  0
TABLE
  2
LTYPE
  5
5
100
AcDbSymbolTable
 70
6
  0
LTYPE
  5
14
100
AcDbSymbolTableRecord
100
AcDbLinetypeTableRecord
  2
BYBLOCK
 70
0
  3

 72
65
 73
0
 40
0.0
  0
LTYPE
  5
15
100
AcDbSymbolTableRecord
100
AcDbLinetypeTableRecord
  2
BYLAYER
 70
0
  3

 72
65
 73
0
 40
0.0
  0
LTYPE
  5
16
100
AcDbSymbolTableRecord
100
AcDbLinetypeTableRecord
  2
CONTINUOUS
 70
64
  3
Solid line
 72
65
 73
0
 40
0.0
  0
LTYPE
  5
1F5
100
AcDbSymbolTableRecord
100
AcDbLinetypeTableRecord
  2
CENTER
 70
64
  3
____ _ ____ _ ____ _ ____ _ ____ _ ____ _ ____
 72
65
 73
4
 40
0.6
 49
0.375
 74
0
 49
-0.075
 74
0
 49
0.075
 74
0
 49
-0.075
 74
0
  0
LTYPE
  5
1F6
100
AcDbSymbolTableRecord
100
AcDbLinetypeTableRecord
  2
HIDDEN
 70
64
  3
- - - - - - - - - - - - - - - - - - - -
 72
65
 73
2
 40
0.2
 49
0.1
 74
0
 49
-0.1
 74
0
  0
LTYPE
  5
1F7
100
AcDbSymbolTableRecord
100
AcDbLinetypeTableRecord
  2
PHANTOM
 70
64
  3
_____ _ _ _____ _ _ _____ _ _ _____
 72
65
 73
6
 40
0.8
 49
0.45
 74
0
 49
-0.05
 74
0
 49
0.1
 74
0
 49
-0.05
 74
0
 49
0.1
 74
0
 49
-0.05
 74
0
  0
LTYPE
  5
1F8
100
AcDbSymbolTableRecord
100
AcDbLinetypeTableRecord
  2
DOT
 70
64
  3
. . . . . . . . . . . . . . . . . . . .
 72
65
 73
2
 40
0.2
 49
0.1
 74
0
 49
-0.1
 74
0
  0
LTYPE
  5
1F9
100
AcDbSymbolTableRecord
100
AcDbLinetypeTableRecord
  2
DASHED
 70
64
  3
- - - - - - - - - - - - - - - - - - - -
 72
65
 73
2
 40
0.2
 49
0.1
 74
0
 49
-0.1
 74
0
  0
ENDTAB
  0
TABLE
  2
LAYER
  5
2
100
AcDbSymbolTable
 70
36
  0
LAYER
  5
10
100
AcDbSymbolTableRecord
100
AcDbLayerTableRecord
  2
0
 70
0
 62
7
  6
CONTINUOUS
  0
LAYER
  5
1FA
100
AcDbSymbolTableRecord
100
AcDbLayerTableRecord
  2
DEFAULT_1
 70
0
 62
7
  6
CENTER
  0
LAYER
  5
1FB
100
AcDbSymbolTableRecord
100
AcDbLayerTableRecord
  2
DEFAULT_2
 70
0
 62
8
  6
HIDDEN
  0
LAYER
  5
1FC
100
AcDbSymbolTableRecord
100
AcDbLayerTableRecord
  2
DEFAULT_3
 70
0
 62
7
  6
PHANTOM
  0
LAYER
  5
1FD
100
AcDbSymbolTableRecord
100
AcDbLayerTableRecord
  2
A_ACHSEN
 70
0
 62
7
  6
CONTINUOUS
  0
LAYER
  5
1FE
100
AcDbSymbolTableRecord
100
AcDbLayerTableRecord
  2
A_BASISEBENEN
 70
0
 62
7
  6
CONTINUOUS
  0
LAYER
  5
1FF
100
AcDbSymbolTableRecord
100
AcDbLayerTableRecord
  2
A_BEMASSUNGEN
 70
0
 62
7
  6
CONTINUOUS
  0
LAYER
  5
200
100
AcDbSymbolTableRecord
100
AcDbLayerTableRecord
  2
A_BOHRUNGEN
 70
0
 62
7
  6
CONTINUOUS
  0
LAYER
  5
201
100
AcDbSymbolTableRecord
100
AcDbLayerTableRecord
  2
A_EBENEN
 70
0
 62
7
  6
CONTINUOUS
  0
LAYER
  5
202
100
AcDbSymbolTableRecord
100
AcDbLayerTableRecord
  2
A_FASEN
 70
0
 62
7
  6
CONTINUOUS
  0
LAYER
  5
203
100
AcDbSymbolTableRecord
100
AcDbLayerTableRecord
  2
A_FL_VERBAENDE
 70
0
 62
7
  6
CONTINUOUS
  0
LAYER
  5
204
100
AcDbSymbolTableRecord
100
AcDbLayerTableRecord
  2
A_NOTIZEN_SYMB
 70
0
 62
7
  6
CONTINUOUS
  0
LAYER
  5
205
100
AcDbSymbolTableRecord
100
AcDbLayerTableRecord
  2
A_RUNDUNGEN
 70
0
 62
7
  6
CONTINUOUS
  0
LAYER
  5
206
100
AcDbSymbolTableRecord
100
AcDbLayerTableRecord
  2
BASISEBENEN
 70
0
 62
7
  6
CONTINUOUS
  0
ENDTAB
  0
TABLE
  2
STYLE
  5
3
100
AcDbSymbolTable
 70
1
  0
STYLE
  5
11
100
AcDbSymbolTableRecord
100
AcDbTextStyleTableRecord
  2
STANDARD
 70
0
 40
0.0
 41
1.0
 50
0.0
 71
0
 42
0.2
  3
txt
  4

  0
STYLE
  5
207
100
AcDbSymbolTableRecord
100
AcDbTextStyleTableRecord
  2
TEXTSTYLE_1
 70
0
 40
0.0
 41
0.8
 50
0.0
 71
0
 42
0.2
  3
gdt
  4

  0
STYLE
  5
208
100
AcDbSymbolTableRecord
100
AcDbTextStyleTableRecord
  2
TEXTSTYLE_2
 70
0
 40
0.0
 41
1.0
 50
0.0
 71
0
 42
0.2
  3
txt
  4

  0
ENDTAB
  0
TABLE
  2
VIEW
  5
6
100
AcDbSymbolTable
 70
0
  0
ENDTAB
  0
TABLE
  2
UCS
  5
7
100
AcDbSymbolTable
 70
0
  0
ENDTAB
  0
TABLE
  2
APPID
  5
9
100
AcDbSymbolTable
 70
1
  0
APPID
  5
209
100
AcDbSymbolTableRecord
100
AcDbRegAppTableRecord
  2
ACAD
 70
0
  0
ENDTAB
  0
TABLE
  2
BLOCK_RECORD
  5
1
100
AcDbSymbolTable
 70
0
  0
BLOCK_RECORD
  5
1F
100
AcDbSymbolTableRecord
100
AcDbBlockTableRecord
  2
*MODEL_SPACE
  0
BLOCK_RECORD
  5
1B
100
AcDbSymbolTableRecord
100
AcDbBlockTableRecord
  2
*PAPER_SPACE
  0
BLOCK_RECORD
  5
20A
100
AcDbSymbolTableRecord
100
AcDbBlockTableRecord
  2
_ARROW_FILLED
  0
BLOCK_RECORD
  5
20B
100
AcDbSymbolTableRecord
100
AcDbBlockTableRecord
  2
*D0
  0
BLOCK_RECORD
  5
20C
100
AcDbSymbolTableRecord
100
AcDbBlockTableRecord
  2
*D1
  0
BLOCK_RECORD
  5
20D
100
AcDbSymbolTableRecord
100
AcDbBlockTableRecord
  2
*D2
  0
ENDTAB
  0
TABLE
  2
DIMSTYLE
  5
A
100
AcDbSymbolTable
 70
1
  0
DIMSTYLE
105
20E
100
AcDbSymbolTableRecord
100
AcDbDimStyleTableRecord
  2
STANDARD
 70
0
  3

  4

  5
_ARROW_FILLED
  6
_ARROW_FILLED
  7
_ARROW_FILLED
 40
1.0
 41
3.5
 42
0.0
 43
0.38
 44
2.0
 45
0.0
 46
0.0
 47
0.01
 48
0.01
140
3.5
141
0.09
142
0.0
143
25.4
144
1.0
145
0.0
146
1.0
147
0.625
 71
1.0
 72
0.0
 73
0
 74
0
 75
0
 76
0
 77
1
 78
8
170
0
171
1
172
0
173
0
174
0
175
0
176
0
177
0
178
5
270
2
271
2
272
2
273
2
274
2
275
0
280
0
281
0
282
0
283
1
284
8
285
0
286
0
287
3
288
0
340
11
  0
DIMSTYLE
105
20F
100
AcDbSymbolTableRecord
100
AcDbDimStyleTableRecord
  2
DIMSTYLE_1
 70
0
  3

  4

  5
_ARROW_FILLED
  6
_ARROW_FILLED
  7
_ARROW_FILLED
 40
1.0
 41
3.5
 42
0.0
 43
0.38
 44
2.0
 45
0.0
 46
0.0
 47
0.5
 48
0.5
140
3.5
141
0.09
142
0.0
143
25.4
144
1.0
145
0.0
146
1.0
147
0.875
 71
0.0
 72
0.0
 73
0
 74
0
 75
0
 76
0
 77
1
 78
8
170
0
171
1
172
0
173
0
174
0
175
0
176
0
177
0
178
5
270
2
271
4
272
-1
273
2
274
2
275
0
280
0
281
0
282
0
283
1
284
8
285
0
286
0
287
3
288
0
340
208
  0
DIMSTYLE
105
210
100
AcDbSymbolTableRecord
100
AcDbDimStyleTableRecord
  2
DIMSTYLE_2
 70
0
  3

  4

  5
_ARROW_FILLED
  6
_ARROW_FILLED
  7
_ARROW_FILLED
 40
1.0
 41
3.5
 42
0.0
 43
0.38
 44
2.0
 45
0.0
 46
0.0
 47
0.2
 48
0.2
140
3.5
141
0.09
142
0.0
143
25.4
144
1.0
145
0.0
146
1.0
147
0.875
 71
0.0
 72
0.0
 73
0
 74
0
 75
0
 76
0
 77
1
 78
8
170
0
171
1
172
0
173
0
174
0
175
0
176
0
177
0
178
5
270
2
271
0
272
-1
273
2
274
2
275
0
280
0
281
0
282
0
283
1
284
8
285
0
286
0
287
3
288
0
340
208
  0
DIMSTYLE
105
211
100
AcDbSymbolTableRecord
100
AcDbDimStyleTableRecord
  2
DIMSTYLE_3
 70
0
  3

  4

  5
_ARROW_FILLED
  6
_ARROW_FILLED
  7
_ARROW_FILLED
 40
1.0
 41
3.5
 42
0.0
 43
0.38
 44
2.0
 45
0.0
 46
0.0
 47
0.3
 48
0.3
140
3.5
141
0.09
142
0.0
143
25.4
144
1.0
145
0.0
146
1.0
147
0.875
 71
0.0
 72
0.0
 73
0
 74
0
 75
0
 76
0
 77
1
 78
8
170
0
171
1
172
0
173
0
174
0
175
0
176
0
177
0
178
5
270
2
271
4
272
-1
273
2
274
2
275
0
280
0
281
0
282
0
283
1
284
8
285
0
286
0
287
3
288
0
340
208
  0
ENDTAB
  0
ENDSEC
  0
SECTION
  2
BLOCKS
  0
BLOCK
  5
20
100
AcDbEntity
  8
0
100
AcDbBlockBegin
  2
*MODEL_SPACE
 70
0
 10
0.0
 20
0.0
 30
0.0
  3
*MODEL_SPACE
  1

  0
ENDBLK
  5
21
100
AcDbEntity
  8
0
100
AcDbBlockEnd
  0
BLOCK
  5
1C
100
AcDbEntity
  8
0
100
AcDbBlockBegin
  2
*PAPER_SPACE
 70
0
 10
0.0
 20
0.0
 30
0.0
  3
*PAPER_SPACE
  1

  0
ENDBLK
  5
1D
100
AcDbEntity
  8
0
100
AcDbBlockEnd
  0
BLOCK
  5
212
100
AcDbEntity
  8
0
100
AcDbBlockBegin
  2
_ARROW_FILLED
 70
64
 10
0.0
 20
0.0
  3
_ARROW_FILLED
  1

  0
SOLID
  5
213
100
AcDbEntity
  8
0
  6
BYBLOCK
 62
0
100
AcDbTrace
 10
0.0
 20
0.0
 11
-1.0
 21
0.1428571429
 12
-1.0
 22
-0.1428571429
 13
-1.0
 23
-0.1428571429
  0
ENDBLK
  5
214
100
AcDbEntity
  8
0
  6
BYBLOCK
 62
0
100
AcDbBlockEnd
  0
BLOCK
  5
215
100
AcDbEntity
  8
A_BEMASSUNGEN
100
AcDbBlockBegin
 62
2
  6
CONTINUOUS
  2
*D0
 70
65
 10
0.0
 20
0.0
  3
*D0
  1

  0
MTEXT
  5
216
100
AcDbEntity
  8
A_BEMASSUNGEN
100
AcDbMText
 62
5
  6
CONTINUOUS
  7
TEXTSTYLE_2
 71
2
 72
1
 10
4.7944083836
 20
110.6283583145
 30
0.0
 11
0.0
 21
1.0
 31
0.0
  1
210
 40
3.5
 41
11.25
  0
LINE
  5
217
100
AcDbEntity
  8
A_BEMASSUNGEN
100
AcDbLine
 62
2
  6
CONTINUOUS
 10
23.9404875553
 20
215.6283583145
 11
7.1694083836
 21
215.6283583145
  0
LINE
  5
218
100
AcDbEntity
  8
A_BEMASSUNGEN
100
AcDbLine
 62
2
  6
CONTINUOUS
 10
23.9404875553
 20
5.6283583145
 11
7.1694083836
 21
5.6283583145
  0
LINE
  5
219
100
AcDbEntity
  8
A_BEMASSUNGEN
100
AcDbLine
 62
2
  6
CONTINUOUS
 10
9.1694083836
 20
215.6283583145
 11
9.1694083836
 21
110.6283583145
  0
LINE
  5
21A
100
AcDbEntity
  8
A_BEMASSUNGEN
100
AcDbLine
 62
2
  6
CONTINUOUS
 10
9.1694083836
 20
5.6283583145
 11
9.1694083836
 21
110.6283583145
  0
INSERT
  5
21B
100
AcDbEntity
  8
A_BEMASSUNGEN
100
AcDbBlockReference
 62
2
  6
CONTINUOUS
  2
_ARROW_FILLED
 10
9.1694083836
 20
215.6283583145
 41
3.5
 42
3.5
 43
3.5
 50
90.0
  0
INSERT
  5
21C
100
AcDbEntity
  8
A_BEMASSUNGEN
100
AcDbBlockReference
 62
2
  6
CONTINUOUS
  2
_ARROW_FILLED
 10
9.1694083836
 20
5.6283583145
 41
3.5
 42
3.5
 43
3.5
 50
270.0
  0
ENDBLK
  5
21D
100
AcDbEntity
  8
0
  6
BYBLOCK
 62
0
100
AcDbBlockEnd
  0
BLOCK
  5
21E
100
AcDbEntity
  8
A_BEMASSUNGEN
100
AcDbBlockBegin
 62
2
  6
CONTINUOUS
  2
*D1
 70
65
 10
0.0
 20
0.0
  3
*D1
  1

  0
MTEXT
  5
21F
100
AcDbEntity
  8
A_BEMASSUNGEN
100
AcDbMText
 62
5
  6
CONTINUOUS
  7
TEXTSTYLE_2
 71
2
 72
1
 10
36.9704468326
 20
228.0817994796
 30
0.0
 11
1.0
 21
0.0
 31
0.0
  1
26
 40
3.5
 41
8.25
  0
LINE
  5
220
100
AcDbEntity
  8
A_BEMASSUNGEN
100
AcDbLine
 62
2
  6
CONTINUOUS
 10
23.9404875553
 20
215.6283583145
 11
23.9404875553
 21
225.7067994796
  0
LINE
  5
221
100
AcDbEntity
  8
A_BEMASSUNGEN
100
AcDbLine
 62
2
  6
CONTINUOUS
 10
50.0004061098
 20
215.6283583145
 11
50.0004061098
 21
225.7067994796
  0
LINE
  5
222
100
AcDbEntity
  8
A_BEMASSUNGEN
100
AcDbLine
 62
2
  6
CONTINUOUS
 10
23.9404875553
 20
223.7067994796
 11
36.9704468326
 21
223.7067994796
  0
LINE
  5
223
100
AcDbEntity
  8
A_BEMASSUNGEN
100
AcDbLine
 62
2
  6
CONTINUOUS
 10
50.0004061098
 20
223.7067994796
 11
36.9704468326
 21
223.7067994796
  0
INSERT
  5
224
100
AcDbEntity
  8
A_BEMASSUNGEN
100
AcDbBlockReference
 62
2
  6
CONTINUOUS
  2
_ARROW_FILLED
 10
23.9404875553
 20
223.7067994796
 41
3.5
 42
3.5
 43
3.5
 50
180.0
  0
INSERT
  5
225
100
AcDbEntity
  8
A_BEMASSUNGEN
100
AcDbBlockReference
 62
2
  6
CONTINUOUS
  2
_ARROW_FILLED
 10
50.0004061098
 20
223.7067994796
 41
3.5
 42
3.5
 43
3.5
  0
ENDBLK
  5
226
100
AcDbEntity
  8
0
  6
BYBLOCK
 62
0
100
AcDbBlockEnd
  0
BLOCK
  5
227
100
AcDbEntity
  8
A_BEMASSUNGEN
100
AcDbBlockBegin
 62
2
  6
CONTINUOUS
  2
*D2
 70
65
 10
0.0
 20
0.0
  3
*D2
  1

  0
MTEXT
  5
228
100
AcDbEntity
  8
A_BEMASSUNGEN
100
AcDbMText
 62
5
  6
CONTINUOUS
  7
TEXTSTYLE_2
 71
2
 72
1
 10
36.9704468326
 20
236.9549216516
 30
0.0
 11
1.0
 21
0.0
 31
0.0
  1
35
 40
3.5
 41
7.5
  0
LINE
  5
229
100
AcDbEntity
  8
A_BEMASSUNGEN
100
AcDbLine
 62
2
  6
CONTINUOUS
 10
19.4704468326
 20
196.7283583145
 11
19.4704468326
 21
214.1243675676
  0
LINE
  5
22A
100
AcDbEntity
  8
A_BEMASSUNGEN
100
AcDbLine
 62
2
  6
CONTINUOUS
 10
19.4704468326
 20
217.2240432432
 11
19.4704468326
 21
234.5799216516
  0
LINE
  5
22B
100
AcDbEntity
  8
A_BEMASSUNGEN
100
AcDbLine
 62
2
  6
CONTINUOUS
 10
54.4704468326
 20
196.7283583145
 11
54.4704468326
 21
234.5799216516
  0
LINE
  5
22C
100
AcDbEntity
  8
A_BEMASSUNGEN
100
AcDbLine
 62
2
  6
CONTINUOUS
 10
19.4704468326
 20
232.5799216516
 11
36.9704468326
 21
232.5799216516
  0
LINE
  5
22D
100
AcDbEntity
  8
A_BEMASSUNGEN
100
AcDbLine
 62
2
  6
CONTINUOUS
 10
54.4704468326
 20
232.5799216516
 11
36.9704468326
 21
232.5799216516
  0
INSERT
  5
22E
100
AcDbEntity
  8
A_BEMASSUNGEN
100
AcDbBlockReference
 62
2
  6
CONTINUOUS
  2
_ARROW_FILLED
 10
19.4704468326
 20
232.5799216516
 41
3.5
 42
3.5
 43
3.5
 50
180.0
  0
INSERT
  5
22F
100
AcDbEntity
  8
A_BEMASSUNGEN
100
AcDbBlockReference
 62
2
  6
CONTINUOUS
  2
_ARROW_FILLED
 10
54.4704468326
 20
232.5799216516
 41
3.5
 42
3.5
 43
3.5
  0
ENDBLK
  5
230
100
AcDbEntity
  8
0
  6
BYBLOCK
 62
0
100
AcDbBlockEnd
  0
ENDSEC
  0
SECTION
  2
ENTITIES
  0
DIMENSION
  5
231
100
AcDbEntity
  8
A_BEMASSUNGEN
100
AcDbDimension
 62
2
  6
CONTINUOUS
  2
*D0
 10
9.1694083836
 20
5.6283583145
 11
9.1694083836
 21
110.1283544448
 70
160
  3
DIMSTYLE_1
100
AcDbAlignedDimension
 13
23.9404875553
 23
215.6283583145
 14
23.9404875553
 24
5.6283583145
 50
270.0
100
AcDbRotatedDimension
  0
DIMENSION
  5
232
100
AcDbEntity
  8
A_BEMASSUNGEN
100
AcDbDimension
 62
2
  6
CONTINUOUS
  2
*D1
 10
50.0004061098
 20
223.7067994796
 11
36.4704505208
 21
223.7067994796
 70
160
  3
DIMSTYLE_2
100
AcDbAlignedDimension
 13
23.9404875553
 23
215.6283583145
 14
50.0004061098
 24
215.6283583145
100
AcDbRotatedDimension
  0
DIMENSION
  5
233
100
AcDbEntity
  8
A_BEMASSUNGEN
100
AcDbDimension
 62
2
  6
CONTINUOUS
  2
*D2
 10
54.4704468326
 20
232.5799216516
 11
36.4704505208
 21
232.5799216516
 70
160
  3
DIMSTYLE_3
100
AcDbAlignedDimension
 13
19.4704468326
 23
196.7283583145
 14
54.4704468326
 24
196.7283583145
100
AcDbRotatedDimension
  0
LINE
  5
234
100
AcDbEntity
  8
0
100
AcDbLine
 62
3
  6
CONTINUOUS
 10
23.9404875553
 20
5.6283583145
 11
35.9704468326
 21
5.6283583145
  0
LINE
  5
235
100
AcDbEntity
  8
0
100
AcDbLine
 62
3
  6
CONTINUOUS
 10
37.9704468326
 20
5.6283583145
 11
50.0004061098
 21
5.6283583145
  0
LINE
  5
236
100
AcDbEntity
  8
A_RUNDUNGEN
100
AcDbLine
 62
7
  6
CONTINUOUS
 10
54.4704468326
 20
23.5283583145
 11
51.4704468326
 21
23.5283583145
  0
LINE
  5
237
100
AcDbEntity
  8
A_RUNDUNGEN
100
AcDbLine
 62
7
  6
CONTINUOUS
 10
19.4704468326
 20
23.5283583145
 11
22.4704468326
 21
23.5283583145
  0
LINE
  5
238
100
AcDbEntity
  8
0
100
AcDbLine
 62
3
  6
CONTINUOUS
 10
23.9404875553
 20
27.6283583145
 11
50.0004061098
 21
27.6283583145
  0
LINE
  5
239
100
AcDbEntity
  8
0
100
AcDbLine
 62
7
  6
CONTINUOUS
 10
51.2204468326
 20
30.8783583145
 11
22.7204468326
 21
30.8783583145
  0
LINE
  5
23A
100
AcDbEntity
  8
0
100
AcDbLine
 62
3
  6
CONTINUOUS
 10
37.9704468326
 20
215.6283583145
 11
36.9704468326
 21
214.6283583145
  0
LINE
  5
23B
100
AcDbEntity
  8
0
100
AcDbLine
 62
3
  6
CONTINUOUS
 10
36.9704468326
 20
6.6283583145
 11
37.9704468326
 21
5.6283583145
  0
LINE
  5
23C
100
AcDbEntity
  8
A_ACHSEN
100
AcDbLine
 62
7
  6
CENTER
 10
23.6660677941
 20
43.1283583145
 11
35.274825871
 21
43.1283583145
  0
LINE
  5
23D
100
AcDbEntity
  8
A_ACHSEN
100
AcDbLine
 62
7
  6
CENTER
 10
38.9676858937
 20
43.1283583145
 11
49.9732077715
 21
43.1283583145
  0
LINE
  5
23E
100
AcDbEntity
  8
A_ACHSEN
100
AcDbLine
 62
7
  6
CENTER
 10
27.2245836312
 20
53.1283583145
 11
46.6420946493
 21
53.1283583145
  0
LINE
  5
23F
100
AcDbEntity
  8
0
100
AcDbLine
 62
7
  6
CONTINUOUS
 10
22.7204468326
 20
58.3783583145
 11
51.2204468326
 21
58.3783583145
  0
LINE
  5
240
100
AcDbEntity
  8
0
100
AcDbLine
 62
3
  6
CONTINUOUS
 10
41.4704468326
 20
59.6283583145
 11
35.4704468326
 21
59.6283583145
  0
LINE
  5
241
100
AcDbEntity
  8
0
100
AcDbLine
 62
3
  6
CONTINUOUS
 10
22.4704468326
 20
61.1283583145
 11
29.6609718133
 21
61.1283583145
  0
LINE
  5
242
100
AcDbEntity
  8
0
100
AcDbLine
 62
3
  6
CONTINUOUS
 10
47.2799218519
 20
61.1283583145
 11
51.4704468326
 21
61.1283583145
  0
LINE
  5
243
100
AcDbEntity
  8
A_RUNDUNGEN
100
AcDbLine
 62
7
  6
CONTINUOUS
 10
19.4704468326
 20
23.5283583145
 11
19.4704468326
 21
197.7283583145
  0
LINE
  5
244
100
AcDbEntity
  8
A_RUNDUNGEN
100
AcDbLine
 62
3
  6
CONTINUOUS
 10
22.4704468326
 20
197.7283583145
 11
22.4704468326
 21
23.5283583145
  0
LINE
  5
245
100
AcDbEntity
  8
0
100
AcDbLine
 62
7
  6
CONTINUOUS
 10
22.7204468326
 20
30.8783583145
 11
22.7204468326
 21
58.3783583145
  0
LINE
  5
246
100
AcDbEntity
  8
0
100
AcDbLine
 62
7
  6
CONTINUOUS
 10
22.7204468326
 20
162.8783583145
 11
22.7204468326
 21
190.3783583145
  0
LINE
  5
247
100
AcDbEntity
  8
0
100
AcDbLine
 62
3
  6
CONTINUOUS
 10
23.9403457968
 20
27.8728582413
 11
23.9404875553
 21
5.6283583145
  0
LINE
  5
248
100
AcDbEntity
  8
A_ACHSEN
100
AcDbLine
 62
7
  6
CENTER
 10
29.4704468326
 20
37.323979276
 11
29.4704468326
 21
48.9327373529
  0
LINE
  5
249
100
AcDbEntity
  8
A_ACHSEN
100
AcDbLine
 62
7
  6
CENTER
 10
29.4704468326
 20
173.1605548416
 11
29.4704468326
 21
183.0961617873
  0
LINE
  5
24A
100
AcDbEntity
  8
0
100
AcDbLine
 62
3
  6
CONTINUOUS
 10
23.9404875553
 20
215.6283583145
 11
23.9403457968
 21
193.3838583876
  0
LINE
  5
24B
100
AcDbEntity
  8
A_ACHSEN
100
AcDbLine
 62
7
  6
CENTER
 10
32.4704468326
 20
47.8824951131
 11
32.4704468326
 21
58.3742215158
  0
LINE
  5
24C
100
AcDbEntity
  8
A_ACHSEN
100
AcDbLine
 62
7
  6
CENTER
 10
32.4704468326
 20
163.6241769231
 11
32.4704468326
 21
172.6325397059
  0
LINE
  5
24D
100
AcDbEntity
  8
A_ACHSEN
100
AcDbLine
 62
7
  6
CENTER
 10
36.9704468326
 20
2.6283583145
 11
36.9704468326
 21
218.6283583145
  0
LINE
  5
24E
100
AcDbEntity
  8
A_ACHSEN
100
AcDbLine
 62
7
  6
CENTER
 10
16.3091776026
 20
110.6283583145
 11
57.6317160626
 21
110.6283583145
  0
LINE
  5
24F
100
AcDbEntity
  8
A_ACHSEN
100
AcDbLine
 62
7
  6
CENTER
 10
41.4704468326
 20
47.9567104977
 11
41.4704468326
 21
58.3000061312
  0
LINE
  5
250
100
AcDbEntity
  8
A_ACHSEN
100
AcDbLine
 62
7
  6
CENTER
 10
41.4704468326
 20
162.8799336652
 11
41.4704468326
 21
173.3767829638
  0
LINE
  5
251
100
AcDbEntity
  8
A_ACHSEN
100
AcDbLine
 62
7
  6
CENTER
 10
44.4704468326
 20
37.6255973756
 11
44.4704468326
 21
48.6311192534
  0
LINE
  5
252
100
AcDbEntity
  8
A_ACHSEN
100
AcDbLine
 62
7
  6
CENTER
 10
44.4704468326
 20
172.679299457
 11
44.4704468326
 21
183.5774171719
  0
LINE
  5
253
100
AcDbEntity
  8
0
100
AcDbLine
 62
3
  6
CONTINUOUS
 10
50.0004061098
 20
215.6283583145
 11
50.0005478684
 21
193.3838583876
  0
LINE
  5
254
100
AcDbEntity
  8
0
100
AcDbLine
 62
7
  6
CONTINUOUS
 10
51.2204468326
 20
190.3783583145
 11
51.2204468326
 21
162.8783583145
  0
LINE
  5
255
100
AcDbEntity
  8
0
100
AcDbLine
 62
7
  6
CONTINUOUS
 10
51.2204468326
 20
58.3783583145
 11
51.2204468326
 21
30.8783583145
  0
LINE
  5
256
100
AcDbEntity
  8
A_RUNDUNGEN
100
AcDbLine
 62
3
  6
CONTINUOUS
 10
51.4704468326
 20
23.5283583145
 11
51.4704468326
 21
197.7283583145
  0
LINE
  5
257
100
AcDbEntity
  8
0
100
AcDbLine
 62
3
  6
CONTINUOUS
 10
50.0004061098
 20
5.6283583145
 11
50.0005478684
 21
27.8728582413
  0
LINE
  5
258
100
AcDbEntity
  8
A_RUNDUNGEN
100
AcDbLine
 62
7
  6
CONTINUOUS
 10
54.4704468326
 20
23.5283583145
 11
54.4704468326
 21
197.7283583145
  0
LINE
  5
259
100
AcDbEntity
  8
0
100
AcDbLine
 62
3
  6
CONTINUOUS
 10
22.4704468326
 20
160.1283583145
 11
29.6609718133
 21
160.1283583145
  0
LINE
  5
25A
100
AcDbEntity
  8
0
100
AcDbLine
 62
3
  6
CONTINUOUS
 10
47.2799218519
 20
160.1283583145
 11
51.4704468326
 21
160.1283583145
  0
LINE
  5
25B
100
AcDbEntity
  8
0
100
AcDbLine
 62
3
  6
CONTINUOUS
 10
41.4704468326
 20
161.6283583145
 11
35.4704468326
 21
161.6283583145
  0
LINE
  5
25C
100
AcDbEntity
  8
0
100
AcDbLine
 62
7
  6
CONTINUOUS
 10
51.2204468326
 20
162.8783583145
 11
22.7204468326
 21
162.8783583145
  0
LINE
  5
25D
100
AcDbEntity
  8
A_ACHSEN
100
AcDbLine
 62
7
  6
CENTER
 10
27.9662654412
 20
168.1283583145
 11
46.7188714819
 21
168.1283583145
  0
LINE
  5
25E
100
AcDbEntity
  8
A_ACHSEN
100
AcDbLine
 62
7
  6
CENTER
 10
24.5026433597
 20
178.1283583145
 11
34.4382503054
 21
178.1283583145
  0
LINE
  5
25F
100
AcDbEntity
  8
A_ACHSEN
100
AcDbLine
 62
7
  6
CENTER
 10
39.0213879751
 20
178.1283583145
 11
49.91950569
 21
178.1283583145
  0
LINE
  5
260
100
AcDbEntity
  8
0
100
AcDbLine
 62
3
  6
CONTINUOUS
 10
35.9704468326
 20
5.6283583145
 11
36.9704468326
 21
6.6283583145
  0
LINE
  5
261
100
AcDbEntity
  8
0
100
AcDbLine
 62
3
  6
CONTINUOUS
 10
36.9704468326
 20
214.6283583145
 11
35.9704468326
 21
215.6283583145
  0
LINE
  5
262
100
AcDbEntity
  8
0
100
AcDbLine
 62
7
  6
CONTINUOUS
 10
22.7204468326
 20
190.3783583145
 11
51.2204468326
 21
190.3783583145
  0
LINE
  5
263
100
AcDbEntity
  8
0
100
AcDbLine
 62
3
  6
CONTINUOUS
 10
50.0004061098
 20
193.6283583145
 11
23.9404875553
 21
193.6283583145
  0
LINE
  5
264
100
AcDbEntity
  8
A_RUNDUNGEN
100
AcDbLine
 62
7
  6
CONTINUOUS
 10
54.4704468326
 20
197.7283583145
 11
51.4704468326
 21
197.7283583145
  0
LINE
  5
265
100
AcDbEntity
  8
A_RUNDUNGEN
100
AcDbLine
 62
7
  6
CONTINUOUS
 10
19.4704468326
 20
197.7283583145
 11
22.4704468326
 21
197.7283583145
  0
LINE
  5
266
100
AcDbEntity
  8
0
100
AcDbLine
 62
3
  6
CONTINUOUS
 10
50.0004061098
 20
215.6283583145
 11
37.9704468326
 21
215.6283583145
  0
LINE
  5
267
100
AcDbEntity
  8
0
100
AcDbLine
 62
3
  6
CONTINUOUS
 10
35.9704468326
 20
215.6283583145
 11
23.9404875553
 21
215.6283583145
  0
ARC
  5
268
100
AcDbEntity
  8
0
100
AcDbCircle
 62
3
  6
CONTINUOUS
 10
35.4704468326
 20
71.6283583145
 40
12.0
100
AcDbArc
 50
241.0449756281
 51
270.0
  0
ARC
  5
269
100
AcDbEntity
  8
0
100
AcDbCircle
 62
7
  6
CONTINUOUS
 10
18.9129326786
 20
27.3252318574
 40
5.0271248829
100
AcDbArc
 50
4.5580933951
 51
6.890627034
  0
ARC
  5
26A
100
AcDbEntity
  8
0
100
AcDbCircle
 62
7
  6
CONTINUOUS
 10
22.172397673
 20
24.1182221608
 40
4.9794799904
100
AcDbArc
 50
83.101968328
 51
83.764576307
  0
CIRCLE
  5
26B
100
AcDbEntity
  8
A_ACHSEN
100
AcDbCircle
 62
7
  6
CONTINUOUS
 10
29.4704468326
 20
43.1283583145
 40
3.5
  0
CIRCLE
  5
26C
100
AcDbEntity
  8
A_ACHSEN
100
AcDbCircle
 62
7
  6
CONTINUOUS
 10
32.4704468326
 20
53.1283583145
 40
3.5
  0
ARC
  5
26D
100
AcDbEntity
  8
0
100
AcDbCircle
 62
2
  6
CONTINUOUS
 10
29.4704468326
 20
43.1283583145
 40
2.5
100
AcDbArc
 50
255.0
 51
195.0
  0
CIRCLE
  5
26E
100
AcDbEntity
  8
A_ACHSEN
100
AcDbCircle
 62
3
  6
CONTINUOUS
 10
29.4704468326
 20
43.1283583145
 40
1.8
  0
ARC
  5
26F
100
AcDbEntity
  8
0
100
AcDbCircle
 62
3
  6
CONTINUOUS
 10
22.4404875553
 20
27.5983990372
 40
1.5
100
AcDbArc
 50
12.7074384376
 51
77.2925615625
  0
ARC
  5
270
100
AcDbEntity
  8
0
100
AcDbCircle
 62
3
  6
CONTINUOUS
 10
35.4704468326
 20
149.6283583145
 40
12.0
100
AcDbArc
 50
90.0
 51
118.9550243719
  0
ARC
  5
271
100
AcDbEntity
  8
0
100
AcDbCircle
 62
7
  6
CONTINUOUS
 10
22.1723976452
 20
197.1384946985
 40
4.9794802224
100
AcDbArc
 50
276.2354228041
 51
276.8980316709
  0
CIRCLE
  5
272
100
AcDbEntity
  8
A_ACHSEN
100
AcDbCircle
 62
7
  6
CONTINUOUS
 10
32.4704468326
 20
168.1283583145
 40
3.5
  0
CIRCLE
  5
273
100
AcDbEntity
  8
A_ACHSEN
100
AcDbCircle
 62
7
  6
CONTINUOUS
 10
29.4704468326
 20
178.1283583145
 40
3.5
  0
ARC
  5
274
100
AcDbEntity
  8
0
100
AcDbCircle
 62
3
  6
CONTINUOUS
 10
25.4975510687
 20
192.9481928793
 40
2.9600650266
100
AcDbArc
 50
186.8010139279
 51
188.2991965709
  0
ARC
  5
275
100
AcDbEntity
  8
0
100
AcDbCircle
 62
2
  6
CONTINUOUS
 10
29.4704468326
 20
178.1283583145
 40
2.5
100
AcDbArc
 50
255.0
 51
195.0
  0
CIRCLE
  5
276
100
AcDbEntity
  8
A_ACHSEN
100
AcDbCircle
 62
3
  6
CONTINUOUS
 10
29.4704468326
 20
178.1283583145
 40
1.8
  0
ARC
  5
277
100
AcDbEntity
  8
0
100
AcDbCircle
 62
3
  6
CONTINUOUS
 10
22.4404875553
 20
193.6583175917
 40
1.5
100
AcDbArc
 50
282.7074384376
 51
347.2925615624
  0
ARC
  5
278
100
AcDbEntity
  8
0
100
AcDbCircle
 62
3
  6
CONTINUOUS
 10
41.4704468326
 20
71.6283583145
 40
12.0
100
AcDbArc
 50
270.0
 51
298.9550243719
  0
ARC
  5
279
100
AcDbEntity
  8
0
100
AcDbCircle
 62
7
  6
CONTINUOUS
 10
51.76849602
 20
24.11822193
 40
4.9794802229
100
AcDbArc
 50
96.2354228229
 51
96.8980316711
  0
CIRCLE
  5
27A
100
AcDbEntity
  8
A_ACHSEN
100
AcDbCircle
 62
7
  6
CONTINUOUS
 10
41.4704468326
 20
53.1283583145
 40
3.5
  0
CIRCLE
  5
27B
100
AcDbEntity
  8
A_ACHSEN
100
AcDbCircle
 62
7
  6
CONTINUOUS
 10
44.4704468326
 20
43.1283583145
 40
3.5
  0
ARC
  5
27C
100
AcDbEntity
  8
0
100
AcDbCircle
 62
3
  6
CONTINUOUS
 10
48.4433425772
 20
28.3085237471
 40
2.960065046
100
AcDbArc
 50
6.8010139309
 51
8.2991965732
  0
ARC
  5
27D
100
AcDbEntity
  8
0
100
AcDbCircle
 62
2
  6
CONTINUOUS
 10
41.4704468326
 20
53.1283583145
 40
2.5
100
AcDbArc
 50
255.0
 51
195.0
  0
CIRCLE
  5
27E
100
AcDbEntity
  8
A_ACHSEN
100
AcDbCircle
 62
3
  6
CONTINUOUS
 10
41.4704468326
 20
53.1283583145
 40
1.8
  0
ARC
  5
27F
100
AcDbEntity
  8
0
100
AcDbCircle
 62
3
  6
CONTINUOUS
 10
51.5004061098
 20
27.5983990372
 40
1.5
100
AcDbArc
 50
102.7074384375
 51
167.2925615625
  0
ARC
  5
280
100
AcDbEntity
  8
0
100
AcDbCircle
 62
3
  6
CONTINUOUS
 10
41.4704468326
 20
149.6283583145
 40
12.0
100
AcDbArc
 50
61.0449756281
 51
90.0
  0
ARC
  5
281
100
AcDbEntity
  8
0
100
AcDbCircle
 62
7
  6
CONTINUOUS
 10
55.0279609866
 20
193.9314847716
 40
5.0271248829
100
AcDbArc
 50
184.5580933951
 51
186.890627034
  0
ARC
  5
282
100
AcDbEntity
  8
0
100
AcDbCircle
 62
7
  6
CONTINUOUS
 10
51.7684959923
 20
197.1384944694
 40
4.9794799916
100
AcDbArc
 50
263.1019683279
 51
263.7645763114
  0
CIRCLE
  5
283
100
AcDbEntity
  8
A_ACHSEN
100
AcDbCircle
 62
7
  6
CONTINUOUS
 10
44.4704468326
 20
178.1283583145
 40
3.5
  0
CIRCLE
  5
284
100
AcDbEntity
  8
A_ACHSEN
100
AcDbCircle
 62
7
  6
CONTINUOUS
 10
41.4704468326
 20
168.1283583145
 40
3.5
  0
ARC
  5
285
100
AcDbEntity
  8
0
100
AcDbCircle
 62
2
  6
CONTINUOUS
 10
41.4704468326
 20
168.1283583145
 40
2.5
100
AcDbArc
 50
255.0
 51
195.0
  0
CIRCLE
  5
286
100
AcDbEntity
  8
A_ACHSEN
100
AcDbCircle
 62
3
  6
CONTINUOUS
 10
41.4704468326
 20
168.1283583145
 40
1.8
  0
ARC
  5
287
100
AcDbEntity
  8
0
100
AcDbCircle
 62
3
  6
CONTINUOUS
 10
51.5004061098
 20
193.6583175917
 40
1.5
100
AcDbArc
 50
192.7074384376
 51
257.2925615624
  0
SPLINE
  5
288
100
AcDbEntity
  8
0
100
AcDbSpline
 62
3
  6
CONTINUOUS
 70
0
 71
3
 72
11
 73
7
 74
0
 42
0.0000001
 43
0.0000001
 44
0.0000000001
 40
0.0
 40
0.0
 40
0.0
 40
0.0
 40
0.1226206515
 40
0.2492460362
 40
0.4979158429
 40
1.0
 40
1.0
 40
1.0
 40
1.0
 10
22.7149473031
 20
192.1593367618
 30
0.0
 10
22.7038569568
 20
192.1591270414
 30
0.0
 10
22.6809251765
 20
192.1680787629
 30
0.0
 10
22.6531850447
 20
192.2044071257
 30
0.0
 10
22.6187351776
 20
192.2762518869
 30
0.0
 10
22.6021096675
 20
192.3426070122
 30
0.0
 10
22.5924177577
 20
192.3869796856
 30
0.0
  0
SPLINE
  5
289
100
AcDbEntity
  8
0
100
AcDbSpline
 62
3
  6
CONTINUOUS
 70
0
 71
3
 72
8
 73
4
 74
0
 42
0.0000001
 43
0.0000001
 44
0.0000000001
 40
0.0
 40
0.0
 40
0.0
 40
0.0
 40
1.0
 40
1.0
 40
1.0
 40
1.0
 10
22.5924177577
 20
192.3869796856
 30
0.0
 10
22.5827389746
 20
192.4312922612
 30
0.0
 10
22.5750556626
 20
192.4760514662
 30
0.0
 10
22.5684843959
 20
192.5209302101
 30
0.0
  0
SPLINE
  5
28A
100
AcDbEntity
  8
0
100
AcDbSpline
 62
3
  6
CONTINUOUS
 70
0
 71
3
 72
11
 73
7
 74
0
 42
0.0000001
 43
0.0000001
 44
0.0000000001
 40
0.0
 40
0.0
 40
0.0
 40
0.0
 40
0.122620702
 40
0.2492460451
 40
0.4979158556
 40
1.0
 40
1.0
 40
1.0
 40
1.0
 10
51.2259463606
 20
29.0973798591
 30
0.0
 10
51.2370367134
 20
29.0975895684
 30
0.0
 10
51.2599685045
 20
29.0886378733
 30
0.0
 10
51.2877086235
 20
29.0523094768
 30
0.0
 10
51.3221585028
 20
28.9804647238
 30
0.0
 10
51.3387840071
 20
28.9141095806
 30
0.0
 10
51.3484759167
 20
28.869736901
 30
0.0
  0
SPLINE
  5
28B
100
AcDbEntity
  8
0
100
AcDbSpline
 62
3
  6
CONTINUOUS
 70
0
 71
3
 72
8
 73
4
 74
0
 42
0.0000001
 43
0.0000001
 44
0.0000000001
 40
0.0
 40
0.0
 40
0.0
 40
0.0
 40
1.0
 40
1.0
 40
1.0
 40
1.0
 10
51.3484759167
 20
28.869736901
 30
0.0
 10
51.3581546953
 20
28.8254243393
 30
0.0
 10
51.3658380046
 20
28.7806651487
 30
0.0
 10
51.3724092692
 20
28.7357864192
 30
0.0
  0
SPLINE
  5
28C
100
AcDbEntity
  8
0
100
AcDbSpline
 62
3
  6
CONTINUOUS
 70
0
 71
3
 72
9
 73
5
 74
0
 42
0.0000001
 43
0.0000001
 44
0.0000000001
 40
0.0
 40
0.0
 40
0.0
 40
0.0
 40
0.2506955174
 40
1.0
 40
1.0
 40
1.0
 40
1.0
 10
22.5583147982
 20
192.5976574198
 30
0.0
 10
22.5480350962
 20
192.683458487
 30
0.0
 10
22.5100678019
 20
193.0260563121
 30
0.0
 10
22.4854532381
 20
193.3702242442
 30
0.0
 10
22.4766236807
 20
193.6283583145
 30
0.0
  0
SPLINE
  5
28D
100
AcDbEntity
  8
0
100
AcDbSpline
 62
3
  6
CONTINUOUS
 70
0
 71
3
 72
9
 73
5
 74
0
 42
0.0000001
 43
0.0000001
 44
0.0000000001
 40
0.0
 40
0.0
 40
0.0
 40
0.0
 40
0.7493044826
 40
1.0
 40
1.0
 40
1.0
 40
1.0
 10
22.4766236807
 20
27.6283583145
 30
0.0
 10
22.4854532381
 20
27.8864923847
 30
0.0
 10
22.5100678019
 20
28.2306603167
 30
0.0
 10
22.5480350961
 20
28.5732581419
 30
0.0
 10
22.5583147982
 20
28.659059209
 30
0.0
  0
SPLINE
  5
28E
100
AcDbEntity
  8
0
100
AcDbSpline
 62
3
  6
CONTINUOUS
 70
0
 71
3
 72
13
 73
9
 74
0
 42
0.0000001
 43
0.0000001
 44
0.0000000001
 40
0.0
 40
0.0
 40
0.0
 40
0.0
 40
0.2516107809
 40
0.5024333144
 40
0.7520129023
 40
0.8757859598
 40
0.9387187816
 40
1.0
 40
1.0
 40
1.0
 40
1.0
 10
22.5583147982
 20
28.659059209
 30
0.0
 10
22.5631540062
 20
28.6994503804
 30
0.0
 10
22.5741956271
 20
28.7799989337
 30
0.0
 10
22.5975203258
 20
28.8992397967
 30
0.0
 10
22.6250093525
 20
28.9970463295
 30
0.0
 10
22.6579793016
 20
29.0597301556
 30
0.0
 10
22.6844312941
 20
29.0908400062
 30
0.0
 10
22.7050412892
 20
29.0975662786
 30
0.0
 10
22.7149473769
 20
29.0973794587
 30
0.0
  0
SPLINE
  5
28F
100
AcDbEntity
  8
0
100
AcDbSpline
 62
3
  6
CONTINUOUS
 70
0
 71
3
 72
9
 73
5
 74
0
 42
0.0000001
 43
0.0000001
 44
0.0000000001
 40
0.0
 40
0.0
 40
0.0
 40
0.0
 40
0.2506955174
 40
1.0
 40
1.0
 40
1.0
 40
1.0
 10
51.3825788669
 20
28.659059209
 30
0.0
 10
51.392858569
 20
28.5732581419
 30
0.0
 10
51.4308258633
 20
28.2306603168
 30
0.0
 10
51.4554404271
 20
27.8864923847
 30
0.0
 10
51.4642699845
 20
27.6283583145
 30
0.0
  0
SPLINE
  5
290
100
AcDbEntity
  8
0
100
AcDbSpline
 62
3
  6
CONTINUOUS
 70
0
 71
3
 72
9
 73
5
 74
0
 42
0.0000001
 43
0.0000001
 44
0.0000000001
 40
0.0
 40
0.0
 40
0.0
 40
0.0
 40
0.7493044826
 40
1.0
 40
1.0
 40
1.0
 40
1.0
 10
51.4642699845
 20
193.6283583145
 30
0.0
 10
51.4554404271
 20
193.3702242442
 30
0.0
 10
51.4308258633
 20
193.0260563122
 30
0.0
 10
51.392858569
 20
192.683458487
 30
0.0
 10
51.3825788669
 20
192.5976574199
 30
0.0
  0
SPLINE
  5
291
100
AcDbEntity
  8
0
100
AcDbSpline
 62
3
  6
CONTINUOUS
 70
0
 71
3
 72
13
 73
9
 74
0
 42
0.0000001
 43
0.0000001
 44
0.0000000001
 40
0.0
 40
0.0
 40
0.0
 40
0.0
 40
0.2516107818
 40
0.5024333163
 40
0.7520129053
 40
0.875785961
 40
0.9387187897
 40
1.0
 40
1.0
 40
1.0
 40
1.0
 10
51.3825788669
 20
192.5976574199
 30
0.0
 10
51.3777396589
 20
192.5572662484
 30
0.0
 10
51.3666980379
 20
192.4767176949
 30
0.0
 10
51.3433733393
 20
192.3574768311
 30
0.0
 10
51.3158843118
 20
192.2596702996
 30
0.0
 10
51.2829143628
 20
192.1969864703
 30
0.0
 10
51.2564623688
 20
192.1658766243
 30
0.0
 10
51.2358523749
 20
192.1591503459
 30
0.0
 10
51.2259462886
 20
192.1593371682
 30
0.0
  0
SPLINE
  5
292
100
AcDbEntity
  8
0
100
AcDbSpline
 62
3
  6
CONTINUOUS
 70
0
 71
3
 72
9
 73
5
 74
0
 42
0.0000001
 43
0.0000001
 44
0.0000000001
 40
0.0
 40
0.0
 40
0.0
 40
0.0
 40
0.4972298363
 40
1.0
 40
1.0
 40
1.0
 40
1.0
 10
51.2259462886
 20
192.1593371682
 30
0.0
 10
51.2146792715
 20
192.1595496569
 30
0.0
 10
51.1916908149
 20
192.1678544807
 30
0.0
 10
51.1772916671
 20
192.1859490015
 30
0.0
 10
51.1704468326
 20
192.1950586005
 30
0.0
  0
SPLINE
  5
293
100
AcDbEntity
  8
0
100
AcDbSpline
 62
3
  6
CONTINUOUS
 70
0
 71
3
 72
8
 73
4
 74
0
 42
0.0000001
 43
0.0000001
 44
0.0000000001
 40
0.0
 40
0.0
 40
0.0
 40
0.0
 40
1.0
 40
1.0
 40
1.0
 40
1.0
 10
23.9403600446
 20
193.3838583869
 30
0.0
 10
23.9403638211
 20
193.3616953392
 30
0.0
 10
23.9214651814
 20
193.3416718669
 30
0.0
 10
23.9037465466
 20
193.3283583145
 30
0.0
  0
SPLINE
  5
294
100
AcDbEntity
  8
0
100
AcDbSpline
 62
3
  6
CONTINUOUS
 70
0
 71
3
 72
8
 73
4
 74
0
 42
0.0000001
 43
0.0000001
 44
0.0000000001
 40
0.0
 40
0.0
 40
0.0
 40
0.0
 40
1.0
 40
1.0
 40
1.0
 40
1.0
 10
50.0371471186
 20
193.3283583145
 30
0.0
 10
50.0194284386
 20
193.3416718067
 30
0.0
 10
50.000545765
 20
193.3616953422
 30
0.0
 10
50.0005336205
 20
193.3838583869
 30
0.0
  0
SPLINE
  5
295
100
AcDbEntity
  8
0
100
AcDbSpline
 62
3
  6
CONTINUOUS
 70
0
 71
3
 72
9
 73
5
 74
0
 42
0.0000001
 43
0.0000001
 44
0.0000000001
 40
0.0
 40
0.0
 40
0.0
 40
0.0
 40
0.4972297881
 40
1.0
 40
1.0
 40
1.0
 40
1.0
 10
22.7149473769
 20
29.0973794587
 30
0.0
 10
22.726214393
 20
29.097166973
 30
0.0
 10
22.7492028514
 20
29.0888621506
 30
0.0
 10
22.7636019974
 20
29.0707676283
 30
0.0
 10
22.7704468326
 20
29.0616580285
 30
0.0
  0
SPLINE
  5
296
100
AcDbEntity
  8
0
100
AcDbSpline
 62
3
  6
CONTINUOUS
 70
0
 71
3
 72
8
 73
4
 74
0
 42
0.0000001
 43
0.0000001
 44
0.0000000001
 40
0.0
 40
0.0
 40
0.0
 40
0.0
 40
1.0
 40
1.0
 40
1.0
 40
1.0
 10
50.0005336205
 20
27.8728582421
 30
0.0
 10
50.0005298441
 20
27.8950212898
 30
0.0
 10
50.0194284838
 20
27.9150447621
 30
0.0
 10
50.0371471186
 20
27.9283583145
 30
0.0
  0
SPLINE
  5
297
100
AcDbEntity
  8
0
100
AcDbSpline
 62
3
  6
CONTINUOUS
 70
0
 71
3
 72
8
 73
4
 74
0
 42
0.0000001
 43
0.0000001
 44
0.0000000001
 40
0.0
 40
0.0
 40
0.0
 40
0.0
 40
1.0
 40
1.0
 40
1.0
 40
1.0
 10
23.9037465466
 20
27.9283583145
 30
0.0
 10
23.9214652266
 20
27.9150448223
 30
0.0
 10
23.9403479002
 20
27.8950212868
 30
0.0
 10
23.9403600446
 20
27.8728582421
 30
0.0
  0
SPLINE
  5
298
100
AcDbEntity
  8
0
100
AcDbSpline
 62
3
  6
CONTINUOUS
 70
0
 71
3
 72
9
 73
5
 74
0
 42
0.0000001
 43
0.0000001
 44
0.0000000001
 40
0.0
 40
0.0
 40
0.0
 40
0.0
 40
0.5027605473
 40
1.0
 40
1.0
 40
1.0
 40
1.0
 10
22.7704468326
 20
192.1950586005
 30
0.0
 10
22.763602124
 20
192.1859491692
 30
0.0
 10
22.7492026153
 20
192.1678549515
 30
0.0
 10
22.7262145354
 20
192.1595498271
 30
0.0
 10
22.7149473031
 20
192.1593367618
 30
0.0
  0
SPLINE
  5
299
100
AcDbEntity
  8
0
100
AcDbSpline
 62
3
  6
CONTINUOUS
 70
0
 71
3
 72
9
 73
5
 74
0
 42
0.0000001
 43
0.0000001
 44
0.0000000001
 40
0.0
 40
0.0
 40
0.0
 40
0.0
 40
0.5027607382
 40
1.0
 40
1.0
 40
1.0
 40
1.0
 10
51.1704468326
 20
29.0616580285
 30
0.0
 10
51.1772915436
 20
29.0707674631
 30
0.0
 10
51.1916910451
 20
29.0888616868
 30
0.0
 10
51.2146791326
 20
29.0971668052
 30
0.0
 10
51.2259463606
 20
29.0973798591
 30
0.0
  0
ENDSEC
  0
SECTION
  2
OBJECTS
  0
DICTIONARY
  5
29A
100
AcDbDictionary
  3
ACAD_GROUP
350
29B
  3
ACAD_MLINESTYLE
350
29C
  0
DICTIONARY
  5
29B
102
{ACAD_REACTORS
330
29A
102
}
100
AcDbDictionary
  0
DICTIONARY
  5
29C
102
{ACAD_REACTORS
330
29A
102
}
100
AcDbDictionary
  3
STANDARD
350
29D
  0
MLINESTYLE
  5
29D
102
{ACAD_REACTORS
330
29C
102
}
100
AcDbMlineStyle
  2
STANDARD
 70
0
  3

 62
256
 51
90.0
 52
90.0
 71
2
 49
0.5
 62
256
  6
BYLAYER
 49
-0.5
 62
256
  6
BYLAYER
  0
ENDSEC
  0
EOF
